osu file format v14

[General]
AudioFilename: audio.mp3
AudioLeadIn: 0
PreviewTime: 87812
Countdown: 0
SampleSet: Soft
StackLeniency: 0.4
Mode: 0
LetterboxInBreaks: 0
WidescreenStoryboard: 0

[Editor]
Bookmarks: 3141,19685,36237,52789,69340,87961,104513,125202,136929,147241
DistanceSpacing: 1
BeatDivisor: 2
GridSize: 4
TimelineZoom: 1.9

[Metadata]
Title:Rokka no Uta English ver
TitleUnicode:六花のうた English ver
Artist:Maisaki Nami
ArtistUnicode:舞崎なみ
Creator:lit120
Version:Snow in Love
Source:ゆきいろ 〜空に六花の住む町〜
Tags:Yukiiro Sora ni Sumu Machi ねこねこソフト Nekoneko software opening eroge game visual novel winter anime english I've -Hakurei- eINess Ujimatsu Chiya ktgster
BeatmapID:1884618
BeatmapSetID:902723

[Difficulty]
HPDrainRate:6
CircleSize:4.3
OverallDifficulty:7.5
ApproachRate:8.2
SliderMultiplier:1.8
SliderTickRate:1

[Events]
//Background and Video events
0,0,"snow.jpg",0,0
//Break Periods
//Storyboard Layer 0 (Background)
//Storyboard Layer 1 (Fail)
//Storyboard Layer 2 (Pass)
//Storyboard Layer 3 (Foreground)
//Storyboard Layer 4 (Overlay)
//Storyboard Sound Samples

[TimingPoints]
3114,517.241379310345,4,2,99,40,1,0
3114,-200,4,2,99,40,0,0
3372,-200,4,2,90,40,0,0
3631,-200,4,2,91,40,0,0
3889,-200,4,2,90,40,0,0
4924,-200,4,2,91,40,0,0
5182,-200,4,2,98,40,0,0
5441,-200,4,2,92,40,0,0
5700,-200,4,2,91,40,0,0
5958,-200,4,2,92,40,0,0
6217,-200,4,2,90,40,0,0
6476,-200,4,2,92,40,0,0
6734,-200,4,2,90,40,0,0
6993,-200,4,2,91,40,0,0
7251,-200,4,2,97,40,0,0
7510,-200,4,2,93,40,0,0
7769,-200,4,2,90,40,0,0
8027,-200,4,2,93,40,0,0
8286,-200,4,2,91,40,0,0
8545,-200,4,2,93,40,0,0
8803,-200,4,2,94,40,0,0
9062,-200,4,2,91,40,0,0
9320,-200,4,2,86,40,0,0
9579,-200,4,2,92,40,0,0
9838,-200,4,2,93,40,0,0
10096,-200,4,2,95,40,0,0
10872,-200,4,2,93,40,0,0
11131,-200,4,2,92,40,0,0
11389,-200,4,2,99,40,0,0
11648,-200,4,2,90,40,0,0
11907,-200,4,2,91,40,0,0
12165,-200,4,2,90,40,0,0
12682,-200,4,2,93,40,0,0
12941,-200,4,2,90,40,0,0
13200,-200,4,2,91,40,0,0
13458,-200,4,2,98,40,0,0
13717,-200,4,2,92,40,0,0
13976,-200,4,2,91,40,0,0
14234,-200,4,2,92,40,0,0
14493,-200,4,2,90,40,0,0
14751,-200,4,2,95,40,0,0
15010,-200,4,2,90,40,0,0
15269,-200,4,2,91,40,0,0
15527,-200,4,2,97,40,0,0
15786,-200,4,2,89,40,0,0
16045,-200,4,2,96,40,0,0
16303,-200,4,2,93,40,0,0
16562,-200,4,2,90,40,0,0
16820,-200,4,2,91,40,0,0
17855,-83.3333333333333,4,2,1,60,0,0
18114,-83.3333333333333,4,2,1,5,0,0
18243,-76.9230769230769,4,2,1,60,0,0
18501,-76.9230769230769,4,2,1,5,0,0
18631,-71.4285714285714,4,2,1,60,0,0
18889,-71.4285714285714,4,2,1,5,0,0
19019,-66.6666666666667,4,2,1,60,0,0
19277,-66.6666666666667,4,2,1,5,0,0
19407,-62.5,4,2,1,60,0,0
19536,-66.6666666666667,4,2,1,5,0,0
19665,-86.9565217391304,4,2,1,60,0,0
35441,-60.6060606060606,4,2,1,60,0,0
36088,-60.6060606060606,4,2,1,5,0,0
36217,-100,4,2,1,60,0,0
69320,-125,4,2,1,60,0,0
83803,-100,4,2,1,60,0,0
86131,-83.3333333333333,4,2,1,60,0,0
86389,-76.9230769230769,4,2,1,5,0,0
86519,-76.9230769230769,4,2,1,60,0,0
86777,-76.9230769230769,4,2,1,5,0,0
86907,-71.4285714285714,4,2,1,60,0,0
87165,-71.4285714285714,4,2,1,5,0,0
87295,-66.6666666666667,4,2,1,60,0,0
87553,-66.6666666666667,4,2,1,5,0,0
87682,-62.5,4,2,1,60,0,0
87812,-66.6666666666667,4,2,1,5,0,0
87941,-86.9565217391304,4,2,1,60,0,1
111993,-80,4,2,1,60,0,1
112251,-86.9565217391304,4,2,1,5,0,1
112381,-74.0740740740741,4,2,1,60,0,1
112639,-86.9565217391304,4,2,1,5,0,1
112769,-86.9565217391304,4,2,1,60,0,1
121045,-100,4,2,1,60,0,1
124148,-333.333333333333,4,2,1,60,0,1
125182,-200,4,2,99,40,0,0
125442,-200,4,2,90,40,0,0
125701,-200,4,2,91,40,0,0
125959,-200,4,2,90,40,0,0
126994,-200,4,2,91,40,0,0
127251,-200,4,2,98,40,0,0
127510,-200,4,2,92,40,0,0
127769,-200,4,2,91,40,0,0
128027,-200,4,2,92,40,0,0
128286,-200,4,2,90,40,0,0
128545,-200,4,2,92,40,0,0
128803,-200,4,2,90,40,0,0
129062,-200,4,2,91,40,0,0
129320,-200,4,2,84,40,0,0
129579,-200,4,2,89,40,0,0
129838,618.556701030928,4,2,96,40,1,0
129838,-200,4,2,96,40,0,0
130147,-100,4,2,93,40,0,0
130456,600,4,2,90,40,1,0
130456,-200,4,2,90,40,0,0
130756,571.428571428571,4,2,91,40,1,0
131041,625,4,2,91,40,1,0
131041,-200,4,2,91,40,0,0
131353,750,4,2,91,40,1,0
131728,722.89156626506,4,2,91,40,1,0
131728,-200,4,2,91,40,0,0
132089,722.89156626506,4,2,96,40,1,0
132450,740.740740740741,4,2,92,40,1,0
132450,-200,4,2,92,40,0,0
132820,-100,4,2,96,40,0,0
133190,895.522388059701,4,2,94,40,1,0
133190,-200,4,2,94,40,0,0
133637,892.193308550186,4,2,96,40,1,0
134083,1290.32258064516,4,2,92,40,1,0
134083,-200,4,2,92,40,0,0
134728,2181.81818181818,4,2,94,40,1,0
136909,937.5,4,2,70,35,1,0
142534,-100,4,2,95,35,0,0
143002,-100,4,2,95,30,0,0
143471,-100,4,2,95,25,0,0
143940,-100,4,2,95,20,0,0
144409,-100,4,2,95,15,0,0
145346,-100,4,2,95,10,0,0
146284,-100,4,2,95,7,0,0
147221,-100,4,2,95,5,0,0

[Colours]
Combo1 : 254,109,120
Combo2 : 230,54,40
Combo3 : 121,146,198
Combo4 : 251,233,11

[HitObjects]
140,275,3114,6,0,L|140:320,1,45,2|8,0:0|0:3,0:0:0:0:
216,347,3631,2,0,L|216:302,1,45,2|8,0:2|0:3,0:0:0:0:
296,302,4148,2,0,L|296:347,1,45,4|8,0:3|0:3,0:0:0:0:
372,320,4665,2,0,L|372:275,1,45,2|2,0:3|0:0,0:0:0:0:
310,222,5182,5,2,0:0:0:0:
310,222,5441,2,0,P|308:200|310:177,2,45,8|2|8,0:3|0:0|0:3,0:0:0:0:
268,107,6217,2,0,P|249:95|229:85,1,45,4|8,0:3|0:3,0:0:0:0:
348,105,6734,2,0,P|369:95|388:83,1,45,2|2,0:3|0:0,0:0:0:0:
310,177,7251,5,2,0:0:0:0:
268,107,7510,1,8,0:3:0:0:
229,179,7769,2,0,P|206:180|184:178,1,45,8|8,0:3|0:3,0:0:0:0:
96,107,8286,2,0,P|118:106|141:108,1,45,2|8,0:2|0:3,0:0:0:0:
184,178,8803,1,4,0:3:0:0:
145,249,9062,1,2,0:0:0:0:
225,109,9320,5,10,0:3:0:0:
225,109,9579,2,0,L|225:62,2,45,8|8|8,0:3|0:3|0:3,0:0:0:0:
269,180,10355,2,0,P|291:181|313:179,1,45,4|8,0:3|0:3,0:0:0:0:
394,84,10872,2,0,P|381:103|372:124,1,45,8|8,0:3|0:3,0:0:0:0:
413,239,11389,5,2,0:0:0:0:
413,239,11648,2,0,P|403:218|390:200,2,45,8|2|8,0:3|0:2|0:3,0:0:0:0:
269,180,12424,2,0,P|291:178|313:179,1,45,4|8,0:3|0:3,0:0:0:0:
190,275,12941,1,2,0:3:0:0:
129,221,13200,1,2,0:2:0:0:
68,276,13458,6,0,P|66:298|68:320,1,45,2|8,0:2|0:3,0:0:0:0:
129,221,13976,2,0,P|130:198|128:176,1,45,2|8,0:2|0:3,0:0:0:0:
32,88,14493,2,0,P|51:101|72:111,1,45,4|8,0:3|0:3,0:0:0:0:
194,70,15010,1,2,0:3:0:0:
256,121,15269,1,2,0:2:0:0:
318,70,15527,6,0,P|340:68|362:69,1,45,8|8,0:3|0:3,0:0:0:0:
194,70,16045,2,0,P|171:68|149:69,1,45,8|8,0:3|0:3,0:0:0:0:
256,121,16562,2,0,L|256:166,1,45,8|2,0:3|0:0,0:0:0:0:
296,236,17079,1,8,0:3:0:0:
216,236,17338,1,4,0:3:0:0:
216,237,17855,6,0,L|109:223,1,107.999996704102,4|0,3:2|0:2,0:0:0:0:
43,135,18243,6,0,P|91:168|109:223,1,116.999994644165,4|0,3:2|0:2,0:0:0:0:
2,361,18631,6,0,L|1:236,1,125.999996154785,4|0,3:2|0:2,0:0:0:0:
107,88,19019,6,0,L|109:223,1,135.000005149842,4|0,3:2|0:2,0:0:0:0:
168,372,19407,6,0,L|167:300,1,72,4|0,3:2|0:2,0:0:0:0:
241,86,19665,6,0,P|307:86|358:110,1,103.500001974106,6|0,3:2|0:0,0:0:0:0:
395,288,20182,1,8,0:0:0:0:
280,179,20441,1,0,0:0:0:0:
280,179,20570,1,0,0:0:0:0:
280,179,20700,1,2,3:2:0:0:
431,134,20958,1,0,3:2:0:0:
283,290,21217,2,0,P|231:293|182:277,1,103.500001974106,8|0,0:0|0:0,0:0:0:0:
101,35,21734,6,0,B|128:84|101:133|101:133|73:182|101:231,1,207.000003948212,2|8,3:2|0:0,0:0:0:0:
182,183,22510,1,0,0:0:0:0:
182,183,22639,1,0,0:0:0:0:
182,183,22769,1,0,3:2:0:0:
20,83,23027,1,2,3:2:0:0:
15,274,23286,2,0,L|16:380,1,103.500001974106,8|0,0:0|0:0,0:0:0:0:
268,220,23803,6,0,P|188:277|101:232,1,207.000003948212,2|8,3:2|0:0,0:0:0:0:
177,80,24579,1,2,0:0:0:0:
177,80,24708,1,0,0:0:0:0:
177,80,24838,2,0,P|186:131|181:183,1,103.500001974106,0|0,3:2|3:2,0:0:0:0:
15,377,25355,1,8,0:0:0:0:
189,278,25614,1,0,0:0:0:0:
189,278,25743,1,0,0:0:0:0:
189,278,25872,6,0,B|258:277|258:277|319:311|319:311|388:310,1,207.000003948212,0|8,3:2|0:0,0:0:0:0:
349,213,26648,1,0,3:2:0:0:
349,213,26777,1,0,3:2:0:0:
349,213,26907,1,0,3:2:0:0:
228,375,27165,1,0,3:2:0:0:
187,92,27424,1,10,0:0:0:0:
150,79,27553,1,2,0:0:0:0:
111,79,27682,1,2,0:0:0:0:
75,91,27812,1,2,0:0:0:0:
44,114,27941,6,0,B|43:270|43:270|95:245,1,207.000003948212,2|8,3:2|0:0,0:0:0:0:
283,146,28717,2,0,P|232:135|181:142,1,103.500001974106,4|0,0:0|3:2,0:0:0:0:
141,293,29234,1,2,3:2:0:0:
283,146,29493,1,10,0:0:0:0:
338,343,29751,2,0,P|286:349|236:338,1,103.500001974106,2|0,0:0|3:2,0:0:0:0:
85,197,30269,5,2,0:0:0:0:
311,245,30527,1,10,0:0:0:0:
98,371,30786,1,2,0:0:0:0:
98,371,30915,1,0,3:2:0:0:
98,371,31045,2,0,P|92:320|103:270,1,103.500001974106,0|0,3:2|3:2,0:0:0:0:
256,122,31562,1,10,0:0:0:0:
409,270,31820,1,2,0:0:0:0:
409,270,31950,1,8,0:0:0:0:
409,270,32079,6,0,P|419:320|413:371,1,103.500001974106,6|0,3:2|0:0,0:0:0:0:
256,122,32596,1,8,0:0:0:0:
188,325,32855,1,0,0:0:0:0:
188,325,32984,1,0,3:2:0:0:
188,325,33114,1,2,3:2:0:0:
332,196,33372,1,0,3:2:0:0:
58,181,33631,1,8,0:0:0:0:
144,139,33889,5,8,0:3:0:0:
152,165,33976,1,8,0:3:0:0:
152,192,34062,1,4,0:3:0:0:
145,218,34148,1,0,3:2:0:0:
68,59,34407,5,10,0:0:0:0:
273,67,34665,2,0,P|171:51|68:59,1,207.000003948212,10|0,0:0|3:2,0:0:0:0:
264,273,35441,5,10,0:0:0:0:
43,283,35700,2,0,P|152:266|263:272,1,222.75000212431,10|0,0:0|0:0,0:0:0:0:
416,349,36217,6,0,P|385:265|405:179,1,180,6|8,3:2|0:0,0:0:0:0:
255,72,36993,1,2,0:0:0:0:
255,72,37122,1,2,0:0:0:0:
255,72,37251,2,0,P|277:112|287:156,1,90,2|0,3:2|3:2,0:0:0:0:
120,232,37769,2,0,P|165:233|208:247,1,90,10|0,0:0|0:0,0:0:0:0:
416,349,38286,6,0,P|329:368|246:337,1,180,2|8,3:2|0:0,0:0:0:0:
187,151,39062,1,2,0:0:0:0:
187,151,39191,1,2,0:0:0:0:
187,151,39320,2,0,P|144:137|99:136,1,90,2|0,3:2|3:2,0:0:0:0:
318,227,39838,1,10,0:0:0:0:
255,72,40096,1,2,0:0:0:0:
162,291,40355,6,0,P|78:309|19:247,1,180,2|8,3:2|0:0,0:0:0:0:
99,136,41131,1,2,0:0:0:0:
99,136,41260,1,2,3:2:0:0:
99,136,41389,2,0,P|106:181|103:226,1,90,2|0,3:2|3:2,0:0:0:0:
166,380,41907,2,0,P|160:335|162:291,1,90,10|0,0:0|0:0,0:0:0:0:
255,72,42424,5,2,3:2:0:0:
318,227,42682,1,0,0:0:0:0:
318,227,42812,1,0,0:0:0:0:
318,227,42941,1,8,0:0:0:0:
99,136,43200,1,0,3:2:0:0:
99,136,43329,1,0,0:0:0:0:
99,136,43458,1,2,3:2:0:0:
287,150,43717,1,2,3:2:0:0:
51,246,43976,1,10,0:0:0:0:
177,105,44234,1,2,3:2:0:0:
269,336,44493,6,0,P|356:340|423:282,1,180,2|8,3:2|0:0,0:0:0:0:
314,108,45269,1,2,0:0:0:0:
314,108,45398,1,2,0:0:0:0:
314,108,45527,1,2,3:2:0:0:
318,227,45786,1,0,3:2:0:0:
507,170,46045,2,0,P|464:159|420:165,1,90,10|0,0:0|0:0,0:0:0:0:
269,336,46562,5,2,3:2:0:0:
200,240,46820,1,0,0:0:0:0:
200,240,46950,1,0,0:0:0:0:
200,240,47079,1,8,0:0:0:0:
387,323,47338,1,2,0:0:0:0:
387,323,47467,1,0,0:0:0:0:
387,323,47596,1,2,3:2:0:0:
249,131,47855,1,2,3:2:0:0:
151,349,48114,1,10,0:0:0:0:
118,358,48243,1,0,0:0:0:0:
85,356,48372,1,2,0:0:0:0:
54,343,48501,1,0,0:0:0:0:
30,320,48631,6,0,P|28:230|31:140,1,180,2|8,3:2|0:0,0:0:0:0:
80,31,49407,1,0,3:2:0:0:
249,131,49665,1,0,3:2:0:0:
77,227,49924,1,0,3:2:0:0:
318,227,50182,1,10,0:0:0:0:
135,130,50441,1,2,0:0:0:0:
135,130,50570,1,2,0:0:0:0:
135,130,50700,6,0,P|132:219|134:309,1,180,2|8,3:2|0:0,0:0:0:0:
378,234,51476,1,0,3:2:0:0:
344,209,51605,1,0,3:2:0:0:
303,198,51734,1,10,0:0:0:0:
261,201,51864,1,8,0:0:0:0:
224,220,51993,1,8,0:3:0:0:
291,384,52251,1,8,0:0:0:0:
292,349,52381,1,8,0:0:0:0:
294,314,52510,1,4,0:3:0:0:
133,129,52769,6,0,P|175:204|260:201,1,180,6|8,3:2|0:0,0:0:0:0:
348,56,53545,1,2,0:0:0:0:
348,56,53674,1,2,0:0:0:0:
348,56,53803,2,0,P|304:49|260:55,1,90,2|0,3:2|3:2,0:0:0:0:
162,228,54320,1,10,0:0:0:0:
302,133,54579,1,0,0:0:0:0:
400,307,54838,6,0,P|318:333|210:302,1,180,2|8,3:2|0:0,0:0:0:0:
97,144,55614,1,2,0:0:0:0:
97,144,55743,1,2,0:0:0:0:
97,144,55872,1,2,3:2:0:0:
143,378,56131,1,2,3:2:0:0:
323,222,56389,1,10,0:0:0:0:
77,293,56648,1,2,0:0:0:0:
400,306,56907,6,0,P|435:226|406:144,1,180,2|8,3:2|0:0,0:0:0:0:
213,190,57682,1,2,0:0:0:0:
213,190,57812,1,2,0:0:0:0:
213,190,57941,1,2,3:2:0:0:
323,222,58200,1,0,3:2:0:0:
186,79,58458,2,0,P|123:75|85:89,1,90,10|0,0:0|0:0,0:0:0:0:
181,300,58976,5,2,3:2:0:0:
213,190,59234,1,0,0:0:0:0:
213,190,59364,1,0,3:2:0:0:
213,190,59493,1,8,0:0:0:0:
71,268,59751,1,0,3:2:0:0:
291,332,60010,1,2,3:2:0:0:
237,110,60269,1,0,3:2:0:0:
196,108,60398,1,0,0:0:0:0:
159,126,60527,1,10,0:0:0:0:
135,160,60657,1,0,0:0:0:0:
130,200,60786,1,0,0:0:0:0:
145,238,60915,1,0,0:0:0:0:
176,265,61045,6,0,P|259:266|371:253,1,180,2|8,3:2|0:0,0:0:0:0:
421,68,61820,1,2,0:0:0:0:
421,68,61950,1,2,0:0:0:0:
421,68,62079,2,0,P|409:112|411:157,1,90,2|0,3:2|3:2,0:0:0:0:
456,311,62596,1,10,0:0:0:0:
500,165,62855,1,0,0:0:0:0:
356,256,63114,6,0,P|266:256|176:246,1,180,2|8,3:2|0:0,0:0:0:0:
76,344,63889,1,2,0:0:0:0:
76,344,64019,1,2,0:0:0:0:
76,344,64148,1,2,3:2:0:0:
142,110,64407,1,2,3:2:0:0:
311,284,64665,1,10,0:0:0:0:
176,246,64924,1,2,0:0:0:0:
255,19,65182,6,0,P|268:108|262:198,1,180,2|8,3:2|0:0,0:0:0:0:
225,332,65958,1,0,0:0:0:0:
225,332,66088,1,0,0:0:0:0:
225,332,66217,1,0,3:2:0:0:
129,233,66476,1,2,3:2:0:0:
358,297,66734,1,8,0:0:0:0:
127,331,66993,1,2,0:0:0:0:
359,198,67251,6,0,P|436:239|451:325,1,180,2|8,3:2|0:0,0:0:0:0:
274,247,68027,1,0,3:2:0:0:
429,76,68286,1,8,0:3:0:0:
431,117,68415,1,8,0:3:0:0:
433,158,68545,1,8,0:3:0:0:
435,198,68674,1,4,0:3:0:0:
437,239,68803,1,4,0:3:0:0:
359,324,69062,1,4,0:3:0:0:
264,82,69320,6,0,P|229:79|193:90,1,72,6|2,3:2|0:0,0:0:0:0:
161,117,69708,1,2,3:2:0:0:
161,117,69838,1,2,0:0:0:0:
242,234,70096,2,0,P|246:199|237:165,1,72,10|0,0:0|0:0,0:0:0:0:
185,300,70614,1,2,3:2:0:0:
372,218,70872,1,10,0:0:0:0:
320,353,71131,1,2,0:0:0:0:
237,165,71389,6,0,L|239:80,1,72,2|2,3:2|0:0,0:0:0:0:
245,50,71777,1,2,3:2:0:0:
245,50,71907,1,2,0:0:0:0:
278,259,72165,2,0,P|210:265|147:215,1,144,10|2,0:0|3:2,0:0:0:0:
238,93,72941,1,10,0:0:0:0:
278,259,73200,1,2,0:0:0:0:
365,129,73458,6,0,P|422:126|474:133,1,108,2|2,3:2|3:2,0:0:0:0:
472,132,74234,2,0,P|443:197|445:268,1,144,10|2,0:0|3:2,0:0:0:0:
259,175,75010,1,10,0:0:0:0:
365,129,75269,1,2,0:0:0:0:
338,315,75527,5,2,3:2:0:0:
152,288,75915,1,2,3:2:0:0:
152,288,76045,1,2,0:0:0:0:
258,208,76303,2,0,L|232:395,1,144,2|2,3:2|3:2,0:0:0:0:
390,192,77079,1,10,0:0:0:0:
136,156,77338,1,10,0:0:0:0:
136,156,77467,1,8,0:0:0:0:
135,156,77596,6,0,P|115:205|119:258,1,108,6|0,3:2|3:2,0:0:0:0:
152,288,78114,1,0,0:0:0:0:
258,208,78372,2,0,L|253:47,1,144,8|2,0:0|3:2,0:0:0:0:
136,156,79148,1,10,0:0:0:0:
258,208,79407,1,2,0:0:0:0:
149,51,79665,5,6,3:2:0:0:
381,132,80053,1,2,3:2:0:0:
381,132,80182,1,2,0:0:0:0:
257,208,80441,2,0,P|232:273|262:336,1,144,10|2,0:0|3:2,0:0:0:0:
386,270,81217,2,0,P|351:265|316:270,1,72,10|2,0:0|0:0,0:0:0:0:
134,341,81734,5,6,3:2:0:0:
258,208,81993,1,2,0:0:0:0:
258,208,82122,1,2,3:2:0:0:
258,208,82251,1,2,0:0:0:0:
356,364,82510,1,10,0:0:0:0:
197,275,82769,2,0,P|146:268|94:272,1,72,2|0,0:0|3:2,0:0:0:0:
353,174,83286,1,10,0:0:0:0:
223,361,83545,1,2,0:0:0:0:
276,109,83803,6,0,P|328:77|402:85,1,135,6|0,3:2|3:2,0:0:0:0:
435,113,84320,1,0,0:0:0:0:
356,264,84579,2,0,P|349:219|353:175,1,90,8|0,0:0|0:0,0:0:0:0:
199,43,85096,1,0,3:2:0:0:
77,271,85355,1,8,0:0:0:0:
35,185,85614,5,8,0:3:0:0:
61,177,85700,1,8,0:3:0:0:
88,177,85786,1,4,0:3:0:0:
114,184,85872,1,0,3:2:0:0:
77,379,86131,6,0,L|77:271,1,107.999996704102,6|0,3:2|0:2,0:0:0:0:
201,221,86519,6,0,L|201:338,1,116.999994644165,6|0,3:2|0:0,0:0:0:0:
113,184,86907,6,0,P|155:138|216:127,1,125.999996154785,6|0,3:2|0:0,0:0:0:0:
308,282,87295,6,0,P|243:271|200:220,1,135.000005149842,6|0,3:2|0:0,0:0:0:0:
311,120,87682,6,0,P|306:156|290:188,1,72,6|0,3:2|0:0,0:0:0:0:
77,379,87941,5,6,3:2:0:0:
114,184,88200,1,2,0:0:0:0:
282,364,88458,1,10,0:0:0:0:
96,282,88717,1,2,0:0:0:0:
96,282,88846,1,2,0:0:0:0:
96,282,88976,1,0,3:2:0:0:
290,188,89234,1,2,0:0:0:0:
16,166,89493,1,10,0:0:0:0:
194,300,89751,1,2,0:0:0:0:
229,19,90010,6,0,P|221:82|231:136,1,103.500001974106,2|0,3:2|0:0,0:0:0:0:
282,364,90527,2,0,P|291:302|281:248,1,103.500001974106,10|0,0:0|0:0,0:0:0:0:
83,218,91045,2,0,P|146:227|200:217,1,103.500001974106,2|0,3:2|0:0,0:0:0:0:
428,165,91562,2,0,P|366:157|312:167,1,103.500001974106,10|0,0:0|0:0,0:0:0:0:
194,310,92079,6,0,P|265:363|371:319,1,207.000003948212,2|8,3:2|0:0,0:0:0:0:
287,159,92855,1,0,0:0:0:0:
287,159,92984,1,0,0:0:0:0:
287,159,93114,2,0,P|279:210|285:262,1,103.500001974106,2|0,3:2|0:0,0:0:0:0:
379,76,93631,1,10,0:0:0:0:
425,216,93889,1,2,0:0:0:0:
203,68,94148,6,0,P|100:60|0:84,1,207.000003948212,2|8,3:2|0:0,0:0:0:0:
185,157,94924,1,2,0:0:0:0:
185,157,95053,1,2,0:0:0:0:
185,157,95182,1,2,3:2:0:0:
29,282,95441,1,8,0:0:0:0:
203,68,95700,1,8,0:0:0:0:
301,325,95958,1,8,0:0:0:0:
301,325,96088,1,8,0:0:0:0:
300,325,96217,6,0,P|351:333|403:327,1,103.500001974106,6|0,3:2|0:0,0:0:0:0:
271,128,96734,1,10,0:0:0:0:
168,247,96993,1,2,0:0:0:0:
168,247,97122,1,2,0:0:0:0:
168,247,97251,1,0,3:2:0:0:
405,225,97510,1,2,0:0:0:0:
160,136,97769,1,10,0:0:0:0:
301,325,98027,1,2,0:0:0:0:
68,199,98286,6,0,P|56:96|152:23,1,207.000003948212,2|8,3:2|0:0,0:0:0:0:
382,120,99062,1,2,0:0:0:0:
382,120,99191,1,2,0:0:0:0:
382,120,99320,1,2,3:2:0:0:
168,247,99579,1,2,0:0:0:0:
346,12,99838,1,10,0:0:0:0:
418,228,100096,1,2,0:0:0:0:
159,136,100355,6,0,P|210:127|261:137,1,103.500001974106,2|0,3:2|0:0,0:0:0:0:
385,321,100872,2,0,P|352:281|335:232,1,103.500001974106,8|0,0:0|0:0,0:0:0:0:
433,33,101389,2,0,P|415:81|382:120,1,103.500001974106,0|0,3:2|0:0,0:0:0:0:
160,136,101907,1,8,0:0:0:0:
434,206,102165,1,8,0:0:0:0:
434,206,102295,1,8,0:0:0:0:
434,206,102424,6,0,P|482:119|433:33,1,207.000003948212,6|8,3:2|0:0,0:0:0:0:
261,137,103200,1,0,0:0:0:0:
261,137,103329,1,0,0:0:0:0:
261,137,103458,1,6,3:2:0:0:
434,206,103717,1,8,0:3:0:0:
262,36,103976,1,8,0:0:0:0:
202,271,104234,1,2,0:0:0:0:
483,119,104493,6,0,P|391:117|336:209,1,207.000003948212,6|8,3:2|0:0,0:0:0:0:
384,291,105269,1,2,0:0:0:0:
416,4,105527,2,0,P|443:103|434:206,1,207.000003948212,2|10,3:2|0:0,0:0:0:0:
384,291,106303,1,2,0:0:0:0:
233,207,106562,6,0,P|284:199|335:207,1,103.500001974106,2|0,3:2|0:0,0:0:0:0:
149,357,107079,1,10,0:0:0:0:
384,291,107338,1,2,0:0:0:0:
116,239,107596,1,2,3:2:0:0:
300,339,107855,1,2,0:0:0:0:
200,89,108114,1,10,0:0:0:0:
149,357,108372,1,2,0:0:0:0:
434,205,108631,6,0,P|482:283|432:377,1,207.000003948212,2|8,3:2|0:0,0:0:0:0:
301,243,109407,1,2,0:0:0:0:
301,243,109536,1,2,0:0:0:0:
301,243,109665,2,0,L|300:139,1,103.500001974106,2|2,3:2|0:0,0:0:0:0:
499,71,110182,1,10,0:0:0:0:
434,205,110441,1,2,0:0:0:0:
299,37,110700,6,0,B|250:10|201:37|201:37|152:65|103:37,1,207.000003948212,2|8,3:2|0:0,0:0:0:0:
0,235,111476,1,8,0:3:0:0:
0,235,111605,1,8,0:3:0:0:
0,235,111734,1,2,0:0:0:0:
300,139,111993,6,0,P|355:133|438:156,1,112.5,4|0,3:2|0:2,0:0:0:0:
233,238,112381,6,0,P|200:192|178:109,1,121.500000463486,4|0,3:2|0:0,0:0:0:0:
353,246,112769,6,0,P|305:335|208:358,1,207.000003948212,6|8,3:2|0:0,0:0:0:0:
13,277,113545,1,2,0:0:0:0:
13,277,113674,1,2,0:0:0:0:
13,277,113803,2,0,P|64:269|116:275,1,103.500001974106,2|0,3:2|0:0,0:0:0:0:
300,139,114320,1,8,0:0:0:0:
137,12,114579,1,2,0:0:0:0:
137,12,114708,1,2,0:0:0:0:
137,12,114838,6,0,P|131:64|140:115,1,103.500001974106,2|0,3:2|0:0,0:0:0:0:
276,298,115355,1,10,0:0:0:0:
367,88,115614,1,2,0:0:0:0:
367,88,115743,1,2,0:0:0:0:
367,88,115872,2,0,P|417:79|469:85,1,103.500001974106,2|0,3:2|0:0,0:0:0:0:
260,166,116389,1,10,0:0:0:0:
404,229,116648,1,2,0:0:0:0:
156,345,116907,6,0,P|146:295|153:244,1,103.500001974106,2|0,3:2|0:0,0:0:0:0:
346,112,117424,2,0,P|307:145|260:166,1,103.500001974106,8|0,0:0|0:0,0:0:0:0:
48,62,117941,2,0,P|96:79|137:110,1,103.500001974106,0|0,3:2|0:0,0:0:0:0:
254,320,118458,1,8,0:0:0:0:
254,320,118588,1,8,0:3:0:0:
254,320,118717,1,8,0:3:0:0:
257,63,118976,5,4,3:2:0:0:
254,320,120527,5,4,0:3:0:0:
254,320,121045,6,0,P|339:340|410:290,1,180,6|8,3:2|0:0,0:0:0:0:
320,238,121820,1,2,0:0:0:0:
320,238,121950,1,2,0:0:0:0:
320,238,122079,1,2,3:2:0:0:
461,139,122338,1,0,0:0:0:0:
222,96,122596,1,8,0:0:0:0:
410,290,122855,1,0,0:0:0:0:
410,290,122984,1,8,0:0:0:0:
150,351,123372,6,0,P|142:276|162:204,1,135,4|4,3:2|3:2,0:0:0:0:
155,218,124148,6,0,P|106:200|71:146,1,107.999996704102,4|6,3:2|0:0,0:0:0:0:
123,92,125441,5,8,0:3:0:0:
122,92,125700,2,0,P|145:89|167:92,1,45,2|8,0:0|0:3,0:0:0:0:
256,198,126217,2,0,L|256:153,1,45,4|8,0:3|0:3,0:0:0:0:
389,92,126734,2,0,P|366:89|344:92,1,45,2|2,0:3|0:0,0:0:0:0:
445,150,127251,5,2,0:0:0:0:
388,206,127510,1,8,0:3:0:0:
443,263,127769,2,0,P|445:285|443:307,1,45,2|8,0:2|0:3,0:0:0:0:
343,206,128286,2,0,P|365:203|388:206,1,45,4|8,0:3|0:3,0:0:0:0:
286,305,128803,2,0,P|283:282|285:260,1,45,2|2,0:3|0:2,0:0:0:0:
384,362,129320,6,0,P|361:364|339:362,1,45,10|8,0:3|0:3,0:0:0:0:
241,305,129838,6,0,P|263:302|286:305,1,45,8|8,0:3|0:3,0:0:0:0:
443,263,130456,6,0,P|420:265|398:263,1,45,8|2,0:3|0:2,0:0:0:0:
259,108,131041,6,0,P|272:126|281:146,1,45,8|4,0:3|0:3,0:0:0:0:
218,343,131728,6,0,P|228:323|241:305,1,45,2|8,0:2|0:3,0:0:0:0:
171,214,132450,6,0,P|193:212|216:214,1,45,8|8,0:3|0:3,0:0:0:0:
443,263,133190,6,0,P|420:265|398:263,1,45,4|8,0:3|0:3,0:0:0:0:
353,368,134083,6,0,P|340:350|330:329,1,45,8|4,0:3|0:3,0:0:0:0:
396,131,136909,5,6,0:0:0:0:
256,192,137143,12,0,147221,0:0:0:0:
