osu file format v14

[General]
AudioFilename: audio.mp3
AudioLeadIn: 0
PreviewTime: 87812
Countdown: 0
SampleSet: Soft
StackLeniency: 0.4
Mode: 0
LetterboxInBreaks: 0
WidescreenStoryboard: 1

[Editor]
Bookmarks: 3141,19685,36237,52789,69340,87961,104513,125202,136929,147241
DistanceSpacing: 1
BeatDivisor: 1
GridSize: 8
TimelineZoom: 1

[Metadata]
Title:Rokka no Uta English ver
TitleUnicode:六花のうた English ver
Artist:Maisaki Nami
ArtistUnicode:舞崎なみ
Creator:lit120
Version:Normal
Source:ゆきいろ 〜空に六花の住む町〜
Tags:Yukiiro Sora ni Sumu Machi ねこねこソフト Nekoneko software opening eroge game visual novel winter anime english I've -Hakurei- eINess Ujimatsu Chiya ktgster
BeatmapID:1884617
BeatmapSetID:902723

[Difficulty]
HPDrainRate:4
CircleSize:3.5
OverallDifficulty:5
ApproachRate:5
SliderMultiplier:1.1
SliderTickRate:1

[Events]
//Background and Video events
0,0,"snow.jpg",0,0
//Break Periods
//Storyboard Layer 0 (Background)
//Storyboard Layer 1 (Fail)
//Storyboard Layer 2 (Pass)
//Storyboard Layer 3 (Foreground)
//Storyboard Layer 4 (Overlay)
//Storyboard Sound Samples

[TimingPoints]
3114,517.241379310345,4,2,99,40,1,0
3889,-100,4,2,90,40,0,0
5182,-100,4,2,98,40,0,0
6217,-100,4,2,90,40,0,0
6734,-100,4,2,90,40,0,0
7251,-100,4,2,97,40,0,0
8286,-100,4,2,91,40,0,0
8803,-100,4,2,94,40,0,0
9320,-100,4,2,86,40,0,0
10096,-100,4,2,95,40,0,0
10872,-100,4,2,93,40,0,0
11389,-100,4,2,99,40,0,0
12424,-100,4,2,90,40,0,0
13458,-100,4,2,98,40,0,0
14493,-100,4,2,90,40,0,0
15527,-100,4,2,97,40,0,0
16820,-100,4,2,91,40,0,0
17855,-100,4,2,1,60,0,0
87941,-100,4,2,1,60,0,1
125182,-100,4,2,99,40,0,0
125701,-100,4,2,91,40,0,0
125959,-100,4,2,90,40,0,0
127251,-100,4,2,98,40,0,0
128286,-100,4,2,90,40,0,0
129320,-100,4,2,84,40,0,0
129838,618.556701030928,4,2,96,40,1,0
130456,600,4,2,90,40,1,0
130456,-100,4,2,90,40,0,0
130756,571.428571428571,4,2,91,40,1,0
131041,625,4,2,91,40,1,0
131353,750,4,2,91,40,1,0
131728,722.89156626506,4,2,91,40,1,0
132089,722.89156626506,4,2,96,40,1,0
132450,740.740740740741,4,2,92,40,1,0
133190,895.522388059701,4,2,94,40,1,0
133637,892.193308550186,4,2,96,40,1,0
134083,1290.32258064516,4,2,92,40,1,0
134728,2181.81818181818,4,2,94,40,1,0
136909,937.5,4,2,70,35,1,0
142534,-100,4,2,95,35,0,0
143002,-100,4,2,95,30,0,0
143471,-100,4,2,95,25,0,0
143940,-100,4,2,95,20,0,0
144409,-100,4,2,95,15,0,0
145346,-100,4,2,95,10,0,0
146284,-100,4,2,95,7,0,0
147221,-100,4,2,95,5,0,0

[Colours]
Combo1 : 254,109,120
Combo2 : 230,54,40
Combo3 : 121,146,198
Combo4 : 251,233,11

[HitObjects]
355,237,3114,6,0,P|250:229|201:136,1,220,2|4,0:0|0:3,0:0:0:0:
256,42,4665,1,2,0:3:0:0:
311,136,5182,2,0,P|261:229|156:237,1,220,2|4,0:0|0:3,0:0:0:0:
91,147,6734,1,2,0:3:0:0:
47,248,7251,6,0,B|59:358|59:358|104:310|212:329,1,220,2|2,0:0|0:2,0:0:0:0:
261,365,8803,1,4,0:3:0:0:
302,263,9320,2,0,L|297:98,1,165,10|8,0:3|0:3,0:0:0:0:
150,21,10872,1,8,0:3:0:0:
79,104,11389,6,0,P|188:114|297:98,1,220,2|4,0:0|0:3,0:0:0:0:
354,192,12941,1,2,0:3:0:0:
297,286,13458,2,0,P|188:269|79:279,1,220,2|4,0:2|0:3,0:0:0:0:
10,192,15010,1,2,0:3:0:0:
79,103,15527,6,0,P|215:192|79:280,1,385,8|4,0:3|0:3,0:0:0:0:
18,372,17855,6,0,L|123:371,1,82.5,4|4,3:2|3:2,0:0:0:0:
168,323,18631,2,0,L|167:240,2,82.5,4|4|4,3:2|3:2|3:2,0:0:0:0:
210,358,19665,6,0,P|249:365|319:344,1,110,6|8,3:2|0:0,0:0:0:0:
369,250,20700,2,0,L|365:132,1,110,2|8,3:2|0:0,0:0:0:0:
264,96,21734,2,0,L|260:205,1,110,2|8,3:2|0:0,0:0:0:0:
209,303,22769,1,0,3:2:0:0:
209,303,23027,2,0,L|210:358,2,55,2|8|0,3:2|0:0|0:0,0:0:0:0:
176,258,23803,6,0,P|123:259|64:293,1,110,2|8,3:2|0:0,0:0:0:0:
28,316,24579,2,0,L|29:176,1,110,2|0,0:0|3:2,0:0:0:0:
33,151,25355,1,8,0:0:0:0:
116,79,25872,2,0,P|183:78|241:102,1,110,0|8,3:2|0:0,0:0:0:0:
285,182,26907,1,0,3:2:0:0:
376,121,27424,2,0,L|436:123,1,55,10|2,0:0|0:0,0:0:0:0:
478,95,27941,6,0,P|462:169|475:245,1,110,2|8,3:2|0:0,0:0:0:0:
470,257,28717,1,4,0:0:0:0:
388,330,29234,2,0,L|328:325,1,55,2|10,3:2|0:0,0:0:0:0:
296,284,29751,2,0,L|236:289,1,55,2|0,0:0|3:2,0:0:0:0:
199,325,30269,2,0,L|139:320,1,55,2|10,0:0|0:0,0:0:0:0:
102,284,30786,2,0,P|95:217|124:144,1,110,2|0,0:0|3:2,0:0:0:0:
130,127,31562,1,10,0:0:0:0:
228,77,32079,6,0,L|237:230,1,110,6|8,3:2|0:0,0:0:0:0:
296,284,33114,2,0,L|449:275,2,110,2|8|0,3:2|0:0|3:2,0:0:0:0:
255,321,34407,1,10,0:0:0:0:
255,321,34665,2,0,L|145:314,1,110,10|0,0:0|3:2,0:0:0:0:
104,277,35441,1,10,0:0:0:0:
104,277,35700,1,10,0:0:0:0:
61,175,36217,6,0,P|114:185|168:177,1,110,6|8,3:2|0:0,0:0:0:0:
219,155,36993,1,2,0:0:0:0:
219,155,37251,2,0,L|338:159,1,110,2|10,3:2|0:0,0:0:0:0:
421,218,38286,2,0,P|416:140|431:93,1,110,2|8,3:2|0:0,0:0:0:0:
351,26,39320,1,2,3:2:0:0:
268,99,39838,2,0,L|202:97,1,55,10|2,0:0|0:0,0:0:0:0:
166,68,40355,6,0,P|177:137|165:195,1,110,2|8,3:2|0:0,0:0:0:0:
89,249,41389,2,0,L|91:313,1,55,2|0,3:2|3:2,0:0:0:0:
94,359,41907,1,10,0:0:0:0:
185,297,42424,2,0,P|245:292|327:322,1,110,2|8,3:2|0:0,0:0:0:0:
399,331,43458,2,0,L|394:260,1,55,2|2,3:2|3:2,0:0:0:0:
361,232,43976,2,0,L|366:161,1,55,10|2,0:0|3:2,0:0:0:0:
395,131,44493,6,0,P|463:148|509:143,2,110,2|8|2,3:2|0:0|3:2,0:0:0:0:
308,63,46045,1,10,0:0:0:0:
240,150,46562,2,0,L|242:277,1,110,2|8,3:2|0:0,0:0:0:0:
198,361,47596,2,0,L|141:355,1,55,2|2,3:2|3:2,0:0:0:0:
110,310,48114,2,0,L|53:316,1,55,10|2,0:0|0:0,0:0:0:0:
9,346,48631,6,0,P|18:285|3:201,1,110,2|8,3:2|0:0,0:0:0:0:
1,127,49665,2,0,P|62:136|146:121,1,110,0|10,3:2|0:0,0:0:0:0:
156,101,50441,1,2,0:0:0:0:
156,101,50700,2,0,L|286:107,1,110,2|8,3:2|0:0,0:0:0:0:
344,182,51734,1,10,0:0:0:0:
420,104,52251,1,8,0:0:0:0:
499,180,52769,6,0,P|505:247|501:297,1,110,6|8,3:2|0:0,0:0:0:0:
466,331,53545,1,2,0:0:0:0:
466,331,53803,2,0,L|335:329,1,110,2|10,3:2|0:0,0:0:0:0:
253,289,54838,2,0,P|247:222|251:172,1,110,2|8,3:2|0:0,0:0:0:0:
273,129,55614,1,2,0:0:0:0:
273,129,55872,2,0,P|206:135|156:131,1,110,2|10,3:2|0:0,0:0:0:0:
68,76,56907,6,0,L|64:200,1,110,2|8,3:2|0:0,0:0:0:0:
71,240,57682,1,2,0:0:0:0:
71,240,57941,2,0,L|69:302,2,55,2|0|10,3:2|3:2|0:0,0:0:0:0:
177,213,58976,2,0,P|242:249|270:325,1,110,2|8,3:2|0:0,0:0:0:0:
341,352,60010,1,2,3:2:0:0:
415,271,60527,1,10,0:0:0:0:
334,196,61045,6,0,L|333:63,1,110,2|8,3:2|0:0,0:0:0:0:
239,29,62079,2,0,L|239:83,1,55,2|0,3:2|3:2,0:0:0:0:
235,147,62596,1,10,0:0:0:0:
137,95,63114,2,0,P|124:152|128:214,1,110,2|8,3:2|0:0,0:0:0:0:
160,245,63889,1,2,0:0:0:0:
160,245,64148,2,0,L|241:243,1,55,2|2,3:2|3:2,0:0:0:0:
270,242,64665,1,10,0:0:0:0:
366,189,65182,6,0,P|434:182|494:205,2,110,2|8|0,3:2|0:0|3:2,0:0:0:0:
348,241,66476,1,2,3:2:0:0:
290,334,66993,1,2,0:0:0:0:
290,334,67251,2,0,L|174:332,1,110,2|8,3:2|0:0,0:0:0:0:
75,297,68286,1,8,0:3:0:0:
75,297,68545,2,0,L|74:355,2,55,8|4|4,0:3|0:3|0:3,0:0:0:0:
102,245,69320,6,0,P|36:242|4:174,1,110,6|2,3:2|0:0,0:0:0:0:
21,157,70096,1,10,0:0:0:0:
102,82,70614,1,2,3:2:0:0:
102,82,70872,2,0,L|196:80,1,55,10|2,0:0|0:0,0:0:0:0:
204,53,71389,2,0,P|243:105|297:115,1,110,2|2,3:2|0:0,0:0:0:0:
338,108,72165,1,10,0:0:0:0:
402,197,72682,2,0,L|466:192,2,55,2|10|2,3:2|0:0|0:0,0:0:0:0:
362,235,73458,6,0,L|253:226,1,110,2|0,3:2|0:0,0:0:0:0:
211,189,74234,2,0,L|102:197,1,110,10|2,0:0|3:2,0:0:0:0:
63,232,75010,1,10,0:0:0:0:
34,338,75527,1,2,3:2:0:0:
140,367,76045,1,2,0:0:0:0:
140,367,76303,2,0,P|212:363|250:355,1,110,2|2,3:2|3:2,0:0:0:0:
290,319,77079,1,10,0:0:0:0:
362,235,77596,6,0,L|356:107,1,110,6|0,3:2|0:0,0:0:0:0:
324,80,78372,2,0,P|263:111|190:104,1,110,8|2,0:0|3:2,0:0:0:0:
172,89,79148,1,10,0:0:0:0:
94,166,79665,1,6,3:2:0:0:
171,244,80182,1,2,0:0:0:0:
171,244,80441,2,0,L|170:378,1,110,10|2,0:0|3:2,0:0:0:0:
121,379,81217,1,10,0:0:0:0:
14,351,81734,6,0,L|14:241,1,110,6|2,3:2|0:0,0:0:0:0:
94,166,82769,2,0,L|94:56,1,110,2|10,0:0|0:0,0:0:0:0:
139,24,83545,1,2,0:0:0:0:
139,24,83803,2,0,P|181:71|270:86,1,110,6|0,3:2|0:0,0:0:0:0:
279,87,84579,1,8,0:0:0:0:
368,150,85096,1,0,3:2:0:0:
368,150,85355,2,0,L|438:146,2,55,8|8|0,0:0|0:3|3:2,0:0:0:0:
325,184,86131,6,0,L|234:178,1,82.5,6|6,3:2|3:2,0:0:0:0:
171,221,86907,2,0,L|88:216,2,82.5,6|6|6,3:2|3:2|3:2,0:0:0:0:
214,255,87941,6,0,P|221:312|209:372,1,110,6|10,3:2|0:0,0:0:0:0:
103,380,88976,2,0,L|98:263,1,110,0|10,3:2|0:0,0:0:0:0:
88,216,89751,1,2,0:0:0:0:
88,216,90010,2,0,P|123:160|116:96,1,110,2|10,3:2|0:0,0:0:0:0:
196,35,91045,1,2,3:2:0:0:
279,108,91562,1,10,0:0:0:0:
352,26,92079,6,0,P|416:30|471:76,1,110,2|8,3:2|0:0,0:0:0:0:
491,157,93114,2,0,L|491:308,1,110,2|10,3:2|0:0,0:0:0:0:
459,311,93889,1,2,0:0:0:0:
459,311,94148,2,0,P|391:288|330:298,1,110,2|8,3:2|0:0,0:0:0:0:
254,338,95182,2,0,L|186:332,1,55,2|8,3:2|0:0,0:0:0:0:
168,287,95700,2,0,L|100:293,1,55,8|8,0:0|0:0,0:0:0:0:
67,323,96217,6,0,P|76:257|63:197,1,110,6|10,3:2|0:0,0:0:0:0:
22,115,97251,2,0,P|88:124|148:111,1,110,0|10,3:2|0:0,0:0:0:0:
178,89,98027,1,2,0:0:0:0:
178,89,98286,2,0,L|301:98,1,110,2|8,3:2|0:0,0:0:0:0:
363,176,99320,1,2,3:2:0:0:
284,251,99838,2,0,L|285:321,1,55,10|2,0:0|0:0,0:0:0:0:
307,356,100355,6,0,P|240:344|168:376,2,110,2|8|0,3:2|0:0|3:2,0:0:0:0:
402,300,101907,2,0,L|400:239,1,55,8|8,0:0|0:0,0:0:0:0:
369,199,102424,2,0,P|426:181|453:134,1,110,6|8,3:2|0:0,0:0:0:0:
372,63,103458,2,0,L|246:67,1,110,6|8,3:2|0:0,0:0:0:0:
208,54,104234,1,2,0:0:0:0:
208,54,104493,6,0,P|221:117|209:191,1,110,6|8,3:2|0:0,0:0:0:0:
164,258,105527,2,0,P|227:245|301:257,1,110,2|10,3:2|0:0,0:0:0:0:
321,275,106303,1,2,0:0:0:0:
321,275,106562,2,0,L|436:274,1,110,2|10,3:2|0:0,0:0:0:0:
497,186,107596,2,0,P|498:149|491:122,1,55,2|2,3:2|0:0,0:0:0:0:
453,94,108114,2,0,P|416:93|389:100,1,55,10|2,0:0|0:0,0:0:0:0:
361,138,108631,6,0,P|286:134|219:103,1,110,2|8,3:2|0:0,0:0:0:0:
167,53,109665,2,0,P|163:128|132:195,1,110,2|10,3:2|0:0,0:0:0:0:
111,197,110441,1,2,0:0:0:0:
111,197,110700,2,0,P|95:249|95:304,1,110,2|8,3:2|0:0,0:0:0:0:
189,361,111734,1,2,0:0:0:0:
256,274,112251,1,0,0:2:0:0:
323,361,112769,6,0,P|388:365|431:332,1,110,6|8,3:2|0:0,0:0:0:0:
443,289,113545,1,2,0:0:0:0:
443,289,113803,2,0,L|437:171,1,110,2|8,3:2|0:0,0:0:0:0:
355,105,114838,2,0,P|318:150|252:159,1,110,2|10,3:2|0:0,0:0:0:0:
219,137,115614,1,2,0:0:0:0:
219,137,115872,2,0,L|217:268,1,110,2|10,3:2|0:0,0:0:0:0:
170,346,116907,5,2,3:2:0:0:
62,332,117424,1,8,0:0:0:0:
41,224,117941,1,0,3:2:0:0:
137,170,118458,2,0,L|137:115,1,55,8|8,0:0|0:3,0:0:0:0:
138,60,118976,1,4,3:2:0:0:
293,351,120527,1,4,0:3:0:0:
351,257,121045,6,0,P|356:186|344:133,1,110,6|8,3:2|0:0,0:0:0:0:
257,86,122079,1,2,3:2:0:0:
195,178,122596,2,0,P|136:188|87:171,1,110,8|0,0:0|0:0,0:0:0:0:
38,151,123372,2,0,L|29:246,1,82.5,4|4,3:2|3:2,0:0:0:0:
57,311,124148,2,0,P|136:281|281:303,1,220,4|6,3:2|0:0,0:0:0:0:
357,361,125700,5,2,0:0:0:0:
421,272,126217,2,0,L|416:143,1,110,4|2,0:3|0:3,0:0:0:0:
349,75,127251,2,0,P|280:129|154:102,1,220,2|4,0:0|0:3,0:0:0:0:
67,40,128803,1,2,0:3:0:0:
2,130,129320,6,0,L|2:240,1,110,10|8,0:3|0:3,0:0:0:0:
97,295,130456,6,0,P|151:260|194:254,1,107.5,8|8,0:3|0:3,0:0:0:0:
298,281,131728,6,0,L|408:271,1,110,2|8,0:2|0:3,0:0:0:0:
471,361,133190,6,0,P|441:300|456:162,1,189,4|4,0:3|0:3,0:0:0:0:
446,181,136909,5,6,0:0:0:0:
256,192,137377,12,0,147221,0:0:0:0:
