osu file format v14

[General]
AudioFilename: audio.mp3
AudioLeadIn: 0
PreviewTime: 87812
Countdown: 0
SampleSet: Soft
StackLeniency: 0.4
Mode: 0
LetterboxInBreaks: 0
WidescreenStoryboard: 0

[Editor]
Bookmarks: 3141,19685,36237,52789,69340,87961,104513,125202,136929,147241
DistanceSpacing: 1
BeatDivisor: 4
GridSize: 8
TimelineZoom: 1

[Metadata]
Title:Rokka no Uta English ver
TitleUnicode:六花のうた English ver
Artist:Maisaki Nami
ArtistUnicode:舞崎なみ
Creator:lit120
Version:Hard
Source:ゆきいろ 〜空に六花の住む町〜
Tags:Yukiiro Sora ni Sumu Machi ねこねこソフト Nekoneko software opening eroge game visual novel winter anime english I've -Hakurei- eINess Ujimatsu Chiya ktgster
BeatmapID:1884615
BeatmapSetID:902723

[Difficulty]
HPDrainRate:5
CircleSize:4
OverallDifficulty:6
ApproachRate:7
SliderMultiplier:1.6
SliderTickRate:1

[Events]
//Background and Video events
0,0,"snow.jpg",0,0
//Break Periods
//Storyboard Layer 0 (Background)
//Storyboard Layer 1 (Fail)
//Storyboard Layer 2 (Pass)
//Storyboard Layer 3 (Foreground)
//Storyboard Layer 4 (Overlay)
//Storyboard Sound Samples

[TimingPoints]
3114,517.241379310345,4,2,99,40,1,0
3114,-200,4,2,99,40,0,0
3372,-200,4,2,90,40,0,0
3631,-200,4,2,91,40,0,0
3889,-200,4,2,90,40,0,0
4924,-200,4,2,91,40,0,0
5182,-200,4,2,98,40,0,0
5441,-200,4,2,92,40,0,0
5700,-200,4,2,91,40,0,0
5958,-200,4,2,92,40,0,0
6217,-200,4,2,90,40,0,0
6476,-200,4,2,92,40,0,0
6734,-200,4,2,90,40,0,0
6993,-200,4,2,91,40,0,0
7251,-200,4,2,97,40,0,0
7510,-200,4,2,93,40,0,0
7769,-200,4,2,90,40,0,0
8027,-200,4,2,93,40,0,0
8286,-200,4,2,91,40,0,0
8545,-200,4,2,93,40,0,0
8803,-200,4,2,94,40,0,0
9062,-200,4,2,91,40,0,0
9320,-200,4,2,86,40,0,0
9579,-200,4,2,92,40,0,0
9838,-200,4,2,93,40,0,0
10096,-200,4,2,95,40,0,0
10872,-200,4,2,93,40,0,0
11131,-200,4,2,92,40,0,0
11389,-200,4,2,99,40,0,0
11648,-200,4,2,90,40,0,0
11907,-200,4,2,91,40,0,0
12165,-200,4,2,90,40,0,0
12682,-200,4,2,93,40,0,0
12941,-200,4,2,90,40,0,0
13200,-200,4,2,91,40,0,0
13458,-200,4,2,98,40,0,0
13717,-200,4,2,92,40,0,0
13976,-200,4,2,91,40,0,0
14234,-200,4,2,92,40,0,0
14493,-200,4,2,90,40,0,0
14751,-200,4,2,95,40,0,0
15010,-200,4,2,90,40,0,0
15269,-200,4,2,91,40,0,0
15527,-200,4,2,97,40,0,0
15786,-200,4,2,89,40,0,0
16045,-200,4,2,96,40,0,0
16303,-200,4,2,93,40,0,0
16562,-200,4,2,90,40,0,0
16820,-200,4,2,91,40,0,0
17855,-100,4,2,1,60,0,0
18114,-100,4,2,1,5,0,0
18243,-100,4,2,1,60,0,0
18501,-100,4,2,1,5,0,0
18631,-100,4,2,1,60,0,0
18889,-100,4,2,1,5,0,0
19019,-100,4,2,1,60,0,0
19277,-100,4,2,1,5,0,0
19407,-100,4,2,1,60,0,0
19536,-100,4,2,1,5,0,0
19665,-100,4,2,1,60,0,0
36088,-100,4,2,1,5,0,0
36217,-100,4,2,1,60,0,0
86389,-100,4,2,1,5,0,0
86519,-100,4,2,1,60,0,0
86777,-100,4,2,1,5,0,0
86907,-100,4,2,1,60,0,0
87165,-100,4,2,1,5,0,0
87295,-100,4,2,1,60,0,0
87553,-100,4,2,1,5,0,0
87682,-100,4,2,1,60,0,0
87812,-100,4,2,1,5,0,0
87941,-100,4,2,1,60,0,1
112251,-100,4,2,1,5,0,1
112381,-100,4,2,1,60,0,1
112639,-100,4,2,1,5,0,1
112769,-100,4,2,1,60,0,1
125182,-200,4,2,99,40,0,0
125442,-200,4,2,90,40,0,0
125701,-200,4,2,91,40,0,0
125959,-200,4,2,90,40,0,0
126994,-200,4,2,91,40,0,0
127251,-200,4,2,98,40,0,0
127510,-200,4,2,92,40,0,0
127769,-200,4,2,91,40,0,0
128027,-200,4,2,92,40,0,0
128286,-200,4,2,90,40,0,0
128545,-200,4,2,92,40,0,0
128803,-200,4,2,90,40,0,0
129062,-200,4,2,91,40,0,0
129320,-200,4,2,84,40,0,0
129579,-200,4,2,89,40,0,0
129838,618.556701030928,4,2,96,40,1,0
129838,-200,4,2,96,40,0,0
130147,-100,4,2,93,40,0,0
130456,600,4,2,90,40,1,0
130456,-200,4,2,90,40,0,0
130756,571.428571428571,4,2,91,40,1,0
131041,625,4,2,91,40,1,0
131041,-200,4,2,91,40,0,0
131353,750,4,2,91,40,1,0
131728,722.89156626506,4,2,91,40,1,0
131728,-200,4,2,91,40,0,0
132089,722.89156626506,4,2,96,40,1,0
132450,740.740740740741,4,2,92,40,1,0
132450,-200,4,2,92,40,0,0
132820,-100,4,2,96,40,0,0
133190,895.522388059701,4,2,94,40,1,0
133190,-200,4,2,94,40,0,0
133637,892.193308550186,4,2,96,40,1,0
134083,1290.32258064516,4,2,92,40,1,0
134083,-200,4,2,92,40,0,0
134728,2181.81818181818,4,2,94,40,1,0
136909,937.5,4,2,70,35,1,0
136909,-192.307692307692,4,2,70,35,0,0
142534,-100,4,2,95,35,0,0
143002,-100,4,2,95,30,0,0
143471,-100,4,2,95,25,0,0
143940,-100,4,2,95,20,0,0
144409,-100,4,2,95,15,0,0
145346,-100,4,2,95,10,0,0
146284,-100,4,2,95,7,0,0
147221,-100,4,2,95,5,0,0

[Colours]
Combo1 : 254,109,120
Combo2 : 230,54,40
Combo3 : 121,146,198
Combo4 : 251,233,11

[HitObjects]
78,79,3114,6,0,P|97:80|117:82,3,40,2|8|2|8,0:0|0:3|0:2|0:3,0:0:0:0:
178,134,4148,2,0,P|197:131|217:130,3,40,4|8|2|2,0:3|0:3|0:3|0:0,0:0:0:0:
282,83,5182,6,0,P|301:84|321:86,1,40,2|8,0:0|0:3,0:0:0:0:
365,153,5700,2,0,L|363:211,1,40,2|8,0:0|0:3,0:0:0:0:
325,263,6217,2,0,L|326:302,3,40,4|8|2|2,0:3|0:3|0:3|0:0,0:0:0:0:
371,369,7251,5,2,0:0:0:0:
371,369,7510,2,0,L|410:370,2,40,8|8|8,0:3|0:3|0:3,0:0:0:0:
292,374,8286,2,0,L|253:373,1,40,2|8,0:2|0:3,0:0:0:0:
171,376,8803,2,0,P|146:369|131:359,1,40,4|2,0:3|0:0,0:0:0:0:
109,285,9320,6,0,L|60:284,2,40,10|8|8,0:3|0:3|0:3,0:0:0:0:
187,266,10096,2,0,P|192:238|192:223,1,40,8|4,0:3|0:3,0:0:0:0:
169,149,10614,2,0,P|169:129|174:109,2,40,8|8|8,0:3|0:3|0:3,0:0:0:0:
113,208,11389,6,0,P|93:203|73:202,1,40,2|8,0:0|0:3,0:0:0:0:
13,146,11907,2,0,P|18:126|19:107,1,40,2|8,0:2|0:3,0:0:0:0:
74,47,12424,2,0,P|94:52|114:54,1,40,4|8,0:3|0:3,0:0:0:0:
192,30,12941,2,0,P|211:31|231:36,1,40,2|2,0:3|0:2,0:0:0:0:
288,91,13458,5,2,0:2:0:0:
288,91,13717,2,0,L|336:84,2,40,8|2|8,0:3|0:2|0:3,0:0:0:0:
244,158,14493,2,0,P|245:180|249:197,1,40,4|8,0:3|0:3,0:0:0:0:
309,250,15010,2,0,P|313:269|314:289,1,40,2|2,0:3|0:2,0:0:0:0:
273,358,15527,6,0,L|224:353,1,40,8|8,0:3|0:3,0:0:0:0:
159,322,16045,2,0,L|110:327,1,40,8|8,0:3|0:3,0:0:0:0:
39,334,16562,2,0,P|37:314|39:294,1,40,8|2,0:3|0:0,0:0:0:0:
94,235,17079,2,0,P|114:234|134:236,1,40,8|4,0:3|0:3,0:0:0:0:
134,236,17855,6,0,P|195:222|271:243,1,120,4|4,3:2|3:2,0:0:0:0:
368,255,18631,2,0,P|325:209|305:132,1,120,4|4,3:2|3:2,0:0:0:0:
268,43,19407,1,4,3:2:0:0:
237,116,19665,6,0,P|179:122|80:68,1,160,6|8,3:2|0:0,0:0:0:0:
31,134,20441,1,0,0:0:0:0:
31,134,20570,1,0,0:0:0:0:
31,134,20700,2,0,P|42:178|42:213,1,80,2|0,3:2|3:2,0:0:0:0:
100,267,21217,2,0,P|144:256|179:256,1,80,8|0,0:0|0:0,0:0:0:0:
233,198,21734,6,0,P|219:282|292:347,1,160,2|8,3:2|0:0,0:0:0:0:
350,342,22510,1,0,0:0:0:0:
350,342,22639,1,0,0:0:0:0:
350,342,22769,1,0,3:2:0:0:
394,276,23027,1,2,3:2:0:0:
389,195,23286,2,0,L|386:116,1,80,8|0,0:0|0:0,0:0:0:0:
314,80,23803,6,0,P|247:119|153:118,1,160,2|8,3:2|0:0,0:0:0:0:
108,65,24579,1,2,0:0:0:0:
108,65,24708,1,2,0:0:0:0:
108,65,24838,1,2,3:2:0:0:
51,123,25096,1,0,3:2:0:0:
109,179,25355,2,0,P|118:234|115:273,1,80,8|0,0:0|0:0,0:0:0:0:
64,318,25872,6,0,P|168:292|225:335,1,160,0|8,3:2|0:0,0:0:0:0:
282,367,26648,1,0,3:2:0:0:
282,367,26777,1,0,3:2:0:0:
282,367,26907,2,0,L|379:362,1,80,0|0,3:2|3:2,0:0:0:0:
410,298,27424,2,0,L|449:295,3,40,10|2|2|2,0:0|0:0|0:0|0:0,0:0:0:0:
380,270,27941,6,0,P|366:187|381:104,1,160,2|8,3:2|0:0,0:0:0:0:
324,52,28717,2,0,P|269:88|225:87,1,80,4|0,0:0|3:2,0:0:0:0:
183,55,29234,1,2,3:2:0:0:
149,129,29493,1,10,0:0:0:0:
222,164,29751,2,0,P|225:229|202:267,1,80,2|0,0:0|3:2,0:0:0:0:
162,296,30269,5,2,0:0:0:0:
86,273,30527,1,10,0:0:0:0:
68,195,30786,1,2,0:0:0:0:
68,195,30915,1,0,3:2:0:0:
68,195,31045,2,0,L|69:112,1,80,0|0,3:2|3:2,0:0:0:0:
121,53,31562,1,10,0:0:0:0:
149,129,31820,1,2,0:0:0:0:
149,129,31950,1,8,0:0:0:0:
149,129,32079,6,0,P|218:142|321:113,1,160,6|8,3:2|0:0,0:0:0:0:
341,51,32855,1,0,0:0:0:0:
341,51,32984,1,0,3:2:0:0:
341,51,33114,2,0,P|408:48|447:67,1,80,2|0,3:2|3:2,0:0:0:0:
479,104,33631,1,8,0:0:0:0:
426,163,33889,2,0,L|399:163,3,26.6666666666667,8|8|4|0,0:3|0:3|0:3|3:2,0:0:0:0:
485,215,34407,5,10,0:0:0:0:
432,274,34665,2,0,P|342:281|291:222,1,160,10|0,0:0|3:2,0:0:0:0:
256,165,35441,1,10,0:0:0:0:
215,235,35700,2,0,P|175:278|117:288,1,120,10|0,0:0|0:0,0:0:0:0:
80,274,36217,6,0,P|74:206|76:105,1,160,6|8,3:2|0:0,0:0:0:0:
127,53,36993,1,2,0:0:0:0:
127,53,37122,1,2,0:0:0:0:
127,53,37251,2,0,P|172:48|209:56,1,80,2|0,3:2|3:2,0:0:0:0:
259,114,37769,2,0,P|298:121|337:115,1,80,10|0,0:0|0:0,0:0:0:0:
398,63,38286,6,0,P|385:113|407:237,1,160,2|8,3:2|0:0,0:0:0:0:
346,279,39062,1,2,0:0:0:0:
346,279,39191,1,0,0:0:0:0:
346,279,39320,2,0,P|291:253|251:253,1,80,2|0,3:2|3:2,0:0:0:0:
205,296,39838,1,10,0:0:0:0:
160,228,40096,1,2,0:0:0:0:
227,183,40355,6,0,P|239:107|188:30,1,160,2|8,3:2|0:0,0:0:0:0:
120,21,41131,1,2,0:0:0:0:
120,21,41260,1,2,3:2:0:0:
120,21,41389,2,0,L|39:33,1,80,2|0,3:2|3:2,0:0:0:0:
2,103,41907,2,0,P|1:142|5:182,1,80,10|0,0:0|0:0,0:0:0:0:
53,246,42424,6,0,P|162:246|217:241,1,160,2|8,3:2|0:0,0:0:0:0:
256,174,43200,1,0,3:2:0:0:
299,241,43458,2,0,P|379:247|459:246,1,160,2|10,3:2|0:0,0:0:0:0:
506,182,44234,1,2,3:2:0:0:
464,116,44493,6,0,P|384:110|304:111,1,160,2|8,3:2|0:0,0:0:0:0:
256,174,45269,1,2,0:0:0:0:
256,174,45398,1,2,0:0:0:0:
256,174,45527,2,0,P|189:173|171:167,1,80,2|0,3:2|3:2,0:0:0:0:
101,141,46045,2,0,P|100:208|94:226,1,80,10|0,0:0|0:0,0:0:0:0:
68,295,46562,6,0,P|146:300|208:349,1,160,2|8,3:2|0:0,0:0:0:0:
274,302,47338,1,2,0:0:0:0:
274,302,47467,1,0,0:0:0:0:
274,302,47596,2,0,L|271:197,1,80,2|2,3:2|3:2,0:0:0:0:
210,170,48114,2,0,L|213:65,1,80,10|2,0:0|0:0,0:0:0:0:
271,36,48631,6,0,P|311:67|422:59,1,160,2|8,3:2|0:0,0:0:0:0:
474,117,49407,1,0,3:2:0:0:
419,175,49665,2,0,P|412:214|416:254,1,80,0|0,3:2|3:2,0:0:0:0:
463,319,50182,1,10,0:0:0:0:
399,366,50441,1,2,0:0:0:0:
399,366,50570,1,2,0:0:0:0:
399,366,50700,6,0,P|331:332|249:343,1,160,2|8,3:2|0:0,0:0:0:0:
180,382,51476,1,0,3:2:0:0:
120,327,51734,1,10,0:0:0:0:
120,327,51864,1,8,0:0:0:0:
120,327,51993,1,8,0:3:0:0:
153,252,52251,1,8,0:0:0:0:
153,252,52381,1,8,0:0:0:0:
153,252,52510,1,4,0:3:0:0:
234,259,52769,6,0,P|247:181|235:102,1,160,6|8,3:2|0:0,0:0:0:0:
294,48,53545,1,2,0:0:0:0:
294,48,53674,1,2,0:0:0:0:
294,48,53803,2,0,L|383:55,1,80,2|0,3:2|3:2,0:0:0:0:
434,107,54320,2,0,P|439:146|428:184,1,80,10|0,0:0|0:0,0:0:0:0:
354,214,54838,6,0,L|194:198,1,160,2|8,3:2|0:0,0:0:0:0:
135,144,55614,1,2,0:0:0:0:
135,144,55743,1,2,0:0:0:0:
135,144,55872,1,2,3:2:0:0:
81,203,56131,1,2,3:2:0:0:
140,257,56389,2,0,P|146:306|141:343,1,80,10|2,0:0|0:0,0:0:0:0:
77,383,56907,6,0,L|237:367,1,160,2|8,3:2|0:0,0:0:0:0:
315,373,57682,1,2,0:0:0:0:
315,373,57812,1,2,0:0:0:0:
315,373,57941,2,0,P|361:374|394:366,1,80,2|0,3:2|3:2,0:0:0:0:
434,296,58458,2,0,L|427:204,1,80,10|0,0:0|0:0,0:0:0:0:
379,152,58976,6,0,P|339:182|219:183,1,160,2|8,3:2|0:0,0:0:0:0:
175,132,59751,1,0,3:2:0:0:
122,192,60010,2,0,P|87:194|36:169,1,80,2|0,3:2|3:2,0:0:0:0:
7,107,60527,2,0,P|5:71|30:20,1,80,10|0,0:0|0:0,0:0:0:0:
96,3,61045,6,0,L|276:4,1,160,2|8,3:2|0:0,0:0:0:0:
319,67,61820,1,2,0:0:0:0:
319,67,61950,1,2,0:0:0:0:
319,67,62079,2,0,P|377:71|411:62,1,80,2|0,3:2|3:2,0:0:0:0:
476,48,62596,2,0,P|472:106|481:140,1,80,10|0,0:0|0:0,0:0:0:0:
494,204,63114,6,0,P|415:204|344:239,1,160,2|8,3:2|0:0,0:0:0:0:
301,307,63889,1,2,0:0:0:0:
301,307,64019,1,2,0:0:0:0:
301,307,64148,1,2,3:2:0:0:
225,258,64407,1,2,3:2:0:0:
190,331,64665,2,0,P|126:335|107:331,1,80,10|2,0:0|0:0,0:0:0:0:
62,268,65182,6,0,L|64:90,2,160,2|8|0,3:2|0:0|3:2,0:0:0:0:
110,332,66476,2,0,P|150:336|190:331,1,80,2|8,3:2|0:0,0:0:0:0:
233,263,66993,1,2,0:0:0:0:
233,263,67122,1,0,0:0:0:0:
233,263,67251,6,0,P|295:253|393:277,1,160,2|8,3:2|0:0,0:0:0:0:
440,335,68027,1,0,3:2:0:0:
500,283,68286,1,8,0:3:0:0:
500,283,68415,1,8,0:3:0:0:
500,283,68545,2,0,L|496:217,2,40,8|4|4,0:3|0:3|0:3,0:0:0:0:
440,335,69062,1,4,0:3:0:0:
388,274,69320,6,0,P|383:214|387:155,1,120,6|2,3:2|3:2,0:0:0:0:
394,115,69838,1,2,0:0:0:0:
337,59,70096,2,0,P|277:102|172:90,1,160,10|2,0:0|3:2,0:0:0:0:
126,57,70872,1,10,0:0:0:0:
82,124,71131,1,2,0:0:0:0:
149,167,71389,5,2,3:2:0:0:
105,234,71648,1,2,0:0:0:0:
105,234,71777,1,2,3:2:0:0:
105,234,71907,1,2,0:0:0:0:
172,276,72165,2,0,P|227:276|271:259,1,80,10|0,0:0|0:0,0:0:0:0:
299,205,72682,1,2,3:2:0:0:
379,215,72941,1,10,0:0:0:0:
411,289,73200,1,2,0:0:0:0:
491,299,73458,6,0,P|500:238|489:168,1,120,2|2,3:2|3:2,0:0:0:0:
472,145,73976,1,0,0:0:0:0:
406,100,74234,2,0,L|240:105,1,160,10|2,0:0|3:2,0:0:0:0:
191,163,75010,1,10,0:0:0:0:
133,108,75269,1,2,0:0:0:0:
60,141,75527,6,0,L|54:261,1,120,2|2,3:2|3:2,0:0:0:0:
75,295,76045,1,2,0:0:0:0:
138,247,76303,2,0,P|216:243|310:282,1,160,2|2,3:2|3:2,0:0:0:0:
351,323,77079,1,10,0:0:0:0:
403,264,77338,1,10,0:0:0:0:
403,264,77467,1,8,0:0:0:0:
403,264,77596,6,0,L|401:133,1,120,6|0,3:2|3:2,0:0:0:0:
395,104,78114,1,0,0:0:0:0:
327,61,78372,2,0,P|294:99|176:118,1,160,8|2,0:0|3:2,0:0:0:0:
115,94,79148,1,10,0:0:0:0:
53,146,79407,1,2,0:0:0:0:
66,226,79665,6,0,P|126:236|217:221,1,120,6|2,3:2|3:2,0:0:0:0:
223,216,80182,1,2,0:0:0:0:
284,164,80441,2,0,P|262:225|282:331,1,160,10|2,0:0|3:2,0:0:0:0:
223,379,81217,2,0,P|183:345|146:338,1,80,10|2,0:0|0:0,0:0:0:0:
85,375,81734,5,6,3:2:0:0:
18,331,81993,1,2,0:0:0:0:
18,331,82122,1,2,3:2:0:0:
18,331,82251,2,0,L|18:251,1,80,2|10,0:0|0:0,0:0:0:0:
91,218,82769,2,0,L|91:138,1,80,2|0,0:0|3:2,0:0:0:0:
36,78,83286,1,10,0:0:0:0:
96,23,83545,1,2,0:0:0:0:
151,83,83803,6,0,P|224:94|302:74,1,120,6|0,3:2|3:2,0:0:0:0:
306,73,84320,1,0,0:0:0:0:
353,8,84579,2,0,L|361:177,1,160,8|0,0:0|3:2,0:0:0:0:
326,240,85355,1,8,0:0:0:0:
253,205,85614,2,0,L|251:178,3,26.6666666666667,8|8|4|0,0:3|0:3|0:3|3:2,0:0:0:0:
219,278,86131,6,0,P|161:284|93:273,1,120,6|6,3:2|3:2,0:0:0:0:
163,377,86907,2,0,P|221:371|289:382,1,120,6|6,3:2|3:2,0:0:0:0:
374,304,87682,1,6,3:2:0:0:
326,240,87941,6,0,P|322:180|334:140,1,80,6|2,3:2|0:0,0:0:0:0:
350,84,88458,2,0,P|290:88|250:76,1,80,10|2,0:0|0:0,0:0:0:0:
237,62,88846,1,2,0:0:0:0:
237,62,88976,2,0,L|142:72,1,80,0|2,3:2|0:0,0:0:0:0:
95,120,89493,1,10,0:0:0:0:
144,182,89751,1,2,0:0:0:0:
82,232,90010,6,0,P|80:299|86:325,1,80,2|0,3:2|0:0,0:0:0:0:
140,366,90527,2,0,P|179:370|219:365,1,80,10|0,0:0|0:0,0:0:0:0:
274,308,91045,2,0,P|278:268|273:228,1,80,2|0,3:2|0:0,0:0:0:0:
215,172,91562,2,0,P|210:132|214:92,1,80,10|0,0:0|0:0,0:0:0:0:
269,33,92079,6,0,P|366:27|418:70,1,160,2|8,3:2|0:0,0:0:0:0:
445,145,92855,1,0,0:0:0:0:
445,145,92984,1,0,0:0:0:0:
445,145,93114,2,0,L|445:232,1,80,2|0,3:2|0:0,0:0:0:0:
405,294,93631,1,10,0:0:0:0:
336,254,93889,1,2,0:0:0:0:
296,323,94148,6,0,P|217:334|132:316,1,160,2|8,3:2|0:0,0:0:0:0:
78,266,94924,1,2,0:0:0:0:
78,266,95053,1,2,0:0:0:0:
78,266,95182,1,2,3:2:0:0:
130,205,95441,1,8,0:0:0:0:
70,153,95700,1,8,0:0:0:0:
123,93,95958,1,8,0:0:0:0:
123,93,96088,1,8,0:0:0:0:
123,93,96217,6,0,P|213:75|285:108,1,160,6|10,3:2|0:0,0:0:0:0:
324,174,96993,1,2,0:0:0:0:
324,174,97122,1,2,0:0:0:0:
324,174,97251,2,0,L|322:258,1,80,0|2,3:2|0:0,0:0:0:0:
343,331,97769,1,10,0:0:0:0:
423,335,98027,1,2,0:0:0:0:
451,260,98286,6,0,P|457:199|439:87,1,160,2|8,3:2|0:0,0:0:0:0:
382,50,99062,1,2,0:0:0:0:
382,50,99191,1,2,0:0:0:0:
382,50,99320,2,0,L|299:57,1,80,2|2,3:2|0:0,0:0:0:0:
243,111,99838,2,0,L|160:104,1,80,10|2,0:0|0:0,0:0:0:0:
109,44,100355,6,0,P|132:103|123:216,1,160,2|8,3:2|0:0,0:0:0:0:
77,259,101131,1,0,0:0:0:0:
77,259,101260,1,0,0:0:0:0:
77,259,101389,2,0,L|79:343,1,80,0|0,3:2|0:0,0:0:0:0:
148,378,101907,1,8,0:0:0:0:
189,310,102165,1,8,0:0:0:0:
189,310,102295,1,8,0:0:0:0:
189,309,102424,6,0,P|255:264|322:313,1,160,6|8,3:2|0:0,0:0:0:0:
364,378,103200,1,0,0:0:0:0:
364,378,103329,1,0,0:0:0:0:
364,378,103458,1,6,3:2:0:0:
433,338,103717,1,8,0:3:0:0:
392,270,103976,2,0,P|389:216|397:174,1,80,8|2,0:0|0:0,0:0:0:0:
449,134,104493,6,0,P|371:145|300:112,1,160,6|8,3:2|0:0,0:0:0:0:
256,45,105269,1,2,0:0:0:0:
211,112,105527,2,0,P|140:145|62:134,1,160,2|10,3:2|0:0,0:0:0:0:
0,185,106303,1,2,0:0:0:0:
51,246,106562,6,0,P|58:296|55:333,1,80,2|0,3:2|0:0,0:0:0:0:
117,376,107079,1,10,0:0:0:0:
168,316,107338,1,2,0:0:0:0:
229,367,107596,2,0,P|294:366|321:361,1,80,2|2,3:2|0:0,0:0:0:0:
363,305,108114,2,0,P|362:240|357:213,1,80,10|2,0:0|0:0,0:0:0:0:
301,171,108631,6,0,P|366:180|426:85,1,160,2|8,3:2|0:0,0:0:0:0:
386,45,109407,1,2,0:0:0:0:
386,45,109536,1,2,0:0:0:0:
386,45,109665,2,0,P|320:42|287:48,1,80,2|2,3:2|0:0,0:0:0:0:
256,106,110182,1,10,0:0:0:0:
205,43,110441,1,2,0:0:0:0:
142,93,110700,6,0,P|116:166|147:266,1,160,2|8,3:2|0:0,0:0:0:0:
179,321,111476,1,8,0:3:0:0:
179,321,111605,1,8,0:3:0:0:
179,321,111734,1,2,0:0:0:0:
249,284,111993,2,0,P|303:278|375:290,1,120,4|4,3:2|3:2,0:0:0:0:
435,188,112769,6,0,P|367:195|278:180,1,160,6|8,3:2|0:0,0:0:0:0:
222,121,113545,1,2,0:0:0:0:
222,121,113674,1,2,0:0:0:0:
222,121,113803,2,0,P|142:114|64:129,1,160,2|8,3:2|0:0,0:0:0:0:
15,192,114579,1,2,0:0:0:0:
64,254,114838,6,0,P|142:269|222:263,1,160,2|10,3:2|0:0,0:0:0:0:
277,204,115614,1,2,0:0:0:0:
277,204,115743,1,2,0:0:0:0:
277,204,115872,2,0,L|365:210,1,80,2|0,3:2|0:0,0:0:0:0:
419,259,116389,1,10,0:0:0:0:
408,338,116648,1,2,0:0:0:0:
334,368,116907,6,0,P|216:368|165:359,1,160,2|8,3:2|0:0,0:0:0:0:
118,305,117682,1,0,0:0:0:0:
118,305,117812,1,0,0:0:0:0:
118,305,117941,2,0,L|124:203,1,80,0|0,3:2|0:0,0:0:0:0:
157,153,118458,1,8,0:0:0:0:
157,153,118588,1,8,0:3:0:0:
157,153,118717,1,8,0:3:0:0:
203,219,118976,1,4,3:2:0:0:
203,219,120527,5,4,0:3:0:0:
203,219,121045,6,0,P|294:222|363:153,1,160,6|8,3:2|0:0,0:0:0:0:
318,108,121820,1,2,0:0:0:0:
318,108,121950,1,2,0:0:0:0:
318,108,122079,2,0,P|256:101|216:110,1,80,2|0,3:2|0:0,0:0:0:0:
170,145,122596,1,8,0:0:0:0:
100,107,122855,1,0,0:0:0:0:
100,107,122984,1,8,0:0:0:0:
44,213,123372,6,0,P|53:299|44:331,1,120,4|4,3:2|3:2,0:0:0:0:
158,360,124148,2,0,P|256:256|353:361,1,320,4|6,3:2|0:0,0:0:0:0:
429,334,125441,5,8,0:3:0:0:
429,333,125700,2,0,P|429:314|429:294,1,40,2|8,0:0|0:3,0:0:0:0:
389,224,126217,2,0,P|388:204|389:184,2,40,4|8|2,0:3|0:3|0:3,0:0:0:0:
429,293,126993,5,2,0:0:0:0:
469,224,127251,2,0,P|470:204|469:184,3,40,2|8|2|8,0:0|0:3|0:2|0:3,0:0:0:0:
429,115,128286,2,0,P|428:95|429:75,1,40,4|8,0:3|0:3,0:0:0:0:
370,20,128803,2,0,P|350:20|330:19,1,40,2|2,0:3|0:2,0:0:0:0:
275,79,129320,6,0,P|275:98|274:118,1,40,10|8,0:3|0:3,0:0:0:0:
218,177,129838,6,0,L|176:177,1,40,8|8,0:3|0:3,0:0:0:0:
167,257,130456,6,0,L|220:259,1,40,8|2,0:3|0:2,0:0:0:0:
280,231,131041,6,0,P|301:230|325:237,1,40,8|4,0:3|0:3,0:0:0:0:
365,299,131728,6,0,P|383:303|403:303,1,40,2|8,0:2|0:3,0:0:0:0:
468,258,132450,6,0,L|474:199,1,40,8|8,0:3|0:3,0:0:0:0:
425,155,133190,6,0,L|380:148,1,40,4|8,0:3|0:3,0:0:0:0:
340,86,134083,6,0,L|294:79,1,40,8|4,0:3|0:3,0:0:0:0:
278,68,136909,5,6,0:0:0:0:
256,192,137143,12,0,147221,0:0:0:0:
