osu file format v14

[General]
AudioFilename: audio.mp3
AudioLeadIn: 0
PreviewTime: 47814
Countdown: 1
SampleSet: Normal
StackLeniency: 0.7
Mode: 1
LetterboxInBreaks: 0
WidescreenStoryboard: 1

[Editor]
DistanceSpacing: 0.5
BeatDivisor: 2
GridSize: 32
TimelineZoom: 0.8

[Metadata]
Title:Catharsis Dream
TitleUnicode:カタルシスの夢
Artist:Maiko
ArtistUnicode:舞子
Creator:DukeDukeDura
Version:Futsuu
Source:Lilith Vocal Collection
Tags:
BeatmapID:1486919
BeatmapSetID:702740

[Difficulty]
HPDrainRate:5
CircleSize:5
OverallDifficulty:5
ApproachRate:5
SliderMultiplier:1.4
SliderTickRate:1

[Events]
//Background and Video events
0,0,"bg.jpg",0,110
//Break Periods
//Storyboard Layer 0 (Background)
//Storyboard Layer 1 (Fail)
//Storyboard Layer 2 (Pass)
//Storyboard Layer 3 (Foreground)
//Storyboard Sound Samples

[TimingPoints]
4786,384.615384615385,4,1,0,100,1,0
78632,-100,4,1,0,100,0,1
103247,-100,4,1,0,100,0,0

[HitObjects]
256,192,4786,5,8,0:0:0:0:
256,192,5555,1,0,0:0:0:0:
256,192,5939,1,0,0:0:0:0:
256,192,6324,1,8,0:0:0:0:
256,192,7093,1,0,0:0:0:0:
256,192,7862,1,8,0:0:0:0:
256,192,8632,1,0,0:0:0:0:
256,192,9016,1,0,0:0:0:0:
256,192,9401,1,8,0:0:0:0:
256,192,10170,1,8,0:0:0:0:
256,192,10939,1,4,0:0:0:0:
256,192,11709,1,0,0:0:0:0:
256,192,12093,1,0,0:0:0:0:
256,192,12286,1,0,0:0:0:0:
256,192,12478,1,8,0:0:0:0:
256,192,13247,1,0,0:0:0:0:
256,192,13632,1,8,0:0:0:0:
256,192,14016,1,0,0:0:0:0:
256,192,14786,1,0,0:0:0:0:
256,192,15170,1,0,0:0:0:0:
256,192,15362,1,8,0:0:0:0:
256,192,15555,1,8,0:0:0:0:
256,192,16324,1,0,0:0:0:0:
256,192,16709,1,8,0:0:0:0:
256,192,17093,1,0,0:0:0:0:
256,192,17862,1,0,0:0:0:0:
256,192,18247,1,0,0:0:0:0:
256,192,18439,1,0,0:0:0:0:
256,192,18632,1,8,0:0:0:0:
256,192,19401,1,0,0:0:0:0:
256,192,19786,1,8,0:0:0:0:
256,192,20170,1,0,0:0:0:0:
256,192,20939,1,0,0:0:0:0:
256,192,21324,1,0,0:0:0:0:
256,192,21516,1,8,0:0:0:0:
256,192,21709,1,8,0:0:0:0:
256,192,22478,1,0,0:0:0:0:
256,192,22862,1,8,0:0:0:0:
256,192,23055,1,8,0:0:0:0:
256,192,23247,1,0,0:0:0:0:
256,192,24016,1,8,0:0:0:0:
256,192,24786,1,0,0:0:0:0:
256,192,25170,1,8,0:0:0:0:
256,192,25939,1,8,0:0:0:0:
256,192,26324,1,0,0:0:0:0:
256,192,26709,1,8,0:0:0:0:
256,192,27862,5,0,0:0:0:0:
256,192,28247,5,8,0:0:0:0:
256,192,28632,1,0,0:0:0:0:
256,192,29401,1,0,0:0:0:0:
256,192,30170,1,8,0:0:0:0:
256,192,30939,1,0,0:0:0:0:
256,192,31324,1,8,0:0:0:0:
256,192,32093,1,8,0:0:0:0:
256,192,32478,1,0,0:0:0:0:
256,192,32862,1,8,0:0:0:0:
256,192,34016,1,0,0:0:0:0:
256,192,34305,1,8,0:0:0:0:
256,192,34593,1,0,0:0:0:0:
256,192,35555,1,4,0:0:0:0:
256,192,35939,1,8,0:0:0:0:
256,192,36324,1,0,0:0:0:0:
256,192,36516,1,0,0:0:0:0:
256,192,36709,1,8,0:0:0:0:
256,192,37093,1,0,0:0:0:0:
256,192,37862,1,8,0:0:0:0:
256,192,38632,1,0,0:0:0:0:
256,192,39016,1,8,0:0:0:0:
256,192,39401,1,0,0:0:0:0:
256,192,39593,1,8,0:0:0:0:
256,192,39786,1,8,0:0:0:0:
256,192,40170,1,0,0:0:0:0:
256,192,40939,1,8,0:0:0:0:
256,192,41709,1,0,0:0:0:0:
256,192,42093,1,8,0:0:0:0:
256,192,42478,1,0,0:0:0:0:
256,192,42670,1,0,0:0:0:0:
256,192,42862,1,8,0:0:0:0:
256,192,43247,1,0,0:0:0:0:
256,192,44016,1,8,0:0:0:0:
256,192,44786,1,0,0:0:0:0:
256,192,45170,1,8,0:0:0:0:
256,192,45555,1,0,0:0:0:0:
256,192,45747,1,8,0:0:0:0:
256,192,45939,1,8,0:0:0:0:
256,192,46324,1,0,0:0:0:0:
256,192,47093,1,8,0:0:0:0:
256,192,47286,1,0,0:0:0:0:
256,192,47478,1,8,0:0:0:0:
256,192,47862,1,4,0:0:0:0:
256,192,48632,1,0,0:0:0:0:
256,192,49016,1,0,0:0:0:0:
256,192,49209,1,8,0:0:0:0:
256,192,49401,5,8,0:0:0:0:
256,192,49978,1,8,0:0:0:0:
256,192,50170,5,0,0:0:0:0:
256,192,50555,1,8,0:0:0:0:
256,192,50939,1,0,0:0:0:0:
256,192,51324,1,8,0:0:0:0:
256,192,51516,1,8,0:0:0:0:
256,192,51709,1,0,0:0:0:0:
256,192,52093,1,8,0:0:0:0:
256,192,52478,1,0,0:0:0:0:
256,192,53247,1,8,0:0:0:0:
256,192,54016,1,0,0:0:0:0:
256,192,54401,1,0,0:0:0:0:
256,192,54593,1,8,0:0:0:0:
256,192,54786,1,8,0:0:0:0:
256,192,55170,1,0,0:0:0:0:
256,192,55555,1,8,0:0:0:0:
256,192,55939,1,8,0:0:0:0:
256,192,56132,1,0,0:0:0:0:
256,192,56324,1,0,0:0:0:0:
256,192,56709,1,8,0:0:0:0:
256,192,57093,1,0,0:0:0:0:
256,192,57862,1,8,0:0:0:0:
256,192,58632,1,0,0:0:0:0:
256,192,58824,1,0,0:0:0:0:
256,192,59016,1,8,0:0:0:0:
256,192,59401,1,0,0:0:0:0:
256,192,60170,1,8,0:0:0:0:
256,192,60555,1,0,0:0:0:0:
256,192,60939,1,8,0:0:0:0:
256,192,61324,1,0,0:0:0:0:
256,192,61516,1,8,0:0:0:0:
256,192,61709,5,8,0:0:0:0:
256,192,62286,1,0,0:0:0:0:
256,192,62478,5,8,0:0:0:0:
256,192,62862,1,8,0:0:0:0:
256,192,63247,1,0,0:0:0:0:
256,192,63632,1,8,0:0:0:0:
256,192,63824,1,8,0:0:0:0:
256,192,64016,1,0,0:0:0:0:
256,192,64401,1,8,0:0:0:0:
256,192,64786,1,0,0:0:0:0:
256,192,65555,1,8,0:0:0:0:
256,192,66324,1,0,0:0:0:0:
256,192,66709,1,8,0:0:0:0:
256,192,66901,1,0,0:0:0:0:
256,192,67093,1,8,0:0:0:0:
256,192,67478,1,8,0:0:0:0:
256,192,67670,1,0,0:0:0:0:
256,192,68055,1,0,0:0:0:0:
256,192,68247,1,8,0:0:0:0:
256,192,68632,1,0,0:0:0:0:
256,192,69016,1,8,0:0:0:0:
256,192,69401,1,0,0:0:0:0:
256,192,69593,1,8,0:0:0:0:
256,192,69978,1,8,0:0:0:0:
256,192,70170,1,0,0:0:0:0:
256,192,70555,1,8,0:0:0:0:
256,192,70939,1,0,0:0:0:0:
256,192,71709,1,0,0:0:0:0:
256,192,72478,5,8,0:0:0:0:
256,192,73055,1,8,0:0:0:0:
256,192,73632,1,0,0:0:0:0:
256,192,74786,1,8,0:0:0:0:
256,192,75555,1,0,0:0:0:0:
256,192,77093,1,0,0:0:0:0:
256,192,77478,1,8,0:0:0:0:
256,192,77862,1,0,0:0:0:0:
256,192,78632,1,12,0:0:0:0:
256,192,79016,1,8,0:0:0:0:
256,192,79209,1,0,0:0:0:0:
256,192,79593,1,0,0:0:0:0:
256,192,79786,1,0,0:0:0:0:
256,192,79978,1,8,0:0:0:0:
256,192,80362,1,0,0:0:0:0:
256,192,80555,1,8,0:0:0:0:
256,192,80747,1,0,0:0:0:0:
256,192,81132,1,8,0:0:0:0:
256,192,81516,1,8,0:0:0:0:
256,192,81709,1,0,0:0:0:0:
256,192,81901,1,8,0:0:0:0:
256,192,82093,1,0,0:0:0:0:
256,192,82286,1,8,0:0:0:0:
256,192,82670,1,0,0:0:0:0:
256,192,83055,1,0,0:0:0:0:
256,192,83247,1,8,0:0:0:0:
256,192,83439,1,0,0:0:0:0:
256,192,83824,1,8,0:0:0:0:
256,192,84016,1,0,0:0:0:0:
256,192,84786,1,8,0:0:0:0:
256,192,85170,1,8,0:0:0:0:
256,192,85362,1,0,0:0:0:0:
256,192,85747,1,0,0:0:0:0:
256,192,85939,1,8,0:0:0:0:
256,192,86132,1,8,0:0:0:0:
256,192,86324,1,0,0:0:0:0:
256,192,86901,1,0,0:0:0:0:
256,192,87093,1,8,0:0:0:0:
256,192,87478,1,0,0:0:0:0:
256,192,87862,1,8,0:0:0:0:
256,192,88439,1,8,0:0:0:0:
256,192,88632,1,0,0:0:0:0:
256,192,88824,1,8,0:0:0:0:
256,192,89209,1,0,0:0:0:0:
256,192,89401,1,8,0:0:0:0:
256,192,89786,1,8,0:0:0:0:
256,192,89978,1,0,0:0:0:0:
256,192,90939,1,4,0:0:0:0:
256,192,91516,1,8,0:0:0:0:
256,192,91901,1,0,0:0:0:0:
256,192,92093,1,0,0:0:0:0:
256,192,92286,1,8,0:0:0:0:
256,192,92670,1,0,0:0:0:0:
256,192,92862,1,8,0:0:0:0:
256,192,93055,1,0,0:0:0:0:
256,192,93439,1,8,0:0:0:0:
256,192,93824,1,8,0:0:0:0:
256,192,94016,1,0,0:0:0:0:
256,192,94209,1,8,0:0:0:0:
256,192,94401,1,0,0:0:0:0:
256,192,94593,1,8,0:0:0:0:
256,192,94978,1,0,0:0:0:0:
256,192,95362,1,0,0:0:0:0:
256,192,95555,1,8,0:0:0:0:
256,192,95747,1,8,0:0:0:0:
256,192,96132,1,8,0:0:0:0:
256,192,96324,1,0,0:0:0:0:
256,192,97093,1,8,0:0:0:0:
256,192,97478,1,8,0:0:0:0:
256,192,97670,1,0,0:0:0:0:
256,192,98055,1,0,0:0:0:0:
256,192,98247,1,8,0:0:0:0:
256,192,98439,1,8,0:0:0:0:
256,192,98632,1,0,0:0:0:0:
256,192,99209,1,0,0:0:0:0:
256,192,99401,1,8,0:0:0:0:
256,192,99786,1,0,0:0:0:0:
256,192,100170,1,8,0:0:0:0:
256,192,100555,1,8,0:0:0:0:
256,192,100747,1,0,0:0:0:0:
256,192,101132,1,8,0:0:0:0:
256,192,101709,1,0,0:0:0:0:
256,192,102093,5,8,0:0:0:0:
256,192,102478,1,0,0:0:0:0:
256,192,102862,1,8,0:0:0:0:
256,192,103055,1,8,0:0:0:0:
256,192,103247,5,0,0:0:0:0:
256,192,104016,1,0,0:0:0:0:
256,192,104593,1,8,0:0:0:0:
256,192,105170,1,0,0:0:0:0:
256,192,105362,1,8,0:0:0:0:
256,192,105555,1,0,0:0:0:0:
256,192,105939,1,8,0:0:0:0:
256,192,106324,1,4,0:0:0:0:
256,192,106709,1,8,0:0:0:0:
256,192,107093,1,0,0:0:0:0:
256,192,107286,1,8,0:0:0:0:
256,192,107478,1,8,0:0:0:0:
256,192,107670,1,4,0:0:0:0:
