osu file format v14

[General]
AudioFilename: audio.mp3
AudioLeadIn: 0
PreviewTime: 79945
Countdown: 0
SampleSet: Soft
StackLeniency: 0.3
Mode: 0
LetterboxInBreaks: 1
WidescreenStoryboard: 1

[Editor]
Bookmarks: 23854,34067,51939
DistanceSpacing: 0.9
BeatDivisor: 4
GridSize: 16
TimelineZoom: 1.4

[Metadata]
Title:Maid-chan yori.
TitleUnicode:Maid-chan yori.
Artist:Maid-chan (CV: Horie Yui)
ArtistUnicode:Maid-chan (CV: Horie Yui)
Creator:Ni-So
Version:collab normal
Source:Sakurasou no Pet na Kanojo
Tags:Sakurasou no Pet na Kanojo
BeatmapID:1362522
BeatmapSetID:427024

[Difficulty]
HPDrainRate:3
CircleSize:3
OverallDifficulty:5
ApproachRate:5
SliderMultiplier:0.899999999999999
SliderTickRate:1

[Events]
//Background and Video events
0,0,"Maid-chanwsssss.png",0,0
//Break Periods
2,41927,50739
2,110543,114729
//Storyboard Layer 0 (Background)
//Storyboard Layer 1 (Fail)
//Storyboard Layer 2 (Pass)
//Storyboard Layer 3 (Foreground)
//Storyboard Sound Samples

[TimingPoints]
13642,319.148936170213,4,2,0,70,1,0
34067,-83.3333333333333,4,2,0,70,0,1
41727,-83.3333333333333,4,2,0,70,0,0
80024,-83.3333333333333,4,2,0,70,0,1
99173,-83.3333333333333,4,2,0,70,0,0
100450,-83.3333333333333,4,2,0,70,0,1
110663,-83.3333333333333,4,2,0,70,0,0
115929,-100,4,2,0,70,0,0

[HitObjects]
76,278,13641,6,0,P|219:288|306:205,1,270
316,125,14918,2,0,L|32:80,1,270
19,158,16195,2,0,B|50:355|50:355|95:283,1,270
137,232,17471,2,0,P|222:202|401:245,1,270
338,301,18748,6,0,P|431:315|434:168,1,270
389,113,20024,2,0,B|324:98|324:98|122:130,1,270
256,192,21301,12,0,23535,0:0:0:0:
43,311,23854,6,0,B|209:270|124:370|322:312,1,270
383,296,25131,2,0,B|355:162|355:162|392:22,1,270
308,36,26407,2,0,P|189:59|43:1,1,270
17,81,27684,2,0,L|34:188,1,89.9999999999999
111,175,28322,2,0,L|93:282,1,89.9999999999999
85,344,28961,6,0,P|209:369|342:305,1,270
284,248,30237,2,0,P|278:101|371:29,1,270
447,35,31514,1,0,0:0:0:0:
469,195,32152,1,0,0:0:0:0:
414,347,32790,2,0,L|305:329,1,89.9999999999999
249,362,33429,2,0,L|140:344,1,89.9999999999999
106,266,34067,6,0,P|125:207|108:142,1,107.999996704102
53,89,34705,2,0,L|168:70,1,107.999996704102
256,85,35344,2,0,B|304:105|304:105|420:87,2,161.999995056152
204,167,36620,2,0,P|219:215|209:279,1,107.999996704102
261,355,37259,2,0,P|309:340|373:350,1,107.999996704102
393,254,37897,6,0,L|413:127,2,107.999996704102
459,325,38854,1,0,0:0:0:0:
365,346,39173,2,0,B|248:363|130:297|130:297|207:264,1,323.999990112305
196,168,40450,2,0,L|187:114,6,53.9999983520508
285,206,41727,5,0,0:0:0:0:
332,281,51939,6,0,L|222:263,1,107.999996704102
279,182,52578,2,0,L|388:199,1,107.999996704102
448,272,53216,2,0,P|481:210|470:152,1,107.999996704102
450,81,53854,1,0,0:0:0:0:
450,81,54173,1,0,0:0:0:0:
363,36,54493,6,0,P|310:44|255:33,1,107.999996704102
161,48,55131,2,0,L|180:168,1,107.999996704102
131,239,55769,2,0,P|174:313|259:337,2,161.999995056152
228,234,57046,2,0,P|391:235|505:125,1,323.999990112305
462,41,58322,2,0,L|345:41,1,107.999996704102
256,41,58961,1,0,0:0:0:0:
158,41,59280,1,0,0:0:0:0:
90,111,59599,6,0,P|119:163|116:230,1,107.999996704102
90,302,60237,2,0,L|212:282,1,107.999996704102
291,264,60876,1,0,0:0:0:0:
386,248,61195,1,0,0:0:0:0:
370,153,61514,1,0,0:0:0:0:
275,169,61833,1,0,0:0:0:0:
256,192,62152,12,0,64386,0:0:0:0:
148,228,64705,6,0,L|120:60,2,161.999995056152
229,285,65982,2,0,P|161:325|86:303,2,161.999995056152
244,189,67259,2,0,B|234:138|234:138|251:19,2,161.999995056152
319,250,68535,2,0,L|447:229,1,107.999996704102
383,145,69173,2,0,L|511:124,1,107.999996704102
439,44,69812,6,0,P|308:65|131:0,1,323.999990112305
122,97,71088,2,0,B|151:141|151:141|138:250,2,161.999995056152
25,81,72365,2,0,L|25:189,1,107.999996704102
27,286,73003,2,0,P|51:330|106:363,1,107.999996704102
189,326,73642,2,0,L|316:305,1,107.999996704102
391,290,74280,2,0,B|382:234|382:234|402:164,1,107.999996704102
256,192,74918,12,0,77152,0:0:0:0:
405,209,77471,6,0,L|474:209,2,53.9999983520508
307,209,78110,2,0,L|251:209,1,53.9999983520508
209,295,78588,1,0,0:0:0:0:
91,208,79067,2,0,L|37:208,2,53.9999983520508
273,141,80024,6,0,L|401:133,1,107.999996704102
341,223,80663,2,0,L|469:215,1,107.999996704102
410,305,81301,2,0,L|282:313,1,107.999996704102
205,324,81939,1,0,0:0:0:0:
244,234,82259,1,0,0:0:0:0:
147,242,82578,6,0,P|101:243|34:210,1,107.999996704102
67,124,83216,2,0,P|115:146|169:146,1,107.999996704102
264,127,83854,2,0,P|316:116|360:85,1,107.999996704102
398,175,84493,2,0,P|361:202|287:215,1,107.999996704102
212,253,85131,6,0,P|170:333|93:342,2,161.999995056152
114,248,86407,2,0,P|65:171|96:100,2,161.999995056152
168,167,87684,2,0,L|348:168,2,161.999995056152
172,69,88961,1,0,0:0:0:0:
269,67,89280,1,0,0:0:0:0:
366,70,89599,1,0,0:0:0:0:
373,166,89918,2,0,L|249:167,1,107.999996704102
262,263,90556,1,0,0:0:0:0:
164,264,90876,1,0,0:0:0:0:
66,264,91195,1,0,0:0:0:0:
80,160,91514,6,0,P|48:80|48:48,1,107.999996704102
160,96,92152,1,0,0:0:0:0:
240,32,92471,2,0,P|272:112|272:144,1,107.999996704102
288,224,93110,6,0,L|413:223,1,107.999996704102
400,320,93748,1,0,0:0:0:0:
304,320,94067,1,0,0:0:0:0:
208,320,94386,1,0,0:0:0:0:
113,256,94705,2,0,P|173:202|201:204,1,107.999996704102
199,105,95344,6,0,L|322:105,1,107.999996704102
375,36,95982,2,0,P|414:118|403:145,1,107.999996704102
338,192,96620,1,0,0:0:0:0:
422,239,96939,1,0,0:0:0:0:
381,321,97259,2,0,P|303:294|290:260,1,107.999996704102
206,233,97897,6,0,L|208:341,1,107.999996704102
112,324,98535,2,0,P|65:244|78:217,1,107.999996704102
96,145,99173,2,0,L|207:145,1,107.999996704102
300,135,99812,2,0,L|301:249,1,107.999996704102
294,339,100450,2,0,L|181:339,2,107.999996704102
390,332,101407,2,0,P|401:232|389:209,1,107.999996704102
313,183,102046,1,0,0:0:0:0:
388,121,102365,2,0,P|300:87|278:101,1,107.999996704102
198,91,103003,6,0,L|196:202,1,107.999996704102
293,199,103642,2,0,L|293:311,1,107.999996704102
196,297,104280,1,0,0:0:0:0:
113,244,104599,1,0,0:0:0:0:
74,154,104918,2,0,P|169:156|187:174,1,107.999996704102
180,63,105556,6,0,L|293:62,1,107.999996704102
385,70,106195,2,0,L|387:190,1,107.999996704102
289,185,106833,1,0,0:0:0:0:
191,186,107152,1,0,0:0:0:0:
102,145,107471,2,0,P|163:95|192:100,1,107.999996704102
282,80,108110,6,0,L|399:79,1,107.999996704102
388,176,108748,1,0,0:0:0:0:
388,273,109067,1,0,0:0:0:0:
290,274,109386,2,0,L|176:273,3,107.999996704102
248,135,115929,6,0,L|368:133,2,107.999996704102
249,232,116966,1,0,0:0:0:0:
249,329,117285,1,0,0:0:0:0:
256,192,117604,12,0,118961,0:0:0:0:
256,160,119200,5,0,0:0:0:0:
256,160,119519,2,0,L|256:288,1,112.5
