osu file format v14

[General]
AudioFilename: 123.mp3
AudioLeadIn: 0
PreviewTime: 124913
Countdown: 1
SampleSet: None
StackLeniency: 0.7
Mode: 0
LetterboxInBreaks: 0
WidescreenStoryboard: 1

[Editor]
Bookmarks: 80513
DistanceSpacing: 1
BeatDivisor: 1
GridSize: 8
TimelineZoom: 3.499998

[Metadata]
Title:Ying Huo Chong Zhi Yuan
TitleUnicode:萤火虫の怨
Artist:Mai zang
ArtistUnicode:埋葬
Creator:- Remilia
Version:AR9
Source:Dynamix
Tags:Chinese, Music Games
BeatmapID:895118
BeatmapSetID:412645

[Difficulty]
HPDrainRate:5
CircleSize:4
OverallDifficulty:8
ApproachRate:9
SliderMultiplier:1.6
SliderTickRate:1

[Events]
//Background and Video events
0,0,"1429773392845.jpg",0,0
//Break Periods
//Storyboard Layer 0 (Background)
//Storyboard Layer 1 (Fail)
//Storyboard Layer 2 (Pass)
//Storyboard Layer 3 (Foreground)
//Storyboard Sound Samples

[TimingPoints]
1313,300,4,2,0,45,1,0
24113,-83.3333333333333,4,2,0,45,0,0
62513,-83.3333333333333,4,2,0,45,0,1
72113,-83.3333333333333,4,2,0,45,0,1
81713,-83.3333333333333,4,2,0,45,0,0
91313,-133.333333333333,4,2,0,45,0,0
96113,-100,4,2,0,45,0,0
98513,-66.6666666666667,4,2,0,45,0,0
100609,-50,4,2,0,45,0,0
104513,-100,4,2,0,45,0,0
124913,-100,4,2,0,45,0,1
142013,-100,4,2,0,45,0,0

[Colours]
Combo1 : 255,128,0
Combo2 : 255,128,255
Combo3 : 18,124,255
Combo4 : 255,83,83

[HitObjects]
192,72,4913,5,0,0:0:0:0:
232,160,5063,1,0,0:0:0:0:
312,200,5213,1,0,0:0:0:0:
368,288,5363,1,0,0:0:0:0:
336,376,5513,1,8,0:0:0:0:
120,216,5813,6,0,P|80:264|48:280,1,80
240,168,6113,1,0,0:0:0:0:
56,360,6413,1,0,0:0:0:0:
160,344,6563,1,0,0:0:0:0:
256,328,6713,1,8,0:0:0:0:
475,84,7013,6,0,L|448:160,1,80
320,96,7313,2,0,B|288:72|264:72|264:72|256:104|232:120|232:120|216:136|192:136|192:136|184:112|176:96|176:96|144:40|72:32,1,320,0|8,0:0|0:0,0:0:0:0:
376,320,8213,5,0,0:0:0:0:
120,320,8513,1,0,0:0:0:0:
432,112,9113,1,8,0:0:0:0:
352,64,9413,5,0,0:0:0:0:
352,64,9563,1,0,0:0:0:0:
352,64,9713,5,0,0:0:0:0:
288,144,9863,1,0,0:0:0:0:
232,216,10013,1,0,0:0:0:0:
176,288,10163,1,0,0:0:0:0:
120,360,10313,1,8,0:0:0:0:
96,240,10613,6,0,P|72:304|48:336,1,80
280,80,10913,1,0,0:0:0:0:
352,256,11213,2,0,P|400:208|440:192,1,80
120,360,11513,1,8,0:0:0:0:
168,128,11813,2,0,P|128:72|96:56,1,80
384,240,12113,1,0,0:0:0:0:
256,192,12713,5,8,0:0:0:0:
256,192,13013,1,0,0:0:0:0:
256,192,13313,1,0,0:0:0:0:
256,192,13913,5,8,0:0:0:0:
96,248,14213,2,0,P|72:296|32:336,1,80
224,248,14513,5,0,0:0:0:0:
336,224,14663,1,0,0:0:0:0:
400,136,14813,2,0,P|432:72|472:32,2,80,0|0|4,0:0|0:0|0:0,0:0:0:0:
128,256,15413,2,0,P|104:192|106:154,1,80
128,256,15713,5,0,0:0:0:0:
336,176,15863,1,0,0:0:0:0:
128,256,16013,1,0,0:0:0:0:
336,176,16163,1,0,0:0:0:0:
128,256,16313,5,8,0:0:0:0:
200,120,16463,1,0,0:0:0:0:
356,185,16613,1,0,0:0:0:0:
272,320,16763,1,0,0:0:0:0:
144,88,16913,5,0,0:0:0:0:
296,232,17063,1,0,0:0:0:0:
144,88,17213,1,0,0:0:0:0:
296,232,17363,1,0,0:0:0:0:
328,128,17513,5,0,0:0:0:0:
184,280,17663,1,0,0:0:0:0:
328,128,17813,1,0,0:0:0:0:
184,280,17963,1,0,0:0:0:0:
464,184,18113,5,0,0:0:0:0:
360,184,18263,1,0,0:0:0:0:
280,120,18413,1,0,0:0:0:0:
256,24,18563,1,8,0:0:0:0:
256,344,18713,5,8,0:0:0:0:
231,246,18863,1,0,0:0:0:0:
151,183,19013,1,0,0:0:0:0:
48,182,19163,1,0,0:0:0:0:
400,184,19313,6,0,P|423:135|456:96,1,80
400,184,19613,1,8,0:0:0:0:
400,184,19913,1,8,0:0:0:0:
128,312,20213,1,0,0:0:0:0:
128,312,20363,1,0,0:0:0:0:
200,112,20513,2,0,P|160:72|120:56,1,80
200,112,20813,1,0,0:0:0:0:
352,256,21113,1,8,0:0:0:0:
352,256,21413,1,0,0:0:0:0:
80,152,21713,6,0,P|144:96|200:0,1,160
40,320,22313,2,0,P|96:256|168:208,1,160
352,112,22913,1,0,0:0:0:0:
352,112,23213,1,0,0:0:0:0:
344,352,23513,6,0,P|376:304|424:272,1,80,8|0,0:0|0:0,0:0:0:0:
392,289,23813,1,0,0:0:0:0:
392,289,23963,1,0,0:0:0:0:
80,128,24113,6,0,P|144:80|160:48,1,95.9999970703126
152,272,24413,2,0,P|108:291|73:324,1,95.9999970703126
256,104,24713,1,8,0:0:0:0:
400,344,25013,2,0,P|440:264|440:232,1,95.9999970703126
440,112,25313,1,0,0:0:0:0:
440,112,25463,1,0,0:0:0:0:
400,344,25613,2,0,P|440:264|440:232,1,95.9999970703126
440,112,25913,1,8,0:0:0:0:
304,72,26213,6,0,P|248:40|208:32,1,95.9999970703126
96,112,26513,1,0,0:0:0:0:
217,33,26663,2,0,P|263:46|304:72,1,95.9999970703126
40,184,26963,1,8,0:0:0:0:
304,184,27113,2,0,P|304:264|296:304,1,95.9999970703126
40,184,27413,1,8,0:0:0:0:
224,272,27563,2,0,P|192:336|160:360,1,95.9999970703126
416,320,27863,5,0,0:0:0:0:
93,333,28013,2,0,P|126:298|143:254,1,95.9999970703126
152,64,28313,1,8,0:0:0:0:
152,64,28463,1,8,0:0:0:0:
440,64,28613,1,8,0:0:0:0:
440,64,28763,1,8,0:0:0:0:
56,88,28913,5,0,0:0:0:0:
208,88,29063,1,0,0:0:0:0:
128,224,29213,1,0,0:0:0:0:
280,224,29363,1,0,0:0:0:0:
400,320,29513,1,8,0:0:0:0:
400,304,29813,2,0,P|448:248|448:216,1,95.9999970703126
88,80,30113,5,0,0:0:0:0:
80,264,30263,2,0,P|144:312|200:320,1,95.9999970703126
208,72,30563,1,0,0:0:0:0:
200,256,30713,2,0,P|264:304|320:312,1,95.9999970703126
278,308,31013,2,0,B|232:288|234:289|200:256,1,95.9999970703126
208,72,31313,1,0,0:0:0:0:
416,256,31463,6,0,P|456:176|472:136,1,95.9999970703126
144,320,31763,1,0,0:0:0:0:
96,152,31913,2,0,L|200:176,1,95.9999970703126
389,221,32213,2,0,L|296:200,1,95.9999970703126
400,320,32513,1,0,0:0:0:0:
400,320,32663,2,0,L|440:280,2,47.9999985351563
136,312,32963,1,0,0:0:0:0:
136,312,33113,2,0,L|88:304,2,47.9999985351563
168,144,33413,5,0,0:0:0:0:
168,144,33563,1,0,0:0:0:0:
416,144,33713,2,0,P|456:80|464:48,1,95.9999970703126
280,192,34013,1,0,0:0:0:0:
192,96,34163,1,0,0:0:0:0:
72,80,34313,1,8,0:0:0:0:
392,176,34613,6,0,P|416:240|424:296,1,95.9999970703126
168,176,34913,1,8,0:0:0:0:
392,176,35213,2,0,P|416:240|424:296,1,95.9999970703126
168,176,35513,1,8,0:0:0:0:
184,336,35813,6,0,P|136:272|128:240,1,95.9999970703126
136,216,36113,1,0,0:0:0:0:
176,176,36263,1,0,0:0:0:0:
232,168,36413,1,0,0:0:0:0:
280,200,36563,1,0,0:0:0:0:
304,248,36713,1,0,0:0:0:0:
184,336,37013,1,8,0:0:0:0:
369,138,37313,5,0,0:0:0:0:
309,305,37463,1,0,0:0:0:0:
142,245,37613,1,8,0:0:0:0:
202,78,37763,1,0,0:0:0:0:
380,209,37913,1,0,0:0:0:0:
238,316,38063,1,0,0:0:0:0:
131,174,38213,1,8,0:0:0:0:
273,67,38363,1,0,0:0:0:0:
416,96,38513,5,0,0:0:0:0:
184,88,38663,2,0,L|168:40,2,47.9999985351563
176,312,38963,1,0,0:0:0:0:
416,312,39113,1,8,0:0:0:0:
416,312,39263,1,0,0:0:0:0:
416,312,39413,1,0,0:0:0:0:
160,312,39563,1,0,0:0:0:0:
160,312,39713,5,0,0:0:0:0:
160,88,39863,2,0,L|104:48,2,47.9999985351563
384,96,40163,1,0,0:0:0:0:
384,96,40313,1,8,0:0:0:0:
384,288,40463,1,0,0:0:0:0:
384,288,40613,1,0,0:0:0:0:
128,288,40763,1,0,0:0:0:0:
184,112,40913,6,0,L|80:56,1,95.9999970703126
400,320,41213,2,0,L|315:274,1,95.9999970703126
120,224,41513,2,0,L|35:178,1,95.9999970703126,8|0,0:0|0:0,0:0:0:0:
456,152,41813,2,0,L|371:106,1,95.9999970703126
328,272,42113,6,0,L|432:328,1,95.9999970703126
112,64,42413,2,0,L|196:109,1,95.9999970703126
392,160,42713,2,0,L|476:205,1,95.9999970703126,8|0,0:0|0:0,0:0:0:0:
56,232,43013,2,0,L|140:277,1,95.9999970703126
448,224,43313,5,0,0:0:0:0:
440,72,43463,1,0,0:0:0:0:
344,208,43613,1,0,0:0:0:0:
320,56,43763,1,0,0:0:0:0:
240,192,43913,1,8,0:0:0:0:
72,96,44213,1,0,0:0:0:0:
160,184,44363,1,0,0:0:0:0:
248,272,44513,1,8,0:0:0:0:
112,176,44813,1,0,0:0:0:0:
225,226,44963,1,0,0:0:0:0:
339,277,45113,1,8,0:0:0:0:
136,136,45413,6,0,P|120:72|96:16,1,95.9999970703126
136,136,45713,1,8,0:0:0:0:
264,96,45863,2,0,P|352:40|376:40,1,95.9999970703126
136,136,46163,1,0,0:0:0:0:
320,112,46313,2,0,P|392:112|440:128,1,95.9999970703126
352,160,46613,2,0,P|416:176|464:208,1,95.9999970703126
384,208,46913,2,0,P|436:247|468:295,1,95.9999970703126
256,272,47213,1,0,0:0:0:0:
256,272,47363,1,0,0:0:0:0:
80,272,47513,2,0,L|80:176,1,95.9999970703126
80,48,47813,1,8,0:0:0:0:
80,48,47963,1,8,0:0:0:0:
80,48,48113,5,0,0:0:0:0:
192,96,48263,1,0,0:0:0:0:
312,64,48413,1,0,0:0:0:0:
408,136,48563,1,0,0:0:0:0:
384,256,48713,1,8,0:0:0:0:
264,200,49013,5,0,0:0:0:0:
144,224,49163,1,0,0:0:0:0:
48,160,49313,1,8,0:0:0:0:
264,200,49613,1,0,0:0:0:0:
144,224,49763,1,0,0:0:0:0:
48,160,49913,1,8,0:0:0:0:
48,160,50213,1,0,0:0:0:0:
144,224,50363,1,0,0:0:0:0:
264,200,50513,1,8,0:0:0:0:
304,352,51113,5,8,0:0:0:0:
416,176,51413,1,0,0:0:0:0:
306,23,51713,1,0,0:0:0:0:
80,152,52313,5,0,0:0:0:0:
88,176,52463,1,0,0:0:0:0:
96,200,52613,1,0,0:0:0:0:
104,224,52763,1,0,0:0:0:0:
472,232,52913,5,0,0:0:0:0:
408,136,53063,1,0,0:0:0:0:
344,232,53213,1,0,0:0:0:0:
280,136,53363,1,0,0:0:0:0:
216,232,53513,1,8,0:0:0:0:
176,336,53813,5,0,0:0:0:0:
84,306,53963,1,0,0:0:0:0:
84,210,54113,1,0,0:0:0:0:
176,180,54263,1,0,0:0:0:0:
232,258,54413,1,8,0:0:0:0:
176,336,54563,5,0,0:0:0:0:
158,240,54713,1,0,0:0:0:0:
243,195,54863,1,0,0:0:0:0:
312,262,55013,1,8,0:0:0:0:
270,348,55163,1,0,0:0:0:0:
176,336,55313,5,0,0:0:0:0:
240,208,55463,1,0,0:0:0:0:
96,216,55613,1,8,0:0:0:0:
256,300,55913,5,0,0:0:0:0:
147,191,56063,1,0,0:0:0:0:
256,83,56213,1,8,0:0:0:0:
364,192,56363,1,0,0:0:0:0:
289,295,56513,5,0,0:0:0:0:
152,225,56663,1,0,0:0:0:0:
222,88,56813,1,8,0:0:0:0:
359,158,56963,1,0,0:0:0:0:
327,273,57113,5,0,0:0:0:0:
174,263,57263,1,0,0:0:0:0:
184,110,57413,1,8,0:0:0:0:
337,120,57563,1,0,0:0:0:0:
368,280,57713,5,0,0:0:0:0:
256,312,57863,1,0,0:0:0:0:
136,344,58013,1,8,0:0:0:0:
368,280,58313,1,0,0:0:0:0:
392,144,58613,5,0,0:0:0:0:
280,176,58763,1,0,0:0:0:0:
160,208,58913,1,0,0:0:0:0:
48,240,59063,1,0,0:0:0:0:
48,240,59213,1,8,0:0:0:0:
392,144,59513,1,8,0:0:0:0:
440,360,59813,6,0,L|352:176,1,191.999994140625
408,352,60413,2,0,L|320:168,1,191.999994140625
376,336,61013,2,0,L|288:152,1,191.999994140625
88,160,61613,1,0,0:0:0:0:
304,352,61913,2,0,L|232:272,1,95.9999970703126
239,280,62213,1,8,0:0:0:0:
239,280,62363,1,0,0:0:0:0:
72,152,62513,6,0,P|112:104|144:56,1,95.9999970703126
248,96,62813,1,0,0:0:0:0:
360,56,62963,1,0,0:0:0:0:
448,256,63113,2,0,P|408:208|376:160,1,95.9999970703126
272,200,63413,1,0,0:0:0:0:
160,160,63563,1,0,0:0:0:0:
40,320,63713,6,0,P|85:342|170:370,3,95.9999970703126
472,320,64313,2,0,P|426:342|341:370,3,95.9999970703126
112,56,64913,5,0,0:0:0:0:
72,184,65063,1,0,0:0:0:0:
208,144,65213,2,0,P|192:224|160:272,1,95.9999970703126
400,56,65513,1,0,0:0:0:0:
440,184,65663,1,0,0:0:0:0:
304,144,65814,2,0,P|308:191|326:236,1,95.9999970703126
88,40,66113,5,0,0:0:0:0:
136,144,66263,1,0,0:0:0:0:
144,256,66413,1,0,0:0:0:0:
224,344,66563,1,0,0:0:0:0:
424,40,66713,1,0,0:0:0:0:
376,144,66863,1,0,0:0:0:0:
368,256,67013,1,0,0:0:0:0:
288,344,67163,1,0,0:0:0:0:
176,64,67313,5,0,0:0:0:0:
104,168,67463,1,0,0:0:0:0:
400,144,67613,2,0,P|352:88|344:48,1,95.9999970703126
176,320,67913,1,0,0:0:0:0:
104,216,68063,1,0,0:0:0:0:
400,240,68213,2,0,P|352:296|344:336,1,95.9999970703126
167,266,68513,5,0,0:0:0:0:
181,103,68663,1,0,0:0:0:0:
344,117,68813,1,0,0:0:0:0:
330,280,68963,1,0,0:0:0:0:
156,249,69113,1,0,0:0:0:0:
198,92,69263,1,0,0:0:0:0:
355,134,69413,1,0,0:0:0:0:
313,291,69563,1,0,0:0:0:0:
147,231,69713,5,0,0:0:0:0:
216,83,69863,1,0,0:0:0:0:
364,152,70013,1,0,0:0:0:0:
295,300,70163,1,0,0:0:0:0:
142,212,70313,1,0,0:0:0:0:
235,78,70463,1,0,0:0:0:0:
369,171,70613,1,0,0:0:0:0:
276,305,70763,1,0,0:0:0:0:
464,328,70913,5,0,0:0:0:0:
360,256,71063,1,0,0:0:0:0:
408,144,71213,1,0,0:0:0:0:
312,64,71363,1,0,0:0:0:0:
192,24,71513,1,0,0:0:0:0:
80,80,71663,1,0,0:0:0:0:
152,184,71813,1,0,0:0:0:0:
120,304,71963,1,0,0:0:0:0:
232,360,72113,5,0,0:1:0:0:
344,312,72263,1,0,0:0:0:0:
432,200,72413,2,0,P|432:104|456:72,1,95.9999970703126
232,360,72713,1,0,0:1:0:0:
344,312,72863,1,0,0:0:0:0:
432,200,73013,2,0,P|432:104|456:72,1,95.9999970703126
216,120,73313,6,0,P|272:48|304:24,1,95.9999970703126
112,152,73613,1,0,0:0:0:0:
72,272,73763,1,0,0:0:0:0:
216,120,73913,2,0,P|272:48|304:24,1,95.9999970703126
112,152,74213,1,0,0:0:0:0:
72,272,74363,1,0,0:0:0:0:
440,176,74513,5,0,0:0:0:0:
376,56,74663,1,0,0:0:0:0:
296,184,74813,1,0,0:0:0:0:
224,64,74963,1,0,0:0:0:0:
288,320,75113,1,0,0:0:0:0:
216,200,75263,1,0,0:0:0:0:
136,328,75413,1,0,0:0:0:0:
72,208,75563,1,0,0:0:0:0:
432,192,75713,5,0,0:0:0:0:
288,48,75863,1,0,0:0:0:0:
432,192,76013,1,0,0:0:0:0:
288,48,76163,1,0,0:0:0:0:
176,192,76313,1,0,0:0:0:0:
320,336,76463,1,0,0:0:0:0:
176,192,76613,1,0,0:0:0:0:
320,336,76763,1,0,0:0:0:0:
256,112,76913,5,0,0:0:0:0:
112,256,77063,1,0,0:0:0:0:
256,112,77213,1,0,0:0:0:0:
112,256,77363,1,0,0:0:0:0:
432,200,77513,1,0,0:0:0:0:
288,344,77663,1,0,0:0:0:0:
432,200,77813,1,0,0:0:0:0:
288,344,77963,1,0,0:0:0:0:
152,240,78113,6,0,L|80:144,1,95.9999970703126
216,80,78413,2,0,L|280:168,1,95.9999970703126
304,280,78713,6,0,L|232:184,1,95.9999970703126
368,120,79013,2,0,L|432:208,1,95.9999970703126
392,96,79313,5,0,0:0:0:0:
384,112,79463,1,0,0:0:0:0:
376,128,79613,1,0,0:0:0:0:
368,144,79763,1,0,0:0:0:0:
112,128,79913,5,0,0:0:0:0:
120,144,80063,1,0,0:0:0:0:
128,160,80213,1,0,0:0:0:0:
136,176,80363,1,0,0:0:0:0:
368,264,80513,1,0,0:0:0:0:
344,256,80588,1,0,0:0:0:0:
320,256,80663,1,0,0:0:0:0:
296,256,80738,1,0,0:0:0:0:
272,264,80813,1,0,0:0:0:0:
248,272,80888,1,0,0:0:0:0:
224,280,80963,1,0,0:0:0:0:
200,288,81038,1,0,0:0:0:0:
176,296,81113,1,0,0:0:0:0:
152,296,81188,1,0,0:0:0:0:
128,288,81263,1,0,0:0:0:0:
104,280,81338,1,0,0:0:0:0:
88,264,81413,1,0,0:0:0:0:
72,248,81488,1,0,0:0:0:0:
64,224,81563,1,0,0:0:0:0:
144,56,81713,6,0,P|240:96|280:136,1,127.99999609375
384,208,82113,1,0,0:0:0:0:
384,208,82313,1,0,0:0:0:0:
384,208,82513,1,0,0:0:0:0:
152,296,82713,1,0,0:0:0:0:
153,71,82913,5,0,0:0:0:0:
248,88,83113,1,0,0:0:0:0:
344,120,83313,1,0,0:0:0:0:
192,160,83513,1,0,0:0:0:0:
280,200,83713,1,0,0:0:0:0:
360,264,83913,1,0,0:0:0:0:
160,232,84113,1,0,0:0:0:0:
236,290,84313,1,0,0:0:0:0:
300,371,84513,1,0,0:0:0:0:
153,313,84713,5,0,0:0:0:0:
248,296,84913,1,0,0:0:0:0:
344,264,85113,1,0,0:0:0:0:
192,224,85313,1,0,0:0:0:0:
280,184,85513,1,0,0:0:0:0:
360,120,85713,1,0,0:0:0:0:
160,152,85913,1,0,0:0:0:0:
236,94,86113,1,0,0:0:0:0:
300,13,86313,1,0,0:0:0:0:
72,184,86513,6,0,P|88:72|104:48,1,127.99999609375
136,312,86913,1,0,0:0:0:0:
248,160,87113,2,0,P|232:264|256:320,1,127.99999609375
288,72,87513,1,0,0:0:0:0:
376,344,87713,2,0,P|424:264|424:216,2,127.99999609375
136,344,88313,2,0,P|88:264|88:216,2,127.99999609375
80,192,88913,5,0,0:0:0:0:
264,128,89113,1,0,0:0:0:0:
448,56,89313,1,0,0:0:0:0:
80,192,89513,1,0,0:0:0:0:
264,128,89713,1,0,0:0:0:0:
448,56,89913,1,0,0:0:0:0:
80,192,90113,1,0,0:0:0:0:
264,128,90313,1,0,0:0:0:0:
448,56,90513,1,0,0:0:0:0:
80,192,90713,1,0,0:0:0:0:
264,128,90913,1,0,0:0:0:0:
464,352,91113,1,0,0:0:0:0:
64,128,91313,6,0,B|104:88|128:64|128:64|200:48|264:88|304:144,1,270.000010299683
200,208,92513,2,0,B|168:248|112:248|112:248|64:304,1,150.000005722046
192,320,93413,2,0,B|231:313|258:277|258:277|314:324,1,150.000005722046
392,88,94313,1,0,0:0:0:0:
168,160,94913,2,0,B|120:136|96:88|96:88|48:80,1,150.000005722046
392,88,95888,1,0,0:0:0:0:
136,216,96113,6,0,B|64:184|64:184|66:121|40:48,1,200
120,136,96713,6,0,B|192:167|192:167|189:230|216:303,1,200
344,256,97313,2,0,L|392:184,1,80
336,144,97613,2,0,L|384:72,1,80
88,72,98213,1,0,0:0:0:0:
336,296,98513,6,0,B|337:289|337:289|352:256|392:224|392:224|384:208|344:168|344:168|400:128|416:56,1,300.000011444092
176,296,99113,2,0,B|174:289|174:289|160:256|120:224|120:224|128:208|168:168|168:168|112:128|96:56,1,300.000011444092
432,184,99713,2,0,L|112:320,1,300.000011444092
168,160,100613,2,0,L|336:208,1,160
416,312,103013,2,0,L|48:48,1,400
208,48,104513,5,0,0:0:0:0:
184,80,104663,1,0,0:0:0:0:
168,120,104813,1,0,0:0:0:0:
168,160,104963,1,0,0:0:0:0:
280,144,105113,1,0,0:0:0:0:
288,160,105188,1,0,0:0:0:0:
304,176,105263,1,0,0:0:0:0:
320,184,105338,1,0,0:0:0:0:
336,192,105413,1,0,0:0:0:0:
352,200,105488,1,0,0:0:0:0:
368,216,105563,1,0,0:0:0:0:
80,256,105713,6,0,P|144:304|160:336,1,95.9999970703126
152,112,106013,2,0,P|108:93|73:60,1,95.9999970703126
256,280,106313,1,8,0:0:0:0:
400,40,106613,2,0,P|440:120|440:152,1,95.9999970703126
440,272,106913,1,0,0:0:0:0:
440,272,107063,1,0,0:0:0:0:
400,40,107213,2,0,P|440:120|440:152,1,95.9999970703126
440,272,107513,1,8,0:0:0:0:
304,312,107813,6,0,P|248:344|208:352,1,95.9999970703126
96,272,108113,1,0,0:0:0:0:
217,351,108263,2,0,P|263:338|304:312,1,95.9999970703126
40,200,108563,1,8,0:0:0:0:
304,200,108713,2,0,P|304:120|296:80,1,95.9999970703126
40,200,109013,1,8,0:0:0:0:
224,112,109163,2,0,P|192:48|160:24,1,95.9999970703126
416,64,109463,5,0,0:0:0:0:
93,51,109613,2,0,P|126:86|143:130,1,95.9999970703126
152,320,109913,1,8,0:0:0:0:
152,320,110063,1,8,0:0:0:0:
440,320,110213,1,8,0:0:0:0:
440,320,110363,1,8,0:0:0:0:
56,296,110513,5,0,0:0:0:0:
208,296,110663,1,0,0:0:0:0:
128,160,110813,1,0,0:0:0:0:
280,160,110963,1,0,0:0:0:0:
400,64,111113,1,8,0:0:0:0:
400,80,111413,2,0,P|448:136|448:168,1,95.9999970703126
88,304,111713,5,0,0:0:0:0:
80,120,111863,2,0,P|144:72|200:64,1,95.9999970703126
208,312,112163,1,0,0:0:0:0:
200,128,112313,2,0,P|264:80|320:72,1,95.9999970703126
392,96,112613,2,0,P|348:115|314:148,1,80
208,312,112913,1,0,0:0:0:0:
416,128,113063,6,0,P|456:208|472:248,1,95.9999970703126
144,64,113363,1,0,0:0:0:0:
96,232,113513,2,0,L|200:208,1,95.9999970703126
389,163,113813,2,0,L|296:184,1,95.9999970703126
400,64,114113,1,0,0:0:0:0:
400,64,114263,2,0,L|440:104,2,47.9999985351563
136,72,114563,1,0,0:0:0:0:
136,72,114713,2,0,L|88:80,2,47.9999985351563
168,240,115013,5,0,0:0:0:0:
168,240,115163,1,0,0:0:0:0:
416,240,115313,2,0,P|456:304|464:336,1,95.9999970703126
280,192,115613,1,0,0:0:0:0:
192,288,115763,1,0,0:0:0:0:
72,304,115913,1,8,0:0:0:0:
392,208,116213,6,0,P|416:144|424:88,1,95.9999970703126
168,208,116513,1,8,0:0:0:0:
392,208,116813,2,0,P|416:144|424:88,1,95.9999970703126
168,208,117113,1,8,0:0:0:0:
184,48,117413,6,0,P|136:112|128:144,1,95.9999970703126
136,168,117713,1,0,0:0:0:0:
176,208,117863,1,0,0:0:0:0:
232,216,118013,1,0,0:0:0:0:
280,184,118163,1,0,0:0:0:0:
304,136,118313,1,0,0:0:0:0:
184,48,118613,1,8,0:0:0:0:
369,246,118913,5,0,0:0:0:0:
309,79,119063,1,0,0:0:0:0:
142,139,119213,1,8,0:0:0:0:
202,306,119363,1,0,0:0:0:0:
380,175,119513,1,0,0:0:0:0:
238,68,119663,1,0,0:0:0:0:
131,210,119813,1,8,0:0:0:0:
273,317,119963,1,0,0:0:0:0:
416,288,120113,5,0,0:0:0:0:
184,296,120263,2,0,L|168:344,2,47.9999985351563
176,72,120563,1,0,0:0:0:0:
416,72,120713,1,8,0:0:0:0:
416,72,120863,1,0,0:0:0:0:
416,72,121013,1,0,0:0:0:0:
160,72,121163,1,0,0:0:0:0:
160,72,121313,5,0,0:0:0:0:
160,296,121463,2,0,L|104:336,2,47.9999985351563
384,288,121763,1,0,0:0:0:0:
384,288,121913,1,8,0:0:0:0:
384,96,122063,1,0,0:0:0:0:
384,96,122213,1,0,0:0:0:0:
128,96,122363,1,0,0:0:0:0:
184,272,122513,6,0,L|80:328,1,95.9999970703126
400,64,122813,2,0,L|315:110,1,95.9999970703126
120,160,123113,2,0,L|35:206,1,95.9999970703126,8|0,0:0|0:0,0:0:0:0:
456,232,123413,2,0,L|371:278,1,95.9999970703126
328,112,123713,6,0,L|432:56,1,95.9999970703126
112,320,124013,2,0,L|196:275,1,95.9999970703126
392,224,124313,2,0,L|476:179,1,95.9999970703126,8|0,0:0|0:0,0:0:0:0:
56,152,124613,2,0,L|140:107,1,95.9999970703126
376,264,124913,5,0,0:0:0:0:
440,152,125063,1,0,0:0:0:0:
352,56,125213,1,0,0:0:0:0:
272,160,125363,1,0,0:0:0:0:
192,64,125513,1,0,0:0:0:0:
112,160,125663,1,0,0:0:0:0:
24,256,125813,1,0,0:0:0:0:
112,344,125963,1,0,0:0:0:0:
216,272,126113,1,0,0:0:0:0:
320,344,126263,1,0,0:0:0:0:
400,240,126413,1,0,0:0:0:0:
472,136,126563,1,0,0:0:0:0:
392,32,126713,1,0,0:0:0:0:
312,136,126863,1,0,0:0:0:0:
216,56,127013,1,0,0:0:0:0:
136,160,127163,1,0,0:0:0:0:
136,312,127313,5,0,0:0:0:0:
264,312,127463,1,0,0:0:0:0:
264,312,127538,1,0,0:0:0:0:
264,312,127613,1,0,0:0:0:0:
392,312,127763,1,0,0:0:0:0:
392,128,127913,1,0,0:0:0:0:
392,312,128063,1,0,0:0:0:0:
392,128,128213,1,0,0:0:0:0:
392,312,128363,1,0,0:0:0:0:
208,280,128513,5,0,0:0:0:0:
112,192,128663,1,0,0:0:0:0:
96,64,128813,1,0,0:0:0:0:
96,64,128963,1,0,0:0:0:0:
280,64,129113,1,0,0:0:0:0:
96,64,129263,1,0,0:0:0:0:
280,64,129413,1,0,0:0:0:0:
96,64,129563,1,0,0:0:0:0:
112,248,129713,5,0,0:0:0:0:
184,352,129863,1,0,0:0:0:0:
248,240,130013,1,0,0:0:0:0:
320,344,130163,1,0,0:0:0:0:
408,248,130313,1,0,0:0:0:0:
256,128,130613,1,0,0:0:0:0:
256,224,130763,1,0,0:0:0:0:
256,320,130913,1,0,0:0:0:0:
256,320,131063,2,0,L|256:384,2,40
256,320,131363,1,0,0:0:0:0:
360,56,131513,5,0,0:0:0:0:
264,128,131663,1,0,0:0:0:0:
168,200,131813,1,0,0:0:0:0:
88,288,131963,1,0,0:0:0:0:
288,328,132113,5,0,0:0:0:0:
376,176,132263,1,0,0:0:0:0:
216,104,132413,1,0,0:0:0:0:
128,248,132563,1,0,0:0:0:0:
288,328,132713,1,0,0:0:0:0:
368,200,133013,6,0,P|384:152|392:96,1,80
264,80,133313,2,0,P|200:56|168:40,1,80
88,144,133613,2,0,P|104:208|136:248,1,80
264,80,133913,2,0,P|200:56|168:40,1,80
88,144,134213,2,0,P|104:208|136:248,1,80
384,136,134513,6,0,P|368:200|344:232,1,80
264,232,134813,1,0,0:0:0:0:
168,232,134963,1,0,0:0:0:0:
96,168,135113,1,0,0:0:0:0:
256,56,135413,5,0,0:0:0:0:
360,56,135563,1,0,0:0:0:0:
384,152,135713,2,0,P|368:216|344:248,1,80
304,200,136013,2,0,P|319:262|351:301,1,80
184,120,136313,5,0,0:0:0:0:
176,104,136388,1,0,0:0:0:0:
168,88,136463,1,0,0:0:0:0:
88,240,136613,1,0,0:0:0:0:
104,256,136688,1,0,0:0:0:0:
120,272,136763,1,0,0:0:0:0:
216,192,136913,5,0,0:0:0:0:
304,192,137063,1,0,0:0:0:0:
392,192,137213,1,0,0:0:0:0:
480,192,137363,1,0,0:0:0:0:
56,312,137513,5,0,0:0:0:0:
64,320,137663,1,0,0:0:0:0:
64,320,137813,1,0,0:0:0:0:
256,192,138113,5,0,0:0:0:0:
256,192,138263,1,0,0:0:0:0:
448,64,138413,1,0,0:0:0:0:
448,64,138563,1,0,0:0:0:0:
256,192,138713,5,0,0:0:0:0:
256,192,138863,1,0,0:0:0:0:
256,192,139013,1,0,0:0:0:0:
160,352,139313,5,0,0:0:0:0:
48,272,139463,1,0,0:0:0:0:
120,160,139613,1,0,0:0:0:0:
232,240,139763,1,0,0:0:0:0:
344,320,139913,1,0,0:0:0:0:
416,208,140063,1,0,0:0:0:0:
480,88,140213,1,0,0:0:0:0:
360,24,140363,1,0,0:0:0:0:
288,136,140513,1,0,0:0:0:0:
152,48,140663,1,0,0:0:0:0:
72,184,140813,1,0,0:0:0:0:
216,248,140963,1,0,0:0:0:0:
296,112,141113,1,0,0:0:0:0:
72,336,141413,1,0,0:0:0:0:
392,336,141713,1,0,0:0:0:0:
384,224,142013,6,0,P|376:160|336:104,1,106.666666666667
312,88,142313,1,0,0:0:0:0:
264,72,142413,1,0,0:0:0:0:
208,72,142513,1,0,0:0:0:0:
160,96,142613,1,0,0:0:0:0:
136,144,142713,1,0,0:0:0:0:
104,192,142813,1,0,0:0:0:0:
72,232,142913,1,0,0:0:0:0:
64,272,143013,1,0,0:0:0:0:
88,320,143113,1,0,0:0:0:0:
136,336,143213,1,0,0:0:0:0:
184,312,143313,1,0,0:0:0:0:
232,296,143413,1,0,0:0:0:0:
288,304,143513,1,0,0:0:0:0:
328,272,143613,1,0,0:0:0:0:
376,240,143713,1,0,0:0:0:0:
432,248,143813,1,0,0:0:0:0:
480,216,143913,1,0,0:0:0:0:
496,168,144013,1,0,0:0:0:0:
448,144,144113,6,0,B|408:88|408:88|352:120|288:104|248:80,1,200
447,239,144713,2,0,B|408:296|408:296|352:263|287:279|248:303,1,200
320,176,145313,2,0,L|232:112,1,80
192,208,145613,2,0,L|104:144,1,80
312,312,146213,6,0,B|360:304|376:280|376:280|376:208|440:152,1,200
200,72,146813,2,0,B|152:80|136:104|136:104|136:175|72:232,1,200
352,304,147713,1,0,0:0:0:0:
352,304,148088,1,0,0:0:0:0:
352,304,148688,1,0,0:0:0:0:
232,320,148913,2,0,B|200:296|200:296|168:304|144:296,1,80
216,328,149513,2,0,B|184:304|184:304|152:312|128:304,1,80
352,304,150113,1,0,0:0:0:0:
352,304,150488,1,0,0:0:0:0:
352,304,150713,1,0,0:0:0:0:
352,304,151013,1,0,0:0:0:0:
320,144,151313,2,0,B|256:88|256:88|144:48,1,200
320,144,151838,2,0,B|256:88|256:88|144:48,1,200
256,192,152513,1,0,0:0:0:0:
256,192,152888,1,0,0:0:0:0:
256,192,153563,1,0,0:0:0:0:
