osu file format v14

[General]
AudioFilename: audio.mp3
AudioLeadIn: 0
PreviewTime: 40206
Countdown: 1
SampleSet: Soft
StackLeniency: 0.4
Mode: 0
LetterboxInBreaks: 0
WidescreenStoryboard: 0

[Editor]
DistanceSpacing: 1
BeatDivisor: 4
GridSize: 4
TimelineZoom: 4.099998

[Metadata]
Title:Si Ye Cao De Huan Xiang
TitleUnicode:Si Ye Cao De Huan Xiang
Artist:Mai Zang
ArtistUnicode:Mai Zang
Creator:Sakura Blossom
Version:Love
Source:
Tags:Sakura Blossom, Love, Mai Zang, Si Ye Cao De Huan Xiang
BeatmapID:1865291
BeatmapSetID:892310

[Difficulty]
HPDrainRate:4.5
CircleSize:4.1
OverallDifficulty:9
ApproachRate:9.5
SliderMultiplier:2.56
SliderTickRate:1

[Events]
//Background and Video events
0,0,"anime-city-wallpaper-1.jpg",0,0
//Break Periods
2,187424,189681
2,196424,199881
2,204224,205131
//Storyboard Layer 0 (Background)
//Storyboard Layer 1 (Fail)
//Storyboard Layer 2 (Pass)
//Storyboard Layer 3 (Foreground)
//Storyboard Sound Samples

[TimingPoints]
2406,300,4,2,0,25,1,0
72606,-200,4,2,0,35,0,1
72624,-200,4,2,0,5,0,1
72756,-200,4,2,0,25,0,0
73806,-200,4,2,0,35,0,1
73824,-200,4,2,0,5,0,0
74406,-200,4,2,0,25,0,0
106206,-200,4,2,0,5,0,1
106431,-200,4,2,0,25,0,0
184806,-200,4,2,0,10,0,0
190206,-200,4,2,0,5,0,0
204006,-200,4,2,0,10,0,1
204081,-200,4,2,0,10,0,0
205656,-200,4,2,0,5,0,0

[Colours]
Combo1 : 91,185,236
Combo2 : 40,208,32
Combo3 : 66,232,232
Combo4 : 184,231,86

[HitObjects]
52,89,2406,5,0,0:0:0:0:
138,73,2556,1,0,0:0:0:0:
108,155,2706,1,0,0:0:0:0:
224,57,2856,1,0,0:0:0:0:
194,139,3006,1,0,0:0:0:0:
164,221,3306,1,0,0:0:0:0:
310,41,3606,1,0,0:0:0:0:
280,123,4206,5,0,0:0:0:0:
250,205,4806,5,0,0:0:0:0:
220,287,5106,1,0,0:0:0:0:
396,25,5406,1,0,0:0:0:0:
366,107,5706,1,0,0:0:0:0:
336,189,6006,1,0,0:0:0:0:
306,271,6306,1,0,0:0:0:0:
276,353,6606,1,0,0:0:0:0:
103,373,7206,5,0,0:0:0:0:
87,287,7356,1,0,0:0:0:0:
169,317,7506,1,0,0:0:0:0:
117,205,7656,1,0,0:0:0:0:
199,235,7806,1,0,0:0:0:0:
183,149,8106,1,0,0:0:0:0:
30,221,8406,1,0,0:0:0:0:
256,301,8556,1,0,0:0:0:0:
285,219,8706,1,0,0:0:0:0:
269,133,8856,1,0,0:0:0:0:
351,163,9006,1,0,0:0:0:0:
212,67,9306,5,0,0:0:0:0:
125,83,9606,1,0,0:0:0:0:
43,53,10206,1,0,0:0:0:0:
59,139,10806,1,0,0:0:0:0:
143,166,11406,5,0,0:0:0:0:
231,166,12006,1,0,0:0:0:0:
258,249,12156,1,0,0:0:0:0:
186,300,12306,1,0,0:0:0:0:
116,249,12456,1,0,0:0:0:0:
28,249,12606,1,0,0:0:0:0:
1,166,12906,1,0,0:0:0:0:
73,115,13206,5,0,0:0:0:0:
346,249,13806,1,0,0:0:0:0:
303,115,14406,1,0,0:0:0:0:
373,166,15306,5,0,0:0:0:0:
461,166,15606,1,0,0:0:0:0:
488,249,16206,5,0,0:0:0:0:
416,300,16356,1,0,0:0:0:0:
344,351,16506,1,0,0:0:0:0:
180,295,16806,5,0,0:0:0:0:
259,332,16956,1,0,0:0:0:0:
319,268,17106,1,0,0:0:0:0:
275,191,17256,1,0,0:0:0:0:
190,208,17406,5,0,0:0:0:0:
187,383,17706,1,0,0:0:0:0:
344,351,18006,1,0,0:0:0:0:
363,192,18606,1,0,0:0:0:0:
217,126,19206,1,0,0:0:0:0:
110,241,19806,1,0,0:0:0:0:
217,126,20106,1,0,0:0:0:0:
110,241,20406,1,0,0:0:0:0:
93,92,21606,5,0,0:0:0:0:
112,177,21906,1,0,0:0:0:0:
178,72,22056,1,0,0:0:0:0:
197,157,22206,1,0,0:0:0:0:
216,242,22356,1,0,0:0:0:0:
282,137,22506,1,0,0:0:0:0:
301,222,22656,1,0,0:0:0:0:
263,52,22806,1,0,0:0:0:0:
348,32,22956,1,0,0:0:0:0:
367,117,23106,1,0,0:0:0:0:
131,262,23256,1,0,0:0:0:0:
150,347,23406,5,0,0:0:0:0:
235,327,23556,1,0,0:0:0:0:
320,307,23706,1,0,0:0:0:0:
386,202,23856,1,0,0:0:0:0:
405,287,24006,1,0,0:0:0:0:
463,228,24306,5,0,0:0:0:0:
463,139,24456,1,0,0:0:0:0:
463,51,24606,1,0,0:0:0:0:
375,51,25056,5,0,0:0:0:0:
463,51,25206,1,0,0:0:0:0:
352,214,25506,5,0,0:0:0:0:
278,368,25656,1,0,0:0:0:0:
179,292,25806,1,0,0:0:0:0:
161,375,25956,1,0,0:0:0:0:
170,283,26106,1,0,0:0:0:0:
277,209,26256,1,0,0:0:0:0:
155,106,26406,1,0,0:0:0:0:
166,194,26556,1,0,0:0:0:0:
244,31,26706,1,0,0:0:0:0:
356,61,26856,5,0,0:0:0:0:
460,73,27006,1,0,0:0:0:0:
411,212,27156,1,0,0:0:0:0:
511,185,27306,1,0,0:0:0:0:
338,156,27456,1,0,0:0:0:0:
280,296,27606,1,0,0:0:0:0:
188,262,27756,1,0,0:0:0:0:
127,330,27906,1,0,0:0:0:0:
22,213,28056,5,0,0:0:0:0:
105,241,28206,1,0,0:0:0:0:
202,171,28356,1,0,0:0:0:0:
99,251,28506,1,0,0:0:0:0:
150,329,28656,1,0,0:0:0:0:
207,180,28806,1,0,0:0:0:0:
111,119,28956,1,0,0:0:0:0:
166,46,29106,1,0,0:0:0:0:
241,157,29256,5,0,0:0:0:0:
94,112,29406,1,0,0:0:0:0:
41,178,29706,1,0,0:0:0:0:
273,70,30006,1,0,0:0:0:0:
47,21,30156,1,0,0:0:0:0:
81,106,30306,1,0,0:0:0:0:
289,75,30456,1,0,0:0:0:0:
265,186,30606,5,0,0:0:0:0:
395,113,30906,5,0,0:0:0:0:
426,232,31056,1,0,0:0:0:0:
305,159,31206,1,0,0:0:0:0:
335,27,31506,1,0,0:0:0:0:
141,205,32106,5,0,0:0:0:0:
190,49,32406,1,0,0:0:0:0:
141,205,32706,1,0,0:0:0:0:
293,156,33306,5,0,0:0:0:0:
94,229,33606,5,0,0:0:0:0:
115,332,33906,1,0,0:0:0:0:
0,275,34506,1,0,0:0:0:0:
90,213,34806,1,0,0:0:0:0:
46,381,35106,5,0,0:0:0:0:
127,328,35406,1,0,0:0:0:0:
252,334,35706,1,0,0:0:0:0:
191,170,36006,1,0,0:0:0:0:
291,366,36306,5,0,0:0:0:0:
323,224,36606,1,0,0:0:0:0:
201,154,36906,1,0,0:0:0:0:
132,314,37206,1,0,0:0:0:0:
0,221,37506,1,0,0:0:0:0:
101,178,38106,1,0,0:0:0:0:
166,7,38406,1,0,0:0:0:0:
198,136,39006,5,0,0:0:0:0:
303,187,39306,5,0,0:0:0:0:
357,365,39606,1,0,0:0:0:0:
416,128,40206,1,0,0:0:0:0:
300,175,40506,1,0,0:0:0:0:
230,100,40656,1,0,0:0:0:0:
137,169,40806,5,0,0:0:0:0:
271,222,40956,1,0,0:0:0:0:
109,256,41106,1,0,0:0:0:0:
221,149,41256,1,0,0:0:0:0:
275,301,41406,1,0,0:0:0:0:
137,169,41556,1,0,0:0:0:0:
395,208,41706,5,0,0:0:0:0:
264,308,41856,1,0,0:0:0:0:
300,146,42006,1,0,0:0:0:0:
396,296,42156,1,0,0:0:0:0:
271,222,42306,1,0,0:0:0:0:
469,257,42456,1,0,0:0:0:0:
249,318,42606,1,0,0:0:0:0:
379,126,42756,1,0,0:0:0:0:
465,339,42906,5,0,0:0:0:0:
300,146,43056,1,0,0:0:0:0:
503,160,43206,1,0,0:0:0:0:
271,222,43356,1,0,0:0:0:0:
357,20,43506,1,0,0:0:0:0:
395,208,43656,1,0,0:0:0:0:
182,69,43806,1,0,0:0:0:0:
395,208,43956,5,0,0:0:0:0:
261,155,44106,1,0,0:0:0:0:
423,121,44256,1,0,0:0:0:0:
311,228,44406,1,0,0:0:0:0:
257,76,44556,1,0,0:0:0:0:
395,208,44706,1,0,0:0:0:0:
248,250,44856,5,0,0:0:0:0:
132,144,45006,1,0,0:0:0:0:
200,25,45156,1,0,0:0:0:0:
173,258,45306,1,0,0:0:0:0:
67,282,45456,5,0,0:0:0:0:
12,202,45606,1,0,0:0:0:0:
150,230,45756,1,0,0:0:0:0:
71,292,45906,1,0,0:0:0:0:
81,143,46056,1,0,0:0:0:0:
145,219,46206,1,0,0:0:0:0:
60,213,46356,1,0,0:0:0:0:
30,307,46506,1,0,0:0:0:0:
113,272,46656,1,0,0:0:0:0:
51,206,46806,1,0,0:0:0:0:
123,282,46956,1,0,0:0:0:0:
206,259,47106,1,0,0:0:0:0:
424,145,47256,5,0,0:0:0:0:
326,170,47406,1,0,0:0:0:0:
239,41,47556,1,0,0:0:0:0:
417,138,47706,1,0,0:0:0:0:
311,263,47856,1,0,0:0:0:0:
339,367,48006,1,0,0:0:0:0:
409,269,48156,5,0,0:0:0:0:
440,370,48306,1,0,0:0:0:0:
400,158,48456,1,0,0:0:0:0:
416,263,48606,1,0,0:0:0:0:
512,191,48756,1,0,0:0:0:0:
413,152,48906,1,0,0:0:0:0:
506,14,49056,5,0,0:0:0:0:
328,79,49206,1,0,0:0:0:0:
407,146,49356,1,0,0:0:0:0:
227,50,49506,1,0,0:0:0:0:
178,212,49656,1,0,0:0:0:0:
275,298,49806,1,0,0:0:0:0:
361,272,49956,5,0,0:0:0:0:
188,384,50106,1,0,0:0:0:0:
290,156,50256,5,0,0:0:0:0:
387,309,50406,1,0,0:0:0:0:
315,260,50556,1,0,0:0:0:0:
394,164,50706,1,0,0:0:0:0:
492,204,50856,1,0,0:0:0:0:
383,157,51006,1,0,0:0:0:0:
435,71,51156,1,0,0:0:0:0:
391,4,51306,1,0,0:0:0:0:
247,86,51456,5,0,0:0:0:0:
383,157,51606,1,0,0:0:0:0:
146,260,51756,1,0,0:0:0:0:
214,170,51906,1,0,0:0:0:0:
238,310,52056,1,0,0:0:0:0:
328,243,52206,1,0,0:0:0:0:
392,106,52356,5,0,0:0:0:0:
293,154,52506,1,0,0:0:0:0:
130,84,52656,1,0,0:0:0:0:
236,61,52806,1,0,0:0:0:0:
328,243,52956,1,0,0:0:0:0:
221,216,53106,1,0,0:0:0:0:
244,76,53256,1,0,0:0:0:0:
302,156,53406,1,0,0:0:0:0:
216,183,53556,5,0,0:0:0:0:
291,282,53706,1,0,0:0:0:0:
319,89,53856,1,0,0:0:0:0:
168,49,54006,1,0,0:0:0:0:
333,83,54156,1,0,0:0:0:0:
206,175,54306,1,0,0:0:0:0:
205,313,54456,1,0,0:0:0:0:
84,245,54606,5,0,0:0:0:0:
329,307,54756,5,0,0:0:0:0:
198,173,54906,1,0,0:0:0:0:
356,132,55056,1,0,0:0:0:0:
236,274,55206,1,0,0:0:0:0:
276,131,55356,5,0,0:0:0:0:
198,384,55506,1,0,0:0:0:0:
282,292,55656,1,0,0:0:0:0:
167,239,55806,1,0,0:0:0:0:
404,343,55956,1,0,0:0:0:0:
282,309,56106,1,0,0:0:0:0:
470,296,56256,5,0,0:0:0:0:
359,200,56406,1,0,0:0:0:0:
393,90,56556,1,0,0:0:0:0:
480,122,56706,1,0,0:0:0:0:
217,87,56856,1,0,0:0:0:0:
277,276,57006,1,0,0:0:0:0:
406,93,57156,1,0,0:0:0:0:
334,2,57306,1,0,0:0:0:0:
492,223,57456,5,0,0:0:0:0:
351,157,57606,1,0,0:0:0:0:
265,283,57756,1,0,0:0:0:0:
200,64,57906,1,0,0:0:0:0:
206,163,58056,1,0,0:0:0:0:
36,224,58206,1,0,0:0:0:0:
63,78,58356,1,0,0:0:0:0:
178,255,58506,5,0,0:0:0:0:
130,378,58656,1,0,0:0:0:0:
45,224,58806,1,0,0:0:0:0:
213,161,58956,1,0,0:0:0:0:
0,30,59106,1,0,0:0:0:0:
81,76,59256,1,0,0:0:0:0:
253,82,59406,1,0,0:0:0:0:
294,4,59556,1,0,0:0:0:0:
360,87,59706,5,0,0:0:0:0:
319,256,59856,1,0,0:0:0:0:
279,45,60006,1,0,0:0:0:0:
458,125,60156,1,0,0:0:0:0:
230,198,60306,1,0,0:0:0:0:
315,348,60456,1,0,0:0:0:0:
453,219,60606,1,0,0:0:0:0:
316,149,60756,1,0,0:0:0:0:
504,147,60906,1,0,0:0:0:0:
312,204,61056,1,0,0:0:0:0:
253,93,61206,5,0,0:0:0:0:
218,260,61356,1,0,0:0:0:0:
392,292,61506,1,0,0:0:0:0:
294,284,61656,5,0,0:0:0:0:
453,245,61806,1,0,0:0:0:0:
414,141,61956,1,0,0:0:0:0:
265,157,62106,1,0,0:0:0:0:
238,327,62256,1,0,0:0:0:0:
204,236,62406,1,0,0:0:0:0:
340,183,62556,1,0,0:0:0:0:
352,85,62706,1,0,0:0:0:0:
251,41,62856,5,0,0:0:0:0:
313,149,63006,1,0,0:0:0:0:
192,279,63156,1,0,0:0:0:0:
234,384,63306,1,0,0:0:0:0:
36,221,63456,1,0,0:0:0:0:
155,188,63606,1,0,0:0:0:0:
207,281,63756,1,0,0:0:0:0:
280,253,63906,1,0,0:0:0:0:
387,348,64056,5,0,0:0:0:0:
423,220,64206,1,0,0:0:0:0:
295,200,64356,1,0,0:0:0:0:
355,268,64506,1,0,0:0:0:0:
375,132,64656,1,0,0:0:0:0:
235,132,64806,1,0,0:0:0:0:
295,200,64956,1,0,0:0:0:0:
323,44,65106,1,0,0:0:0:0:
184,57,65256,5,0,0:0:0:0:
63,116,65406,1,0,0:0:0:0:
134,225,65556,1,0,0:0:0:0:
144,133,65706,1,0,0:0:0:0:
30,210,65856,1,0,0:0:0:0:
123,314,66006,1,0,0:0:0:0:
134,225,66156,1,0,0:0:0:0:
0,306,66306,1,0,0:0:0:0:
185,296,66456,5,0,0:0:0:0:
134,225,66606,1,0,0:0:0:0:
221,218,66756,1,0,0:0:0:0:
127,138,66906,1,0,0:0:0:0:
214,131,67056,1,0,0:0:0:0:
163,60,67206,1,0,0:0:0:0:
55,190,67356,1,0,0:0:0:0:
293,166,67506,1,0,0:0:0:0:
285,80,67656,1,0,0:0:0:0:
234,9,67806,1,0,0:0:0:0:
321,1,67956,1,0,0:0:0:0:
450,53,68106,5,0,0:0:0:0:
441,139,68256,1,0,0:0:0:0:
371,88,68406,1,0,0:0:0:0:
285,80,68556,1,0,0:0:0:0:
261,318,68706,1,0,0:0:0:0:
391,210,68856,1,0,0:0:0:0:
320,159,69006,1,0,0:0:0:0:
312,246,69156,1,0,0:0:0:0:
233,151,69306,1,0,0:0:0:0:
225,239,69456,1,0,0:0:0:0:
155,188,69606,1,0,0:0:0:0:
86,80,69756,5,0,0:0:0:0:
148,128,69906,1,0,0:0:0:0:
71,170,70056,5,0,0:0:0:0:
174,210,70206,1,0,0:0:0:0:
91,303,70356,5,0,0:0:0:0:
267,223,70506,1,0,0:0:0:0:
208,316,70656,5,0,0:0:0:0:
355,194,70806,1,0,0:0:0:0:
346,316,70956,5,0,0:0:0:0:
430,115,71106,1,0,0:0:0:0:
437,247,71256,5,0,0:0:0:0:
321,55,71406,1,0,0:0:0:0:
428,30,71556,5,0,0:0:0:0:
233,151,71706,1,0,0:0:0:0:
132,161,71856,5,0,0:0:0:0:
183,233,72006,1,0,0:0:0:0:
234,305,72156,1,0,0:0:0:0:
322,304,72306,5,0,0:0:0:0:
358,223,72456,1,0,0:0:0:0:
395,143,72606,2,0,L|398:135,1,8
306,130,73206,5,0,0:0:0:0:
219,145,73356,1,0,0:0:0:0:
132,161,73506,1,0,0:0:0:0:
96,241,73656,5,0,0:0:0:0:
154,308,73806,2,0,L|159:314,1,8
380,248,74406,5,0,0:0:0:0:
395,326,74556,1,0,0:1:0:0:
320,321,74706,1,0,0:0:0:0:
377,127,74856,1,0,0:0:0:0:
215,238,75006,1,0,0:0:0:0:
320,211,75156,5,0,0:0:0:0:
199,99,75306,1,0,0:0:0:0:
148,210,75456,1,0,0:0:0:0:
277,79,75606,1,0,0:0:0:0:
377,127,75756,1,0,0:0:0:0:
220,130,75906,5,0,0:0:0:0:
220,277,76056,1,0,0:0:0:0:
92,203,76206,1,0,0:0:0:0:
176,207,76356,5,0,0:0:0:0:
113,340,76506,1,0,0:0:0:0:
29,219,76656,1,0,0:0:0:0:
99,187,76806,5,0,0:0:0:0:
28,116,76956,1,0,0:0:0:0:
99,46,77106,1,0,0:0:0:0:
169,116,77256,1,0,0:0:0:0:
188,216,77406,5,0,0:0:0:0:
285,197,77556,1,0,0:0:0:0:
268,100,77706,1,0,0:0:0:0:
365,81,77856,1,0,0:0:0:0:
372,198,78006,5,0,0:0:0:0:
328,273,78156,1,0,0:0:0:0:
285,197,78306,1,0,0:0:0:0:
210,153,78456,1,0,0:0:0:0:
88,359,78606,1,0,0:0:0:0:
252,316,78756,1,0,0:0:0:0:
209,240,78906,1,0,0:0:0:0:
165,316,79056,1,0,0:0:0:0:
116,246,79206,5,0,0:0:0:0:
0,78,79506,1,0,0:0:0:0:
204,62,79806,1,0,0:0:0:0:
116,246,80106,5,0,0:0:0:0:
318,232,80406,1,0,0:0:0:0:
304,30,80856,1,0,0:0:0:0:
290,23,81006,5,0,0:0:0:0:
405,100,81456,5,0,0:0:0:0:
424,129,81606,1,0,0:0:0:0:
254,256,81906,5,0,0:0:0:0:
160,230,82056,1,0,0:0:0:0:
66,204,82206,1,0,0:0:0:0:
52,339,82656,5,0,0:0:0:0:
39,349,82806,1,0,0:0:0:0:
372,278,83256,5,0,0:0:0:0:
446,321,83406,1,0,0:0:0:0:
459,193,83706,5,0,0:0:0:0:
361,109,84006,1,0,0:0:0:0:
237,76,84306,1,0,0:0:0:0:
196,197,84606,1,0,0:0:0:0:
100,111,84906,1,0,0:0:0:0:
50,229,85206,1,0,0:0:0:0:
240,312,85656,5,0,0:0:0:0:
228,300,85806,1,0,0:0:0:0:
326,262,86256,5,0,0:0:0:0:
275,209,86406,1,0,0:0:0:0:
397,215,86706,5,0,0:0:0:0:
339,154,86856,1,0,0:0:0:0:
281,93,87006,1,0,0:0:0:0:
290,9,87456,5,0,0:0:0:0:
198,96,87606,1,0,0:0:0:0:
84,111,88056,5,0,0:0:0:0:
141,208,88206,1,0,0:0:0:0:
247,205,88506,5,0,0:0:0:0:
146,340,88806,1,0,0:0:0:0:
259,291,88956,5,0,0:0:0:0:
359,361,89106,1,0,0:0:0:0:
325,187,89256,1,0,0:0:0:0:
247,287,89406,1,0,0:0:0:0:
434,275,89556,1,0,0:0:0:0:
339,194,89706,1,0,0:0:0:0:
346,301,89856,1,0,0:0:0:0:
227,338,90006,1,0,0:0:0:0:
272,234,90156,1,0,0:0:0:0:
355,312,90306,1,0,0:0:0:0:
259,222,90456,5,0,0:0:0:0:
289,117,90606,1,0,0:0:0:0:
168,168,91056,5,0,0:0:0:0:
238,50,91206,1,0,0:0:0:0:
143,80,91656,5,0,0:0:0:0:
60,151,91806,1,0,0:0:0:0:
168,168,92256,5,0,0:0:0:0:
186,231,92406,1,0,0:0:0:0:
204,295,92556,1,0,0:0:0:0:
125,348,92856,5,0,0:0:0:0:
89,220,93006,1,0,0:0:0:0:
217,200,93156,1,0,0:0:0:0:
157,268,93306,1,0,0:0:0:0:
137,132,93456,1,0,0:0:0:0:
277,132,93606,1,0,0:0:0:0:
217,200,93756,1,0,0:0:0:0:
189,44,93906,1,0,0:0:0:0:
328,57,94056,5,0,0:0:0:0:
449,116,94206,1,0,0:0:0:0:
378,225,94356,1,0,0:0:0:0:
368,133,94506,1,0,0:0:0:0:
482,210,94656,1,0,0:0:0:0:
389,314,94806,1,0,0:0:0:0:
378,225,94956,1,0,0:0:0:0:
512,306,95106,1,0,0:0:0:0:
327,296,95256,5,0,0:0:0:0:
378,225,95406,1,0,0:0:0:0:
291,218,95556,1,0,0:0:0:0:
385,138,95706,1,0,0:0:0:0:
298,131,95856,1,0,0:0:0:0:
349,60,96006,1,0,0:0:0:0:
457,190,96156,1,0,0:0:0:0:
219,166,96306,1,0,0:0:0:0:
227,80,96456,1,0,0:0:0:0:
278,9,96606,1,0,0:0:0:0:
191,1,96756,1,0,0:0:0:0:
62,53,96906,5,0,0:0:0:0:
71,139,97056,1,0,0:0:0:0:
141,88,97206,1,0,0:0:0:0:
227,80,97356,1,0,0:0:0:0:
251,318,97506,1,0,0:0:0:0:
121,210,97656,1,0,0:0:0:0:
192,159,97806,1,0,0:0:0:0:
200,246,97956,1,0,0:0:0:0:
279,151,98106,1,0,0:0:0:0:
287,239,98256,5,0,0:0:0:0:
357,188,98406,1,0,0:0:0:0:
443,180,98556,1,0,0:0:0:0:
494,109,98706,1,0,0:0:0:0:
407,101,99006,5,0,0:0:0:0:
371,22,99156,1,0,0:0:0:0:
284,14,99306,1,0,0:0:0:0:
233,85,99456,1,0,0:0:0:0:
197,6,99606,1,0,0:0:0:0:
110,14,99756,1,0,0:0:0:0:
34,58,99906,1,0,0:0:0:0:
70,137,100056,5,0,0:0:0:0:
92,335,100206,1,0,0:0:0:0:
35,233,100356,1,0,0:0:0:0:
133,143,100506,1,0,0:0:0:0:
138,304,100656,1,0,0:0:0:0:
291,178,100806,1,0,0:0:0:0:
187,162,100956,5,0,0:0:0:0:
262,288,101106,1,0,0:0:0:0:
138,256,101256,1,0,0:0:0:0:
282,197,101406,1,0,0:0:0:0:
202,319,101556,1,0,0:0:0:0:
141,168,101706,1,0,0:0:0:0:
228,332,102006,5,0,0:0:0:0:
289,273,102156,1,0,0:0:0:0:
352,213,102306,1,0,0:0:0:0:
460,159,102606,5,0,0:0:0:0:
377,129,102756,1,0,0:0:0:0:
378,42,102906,1,0,0:0:0:0:
302,85,103056,1,0,0:0:0:0:
226,41,103206,1,0,0:0:0:0:
295,190,103506,5,0,0:0:0:0:
250,136,103806,1,0,0:0:0:0:
190,178,104106,5,0,0:0:0:0:
292,257,104406,1,0,0:0:0:0:
403,236,104706,5,0,0:0:0:0:
403,168,104856,1,0,0:0:0:0:
405,98,105006,1,0,0:0:0:0:
295,70,105606,5,0,0:0:0:0:
233,86,105906,1,0,0:0:0:0:
201,93,106056,1,0,0:0:0:0:
169,100,106206,6,0,L|156:103,4,8
89,108,106806,5,0,0:0:0:0:
111,188,107106,1,0,0:0:0:0:
136,272,107406,1,0,0:0:0:0:
136,359,108006,5,0,0:0:0:0:
212,315,108156,1,0,0:0:0:0:
136,272,108306,1,0,0:0:0:0:
288,272,108456,1,0,0:0:0:0:
212,229,108606,1,0,0:0:0:0:
136,185,108906,1,0,0:0:0:0:
364,229,109206,1,0,0:0:0:0:
288,186,109806,5,0,0:0:0:0:
213,142,110406,5,0,0:0:0:0:
137,99,110706,1,0,0:0:0:0:
440,186,111006,1,0,0:0:0:0:
364,143,111306,1,0,0:0:0:0:
289,99,111606,1,0,0:0:0:0:
213,56,111906,1,0,0:0:0:0:
137,13,112206,1,0,0:0:0:0:
385,28,112806,5,0,0:0:0:0:
401,114,112956,1,0,0:0:0:0:
319,84,113106,1,0,0:0:0:0:
371,196,113256,1,0,0:0:0:0:
289,166,113406,1,0,0:0:0:0:
305,252,113706,1,0,0:0:0:0:
458,180,114006,1,0,0:0:0:0:
232,100,114156,1,0,0:0:0:0:
203,182,114306,1,0,0:0:0:0:
219,268,114456,1,0,0:0:0:0:
137,238,114606,1,0,0:0:0:0:
276,334,114906,5,0,0:0:0:0:
363,318,115206,1,0,0:0:0:0:
445,348,115806,1,0,0:0:0:0:
429,262,116406,1,0,0:0:0:0:
345,235,117006,5,0,0:0:0:0:
257,235,117606,1,0,0:0:0:0:
230,152,117756,1,0,0:0:0:0:
302,101,117906,1,0,0:0:0:0:
372,152,118056,1,0,0:0:0:0:
460,152,118206,1,0,0:0:0:0:
487,235,118506,1,0,0:0:0:0:
415,286,118806,5,0,0:0:0:0:
142,152,119406,1,0,0:0:0:0:
185,286,120006,1,0,0:0:0:0:
115,235,120906,5,0,0:0:0:0:
27,235,121206,1,0,0:0:0:0:
0,152,121806,5,0,0:0:0:0:
72,101,121956,1,0,0:0:0:0:
144,50,122106,1,0,0:0:0:0:
308,106,122406,5,0,0:0:0:0:
229,69,122556,1,0,0:0:0:0:
169,133,122706,1,0,0:0:0:0:
213,210,122856,1,0,0:0:0:0:
298,193,123006,5,0,0:0:0:0:
301,18,123306,1,0,0:0:0:0:
144,50,123606,1,0,0:0:0:0:
125,209,124206,1,0,0:0:0:0:
271,280,124806,5,0,0:0:0:0:
350,317,124956,1,0,0:0:0:0:
410,253,125106,1,0,0:0:0:0:
366,176,125256,1,0,0:0:0:0:
281,193,125406,5,0,0:0:0:0:
291,106,126006,5,0,0:0:0:0:
212,69,126156,1,0,0:0:0:0:
152,133,126306,1,0,0:0:0:0:
196,210,126456,1,0,0:0:0:0:
281,193,126606,5,0,0:0:0:0:
352,214,127206,5,0,0:0:0:0:
278,368,127356,1,0,0:0:0:0:
179,292,127506,1,0,0:0:0:0:
161,375,127656,1,0,0:0:0:0:
170,283,127806,1,0,0:0:0:0:
277,209,127956,1,0,0:0:0:0:
155,106,128106,1,0,0:0:0:0:
166,194,128256,1,0,0:0:0:0:
244,31,128406,1,0,0:0:0:0:
356,61,128556,5,0,0:0:0:0:
460,73,128706,1,0,0:0:0:0:
411,212,128856,1,0,0:0:0:0:
511,185,129006,1,0,0:0:0:0:
338,156,129606,5,0,0:0:0:0:
280,296,129756,1,0,0:0:0:0:
188,262,129906,1,0,0:0:0:0:
127,330,130056,1,0,0:0:0:0:
69,224,130206,5,0,0:0:0:0:
0,109,130356,1,0,0:0:0:0:
89,90,130506,1,0,0:0:0:0:
104,202,130656,1,0,0:0:0:0:
263,214,130806,1,0,0:0:0:0:
205,158,130956,1,0,0:0:0:0:
98,194,131106,1,0,0:0:0:0:
200,147,131256,1,0,0:0:0:0:
212,49,131406,1,0,0:0:0:0:
306,106,131706,5,0,0:0:0:0:
357,34,131856,1,0,0:0:0:0:
440,61,132006,1,0,0:0:0:0:
440,149,132156,1,0,0:0:0:0:
491,219,132306,1,0,0:0:0:0:
440,291,132456,5,0,0:0:0:0:
357,264,132606,1,0,0:0:0:0:
357,176,132756,1,0,0:0:0:0:
330,92,132906,1,0,0:0:0:0:
244,76,133056,5,0,0:0:0:0:
274,158,133206,1,0,0:0:0:0:
258,245,133356,1,0,0:0:0:0:
354,384,133506,1,0,0:0:0:0:
324,302,133656,1,0,0:0:0:0:
410,318,133806,1,0,0:0:0:0:
492,289,133956,1,0,0:0:0:0:
462,207,134106,1,0,0:0:0:0:
432,125,134256,5,0,0:0:0:0:
381,53,134406,1,0,0:0:0:0:
298,80,134556,1,0,0:0:0:0:
298,168,134706,1,0,0:0:0:0:
247,238,134856,1,0,0:0:0:0:
217,156,135006,5,0,0:0:0:0:
135,186,135156,1,0,0:0:0:0:
151,100,135306,1,0,0:0:0:0:
122,18,135456,1,0,0:0:0:0:
34,69,135606,5,0,0:0:0:0:
35,200,135906,1,0,0:0:0:0:
37,337,136206,1,0,0:0:0:0:
266,343,136806,5,0,0:0:0:0:
350,247,137106,1,0,0:0:0:0:
94,265,137706,1,0,0:0:0:0:
195,187,138006,1,0,0:0:0:0:
186,59,138306,1,0,0:0:0:0:
441,78,138906,5,0,0:0:0:0:
470,202,139206,1,0,0:0:0:0:
357,262,139506,1,0,0:0:0:0:
167,89,140106,1,0,0:0:0:0:
196,213,140406,5,0,0:0:0:0:
122,191,140706,1,0,0:0:0:0:
89,260,141006,1,0,0:0:0:0:
116,331,141306,1,0,0:0:0:0:
39,331,141606,1,0,0:0:0:0:
14,218,141906,1,0,0:0:0:0:
127,47,142506,5,0,0:0:0:0:
229,48,142806,1,0,0:0:0:0:
330,64,143106,1,0,0:0:0:0:
371,157,143406,1,0,0:0:0:0:
268,150,143706,1,0,0:0:0:0:
268,252,144006,1,0,0:0:0:0:
176,206,144306,1,0,0:0:0:0:
47,365,144906,5,0,0:0:0:0:
140,323,145206,1,0,0:0:0:0:
196,237,145506,1,0,0:0:0:0:
283,290,145806,5,0,0:0:0:0:
303,205,145956,1,0,0:0:0:0:
323,120,146106,1,0,0:0:0:0:
238,101,146256,1,0,0:0:0:0:
93,337,146406,1,0,0:0:0:0:
19,318,146556,1,0,0:0:0:0:
28,233,146706,1,0,0:0:0:0:
198,271,146856,1,0,0:0:0:0:
113,252,147006,1,0,0:0:0:0:
218,186,147156,1,0,0:0:0:0:
133,167,147306,1,0,0:0:0:0:
48,148,147456,5,0,0:0:0:0:
153,82,147606,1,0,0:0:0:0:
68,64,147756,1,0,0:0:0:0:
133,167,147906,5,0,0:0:0:0:
61,218,148056,1,0,0:0:0:0:
88,301,148206,1,0,0:0:0:0:
176,301,148356,1,0,0:0:0:0:
246,352,148506,1,0,0:0:0:0:
290,352,148656,1,0,0:0:0:0:
304,336,148806,5,0,0:0:0:0:
288,288,148956,1,0,0:0:0:0:
153,256,149106,5,0,0:0:0:0:
192,192,149256,1,0,0:0:0:0:
102,153,149406,5,0,0:0:0:0:
179,89,149556,1,0,0:0:0:0:
307,153,149706,5,0,0:0:0:0:
268,51,149856,1,0,0:0:0:0:
268,192,150006,5,0,0:0:0:0:
230,115,150156,1,0,0:0:0:0:
160,224,150306,5,0,0:0:0:0:
176,160,150456,1,0,0:0:0:0:
238,301,150606,5,0,0:0:0:0:
262,252,150756,1,0,0:0:0:0:
294,317,150906,5,0,0:0:0:0:
286,284,151056,1,0,0:0:0:0:
349,244,151206,5,0,0:0:0:0:
459,80,151506,1,0,0:0:0:0:
255,64,151806,1,0,0:0:0:0:
349,244,152106,5,0,0:0:0:0:
141,234,152406,1,0,0:0:0:0:
155,32,152856,1,0,0:0:0:0:
169,25,153006,5,0,0:0:0:0:
54,102,153456,5,0,0:0:0:0:
35,131,153606,1,0,0:0:0:0:
205,258,153906,5,0,0:0:0:0:
299,232,154056,1,0,0:0:0:0:
393,206,154206,1,0,0:0:0:0:
407,341,154656,5,0,0:0:0:0:
420,351,154806,1,0,0:0:0:0:
87,280,155256,5,0,0:0:0:0:
13,323,155406,1,0,0:0:0:0:
0,195,155706,5,0,0:0:0:0:
98,111,156006,1,0,0:0:0:0:
222,78,156306,1,0,0:0:0:0:
263,199,156606,1,0,0:0:0:0:
359,113,156906,1,0,0:0:0:0:
409,231,157206,1,0,0:0:0:0:
219,314,157656,5,0,0:0:0:0:
231,302,157806,1,0,0:0:0:0:
133,264,158256,5,0,0:0:0:0:
184,211,158406,1,0,0:0:0:0:
62,217,158706,5,0,0:0:0:0:
120,156,158856,1,0,0:0:0:0:
178,95,159006,1,0,0:0:0:0:
169,11,159456,5,0,0:0:0:0:
261,98,159606,1,0,0:0:0:0:
375,113,160056,5,0,0:0:0:0:
318,210,160206,1,0,0:0:0:0:
200,224,160506,5,0,0:0:0:0:
261,282,160656,1,0,0:0:0:0:
322,340,160806,1,0,0:0:0:0:
427,217,161106,1,0,0:0:0:0:
305,178,161406,1,0,0:0:0:0:
395,87,161706,1,0,0:0:0:0:
271,52,162006,1,0,0:0:0:0:
200,224,162456,5,0,0:0:0:0:
170,119,162606,1,0,0:0:0:0:
291,170,163056,5,0,0:0:0:0:
221,52,163206,1,0,0:0:0:0:
316,82,163656,5,0,0:0:0:0:
399,153,163806,1,0,0:0:0:0:
371,248,164256,5,0,0:0:0:0:
389,340,164406,1,0,0:0:0:0:
273,250,164856,5,0,0:0:0:0:
171,332,165006,1,0,0:0:0:0:
159,255,165456,5,0,0:0:0:0:
260,358,165606,1,0,0:0:0:0:
125,347,165756,5,0,0:0:0:0:
89,219,165906,1,0,0:0:0:0:
217,199,166056,1,0,0:0:0:0:
157,267,166206,1,0,0:0:0:0:
137,131,166356,1,0,0:0:0:0:
277,131,166506,1,0,0:0:0:0:
217,199,166656,1,0,0:0:0:0:
189,43,166806,1,0,0:0:0:0:
328,56,166956,5,0,0:0:0:0:
449,115,167106,1,0,0:0:0:0:
378,224,167256,1,0,0:0:0:0:
368,132,167406,1,0,0:0:0:0:
482,209,167556,1,0,0:0:0:0:
389,313,167706,1,0,0:0:0:0:
378,224,167856,1,0,0:0:0:0:
500,304,168006,1,0,0:0:0:0:
327,295,168156,5,0,0:0:0:0:
378,224,168306,1,0,0:0:0:0:
291,217,168456,1,0,0:0:0:0:
385,137,168606,1,0,0:0:0:0:
298,130,168756,1,0,0:0:0:0:
349,59,168906,1,0,0:0:0:0:
457,189,169056,1,0,0:0:0:0:
219,165,169206,1,0,0:0:0:0:
227,79,169356,1,0,0:0:0:0:
278,8,169506,1,0,0:0:0:0:
191,0,169656,1,0,0:0:0:0:
62,52,169806,5,0,0:0:0:0:
71,138,169956,1,0,0:0:0:0:
141,87,170106,1,0,0:0:0:0:
227,79,170256,1,0,0:0:0:0:
251,317,170406,1,0,0:0:0:0:
121,209,170556,1,0,0:0:0:0:
192,158,170706,5,0,0:0:0:0:
200,245,170856,1,0,0:0:0:0:
279,150,171006,1,0,0:0:0:0:
287,238,171156,1,0,0:0:0:0:
357,187,171306,1,0,0:0:0:0:
371,277,171456,5,0,0:0:0:0:
258,247,171606,1,0,0:0:0:0:
348,345,171756,1,0,0:0:0:0:
325,224,171906,1,0,0:0:0:0:
219,296,172056,1,0,0:0:0:0:
371,277,172206,1,0,0:0:0:0:
185,180,172356,5,0,0:0:0:0:
223,306,172506,1,0,0:0:0:0:
276,184,172656,1,0,0:0:0:0:
143,236,172806,1,0,0:0:0:0:
258,247,172956,1,0,0:0:0:0:
114,177,173106,1,0,0:0:0:0:
228,320,173256,1,0,0:0:0:0:
234,134,173406,1,0,0:0:0:0:
78,232,173556,5,0,0:0:0:0:
276,184,173706,1,0,0:0:0:0:
138,98,173856,1,0,0:0:0:0:
258,247,174006,1,0,0:0:0:0:
299,76,174156,1,0,0:0:0:0:
185,180,174306,1,0,0:0:0:0:
389,190,174456,1,0,0:0:0:0:
299,76,174606,5,0,0:0:0:0:
271,188,174756,1,0,0:0:0:0:
369,99,174906,1,0,0:0:0:0:
247,121,175056,1,0,0:0:0:0:
320,228,175206,1,0,0:0:0:0:
299,76,175356,1,0,0:0:0:0:
203,152,175506,1,0,0:0:0:0:
385,263,175806,5,0,0:0:0:0:
397,153,175956,1,0,0:0:0:0:
305,317,176106,1,0,0:0:0:0:
305,209,176256,1,0,0:0:0:0:
293,99,176406,1,0,0:0:0:0:
385,263,176556,1,0,0:0:0:0:
213,247,176706,1,0,0:0:0:0:
330,178,176856,5,0,0:0:0:0:
256,24,177006,1,0,0:0:0:0:
157,100,177156,1,0,0:0:0:0:
139,17,177306,1,0,0:0:0:0:
148,109,177456,1,0,0:0:0:0:
255,183,177606,1,0,0:0:0:0:
133,286,177756,1,0,0:0:0:0:
144,198,177906,1,0,0:0:0:0:
222,361,178056,1,0,0:0:0:0:
334,331,178206,5,0,0:0:0:0:
438,319,178356,1,0,0:0:0:0:
389,180,178506,1,0,0:0:0:0:
489,207,178656,1,0,0:0:0:0:
316,236,178806,1,0,0:0:0:0:
258,96,178956,1,0,0:0:0:0:
166,130,179106,1,0,0:0:0:0:
105,62,179256,1,0,0:0:0:0:
0,179,179406,1,0,0:0:0:0:
83,151,179556,1,0,0:0:0:0:
180,221,179706,5,0,0:0:0:0:
77,141,179856,1,0,0:0:0:0:
128,63,180006,1,0,0:0:0:0:
185,212,180156,1,0,0:0:0:0:
89,273,180306,1,0,0:0:0:0:
144,346,180456,1,0,0:0:0:0:
219,235,180606,1,0,0:0:0:0:
87,166,180756,5,0,0:0:0:0:
158,217,180906,1,0,0:0:0:0:
166,130,181056,1,0,0:0:0:0:
245,225,181206,1,0,0:0:0:0:
253,137,181356,5,0,0:0:0:0:
323,188,181506,1,0,0:0:0:0:
409,196,181656,1,0,0:0:0:0:
460,267,181806,1,0,0:0:0:0:
373,275,181956,5,0,0:0:0:0:
337,354,182106,1,0,0:0:0:0:
250,362,182256,1,0,0:0:0:0:
199,291,182406,1,0,0:0:0:0:
163,370,182556,1,0,0:0:0:0:
76,362,182706,1,0,0:0:0:0:
0,318,182856,1,0,0:0:0:0:
36,239,183006,5,0,0:0:0:0:
63,78,183156,1,0,0:0:0:0:
1,143,183306,1,0,0:0:0:0:
99,233,183456,1,0,0:0:0:0:
224,197,183606,1,0,0:0:0:0:
107,85,183756,1,0,0:0:0:0:
153,214,183906,5,0,0:0:0:0:
230,108,184056,1,0,0:0:0:0:
104,141,184206,1,0,0:0:0:0:
250,189,184356,1,0,0:0:0:0:
99,61,184506,1,0,0:0:0:0:
120,216,184656,1,0,0:0:0:0:
226,56,184806,6,0,L|227:67,1,8
299,164,185406,6,0,L|297:174,1,8
151,252,186006,6,0,L|152:261,1,8
304,356,186606,6,0,L|315:355,1,8
281,163,187206,6,0,L|280:152,1,8
482,157,190206,6,0,L|493:156,1,8
340,239,191406,6,0,L|351:238,1,8
182,116,192606,6,0,L|193:115,1,8
20,225,195006,6,0,L|31:224,1,8
102,72,196206,6,0,L|101:61,1,8
381,227,200406,5,0,0:0:0:0:
307,208,200556,1,0,0:0:0:0:
242,305,200706,1,0,0:0:0:0:
376,232,200856,1,0,0:0:0:0:
296,138,201006,1,0,0:0:0:0:
317,60,201156,1,0,0:0:0:0:
370,134,201306,5,0,0:0:0:0:
393,58,201456,1,0,0:0:0:0:
363,217,201606,1,0,0:0:0:0:
375,138,201756,1,0,0:0:0:0:
447,192,201906,1,0,0:0:0:0:
373,222,202056,1,0,0:0:0:0:
442,325,202206,5,0,0:0:0:0:
309,276,202356,1,0,0:0:0:0:
368,226,202506,1,0,0:0:0:0:
233,298,202656,1,0,0:0:0:0:
196,177,202806,1,0,0:0:0:0:
269,112,202956,1,0,0:0:0:0:
334,132,203106,5,0,0:0:0:0:
204,47,203256,1,0,0:0:0:0:
280,219,203406,5,0,0:0:0:0:
353,104,203556,1,0,0:0:0:0:
299,141,203706,1,0,0:0:0:0:
358,213,203856,1,0,0:0:0:0:
432,183,204006,6,0,L|443:182,1,8
64,316,205656,5,0,0:0:0:0:
144,248,205806,2,0,L|152:240,1,8
