osu file format v14

[General]
AudioFilename: audio.mp3
AudioLeadIn: 0
PreviewTime: 144054
Countdown: 1
SampleSet: None
StackLeniency: 0.4
Mode: 0
LetterboxInBreaks: 0
WidescreenStoryboard: 1

[Editor]
Bookmarks: 29702,35349,40996,60760,66407,96054,107349,120054,166643,189231,211819
DistanceSpacing: 1
BeatDivisor: 4
GridSize: 8
TimelineZoom: 2.6

[Metadata]
Title:Feng Yu
TitleUnicode:风屿
Artist:Mai Zang
ArtistUnicode:埋葬
Creator:FrenZ396
Version:Extra
Source:Dynamix
Tags:piano ambient windland wind island stepmania vocaloid instrumental y..j yuezheng ling
BeatmapID:2012234
BeatmapSetID:959024

[Difficulty]
HPDrainRate:5.5
CircleSize:4
OverallDifficulty:8.5
ApproachRate:9
SliderMultiplier:1.6
SliderTickRate:1

[Events]
//Background and Video events
0,0,"aAAAaa.jpg",0,0
//Break Periods
//Storyboard Layer 0 (Background)
//Storyboard Layer 1 (Fail)
//Storyboard Layer 2 (Pass)
//Storyboard Layer 3 (Foreground)
//Storyboard Sound Samples

[TimingPoints]
24055,352.941176470588,4,2,0,100,1,0
24055,-125,4,2,0,100,0,0
28643,-142.857142857143,4,2,0,100,0,0
28996,-166.666666666667,4,2,0,100,0,0
29349,-200,4,2,0,100,0,0
29702,-125,4,2,0,100,0,0

[Colours]
Combo1 : 0,166,83
Combo2 : 117,163,249
Combo3 : 18,124,255
Combo4 : 53,213,30

[HitObjects]
495,360,24055,6,0,P|465:366|424:355,1,64
345,313,24407,2,0,P|313:306|282:312,1,64
182,359,24760,1,0,0:0:0:0:
182,359,24937,1,0,0:0:0:0:
100,247,25113,2,0,L|94:310,1,64
72,162,25466,6,0,L|135:168,1,64
232,118,25819,1,0,0:0:0:0:
232,118,25996,1,0,0:0:0:0:
154,50,26172,2,0,L|91:44,1,64
72,162,26525,2,0,L|135:168,1,64
329,198,26878,6,0,L|316:54,1,128
332,65,27584,2,0,L|344:193,1,128
375,328,28113,1,0,0:0:0:0:
375,328,28202,1,0,0:0:0:0:
375,328,28290,6,0,P|336:334|294:319,1,64
232,351,28643,2,0,P|229:320|239:296,1,55.9999982910157
219,219,28996,2,0,P|242:213|269:218,1,47.9999985351563
344,193,29349,2,0,P|350:220|345:247,1,40
454,349,29702,6,0,L|448:286,1,64
493,205,30055,2,0,L|430:199,1,64
349,232,30407,2,0,L|343:169,1,64
401,89,30760,1,0,0:0:0:0:
401,89,30937,1,0,0:0:0:0:
267,77,31113,6,0,P|261:108|267:139,1,64
296,6,31466,2,0,P|264:0|233:6,1,64
157,92,31819,1,0,0:0:0:0:
157,92,31996,1,0,0:0:0:0:
86,9,32172,2,0,P|54:3|23:9,1,64
0,125,32525,6,0,L|11:252,1,128
24,259,33231,2,0,L|12:131,1,128
33,344,33937,1,0,0:0:0:0:
33,344,34113,2,0,L|17:345,6,16
108,360,34466,2,0,L|140:357,3,32
139,278,34819,2,0,L|171:275,1,32
270,343,34996,1,0,0:0:0:0:
284,348,35084,1,0,0:0:0:0:
300,350,35172,1,0,0:0:0:0:
316,348,35260,1,0,0:0:0:0:
331,342,35349,6,0,L|337:279,1,64
398,195,35702,1,0,0:0:0:0:
300,184,35878,1,0,0:0:0:0:
364,50,36055,2,0,L|358:113,1,64
297,197,36408,1,0,0:0:0:0:
395,208,36584,1,0,0:0:0:0:
264,83,36760,6,0,P|228:102|211:136,1,64
209,263,37113,1,0,0:0:0:0:
135,140,37290,1,0,0:0:0:0:
209,263,37466,2,0,P|210:222|189:190,1,64
77,117,37819,2,0,P|111:138|149:136,1,64
264,83,38172,5,0,0:0:0:0:
279,84,38260,1,0,0:0:0:0:
295,86,38348,1,0,0:0:0:0:
311,87,38436,1,0,0:0:0:0:
334,79,38524,1,0,0:0:0:0:
343,79,38613,1,0,0:0:0:0:
354,80,38701,1,0,0:0:0:0:
365,81,38789,1,0,0:0:0:0:
397,63,38878,6,0,L|400:31,3,32
491,20,39231,1,0,0:0:0:0:
487,51,39319,1,0,0:0:0:0:
484,83,39407,1,0,0:0:0:0:
481,115,39495,1,0,0:0:0:0:
478,147,39584,6,0,P|455:212|400:241,1,128
289,224,40113,2,0,P|356:211|409:244,1,128
456,329,40643,2,0,L|393:335,1,64
