osu file format v14

[General]
AudioFilename: audio.mp3
AudioLeadIn: 0
PreviewTime: 55828
Countdown: 0
SampleSet: None
StackLeniency: 0.7
Mode: 0
LetterboxInBreaks: 0
WidescreenStoryboard: 0

[Editor]
Bookmarks: 247,10355,20460,30565,40670,50776,55828,65933,77302,78565,88670
DistanceSpacing: 1.7
BeatDivisor: 2
GridSize: 8
TimelineZoom: 2.3

[Metadata]
Title:Resonant World
TitleUnicode:Resonant World
Artist:Maho Matsunaga (from StylipS)
ArtistUnicode:Maho Matsunaga (from StylipS)
Creator:semaphore
Version:Insane
Source:フェアリーフェンサーエフ
Tags:Compile Heart Fairy Fencer F
BeatmapID:2076240
BeatmapSetID:992840

[Difficulty]
HPDrainRate:5
CircleSize:4
OverallDifficulty:7
ApproachRate:9
SliderMultiplier:2
SliderTickRate:1

[Events]
//Background and Video events
0,0,"bg.jpg",0,0
//Break Periods
//Storyboard Layer 0 (Background)
//Storyboard Layer 1 (Fail)
//Storyboard Layer 2 (Pass)
//Storyboard Layer 3 (Foreground)
//Storyboard Sound Samples
Sample,10512,0,"soft-hitnormal.wav",75
Sample,11776,0,"soft-hitnormal.wav",75
Sample,12091,0,"soft-hitnormal.wav",75
Sample,13039,0,"soft-hitnormal.wav",75
Sample,14302,0,"soft-hitnormal.wav",75
Sample,14618,0,"soft-hitnormal.wav",75
Sample,15565,0,"soft-hitnormal.wav",75
Sample,16828,0,"soft-hitnormal.wav",75
Sample,17144,0,"soft-hitnormal.wav",75
Sample,18091,0,"soft-hitnormal.wav",75
Sample,20618,0,"soft-hitnormal.wav",75
Sample,22197,0,"soft-hitnormal.wav",75
Sample,23144,0,"soft-hitnormal.wav",75
Sample,24723,0,"soft-hitnormal.wav",75
Sample,25670,0,"soft-hitnormal.wav",75
Sample,27249,0,"soft-hitnormal.wav",75
Sample,28197,0,"soft-hitnormal.wav",75
Sample,29460,0,"soft-hitnormal.wav",75
Sample,30723,0,"soft-hitnormal.wav",75
Sample,32302,0,"soft-hitnormal.wav",75
Sample,33249,0,"soft-hitnormal.wav",75
Sample,34828,0,"soft-hitnormal.wav",75
Sample,35776,0,"soft-hitnormal.wav",75
Sample,37355,0,"soft-hitnormal.wav",75
Sample,38302,0,"soft-hitnormal.wav",75
Sample,39881,0,"soft-hitnormal.wav",75
Sample,55986,0,"soft-hitnormal.wav",75
Sample,57249,0,"soft-hitnormal.wav",75
Sample,57565,0,"soft-hitnormal.wav",75
Sample,58512,0,"soft-hitnormal.wav",75
Sample,59776,0,"soft-hitnormal.wav",75
Sample,61039,0,"soft-hitnormal.wav",75
Sample,62302,0,"soft-hitnormal.wav",75
Sample,62618,0,"soft-hitnormal.wav",75
Sample,63565,0,"soft-hitnormal.wav",75
Sample,66091,0,"soft-hitnormal.wav",75
Sample,67355,0,"soft-hitnormal.wav",75
Sample,67670,0,"soft-hitnormal.wav",75
Sample,68618,0,"soft-hitnormal.wav",75
Sample,69881,0,"soft-hitnormal.wav",75
Sample,70197,0,"soft-hitnormal.wav",75
Sample,71144,0,"soft-hitnormal.wav",75
Sample,72407,0,"soft-hitnormal.wav",75
Sample,72723,0,"soft-hitnormal.wav",75
Sample,73670,0,"soft-hitnormal.wav",75
Sample,74933,0,"soft-hitnormal.wav",75
Sample,76197,0,"soft-hitnormal.wav",75
Sample,78723,0,"soft-hitnormal.wav",75
Sample,79986,0,"soft-hitnormal.wav",75
Sample,81249,0,"soft-hitnormal.wav",75
Sample,81565,0,"soft-hitnormal.wav",75
Sample,82512,0,"soft-hitnormal.wav",75
Sample,83776,0,"soft-hitnormal.wav",75
Sample,85039,0,"soft-hitnormal.wav",75
Sample,85355,0,"soft-hitnormal.wav",75
Sample,86302,0,"soft-hitnormal.wav",75
Sample,87565,0,"soft-hitnormal.wav",75

[TimingPoints]
247,315.789473684211,4,1,1,85,1,0
878,-100,4,2,1,85,0,0
2773,-100,4,1,1,85,0,0
3404,-100,4,2,1,85,0,0
5299,312.5,4,1,1,85,1,0
5924,-100,4,2,1,85,0,0
6549,318.302387267905,4,2,1,85,1,0
7822,-100,4,1,1,85,0,0
8458,308.880308880309,4,2,1,85,1,0
9693,331.491712707182,4,1,1,85,1,0
10355,315.789473684211,4,1,1,85,1,0
41302,-100,4,2,1,85,0,0
43197,-100,4,1,1,85,0,0
43828,-100,4,2,1,85,0,0
45723,-100,4,1,1,85,0,0
46355,-100,4,2,1,85,0,0
48249,-100,4,1,1,85,0,0
48881,-100,4,2,1,85,0,0
55828,-100,4,1,1,85,0,1
77302,-100,4,1,1,85,0,0
78565,-100,4,1,1,85,0,1
88670,-100,4,1,1,85,0,0

[Colours]
Combo1 : 241,213,114
Combo2 : 143,198,214
Combo3 : 235,148,148
Combo4 : 196,171,222

[HitObjects]
96,94,247,5,6,0:0:0:0:
261,150,404,1,6,0:0:0:0:
113,302,562,2,0,P|105:246|89:200,1,100,6|6,0:0|0:0,0:0:0:0:
91,204,1115,1,0,0:0:0:0:
91,204,1194,2,0,P|147:196|193:180,1,100
358,319,1510,5,2,0:0:0:0:
358,319,1668,2,0,P|367:267|385:220,1,100,0|0,0:0|0:0,0:0:0:0:
252,359,1983,1,0,0:0:0:0:
499,263,2141,6,0,P|486:208|486:156,2,100
499,263,2773,5,6,0:0:0:0:
261,150,2931,1,6,0:0:0:0:
417,46,3089,2,0,P|465:65|513:75,1,100,6|6,0:0|0:0,0:0:0:0:
261,150,3404,6,0,P|253:94|239:47,2,100
252,359,3878,1,0,0:0:0:0:
416,300,4036,6,0,B|304:310|336:246|227:254,1,200,2|0,0:0|0:0,0:0:0:0:
252,359,4510,1,0,0:0:0:0:
140,325,4668,2,0,P|133:265|132:214,2,100,8|0|0,0:0|0:0|0:0,0:0:0:0:
140,325,5299,5,6,0:0:0:0:
385,201,5455,1,6,0:0:0:0:
211,99,5611,2,0,P|218:39|219:-12,1,100,6|6,0:0|0:0,0:0:0:0:
385,201,5924,6,0,P|436:184|483:173,1,100,0|0,0:0|0:0,0:0:0:0:
300,74,6236,2,0,P|351:91|398:102,1,100,0|0,0:0|0:0,0:0:0:0:
276,284,6549,2,0,P|329:285|377:291,1,100
119,6,6867,2,0,P|172:4|220:-1,1,100,0|0,0:0|0:0,0:0:0:0:
49,219,7185,6,0,P|39:158|24:115,3,100,0|0|0|0,0:0|0:0|0:0|0:0,0:0:0:0:
35,306,7822,5,6,0:0:0:0:
306,241,7981,1,6,0:0:0:0:
105,92,8140,2,0,P|124:148|135:203,1,100,6|6,0:0|0:0,0:0:0:0:
203,384,8458,2,0,P|214:335|230:289,1,100,0|0,0:0|0:0,0:0:0:0:
377,155,8766,5,0,0:0:0:0:
231,288,8921,1,0,0:0:0:0:
389,256,9075,2,0,B|285:263|315:186|205:194,1,200,4|0,0:0|0:0,0:0:0:0:
85,345,10355,6,0,P|109:285|135:144,1,200,6|8,0:0|0:0,0:0:0:0:
38,230,10828,1,0,2:0:0:0:
196,343,10986,2,0,P|247:324|309:313,1,100,2|0,0:0|2:0,0:0:0:0:
317,117,11302,2,0,P|336:168|347:230,1,100,8|0,0:0|2:0,0:0:0:0:
367,373,11618,6,0,P|392:312|517:283,2,200,2|8|2,0:0|0:0|0:0,0:0:0:0:
475,384,12407,1,0,2:0:0:0:
479,196,12565,2,0,P|489:147|507:100,1,100,8|0,0:0|2:0,0:0:0:0:
342,104,12881,6,0,B|455:85|403:29|512:9,1,200,2|8,0:0|0:0,0:0:0:0:
342,0,13355,1,0,2:0:0:0:
250,68,13512,2,0,P|249:124|240:172,1,100,2|0,0:0|2:0,0:0:0:0:
158,8,13828,2,0,P|102:7|54:-2,1,100,8|0,0:0|2:0,0:0:0:0:
72,169,14144,6,0,B|185:188|133:244|242:264,2,200,2|8|2,0:0|0:0|0:0,0:0:0:0:
78,266,14933,1,0,2:0:0:0:
241,167,15091,2,0,P|249:117|250:68,1,100,8|0,0:0|2:0,0:0:0:0:
380,212,15407,6,0,P|321:293|282:384,1,200,6|8,0:0|0:0,0:0:0:0:
399,335,15881,1,0,2:0:0:0:
326,138,16039,2,0,P|378:130|425:116,1,100,2|0,0:0|2:0,0:0:0:0:
496,356,16355,2,0,P|444:348|397:334,1,100,8|0,0:0|2:0,0:0:0:0:
512,209,16670,6,0,P|519:138|506:10,2,200,2|8|2,0:0|0:0|0:0,0:0:0:0:
423,116,17460,1,0,2:0:0:0:
398,334,17618,2,0,P|446:348|496:356,1,100,8|0,0:0|2:0,0:0:0:0:
420,232,17933,6,0,B|320:217|341:295|231:280,1,200,2|8,0:0|0:0,0:0:0:0:
232,280,18407,1,8,0:0:0:0:
47,103,18723,1,8,0:0:0:0:
304,14,19039,1,8,0:0:0:0:
256,192,19197,12,0,20302,0:0:0:0:
304,14,20460,6,0,P|279:87|263:212,1,200,6|8,0:0|0:0,0:0:0:0:
361,124,20933,1,0,2:0:0:0:
361,124,21249,1,2,0:0:0:0:
199,53,21407,2,0,P|142:65|88:66,1,100,8|0,0:0|2:0,0:0:0:0:
43,248,21723,6,0,P|31:191|30:137,1,100,2|0,0:0|2:0,0:0:0:0:
202,299,22039,2,0,B|105:286|119:361|15:346,1,200,8|0,0:0|0:0,0:0:0:0:
14,345,22512,1,2,0:0:0:0:
29,149,22670,2,0,P|32:199|43:248,1,100,8|0,0:0|2:0,0:0:0:0:
281,384,22986,6,0,P|287:308|329:179,1,200,2|8,0:0|0:0,0:0:0:0:
202,299,23460,1,0,2:0:0:0:
202,299,23776,1,2,0:0:0:0:
386,253,23933,2,0,P|435:266|486:272,1,100,8|0,0:0|2:0,0:0:0:0:
202,299,24249,6,0,P|212:237|229:189,1,100,2|0,0:0|2:0,0:0:0:0:
311,98,24565,2,0,P|275:148|143:140,1,200,8|0,0:0|0:0,0:0:0:0:
147,144,25039,1,2,0:0:0:0:
378,0,25197,2,0,P|388:62|405:110,1,100,8|0,0:0|2:0,0:0:0:0:
512,195,25512,6,0,P|438:202|309:237,1,200,2|8,0:0|0:0,0:0:0:0:
437,296,25986,1,0,2:0:0:0:
437,296,26302,1,2,0:0:0:0:
209,277,26460,2,0,P|157:262|113:243,1,100,8|0,0:0|2:0,0:0:0:0:
316,234,26776,6,0,P|329:185|349:139,1,100,2|0,0:0|2:0,0:0:0:0:
245,384,27091,2,0,B|349:371|316:302|413:290,1,200,8|0,0:0|0:0,0:0:0:0:
417,384,27565,1,2,0:0:0:0:
505,324,27723,2,0,P|491:275|471:229,1,100,8|0,0:0|2:0,0:0:0:0:
512,97,28039,6,0,P|457:125|318:165,1,200,2|8,0:0|0:0,0:0:0:0:
471,229,28512,1,0,2:0:0:0:
471,229,28828,1,2,0:0:0:0:
383,50,28986,2,0,P|325:40|278:26,1,100,8|0,0:0|2:0,0:0:0:0:
220,194,29302,6,0,P|209:112|173:-2,1,200,2|8,0:0|0:0,0:0:0:0:
285,28,29776,1,0,2:0:0:0:
131,142,29933,2,0,P|84:129|30:123,1,100,0|2,0:0|0:0,0:0:0:0:
223,279,30249,2,0,P|265:254|315:234,1,100,8|0,0:0|2:0,0:0:0:0:
251,373,30565,6,0,B|145:387|172:316|62:330,1,200,6|8,0:0|0:0,0:0:0:0:
61,330,31039,1,0,2:0:0:0:
61,330,31355,1,2,0:0:0:0:
223,279,31512,2,0,P|198:236|178:186,1,100,8|0,0:0|2:0,0:0:0:0:
382,294,31828,6,0,P|357:336|337:386,1,100,2|0,0:0|2:0,0:0:0:0:
332,165,32144,2,0,P|383:198|526:249,1,200,8|0,0:0|0:0,0:0:0:0:
382,294,32618,1,2,0:0:0:0:
468,128,32776,2,0,P|493:86|513:36,1,100,8|0,0:0|2:0,0:0:0:0:
227,21,33091,6,0,P|320:18|387:97,1,200,2|8,0:0|0:0,0:0:0:0:
282,119,33565,1,0,2:0:0:0:
282,119,33881,1,2,0:0:0:0:
126,97,34039,2,0,P|141:44|147:-2,1,100,8|0,0:0|2:0,0:0:0:0:
26,254,34355,6,0,P|41:307|47:353,1,100,2|0,0:0|2:0,0:0:0:0:
189,195,34670,2,0,B|75:210|109:141|0:155,1,200,8|0,0:0|0:0,0:0:0:0:
26,254,35144,1,2,0:0:0:0:
155,97,35302,2,0,P|140:44|134:-2,1,100,8|0,0:0|2:0,0:0:0:0:
299,101,35618,6,0,P|287:179|279:315,1,200,2|8,0:0|0:0,0:0:0:0:
189,195,36091,1,0,2:0:0:0:
189,195,36407,1,2,0:0:0:0:
413,135,36565,2,0,P|461:155|528:173,1,100,8|0,0:0|2:0,0:0:0:0:
302,151,36881,6,0,P|282:199|264:266,1,100,2|0,0:0|2:0,0:0:0:0:
331,46,37197,2,0,B|217:31|251:100|142:86,1,200,8|0,0:0|0:0,0:0:0:0:
0,22,37670,1,2,0:0:0:0:
47,202,37828,2,0,P|56:151|46:92,1,100,8|0,0:0|2:0,0:0:0:0:
170,244,38144,6,0,P|75:225|0:285,1,200,2|8,0:0|0:0,0:0:0:0:
102,336,38618,1,0,2:0:0:0:
102,336,38933,1,2,0:0:0:0:
260,259,39091,2,0,P|251:208|261:149,1,100,8|0,0:0|2:0,0:0:0:0:
102,336,39407,6,0,P|153:327|212:337,1,100,2|0,0:0|2:0,0:0:0:0:
448,317,39723,2,0,P|382:299|280:395,1,200,8|0,0:0|0:0,0:0:0:0:
284,373,40197,1,2,0:0:0:0:
371,200,40355,2,0,P|385:148|391:90,1,100,8|0,0:0|2:0,0:0:0:0:
202,5,40670,5,6,0:0:0:0:
390,102,40828,1,6,0:0:0:0:
198,223,40986,2,0,P|151:245|100:258,1,100,6|6,0:0|0:0,0:0:0:0:
104,257,41539,1,0,0:0:0:0:
104,257,41618,2,0,P|82:210|69:159,1,100,0|0,0:0|0:0,0:0:0:0:
213,14,41933,5,2,0:0:0:0:
213,14,42091,2,0,P|200:67|198:128,1,100,0|0,0:0|0:0,0:0:0:0:
64,79,42407,1,0,0:0:0:0:
216,228,42565,6,0,P|269:243|332:246,2,100,0|0|0,0:0|0:0|0:0,0:0:0:0:
216,228,43197,5,6,0:0:0:0:
474,160,43355,1,6,0:0:0:0:
368,384,43512,2,0,P|315:369|252:366,1,100,6|6,0:0|0:0,0:0:0:0:
474,160,43828,6,0,P|463:95|459:51,2,100,0|0|0,0:0|0:0|0:0,0:0:0:0:
480,341,44302,1,0,0:0:0:0:
322,277,44460,6,0,B|425:299|413:225|513:243,1,200,2|0,0:0|0:0,0:0:0:0:
480,341,44933,1,0,0:0:0:0:
356,185,45091,2,0,P|367:120|371:76,2,100,8|0|0,0:0|0:0|0:0,0:0:0:0:
356,185,45723,5,6,0:0:0:0:
108,105,45881,1,6,0:0:0:0:
175,363,46039,2,0,P|184:306|190:251,1,100,6|6,0:0|0:0,0:0:0:0:
108,105,46355,6,0,P|51:96|-4:90,1,100,0|0,0:0|0:0,0:0:0:0:
188,263,46670,2,0,P|131:272|76:278,1,100,0|0,0:0|0:0,0:0:0:0:
278,76,46986,2,0,P|225:52|173:32,1,100,0|0,0:0|0:0,0:0:0:0:
352,282,47302,2,0,P|305:315|262:350,1,100,0|0,0:0|0:0,0:0:0:0:
462,188,47618,6,0,P|455:133|455:82,3,100,0|0|0|0,0:0|0:0|0:0|0:0,0:0:0:0:
512,263,48249,5,6,0:0:0:0:
272,342,48407,1,6,0:0:0:0:
377,92,48565,6,0,P|378:142|385:192,1,100,6|6,0:0|0:0,0:0:0:0:
272,342,48881,2,0,P|272:292|279:242,1,100,0|0,0:0|0:0,0:0:0:0:
413,271,49197,5,0,0:0:0:0:
297,164,49355,1,0,0:0:0:0:
413,271,49512,1,4,0:0:0:0:
256,192,49591,12,4,50776,0:0:0:0:
256,192,54249,12,0,55670,0:0:0:0:
318,274,55828,6,0,P|329:205|374:70,1,200,6|8,0:0|0:0,0:0:0:0:
458,207,56302,1,0,2:0:0:0:
316,373,56460,2,0,P|364:360|414:355,1,100,2|0,0:0|2:0,0:0:0:0:
458,207,56776,2,0,P|445:158|439:109,1,100,8|0,0:0|2:0,0:0:0:0:
279,52,57091,6,0,B|386:70|370:-1|470:18,2,200,2|8|2,0:0|0:0|0:0,0:0:0:0:
128,0,57881,1,0,2:0:0:0:
195,175,58039,2,0,P|189:122|189:65,1,100,8|0,0:0|2:0,0:0:0:0:
267,267,58355,6,0,P|235:222|96:236,1,200,2|8,0:0|0:0,0:0:0:0:
175,299,58828,1,0,2:0:0:0:
279,147,58986,2,0,P|273:94|273:37,1,100,2|0,0:0|2:0,0:0:0:0:
386,222,59302,2,0,P|439:216|496:216,1,100,8|0,0:0|2:0,0:0:0:0:
271,384,59618,6,0,B|282:324|286:254|286:254|298:294|334:313,1,200,2|8,0:0|0:0,0:0:0:0:
485,215,60091,1,0,2:0:0:0:
367,384,60249,5,2,0:0:0:0:
512,317,60407,1,0,2:0:0:0:
363,143,60565,2,0,P|374:84|390:35,1,100,8|2,0:0|0:0,0:0:0:0:
391,242,60881,6,0,B|284:261|309:185|201:207,1,200,6|8,0:0|0:0,0:0:0:0:
232,309,61355,1,0,2:0:0:0:
113,260,61512,2,0,P|112:202|104:152,1,100,2|0,0:0|2:0,0:0:0:0:
34,384,61828,2,0,P|92:383|142:375,1,100,8|0,0:0|2:0,0:0:0:0:
19,107,62144,6,0,P|29:167|33:306,2,200,2|8|2,0:0|0:0|0:0,0:0:0:0:
19,107,62933,1,0,2:0:0:0:
177,50,63091,2,0,P|125:30|83:4,1,100,8|0,0:0|2:0,0:0:0:0:
182,166,63407,6,0,B|290:156|246:89|356:83,1,200,2|8,0:0|0:0,0:0:0:0:
370,301,63881,2,0,P|353:250|355:197,1,100,0|2,2:0|0:0,0:0:0:0:
512,315,64197,2,0,P|475:275|454:227,1,100,0|8,2:0|0:0,0:0:0:0:
249,256,64512,1,0,2:0:0:0:
241,384,64670,6,0,P|257:326|257:280,1,100,2|0,0:0|2:0,0:0:0:0:
195,136,64986,2,0,L|146:125,1,50,8|0,0:0|0:0,0:0:0:0:
14,188,65144,1,2,0:0:0:0:
14,188,65223,1,2,0:0:0:0:
14,188,65302,2,0,L|63:199,1,50,10|0,0:0|0:0,0:0:0:0:
130,377,65460,1,2,0:0:0:0:
130,377,65539,1,2,0:0:0:0:
130,377,65618,6,0,B|135:312|144:272|144:272|125:290|103:300,1,150,12|0,0:0|0:0,0:0:0:0:
250,341,65933,6,0,B|356:368|332:277|438:307,1,200,6|8,0:0|0:0,0:0:0:0:
401,384,66407,1,0,2:0:0:0:
286,262,66565,2,0,P|300:204|305:144,1,100,2|0,0:0|2:0,0:0:0:0:
456,226,66881,2,0,P|444:167|423:111,1,100,8|0,0:0|2:0,0:0:0:0:
236,101,67197,6,0,P|301:83|423:21,2,200,2|8|2,0:0|0:0|0:0,0:0:0:0:
292,0,67986,1,0,2:0:0:0:
445,128,68144,2,0,P|389:107|341:100,1,100,8|0,0:0|2:0,0:0:0:0:
143,257,68460,6,0,B|154:202|158:123|158:123|172:159|202:173,1,200,2|8,0:0|0:0,0:0:0:0:
349,100,68933,1,0,2:0:0:0:
220,271,69091,5,2,0:0:0:0:
250,85,69249,1,0,2:0:0:0:
393,222,69407,2,0,P|444:250|490:264,1,100,8|0,0:0|2:0,0:0:0:0:
327,384,69723,6,0,P|325:326|302:185,2,200,2|8|2,0:0|0:0|0:0,0:0:0:0:
239,296,70512,1,0,2:0:0:0:
393,187,70670,2,0,P|404:244|409:290,1,100,8|0,0:0|2:0,0:0:0:0:
426,68,70986,6,0,B|319:50|335:121|235:102,1,200,6|8,0:0|0:0,0:0:0:0:
268,0,71460,1,0,2:0:0:0:
135,125,71618,2,0,P|147:70|151:17,1,100,2|0,0:0|2:0,0:0:0:0:
205,216,71933,2,0,P|260:228|313:232,1,100,8|0,0:0|2:0,0:0:0:0:
135,384,72249,6,0,P|113:289|72:191,2,200,2|8|2,0:0|0:0|0:0,0:0:0:0:
32,318,73039,1,0,2:0:0:0:
199,256,73197,2,0,P|181:206|159:160,1,100,8|0,0:0|2:0,0:0:0:0:
219,346,73512,6,0,B|326:364|310:293|410:312,1,200,2|8,0:0|0:0,0:0:0:0:
512,384,73986,1,0,2:0:0:0:
512,201,74144,2,0,P|499:254|496:300,1,100,2|0,0:0|2:0,0:0:0:0:
386,181,74460,2,0,P|373:128|370:82,1,100,8|0,0:0|2:0,0:0:0:0:
262,29,74776,6,0,P|320:55|442:8,1,200,2|8,0:0|0:0,0:0:0:0:
441,9,75249,1,0,2:0:0:0:
512,180,75407,2,0,P|463:160|410:149,1,100,2|0,0:0|2:0,0:0:0:0:
263,228,75723,2,0,P|283:179|294:126,1,100,8|0,0:0|2:0,0:0:0:0:
119,32,76039,6,0,P|138:93|155:246,1,200,6|8,0:0|0:0,0:0:0:0:
46,152,76512,1,0,2:0:0:0:
207,11,76670,2,0,P|266:30|320:42,1,100,2|0,0:0|2:0,0:0:0:0:
417,149,76986,2,0,P|398:208|386:262,1,100,8|0,0:0|2:0,0:0:0:0:
392,384,77302,1,4,0:0:0:0:
392,384,78565,6,0,B|284:374|328:307|218:301,1,200,6|8,0:0|0:0,0:0:0:0:
70,367,79039,1,0,2:0:0:0:
95,180,79197,2,0,P|105:234|120:279,1,100,2|0,0:0|2:0,0:0:0:0:
229,200,79512,2,0,P|237:150|253:103,1,100,8|0,0:0|2:0,0:0:0:0:
210,0,79828,6,0,P|230:50|370:83,1,200,2|8,0:0|0:0,0:0:0:0:
359,87,80302,1,0,2:0:0:0:
512,0,80460,2,0,P|452:1|409:14,1,100,2|0,0:0|2:0,0:0:0:0:
484,221,80776,2,0,P|483:161|470:118,1,100,8|0,0:0|2:0,0:0:0:0:
328,281,81091,6,0,P|401:302|527:366,2,200,2|8|2,0:0|0:0|0:0,0:0:0:0:
388,384,81881,1,0,2:0:0:0:
230,334,82039,2,0,P|240:279|239:226,1,100,8|0,0:0|2:0,0:0:0:0:
216,57,82355,6,0,B|166:69|84:75|84:75|115:90|138:120,1,200,2|8,0:0|0:0,0:0:0:0:
239,235,82828,1,0,2:0:0:0:
53,164,82986,5,2,0:0:0:0:
294,131,83144,1,0,2:0:0:0:
155,301,83302,2,0,P|111:336|69:361,1,100,8|0,0:0|2:0,0:0:0:0:
125,206,83618,6,0,B|233:188|211:268|313:253,1,200,6|8,0:0|0:0,0:0:0:0:
401,140,84091,1,0,2:0:0:0:
272,61,84249,2,0,P|286:116|295:169,1,100,2|0,0:0|2:0,0:0:0:0:
512,211,84565,2,0,P|457:225|404:234,1,100,8|0,0:0|2:0,0:0:0:0:
506,105,84881,6,0,P|472:49|345:43,2,200,2|8|2,0:0|0:0|0:0,0:0:0:0:
414,232,85670,1,0,2:0:0:0:
512,365,85828,2,0,P|502:308|501:255,1,100,8|2,0:0|0:0,0:0:0:0:
212,353,86144,6,0,P|311:358|408:384,1,200,6|8,0:0|0:0,0:0:0:0:
298,225,86618,1,0,2:0:0:0:
122,384,86776,2,0,P|130:331|133:272,1,100,2|0,0:0|2:0,0:0:0:0:
11,159,87091,2,0,P|18:208|21:258,1,100,8|0,0:0|2:0,0:0:0:0:
298,225,87407,6,0,B|190:243|212:163|110:178,1,200,2|8,0:0|0:0,0:0:0:0:
132,284,87881,1,0,2:0:0:0:
275,115,88039,6,0,P|264:59|259:1,1,100,2|0,0:0|2:0,0:0:0:0:
401,177,88355,2,0,P|390:233|385:291,1,100,8|0,0:0|2:0,0:0:0:0:
475,39,88670,1,4,0:0:0:0:
256,192,88749,12,0,93644,0:0:0:0:
