osu file format v14

[General]
AudioFilename: audio.mp3
AudioLeadIn: 0
PreviewTime: 180529
Countdown: 0
SampleSet: Soft
StackLeniency: 0.5
Mode: 0
LetterboxInBreaks: 0
WidescreenStoryboard: 1

[Editor]
Bookmarks: 530,44974,82307,96529,132085,167641,181863,219196
DistanceSpacing: 2
BeatDivisor: 4
GridSize: 32
TimelineZoom: 1.4

[Metadata]
Title:Peaceful*Chanpuru
TitleUnicode:Peaceful*ちゃんぷるー
Artist:Maho (CV: Uchida Maaya), Kaori (CV: Takamori Natsumi)
ArtistUnicode:マホ (CV: 内田真礼), カオリ (CV: 高森奈津美)
Creator:tilda
Version:tilda & Vanya's Insane
Source:プリンセスコネクト!Re:Dive
Tags:Fanboyyou N_H_A_T Vanya Vanya2 Sanayui not your kitty bnmc event ed ending priconne purikone pcr video game japanese jpop j-pop pop Cygames プリコネ re:dive#3 ヴァンパイアハンターwithイリヤ mobile gacha vampire hunter hunters with illya ilya Princess Connect! Character Song Songs Vol. Volume 9 Himemiya Kyan
BeatmapID:3920437
BeatmapSetID:1901652

[Difficulty]
HPDrainRate:5
CircleSize:4
OverallDifficulty:7.3
ApproachRate:8.3
SliderMultiplier:1.5
SliderTickRate:1

[Events]
//Background and Video events
0,0,"100494616_p0.png",0,0
//Break Periods
2,82507,95825
2,167641,177603
//Storyboard Layer 0 (Background)
//Storyboard Layer 1 (Fail)
//Storyboard Layer 2 (Pass)
//Storyboard Layer 3 (Foreground)
//Storyboard Layer 4 (Overlay)
//Storyboard Sound Samples

[TimingPoints]
530,444.444444444444,4,2,1,40,1,0
2752,-125,4,2,1,40,0,0
3641,-100,4,2,1,40,0,0
3974,-100,4,2,1,5,0,0
4085,-100,4,2,1,40,0,0
4974,-125,4,2,1,40,0,0
5863,-166.666666666667,4,2,1,40,0,0
7641,-83.3333333333333,4,2,1,75,0,0
10529,-83.3333333333333,4,2,2,75,0,0
10752,-83.3333333333333,4,2,1,75,0,0
14085,-83.3333333333333,4,2,2,75,0,0
14307,-83.3333333333333,4,2,1,75,0,0
18307,-125,4,2,1,75,0,0
20085,-200,4,2,1,50,0,0
21418,-100,4,2,1,50,0,0
21863,-200,4,2,1,50,0,0
23196,-76.9230769230769,4,2,1,50,0,0
23641,-200,4,2,1,50,0,0
24974,-100,4,2,1,50,0,0
25418,-100,4,2,1,50,0,0
26752,-76.9230769230769,4,2,1,50,0,0
27085,-76.9230769230769,4,2,1,5,0,0
27196,-200,4,2,1,50,0,0
28529,-100,4,2,1,50,0,0
28974,-200,4,2,1,50,0,0
30307,-76.9230769230769,4,2,1,50,0,0
30752,-100,4,2,1,50,0,0
31085,-100,4,2,1,5,0,0
31196,-100,4,2,1,50,0,0
31974,-100,4,2,1,5,0,0
32085,-76.9230769230769,4,2,1,50,0,0
32529,-83.3333333333333,4,2,1,50,0,0
32751,-83.3333333333333,4,2,1,70,0,0
32863,-83.3333333333333,4,2,1,50,0,0
33863,-166.666666666667,4,2,1,50,0,0
34307,-83.3333333333333,4,2,1,65,0,0
35974,-83.3333333333333,4,2,1,5,0,0
36085,-83.3333333333333,4,2,1,65,0,0
37752,-83.3333333333333,4,2,1,5,0,0
37863,-125,4,2,1,65,0,0
38196,-125,4,2,1,60,0,0
40863,-125,4,2,1,5,0,0
40974,-125,4,2,1,60,0,0
41418,-100,4,2,1,60,0,0
44640,-100,4,2,2,60,0,0
44974,-83.3333333333333,4,2,1,75,0,1
47974,-83.3333333333333,4,2,1,5,0,1
48085,-83.3333333333333,4,2,1,75,0,1
62641,-83.3333333333333,4,2,1,5,0,1
62752,-83.3333333333333,4,2,1,75,0,1
69863,-100,4,2,1,70,0,0
71641,-100,4,2,1,65,0,0
76307,-100,4,2,2,65,0,0
76529,-100,4,2,1,65,0,0
78641,-100,4,2,1,5,0,0
78752,-100,4,2,1,65,0,0
82307,-100,4,2,1,40,0,0
96529,-83.3333333333333,4,2,1,70,0,0
98196,-83.3333333333333,4,2,1,5,0,0
98307,-83.3333333333333,4,2,1,70,0,0
99974,-83.3333333333333,4,2,1,5,0,0
100085,-125,4,2,1,70,0,0
100307,-125,4,2,1,60,0,0
103085,-125,4,2,1,5,0,0
103196,-125,4,2,1,60,0,0
103641,-100,4,2,1,60,0,0
106863,-100,4,2,2,60,0,0
107196,-83.3333333333333,4,2,1,75,0,1
110196,-83.3333333333333,4,2,1,5,0,1
110307,-83.3333333333333,4,2,1,75,0,1
130529,-83.3333333333333,4,2,1,75,0,1
130752,-83.3333333333333,4,2,1,75,0,1
132085,-100,4,2,1,50,0,0
142752,-100,4,2,1,60,0,0
146641,-100,4,2,1,5,0,0
146752,-100,4,2,1,60,0,0
148085,-100,4,2,1,65,0,0
149863,-83.3333333333333,4,2,1,75,0,0
155418,-83.3333333333333,4,2,2,75,0,0
155641,-83.3333333333333,4,2,1,75,0,0
161752,-83.3333333333333,4,2,1,5,0,0
161863,-83.3333333333333,4,2,1,75,0,0
162641,-83.3333333333333,4,2,1,5,0,0
162752,-83.3333333333333,4,2,1,75,0,0
167196,-83.3333333333333,4,2,1,50,0,0
178307,-83.3333333333333,4,2,1,60,0,0
181863,-83.3333333333333,4,2,1,75,0,1
184863,-83.3333333333333,4,2,1,5,0,1
184974,-83.3333333333333,4,2,1,75,0,1
199529,-83.3333333333333,4,2,1,5,0,1
199641,-83.3333333333333,4,2,1,75,0,1
206752,-100,4,2,1,70,0,0
208529,-100,4,2,1,65,0,0
213196,-100,4,2,2,65,0,0
213418,-100,4,2,1,65,0,0
217418,-125,4,2,1,65,0,0
219307,-125,4,2,1,70,0,0
220974,-125,4,2,1,30,0,0

[Colours]
Combo1 : 77,223,106
Combo2 : 233,180,107
Combo3 : 75,133,239
Combo4 : 235,95,98

[HitObjects]
62,96,530,6,0,L|95:255,1,150,6|2,3:1|0:0,0:0:0:0:
92,242,1418,2,0,L|108:319,1,75,2|0,0:0|3:0,0:0:0:0:
172,370,1752,1,2,3:2:0:0:
172,370,1863,1,0,1:0:0:0:
291,314,2085,1,2,3:2:0:0:
291,314,2529,5,2,3:2:0:0:
291,314,2752,1,2,0:0:0:0:
202,255,2974,2,0,P|185:216|189:181,1,60,2|0,0:0|0:0,0:0:0:0:
284,189,3418,5,2,0:0:0:0:
376,235,3641,2,0,P|424:228|465:158,1,112.5,2|0,0:0|0:0,0:0:0:0:
453,137,4085,5,2,0:0:0:0:
378,116,4307,1,2,0:0:0:0:
304,89,4529,1,2,0:0:0:0:
229,59,4752,1,2,0:0:0:0:
153,35,4974,2,0,P|140:95|117:157,1,120,2|2,0:0|3:2,0:0:0:0:
61,300,5863,6,0,P|0:280|3:215,1,134.999995880127,2|0,0:0|0:0,0:0:0:0:
173,250,6752,5,2,0:0:0:0:
321,32,7196,1,2,0:0:0:0:
321,32,7641,5,6,3:2:0:0:
405,186,7863,1,2,0:0:0:0:
255,127,8085,1,8,0:0:0:0:
425,43,8307,1,2,0:0:0:0:
274,210,8529,2,0,L|258:313,1,89.9999972534181,2|2,3:2|0:0,0:0:0:0:
400,208,8974,2,0,L|378:108,1,89.9999972534181,10|2,0:0|0:0,0:0:0:0:
499,267,9418,6,0,P|469:301|383:309,1,134.999995880127,2|2,3:2|0:0,0:0:0:0:
361,291,9863,1,8,0:0:0:0:
241,360,10085,1,2,0:0:0:0:
279,190,10307,5,2,3:2:0:0:
279,190,10418,1,8,0:0:0:0:
279,190,10529,1,2,0:3:0:0:
383,309,10752,2,0,P|431:290|477:262,1,89.9999972534181,10|0,0:0|0:0,0:0:0:0:
241,360,11196,5,2,3:2:0:0:
187,195,11418,1,2,0:0:0:0:
93,324,11641,1,10,0:0:0:0:
272,265,11863,1,2,0:0:0:0:
89,181,12085,2,0,P|44:197|1:209,1,89.9999972534181,2|2,3:2|0:0,0:0:0:0:
164,99,12529,2,0,P|176:142|191:184,1,89.9999972534181,10|2,0:0|0:0,0:0:0:0:
51,321,12974,6,0,B|124:323|107:362|192:364,1,134.999995880127,2|2,3:2|0:0,0:0:0:0:
235,315,13418,1,8,0:0:0:0:
155,203,13641,1,2,0:0:0:0:
257,74,13863,2,0,P|251:46|248:22,2,44.999998626709,2|8|2,3:0|0:0|0:3,0:0:0:0:
323,157,14307,1,10,0:0:0:0:
323,157,14529,1,2,0:0:0:0:
491,103,14752,6,0,P|475:61|441:33,1,89.9999972534181,6|0,3:2|1:0,0:0:0:0:
332,145,15196,1,10,0:0:0:0:
422,202,15418,1,2,1:2:0:0:
303,228,15641,6,0,P|332:142|368:60,1,179.999994506836,2|10,3:2|0:0,0:0:0:0:
232,92,16307,1,2,1:2:0:0:
88,0,16529,6,0,P|130:15|163:44,1,89.9999972534181,2|0,3:2|1:0,0:0:0:0:
276,157,16974,1,10,0:0:0:0:
156,238,17196,1,2,1:2:0:0:
279,352,17418,5,2,3:2:0:0:
419,261,17641,1,8,1:2:0:0:
286,169,17863,1,8,0:0:0:0:
153,266,18085,1,10,1:2:0:0:
153,266,18196,1,0,3:2:0:0:
153,266,18307,6,0,P|108:296|31:190,1,179.999994506836,6|2,3:2|3:2,0:0:0:0:
37,191,19085,1,2,0:2:0:0:
51,176,19196,1,2,3:2:0:0:
169,369,19641,1,10,0:0:0:0:
370,250,20085,6,0,P|383:275|400:329,1,75,6|2,3:2|0:0,0:0:0:0:
473,246,20752,1,2,3:2:0:0:
473,246,20974,1,2,3:2:0:0:
370,250,21418,6,0,P|383:275|401:333,1,75,10|0,0:0|0:0,0:0:0:0:
288,236,21863,6,0,P|284:207|288:150,1,75,2|2,3:2|0:2,0:0:0:0:
174,218,22530,1,2,3:2:0:0:
174,218,22752,1,2,3:2:0:0:
287,162,23196,6,0,P|245:146|230:68,1,97.4999955368044,10|0,0:0|0:0,0:0:0:0:
363,35,23641,6,0,P|397:52|427:75,1,75,2|2,3:2|0:2,0:0:0:0:
390,162,24308,1,2,3:2:0:0:
390,162,24530,1,2,3:2:0:0:
360,36,24974,6,0,P|393:52|423:75,1,75,10|0,0:0|0:0,0:0:0:0:
289,175,25418,5,2,3:2:0:0:
180,133,25641,1,2,0:0:0:0:
204,39,25863,1,2,0:0:0:0:
88,109,26085,1,2,3:2:0:0:
158,227,26307,1,2,3:2:0:0:
158,227,26752,6,0,B|120:207|63:217|63:217|30:253,1,146.249993305207,8|0,0:0|0:0,0:0:0:0:
21,276,27196,6,0,L|31:359,1,75,2|2,3:2|0:2,0:0:0:0:
124,384,27863,1,2,3:2:0:0:
124,384,28085,1,2,3:2:0:0:
21,276,28529,6,0,L|31:359,1,75,10|0,0:0|0:0,0:0:0:0:
134,271,28974,6,0,L|164:198,1,75,2|2,3:2|0:0,0:0:0:0:
275,174,29641,1,2,3:2:0:0:
275,174,29863,1,2,3:2:0:0:
134,271,30307,6,0,B|165:204|165:204|176:167,1,97.4999955368044,10|0,0:0|0:0,0:0:0:0:
300,36,30752,6,0,P|241:42|240:98,1,112.5,2|0,3:2|0:0,0:0:0:0:
292,142,31196,2,0,P|321:175|335:229,1,75,2|0,0:0|3:0,0:0:0:0:
202,195,31641,6,0,P|242:190|296:128,1,112.5,2|0,3:2|0:0,0:0:0:0:
220,91,32085,2,0,P|156:80|109:58,1,97.4999955368044,10|0,0:0|0:0,0:0:0:0:
337,214,32529,6,0,P|383:201|433:190,1,89.9999972534181,2|0,3:2|0:0,0:0:0:0:
450,211,32863,1,2,0:0:0:0:
469,217,32974,1,2,0:0:0:0:
421,350,33196,1,2,3:2:0:0:
296,310,33418,1,2,3:2:0:0:
296,310,33863,6,0,L|251:330,1,44.999998626709,14|2,3:2|0:1,0:0:0:0:
391,366,34307,5,14,0:1:0:0:
391,366,34529,1,8,0:0:0:0:
484,279,34752,2,0,P|439:263|399:244,1,89.9999972534181,10|2,0:0|3:2,0:0:0:0:
337,119,35196,5,10,0:0:0:0:
337,119,35418,1,8,0:0:0:0:
232,212,35641,2,0,P|182:196|87:211,1,134.999995880127,10|0,0:0|0:0,0:0:0:0:
32,254,36085,5,10,0:0:0:0:
32,254,36307,1,10,0:0:0:0:
119,123,36529,2,0,P|99:89|68:25,1,89.9999972534181,10|2,0:0|3:2,0:0:0:0:
265,141,36974,5,10,0:0:0:0:
265,141,37196,1,8,0:0:0:0:
161,277,37418,2,0,P|221:294|271:362,1,134.999995880127,8|0,0:0|0:0,0:0:0:0:
332,292,37863,6,0,B|380:286|374:313|421:307,1,90,6|0,3:1|3:0,0:0:0:0:
458,273,38307,2,0,P|461:236|473:189,1,60,10|2,0:0|3:2,0:0:0:0:
337,177,38752,2,0,P|351:230|364:308,1,120,2|10,3:2|0:0,0:0:0:0:
238,320,39418,1,0,1:0:0:0:
227,315,39529,1,0,0:0:0:0:
216,310,39641,6,0,B|164:301|182:275|113:267,1,90,4|0,3:2|3:0,0:0:0:0:
88,300,40085,2,0,P|97:337|102:379,1,60,10|2,3:2|3:2,0:0:0:0:
171,201,40529,2,0,P|173:150|156:97,1,90,2|0,3:2|0:0,0:0:0:0:
103,60,40974,1,10,0:0:0:0:
74,64,41085,1,8,0:0:0:0:
54,80,41196,1,0,1:0:0:0:
234,18,41418,6,0,P|248:53|282:80,1,75,4|0,3:2|0:0,0:0:0:0:
424,122,41863,2,0,P|407:93|361:65,1,75,10|2,0:0|0:0,0:0:0:0:
234,171,42307,2,0,P|282:189|353:151,1,112.5,2|0,3:2|1:0,0:0:0:0:
284,109,42752,1,10,1:2:0:0:
171,268,42974,1,2,0:0:0:0:
366,353,43196,5,14,0:0:0:0:
453,172,43641,1,10,0:0:0:0:
280,93,44085,2,0,L|291:52,1,37.5,2|0,3:2|1:0,0:0:0:0:
336,174,44307,6,0,L|343:210,1,37.5,2|0,3:1|3:0,0:0:0:0:
183,242,44529,1,10,0:1:0:0:
140,228,44640,1,2,0:3:0:0:
98,215,44751,1,2,0:3:0:0:
58,204,44862,1,2,0:3:0:0:
16,191,44974,5,6,3:2:0:0:
159,77,45196,1,0,1:0:0:0:
19,14,45418,1,10,0:0:0:0:
97,136,45641,1,2,1:2:0:0:
255,22,45863,1,2,3:2:0:0:
255,22,46085,1,0,1:0:0:0:
436,173,46307,1,10,0:0:0:0:
436,173,46529,1,2,1:2:0:0:
488,111,46752,6,0,B|411:120|432:142|351:153,1,134.999995880127,2|2,3:2|0:0,0:0:0:0:
304,201,47196,2,0,P|278:241|296:283,1,89.9999972534181,10|0,0:0|1:2,0:0:0:0:
428,368,47641,1,2,3:2:0:0:
428,354,47752,2,0,P|406:311|360:306,1,89.9999972534181,8|0,0:0|0:0,0:0:0:0:
288,291,48085,2,0,L|188:308,1,89.9999972534181,10|0,1:2|1:0,0:0:0:0:
43,173,48529,5,2,3:2:0:0:
132,360,48752,1,0,1:0:0:0:
167,205,48974,1,10,0:0:0:0:
32,280,49196,1,2,1:2:0:0:
131,74,49418,1,2,3:2:0:0:
131,74,49641,1,0,1:0:0:0:
310,210,49863,1,10,0:0:0:0:
310,210,50085,1,2,1:2:0:0:
279,2,50307,6,0,P|269:60|331:119,1,134.999995880127,2|2,3:2|0:0,0:0:0:0:
374,168,50752,2,0,B|420:184|405:191|454:208,1,89.9999972534181,10|2,1:2|1:2,0:0:0:0:
292,316,51196,5,2,3:2:0:0:
289,306,51307,1,8,0:0:0:0:
469,350,51529,1,0,0:0:0:0:
466,360,51640,1,10,1:2:0:0:
390,267,51863,1,0,1:2:0:0:
226,365,52085,6,0,P|165:377|89:294,1,179.999994506836,6|10,3:2|0:0,0:0:0:0:
182,200,52752,1,0,1:0:0:0:
16,110,52974,2,0,L|1:222,1,89.9999972534181,2|0,3:2|1:0,0:0:0:0:
86,293,53418,1,10,0:0:0:0:
86,293,53641,1,2,1:2:0:0:
237,146,53863,6,0,B|158:139|177:177|105:168,1,134.999995880127,2|0,3:2|1:0,0:0:0:0:
91,139,54307,1,10,0:0:0:0:
238,246,54529,1,2,1:2:0:0:
387,160,54752,1,2,3:2:0:0:
241,59,54974,1,0,1:2:0:0:
175,189,55196,1,10,1:2:0:0:
239,45,55418,1,0,1:2:0:0:
313,190,55641,6,0,L|490:226,2,179.999994506836,2|10|2,3:2|0:0|3:2,0:0:0:0:
113,10,56974,2,0,P|70:41|76:92,1,89.9999972534181,10|0,0:0|1:0,0:0:0:0:
146,123,57418,6,0,P|83:108|31:215,1,179.999994506836,2|8,3:2|0:0,0:0:0:0:
182,318,58085,2,0,L|189:263,1,44.999998626709,2|0,1:2|0:0,0:0:0:0:
135,219,58307,1,2,3:2:0:0:
16,310,58529,1,8,1:2:0:0:
133,206,58752,1,10,1:2:0:0:
275,297,58974,5,8,1:2:0:0:
275,297,59085,1,8,1:2:0:0:
275,297,59196,2,0,P|319:305|362:318,1,89.9999972534181,6|0,3:2|1:0,0:0:0:0:
512,203,59641,1,10,0:0:0:0:
351,223,59863,1,2,1:2:0:0:
438,384,60085,2,0,L|453:284,1,89.9999972534181,2|0,3:2|1:2,0:0:0:0:
483,112,60529,1,10,0:0:0:0:
483,112,60752,1,2,1:2:0:0:
339,207,60974,6,0,P|282:206|245:109,1,134.999995880127,2|2,3:2|0:0,0:0:0:0:
172,104,61418,2,0,L|161:7,1,89.9999972534181,10|0,1:2|1:0,0:0:0:0:
312,3,61863,1,2,3:2:0:0:
315,12,61974,2,0,L|304:101,1,89.9999972534181,8|0,0:0|0:0,0:0:0:0:
239,146,62307,2,0,P|162:147|134:230,1,134.999995880127,10|0,1:2|0:0,0:0:0:0:
123,226,62752,5,2,3:2:0:0:
205,383,62974,1,0,1:2:0:0:
339,247,63196,1,10,0:0:0:0:
195,304,63418,1,2,1:2:0:0:
42,240,63641,2,0,P|23:192|43:143,1,89.9999972534181,2|0,3:2|1:2,0:0:0:0:
150,75,64085,1,10,0:0:0:0:
150,75,64307,1,2,1:2:0:0:
94,11,64529,6,0,L|113:175,1,134.999995880127,2|2,3:2|0:0,0:0:0:0:
164,197,64974,2,0,B|208:207|208:207|245:182,1,89.9999972534181,10|2,1:2|1:2,0:0:0:0:
354,67,65418,5,2,3:2:0:0:
354,58,65529,1,8,0:0:0:0:
478,166,65752,1,0,0:0:0:0:
478,175,65863,1,10,0:2:0:0:
441,82,66085,1,0,1:0:0:0:
328,193,66307,6,0,B|341:293|374:260|387:361,1,179.999994506836,6|10,3:2|0:0,0:0:0:0:
465,263,66974,1,0,1:0:0:0:
297,347,67196,2,0,P|236:347|191:237,1,179.999994506836,2|10,3:2|1:2,0:0:0:0:
266,134,67863,1,2,1:2:0:0:
140,23,68085,6,0,P|99:38|82:79,1,89.9999972534181,2|0,3:2|1:0,0:0:0:0:
266,219,68529,1,10,0:0:0:0:
472,115,68751,1,2,1:2:0:0:
296,13,68974,1,2,3:2:0:0:
194,249,69196,1,10,0:0:0:0:
406,64,69418,1,10,0:0:0:0:
168,58,69641,1,10,1:2:0:0:
140,94,69752,1,10,1:2:0:0:
170,132,69863,6,0,L|341:109,1,150,6|10,3:2|0:0,0:0:0:0:
491,187,70529,1,2,1:2:0:0:
475,51,70752,2,0,P|454:83|446:119,1,75,2|2,3:2|1:2,0:0:0:0:
347,194,71196,2,0,P|367:225|375:261,1,75,10|2,0:2|1:2,0:0:0:0:
512,380,71641,6,0,P|498:331|425:315,1,112.5,2|2,3:2|0:0,0:0:0:0:
386,356,72085,2,0,L|298:372,1,75,10|2,0:0|0:0,0:0:0:0:
142,206,72529,1,2,3:2:0:0:
152,200,72641,2,0,L|240:216,1,75,8|0,0:0|0:0,0:0:0:0:
268,276,72974,2,0,L|261:326,1,37.5,10|0,0:0|0:0,0:0:0:0:
74,365,73418,5,2,3:2:0:0:
0,187,73641,1,2,1:2:0:0:
115,295,73863,1,10,0:0:0:0:
232,202,74085,1,2,1:2:0:0:
177,143,74307,2,0,L|77:163,1,75,2|2,3:2|1:2,0:0:0:0:
256,56,74752,2,0,L|356:76,1,75,10|2,0:0|1:2,0:0:0:0:
185,1,75196,6,0,P|131:7|116:88,1,112.5,2|2,3:2|0:0,0:0:0:0:
29,86,75641,2,0,L|18:183,1,75,10|2,0:0|1:2,0:0:0:0:
104,279,76085,5,2,3:2:0:0:
106,268,76196,1,8,0:0:0:0:
109,258,76307,1,2,0:3:0:0:
303,205,76529,2,0,P|338:214|360:244,1,75,10|2,0:0|1:2,0:0:0:0:
266,370,76974,6,0,B|253:288|218:318|203:236,1,150,6|10,3:2|0:0,0:0:0:0:
329,126,77641,1,2,1:2:0:0:
257,40,77863,2,0,L|243:147,1,75,2|0,3:2|1:0,0:0:0:0:
452,79,78307,1,10,0:0:0:0:
369,33,78529,1,2,1:2:0:0:
455,248,78752,6,0,P|391:245|350:176,1,150,2|10,3:2|0:0,0:0:0:0:
476,143,79418,1,2,1:2:0:0:
383,328,79641,1,2,3:2:0:0:
232,204,79863,1,10,1:2:0:0:
232,204,80085,1,10,0:2:0:0:
52,314,80307,5,10,1:2:0:0:
60,271,80418,1,8,0:0:0:0:
70,224,80529,1,14,3:2:0:0:
107,0,81196,2,0,L|115:54,2,37.5,2|2|2,3:2|0:2|3:2,0:0:0:0:
112,37,81863,2,0,L|107:0,1,37.5,10|0,0:0|0:0,0:0:0:0:
360,64,82307,5,6,3:2:0:0:
375,26,96529,5,14,0:0:0:0:
375,26,96752,1,8,0:0:0:0:
264,91,96974,2,0,P|240:119|218:180,1,89.9999972534181,10|2,0:0|3:2,0:0:0:0:
451,224,97418,5,10,0:0:0:0:
451,224,97641,1,8,0:0:0:0:
347,139,97863,2,0,P|302:135|242:63,1,134.999995880127,10|0,0:0|0:0,0:0:0:0:
173,17,98307,5,10,0:0:0:0:
173,17,98529,1,10,0:0:0:0:
49,102,98752,2,0,P|60:66|69:7,1,89.9999972534181,10|2,0:0|3:2,0:0:0:0:
174,151,99196,5,10,0:0:0:0:
174,151,99418,1,8,0:2:0:0:
315,246,99641,2,0,P|374:191|446:189,1,134.999995880127,8|0,0:0|0:0,0:0:0:0:
495,250,100085,6,0,L|480:318,1,60,6|2,3:1|1:2,0:0:0:0:
446,340,100418,1,2,3:2:0:0:
440,335,100529,2,0,L|368:317,1,60,10|0,0:0|3:0,0:0:0:0:
312,216,100974,2,0,L|342:78,1,120,2|10,3:2|0:0,0:0:0:0:
272,21,101641,1,2,1:2:0:0:
102,54,101863,6,0,L|117:122,1,60,4|2,3:2|0:0,0:0:0:0:
154,142,102196,1,0,1:0:0:0:
169,148,102307,2,0,L|227:130,1,60,10|2,0:0|3:2,0:0:0:0:
42,160,102752,2,0,L|63:260,1,90,2|0,3:2|0:0,0:0:0:0:
111,309,103196,1,10,0:0:0:0:
138,323,103307,1,8,0:0:0:0:
156,343,103418,1,0,3:2:0:0:
355,276,103641,6,0,P|323:257|275:238,1,75,6|2,3:2|1:2,0:0:0:0:
451,132,104085,2,0,P|419:151|371:170,1,75,10|2,0:0|1:2,0:0:0:0:
296,22,104529,2,0,P|288:62|260:112,1,75,2|0,3:2|1:0,0:0:0:0:
208,139,104863,1,2,1:2:0:0:
183,114,104974,1,10,1:2:0:0:
367,197,105196,1,2,0:0:0:0:
231,349,105418,5,10,0:1:0:0:
385,203,105863,1,10,0:0:0:0:
185,117,106307,2,0,L|173:67,1,37.5,10|0,0:0|1:0,0:0:0:0:
293,198,106529,6,0,L|308:252,1,37.5,2|0,3:1|3:0,0:0:0:0:
419,359,106752,1,10,0:1:0:0:
429,315,106863,1,2,0:3:0:0:
439,271,106974,1,2,0:3:0:0:
450,224,107085,1,2,0:3:0:0:
460,181,107196,5,6,3:2:0:0:
274,98,107418,1,0,1:0:0:0:
444,0,107641,1,10,0:0:0:0:
298,97,107863,1,2,1:2:0:0:
470,183,108085,2,0,P|441:141|419:85,1,89.9999972534181,2|0,3:2|1:2,0:0:0:0:
296,224,108529,2,0,P|277:264|251:301,1,89.9999972534181,10|2,0:0|1:2,0:0:0:0:
90,363,108974,6,0,B|62:283|109:308|77:217,1,134.999995880127,2|2,3:2|0:0,0:0:0:0:
140,175,109418,2,0,P|110:151|53:152,1,89.9999972534181,10|2,0:0|1:2,0:0:0:0:
159,57,109863,1,2,3:2:0:0:
169,41,109974,2,0,P|206:68|237:109,1,89.9999972534181,8|0,0:0|0:0,0:0:0:0:
294,152,110307,2,0,P|319:113|322:61,1,89.9999972534181,10|0,1:2|1:0,0:0:0:0:
178,190,110752,5,2,3:2:0:0:
369,244,110974,1,0,1:2:0:0:
192,332,111196,1,10,0:0:0:0:
281,157,111418,1,2,1:2:0:0:
346,364,111641,1,2,3:2:0:0:
346,364,111863,1,0,1:0:0:0:
134,265,112085,1,10,0:0:0:0:
134,265,112307,1,2,1:2:0:0:
294,152,112529,6,0,B|364:167|341:196|411:212,1,134.999995880127,2|2,3:2|0:0,0:0:0:0:
479,173,112974,2,0,P|486:133|511:71,1,89.9999972534181,10|0,1:2|1:0,0:0:0:0:
291,232,113418,5,2,3:2:0:0:
274,228,113529,1,8,0:0:0:0:
175,119,113752,1,0,0:0:0:0:
191,123,113863,1,10,1:2:0:0:
285,36,114085,1,0,1:2:0:0:
50,14,114307,6,0,P|107:24|175:136,1,179.999994506836,6|10,3:2|0:0,0:0:0:0:
56,167,114974,1,0,1:0:0:0:
121,290,115196,2,0,P|62:282|15:234,1,89.9999972534181,2|0,3:2|1:0,0:0:0:0:
155,200,115641,1,10,0:0:0:0:
155,200,115863,1,0,1:0:0:0:
256,363,116085,6,0,B|340:357|308:323|386:318,1,134.999995880127,2|2,3:2|1:2,0:0:0:0:
407,304,116529,1,10,0:0:0:0:
249,253,116752,1,2,1:2:0:0:
466,378,116974,1,2,3:2:0:0:
512,176,117196,1,0,1:0:0:0:
320,310,117418,1,10,1:2:0:0:
239,157,117641,1,0,1:2:0:0:
111,256,117863,6,0,L|149:71,2,179.999994506836,2|10|2,3:2|0:0|3:2,0:0:0:0:
327,119,119196,2,0,L|311:20,1,89.9999972534181,10|0,0:0|1:0,0:0:0:0:
134,88,119641,6,0,P|197:137|250:263,1,179.999994506836,2|8,3:2|0:0,0:0:0:0:
138,365,120307,2,0,P|154:337|165:301,1,44.999998626709,2|0,1:2|0:0,0:0:0:0:
108,263,120529,1,2,3:2:0:0:
261,317,120752,1,8,1:2:0:0:
98,266,120974,1,10,1:2:0:0:
237,141,121196,5,8,1:2:0:0:
237,141,121307,1,8,1:2:0:0:
237,141,121418,2,0,P|267:183|325:194,1,89.9999972534181,6|0,3:2|1:0,0:0:0:0:
457,39,121863,1,10,0:0:0:0:
314,114,122085,1,2,1:2:0:0:
481,226,122307,2,0,P|460:182|443:129,1,89.9999972534181,2|0,3:2|1:2,0:0:0:0:
361,246,122752,2,0,P|346:302|324:347,1,89.9999972534181,10|2,0:0|1:2,0:0:0:0:
225,148,123196,6,0,P|178:130|74:117,1,134.999995880127,2|2,3:2|0:0,0:0:0:0:
32,166,123641,2,0,P|47:209|60:261,1,89.9999972534181,10|0,1:2|1:2,0:0:0:0:
167,366,124085,1,2,3:2:0:0:
175,352,124196,2,0,P|191:302|214:257,1,89.9999972534181,8|0,0:0|0:0,0:0:0:0:
274,324,124529,2,0,P|309:357|357:366,1,89.9999972534181,10|0,1:2|1:0,0:0:0:0:
156,193,124974,5,2,3:2:0:0:
369,109,125196,1,0,1:2:0:0:
209,1,125418,1,10,0:0:0:0:
335,199,125641,1,2,1:2:0:0:
181,77,125863,1,2,3:2:0:0:
181,77,126085,1,0,1:0:0:0:
86,283,126307,1,10,0:0:0:0:
86,283,126529,1,2,1:2:0:0:
273,88,126752,6,0,P|249:145|223:243,1,134.999995880127,2|2,3:2|0:0,0:0:0:0:
133,251,127196,2,0,P|74:238|29:243,1,89.9999972534181,10|0,1:2|1:2,0:0:0:0:
136,361,127641,5,2,3:2:0:0:
130,339,127752,1,8,0:0:0:0:
246,298,127974,1,0,0:0:0:0:
253,319,128085,1,10,1:2:0:0:
368,288,128307,1,0,1:0:0:0:
501,371,128529,6,0,B|462:266|544:291|499:167,1,179.999994506836,6|10,3:2|0:0,0:0:0:0:
435,76,129196,1,0,1:0:0:0:
355,16,129418,2,0,B|303:113|363:98|300:212,1,179.999994506836,2|10,3:2|1:2,0:0:0:0:
250,351,130085,1,2,1:2:0:0:
141,260,130307,6,0,P|175:236|256:235,1,89.9999972534181,2|0,3:2|1:0,0:0:0:0:
21,103,130752,1,10,1:2:0:0:
21,103,130974,1,2,1:2:0:0:
170,17,131196,1,2,3:2:0:0:
270,216,131418,1,10,0:0:0:0:
160,22,131641,1,10,0:0:0:0:
10,205,131863,1,10,0:0:0:0:
26,250,131974,1,10,0:0:0:0:
42,290,132085,5,6,3:2:0:0:
119,265,132418,1,2,1:2:0:0:
119,265,132529,1,2,1:2:0:0:
196,240,132752,1,2,3:2:0:0:
273,215,132974,1,2,3:2:0:0:
414,347,133307,1,0,1:2:0:0:
414,347,133418,1,10,1:2:0:0:
337,322,133641,1,0,3:2:0:0:
260,297,133863,5,2,3:2:0:0:
215,155,134196,1,0,3:2:0:0:
170,13,134529,1,2,3:2:0:0:
228,69,134752,5,2,3:2:0:0:
0,127,135196,2,0,L|48:115,1,37.5,10|0,0:3|0:0,0:0:0:0:
215,155,135641,5,2,3:2:0:0:
292,180,135974,1,0,1:2:0:0:
292,180,136085,1,2,1:2:0:0:
369,205,136308,1,2,3:2:0:0:
446,230,136530,1,2,3:2:0:0:
307,50,136863,1,0,1:2:0:0:
307,50,136974,1,10,1:2:0:0:
384,25,137197,1,0,3:2:0:0:
461,0,137419,5,2,3:2:0:0:
427,152,137752,1,0,3:2:0:0:
393,304,138085,1,0,3:2:0:0:
468,278,138307,5,2,3:2:0:0:
411,228,138529,1,0,1:2:0:0:
336,248,138752,2,0,L|270:231,1,37.5,10|0,0:3|0:0,0:0:0:0:
77,384,139196,5,2,3:2:0:0:
52,307,139529,1,2,1:2:0:0:
52,307,139640,1,2,1:2:0:0:
27,230,139863,1,2,3:2:0:0:
2,153,140085,1,2,3:2:0:0:
216,145,140418,1,0,1:2:0:0:
216,145,140529,1,10,1:2:0:0:
139,120,140752,1,0,3:2:0:0:
62,95,140974,5,2,3:2:0:0:
196,65,141307,1,0,3:2:0:0:
330,35,141641,1,2,3:2:0:0:
253,7,141863,5,2,3:2:0:0:
290,171,142085,1,0,1:2:0:0:
328,334,142307,2,0,L|311:260,1,75,10|0,0:3|1:2,0:0:0:0:
155,205,142752,6,0,P|102:224|87:286,1,112.5,6|2,3:2|3:2,0:0:0:0:
104,316,143196,2,0,P|140:323|175:336,1,75,10|2,0:0|3:2,0:0:0:0:
300,384,143641,2,0,L|284:225,1,150,2|10,3:2|0:0,0:0:0:0:
401,156,144307,1,2,0:0:0:0:
486,234,144529,5,2,3:2:0:0:
329,131,144863,1,0,3:0:0:0:
319,125,144974,2,0,P|307:78|327:36,1,75,10|2,0:0|3:2,0:0:0:0:
245,163,145418,2,0,B|160:180|181:141|96:158,1,150,2|10,3:2|0:0,0:0:0:0:
37,209,145974,1,8,0:0:0:0:
46,247,146085,1,2,3:2:0:0:
192,105,146307,6,0,L|184:217,1,112.5,6|0,3:2|0:0,0:0:0:0:
229,279,146752,2,0,P|273:291|316:273,1,75,10|2,0:0|0:0,0:0:0:0:
378,384,147196,2,0,P|410:351|416:305,1,75,2|2,3:2|0:0,0:0:0:0:
512,267,147641,2,0,P|487:239|480:202,1,75,10|2,0:0|0:0,0:0:0:0:
414,85,148085,5,10,0:0:0:0:
187,34,148529,1,10,0:0:0:0:
26,212,148974,1,10,1:2:0:0:
130,340,149196,1,0,3:2:0:0:
130,340,149307,1,0,3:0:0:0:
130,340,149418,2,0,P|162:286|135:196,1,150,10|6,0:1|3:2,0:0:0:0:
88,154,149974,5,2,0:0:0:0:
89,144,150085,1,2,0:0:0:0:
198,281,150307,2,0,P|242:284|287:292,1,89.9999972534181,10|2,0:0|0:0,0:0:0:0:
419,192,150752,1,2,3:2:0:0:
273,143,150974,1,2,0:0:0:0:
405,307,151196,1,10,0:0:0:0:
482,133,151418,1,2,0:0:0:0:
320,292,151641,6,0,P|299:297|263:295,1,44.999998626709,2|0,3:2|0:0,0:0:0:0:
217,242,151863,1,2,0:0:0:0:
173,143,152085,1,10,0:0:0:0:
83,86,152307,1,2,0:0:0:0:
4,245,152529,5,0,3:2:0:0:
2,231,152641,2,0,P|44:201|92:219,1,89.9999972534181,8|2,0:0|0:0,0:0:0:0:
115,272,152974,1,10,1:2:0:0:
109,304,153085,1,0,0:0:0:0:
125,334,153196,1,0,1:0:0:0:
156,348,153307,1,0,0:0:0:0:
188,340,153418,6,0,L|247:349,1,44.999998626709,2|2,3:2|0:0,0:0:0:0:
309,379,153641,2,0,P|329:340|320:296,1,89.9999972534181,2|10,0:0|0:0,0:0:0:0:
260,247,153974,2,0,P|239:208|248:164,1,89.9999972534181,2|2,0:0|0:0,0:0:0:0:
312,117,154307,2,0,P|356:130|400:138,1,89.9999972534181,2|2,3:2|0:0,0:0:0:0:
453,200,154641,1,2,0:0:0:0:
453,200,154752,2,0,L|517:188,2,44.999998626709,10|2|2,0:0|0:0|0:0,0:0:0:0:
435,8,155196,6,0,P|417:64|407:117,1,89.9999972534181,2|2,3:2|0:3,0:0:0:0:
381,113,155492,2,0,L|392:164,2,29.9999990844727,2|2|10,0:3|0:3|0:0,0:0:0:0:
244,48,155863,1,2,0:0:0:0:
124,136,156085,1,2,3:2:0:0:
117,145,156196,2,0,P|61:146|32:102,1,89.9999972534181,8|0,0:0|0:0,0:0:0:0:
0,59,156529,2,0,L|13:-16,2,44.999998626709,10|0|2,0:0|0:0|0:0,0:0:0:0:
170,220,156974,6,0,B|276:232|236:181|344:192,2,179.999994506836,4|8|0,3:2|1:2|3:0,0:0:0:0:
18,384,158085,2,0,P|-10:344|9:296,1,89.9999972534181,2|8,1:2|1:2,0:0:0:0:
85,213,158529,1,2,1:2:0:0:
198,323,158752,5,2,3:2:0:0:
353,257,158974,1,2,1:2:0:0:
227,140,159196,1,10,1:2:0:0:
308,326,159418,1,2,1:2:0:0:
472,259,159641,2,0,P|479:214|482:169,1,89.9999972534181,2|2,3:2|1:2,0:0:0:0:
309,76,160085,1,10,1:2:0:0:
371,6,160307,6,0,P|389:94|398:183,1,179.999994506836,2|0,1:2|1:2,0:0:0:0:
253,250,160974,1,8,1:2:0:0:
142,122,161196,1,2,1:2:0:0:
142,122,161307,1,2,1:2:0:0:
142,122,161418,2,0,P|79:117|37:181,1,134.999995880127,6|0,3:2|0:0,0:0:0:0:
71,236,161863,2,0,L|162:250,1,89.9999972534181,8|2,1:2|1:2,0:0:0:0:
216,320,162196,5,2,0:0:0:0:
205,315,162307,2,0,P|193:268|278:192,1,134.999995880127,6|0,3:2|0:0,0:0:0:0:
310,226,162752,1,10,1:2:0:0:
416,106,162974,5,2,1:2:0:0:
405,108,163085,1,0,0:0:0:0:
394,110,163196,1,2,3:2:0:0:
443,245,163418,5,10,1:2:0:0:
465,249,163529,1,0,0:0:0:0:
487,253,163640,1,10,1:2:0:0:
327,58,163863,5,10,1:2:0:0:
294,64,163974,1,8,0:0:0:0:
257,69,164085,2,0,L|106:93,1,134.999995880127,6|2,3:2|0:0,0:0:0:0:
58,55,164529,1,8,1:2:0:0:
169,159,164752,1,2,1:2:0:0:
9,268,164974,2,0,P|0:225|30:193,1,89.9999972534181,2|0,3:2|1:2,0:0:0:0:
104,210,165307,1,2,1:2:0:0:
111,218,165418,1,8,1:0:0:0:
244,333,165641,5,2,1:2:0:0:
244,333,165752,1,2,0:0:0:0:
244,333,165863,1,14,1:2:0:0:
421,191,166085,1,0,3:2:0:0:
172,131,166307,1,8,1:2:0:0:
365,293,166529,1,0,3:2:0:0:
257,59,166752,1,0,3:2:0:0:
257,59,167196,6,0,L|247:10,1,44.999998626709,6|0,0:1|0:0,0:0:0:0:
5,241,178307,5,2,3:2:0:0:
133,211,178752,1,2,3:2:0:0:
268,185,179196,1,2,3:2:0:0:
401,153,179529,1,0,3:2:0:0:
407,138,179641,1,2,3:2:0:0:
328,72,179863,1,0,3:2:0:0:
512,210,180085,5,10,1:2:0:0:
512,210,181196,6,0,L|497:260,1,44.999998626709,0|0,1:2|1:2,0:0:0:0:
367,361,181418,1,2,1:2:0:0:
314,350,181529,1,0,1:2:0:0:
261,339,181640,1,0,1:2:0:0:
208,327,181751,1,0,1:2:0:0:
155,316,181862,5,6,3:2:0:0:
277,196,182085,1,0,1:2:0:0:
130,102,182307,1,10,0:0:0:0:
218,250,182529,1,2,1:2:0:0:
407,117,182752,1,2,3:2:0:0:
407,117,182974,1,0,1:0:0:0:
199,7,183196,1,10,0:0:0:0:
199,7,183418,1,2,1:2:0:0:
55,100,183641,6,0,B|27:180|74:155|42:246,1,134.999995880127,2|0,3:2|1:0,0:0:0:0:
105,288,184085,2,0,P|75:312|18:311,1,89.9999972534181,10|0,0:0|1:2,0:0:0:0:
152,207,184529,1,2,3:2:0:0:
165,195,184641,2,0,P|211:183|258:181,1,89.9999972534181,8|0,0:0|0:0,0:0:0:0:
334,184,184974,2,0,P|321:136|275:103,1,89.9999972534181,10|0,1:2|1:0,0:0:0:0:
486,252,185418,5,2,3:2:0:0:
321,368,185641,1,0,1:2:0:0:
365,173,185863,1,10,0:0:0:0:
473,333,186085,1,2,1:2:0:0:
267,259,186307,1,2,3:2:0:0:
267,259,186529,1,0,1:0:0:0:
463,139,186752,1,10,0:0:0:0:
463,139,186974,1,2,1:2:0:0:
247,26,187196,6,0,P|312:20|373:69,1,134.999995880127,2|0,3:2|1:0,0:0:0:0:
379,138,187641,2,0,P|379:182|393:243,1,89.9999972534181,10|2,1:2|0:0,0:0:0:0:
209,255,188085,1,2,3:2:0:0:
190,251,188196,1,8,0:0:0:0:
261,127,188418,1,0,0:0:0:0:
281,130,188529,1,10,1:2:0:0:
174,37,188752,1,0,1:2:0:0:
21,114,188974,6,0,P|46:168|82:307,1,179.999994506836,6|10,3:2|0:0,0:0:0:0:
174,384,189641,1,0,1:0:0:0:
0,326,189863,2,0,P|46:296|103:279,1,89.9999972534181,2|0,3:2|1:0,0:0:0:0:
173,172,190307,1,10,0:0:0:0:
173,172,190529,1,2,1:2:0:0:
284,288,190752,6,0,B|360:267|344:320|422:302,1,134.999995880127,2|2,3:2|1:2,0:0:0:0:
475,256,191196,1,10,0:0:0:0:
266,370,191418,1,2,1:2:0:0:
350,156,191641,1,2,3:2:0:0:
512,263,191863,1,0,1:0:0:0:
354,369,192085,1,10,1:2:0:0:
242,250,192307,1,0,1:2:0:0:
430,184,192529,6,0,L|512:12,2,179.999994506836,2|10|2,3:2|0:0|3:2,0:0:0:0:
225,78,193863,2,0,L|155:5,1,89.9999972534181,10|0,0:0|1:0,0:0:0:0:
168,150,194307,6,0,P|244:100|332:82,1,179.999994506836,2|8,3:2|1:2,0:0:0:0:
412,242,194974,2,0,P|372:233|338:211,1,44.999998626709,2|0,1:2|0:0,0:0:0:0:
307,183,195196,1,2,3:2:0:0:
462,144,195418,1,8,1:2:0:0:
297,190,195641,1,10,1:2:0:0:
436,335,195863,5,8,1:2:0:0:
436,335,195974,1,8,1:2:0:0:
436,335,196085,2,0,P|421:291|396:236,1,89.9999972534181,6|2,3:2|1:2,0:0:0:0:
223,172,196529,1,10,0:0:0:0:
346,52,196752,1,2,1:2:0:0:
225,159,196974,2,0,P|178:147|125:129,1,89.9999972534181,2|0,3:2|1:2,0:0:0:0:
37,224,197418,1,10,0:0:0:0:
37,224,197641,1,2,1:2:0:0:
234,180,197863,6,0,P|220:138|261:44,1,134.999995880127,2|0,3:2|1:0,0:0:0:0:
184,6,198307,2,0,P|136:28|76:42,1,89.9999972534181,10|2,1:2|1:2,0:0:0:0:
303,121,198752,1,2,3:2:0:0:
323,139,198863,2,0,P|373:153|421:173,1,89.9999972534181,8|0,1:2|0:0,0:0:0:0:
462,243,199196,2,0,P|521:213|496:127,1,134.999995880127,10|0,1:2|0:0,0:0:0:0:
485,108,199641,5,2,3:2:0:0:
325,256,199863,1,2,1:2:0:0:
199,112,200085,1,10,0:0:0:0:
52,227,200307,1,2,1:2:0:0:
293,153,200529,1,2,3:2:0:0:
293,153,200752,1,0,1:0:0:0:
122,51,200974,1,10,0:0:0:0:
122,51,201196,1,2,1:2:0:0:
280,262,201418,6,0,B|308:264|336:284|336:284|378:278|424:233,1,134.999995880127,2|0,3:2|1:0,0:0:0:0:
490,275,201863,2,0,P|479:322|473:374,1,89.9999972534181,10|2,1:2|1:2,0:0:0:0:
343,189,202307,1,2,3:2:0:0:
354,171,202418,1,8,0:0:0:0:
512,109,202641,1,0,1:0:0:0:
499,92,202753,1,10,0:2:0:0:
367,0,202974,1,0,1:0:0:0:
145,110,203196,6,0,P|156:68|282:37,1,179.999994506836,6|10,3:2|0:0,0:0:0:0:
223,224,203863,1,2,1:2:0:0:
99,294,204085,2,0,P|53:281|11:137,1,179.999994506836,2|10,3:2|1:2,0:0:0:0:
132,61,204752,1,2,1:2:0:0:
268,177,204974,6,0,P|275:224|246:280,1,89.9999972534181,2|0,3:2|1:0,0:0:0:0:
162,368,205418,1,10,0:0:0:0:
402,246,205641,1,2,0:0:0:0:
171,207,205863,1,2,3:2:0:0:
387,359,206085,1,10,0:0:0:0:
417,147,206307,1,10,0:0:0:0:
185,214,206529,1,10,0:0:0:0:
142,198,206640,1,10,0:0:0:0:
100,183,206752,6,0,P|57:201|16:297,1,150,6|10,3:2|0:0,0:0:0:0:
129,370,207418,1,2,0:0:0:0:
206,320,207641,2,0,P|179:296|123:279,1,75,2|2,3:2|0:0,0:0:0:0:
255,222,208085,2,0,P|289:208|317:183,1,75,10|2,0:0|0:0,0:0:0:0:
437,87,208529,6,0,L|463:229,1,112.5,2|2,3:2|0:0,0:0:0:0:
487,225,208974,2,0,L|470:311,1,75,10|2,0:0|0:0,0:0:0:0:
316,373,209418,1,2,3:2:0:0:
331,358,209529,2,0,L|353:237,1,112.5,8|10,0:0|0:0,0:0:0:0:
144,66,210307,5,2,3:2:0:0:
231,173,210529,1,2,0:0:0:0:
363,120,210751,1,10,0:0:0:0:
260,24,210973,1,2,0:0:0:0:
151,149,211196,2,0,L|123:234,1,75,2|2,3:2|0:0,0:0:0:0:
37,296,211641,2,0,L|9:211,1,75,10|2,0:0|0:0,0:0:0:0:
160,129,212085,6,0,P|201:145|257:202,1,112.5,2|2,3:2|0:0,0:0:0:0:
276,236,212529,1,10,0:0:0:0:
404,178,212752,1,2,0:0:0:0:
288,74,212974,5,0,3:2:0:0:
288,74,213085,1,8,0:0:0:0:
288,74,213196,1,2,0:3:0:0:
411,167,213418,2,0,P|450:174|496:169,1,75,10|2,0:0|0:0,0:0:0:0:
348,260,213863,6,0,P|320:226|272:207,1,75,6|0,3:2|1:0,0:0:0:0:
168,280,214307,1,10,0:0:0:0:
48,220,214530,1,0,1:0:0:0:
105,62,214752,6,0,P|135:130|159:201,1,150,2|10,3:2|0:0,0:0:0:0:
225,78,215418,1,0,1:2:0:0:
58,185,215641,6,0,P|52:229|37:287,1,75,2|0,3:2|1:0,0:0:0:0:
179,361,216085,1,10,0:0:0:0:
263,215,216307,1,2,1:2:0:0:
351,366,216529,5,2,3:2:0:0:
165,256,216752,1,10,1:2:0:0:
381,157,216974,1,10,0:0:0:0:
228,35,217196,1,10,1:2:0:0:
237,72,217307,1,8,0:0:0:0:
247,115,217418,6,0,B|215:146|225:197|225:197|266:235|258:285,1,180,6|2,3:2|3:2,0:0:0:0:
242,312,218196,1,2,0:0:0:0:
232,333,218307,1,2,3:2:0:0:
463,224,218752,1,10,0:0:0:0:
76,182,219196,5,6,3:2:0:0:
256,192,219307,12,2,220974,0:0:0:0:
