osu file format v14

[General]
AudioFilename: audio.mp3
AudioLeadIn: 0
PreviewTime: 180529
Countdown: 0
SampleSet: Soft
StackLeniency: 0.5
Mode: 0
LetterboxInBreaks: 0
WidescreenStoryboard: 0

[Editor]
Bookmarks: 530,20085,44974,69863,82307,96529,107196,132085,149863,167641,178307,181863,206752,219196
DistanceSpacing: 1.2
BeatDivisor: 4
GridSize: 32
TimelineZoom: 1.5

[Metadata]
Title:Peaceful*Chanpuru
TitleUnicode:Peaceful*ちゃんぷるー
Artist:Maho (CV: Uchida Maaya), Kaori (CV: Takamori Natsumi)
ArtistUnicode:マホ (CV: 内田真礼), カオリ (CV: 高森奈津美)
Creator:tilda
Version:Pure*Heart
Source:プリンセスコネクト!Re:Dive
Tags:Fanboyyou N_H_A_T Vanya Vanya2 Sanayui not your kitty bnmc event ed ending priconne purikone pcr video game japanese jpop j-pop pop Cygames プリコネ re:dive#3 ヴァンパイアハンターwithイリヤ mobile gacha vampire hunter hunters with illya ilya Princess Connect! Character Song Songs Vol. Volume 9 Himemiya Kyan
BeatmapID:3920438
BeatmapSetID:1901652

[Difficulty]
HPDrainRate:6
CircleSize:4.3
OverallDifficulty:8
ApproachRate:8.7
SliderMultiplier:1.6
SliderTickRate:1

[Events]
//Background and Video events
0,0,"100494616_p0.png",0,0
//Break Periods
2,82507,95884
2,167641,177662
//Storyboard Layer 0 (Background)
//Storyboard Layer 1 (Fail)
//Storyboard Layer 2 (Pass)
//Storyboard Layer 3 (Foreground)
//Storyboard Layer 4 (Overlay)
//Storyboard Sound Samples

[TimingPoints]
530,444.444444444444,4,2,1,40,1,0
530,-125,4,2,1,40,0,0
5751,-125,4,2,1,5,0,0
5863,-250,4,2,1,40,0,0
7641,-250,4,2,1,75,0,0
9641,-250,4,2,2,75,0,0
9863,-250,4,2,1,75,0,0
10529,-250,4,2,2,75,0,0
10752,-83.3333333333333,4,2,1,75,0,0
13196,-83.3333333333333,4,2,2,75,0,0
13418,-83.3333333333333,4,2,1,75,0,0
14085,-83.3333333333333,4,2,2,75,0,0
14307,-83.3333333333333,4,2,1,75,0,0
18307,-166.666666666667,4,2,1,75,0,0
19641,-71.4285714285714,4,2,1,75,0,0
19974,-71.4285714285714,4,2,1,5,0,0
20085,-200,4,2,1,50,0,0
21418,-100,4,2,1,50,0,0
21863,-200,4,2,1,50,0,0
23196,-83.3333333333333,4,2,1,50,0,0
23641,-200,4,2,1,50,0,0
24974,-100,4,2,1,50,0,0
26752,-62.5,4,2,1,50,0,0
27085,-62.5,4,2,1,5,0,0
27196,-200,4,2,1,50,0,0
28529,-100,4,2,1,50,0,0
28974,-200,4,2,1,50,0,0
30307,-66.6666666666667,4,2,1,50,0,0
30640,-66.6666666666667,4,2,1,5,0,0
30752,-133.333333333333,4,2,1,50,0,0
31085,-133.333333333333,4,2,1,5,0,0
31196,-133.333333333333,4,2,1,50,0,0
31974,-133.333333333333,4,2,1,5,0,0
32085,-80,4,2,1,50,0,0
32529,-66.6666666666667,4,2,1,50,0,0
33863,-100,4,2,1,50,0,0
34307,-100,4,2,1,65,0,0
38085,-100,4,2,1,60,0,0
38307,-125,4,2,1,60,0,0
39085,-125,4,2,1,5,0,0
39196,-125,4,2,1,60,0,0
40862,-125,4,2,1,5,0,0
40974,-125,4,2,1,60,0,0
41418,-100,4,2,1,60,0,0
43863,-66.6666666666667,4,2,2,60,0,0
44085,-71.4285714285714,4,2,1,60,0,0
44641,-71.4285714285714,4,2,2,60,0,0
44974,-71.4285714285714,4,2,1,75,0,1
46752,-83.3333333333333,4,2,1,75,0,1
52085,-100,4,2,1,75,0,1
53863,-83.3333333333333,4,2,1,75,0,1
57751,-83.3333333333333,4,2,1,5,0,1
57863,-83.3333333333333,4,2,1,75,0,1
64529,-66.6666666666667,4,2,1,75,0,1
66307,-100,4,2,1,75,0,1
68085,-83.3333333333333,4,2,1,75,0,1
69863,-83.3333333333333,4,2,1,70,0,0
71641,-83.3333333333333,4,2,1,65,0,0
72085,-100,4,2,1,65,0,0
75418,-100,4,2,2,65,0,0
75641,-100,4,2,1,65,0,0
76307,-100,4,2,2,65,0,0
76529,-100,4,2,1,65,0,0
80529,-125,4,2,1,65,0,0
81863,-62.5,4,2,1,65,0,0
82196,-62.5,4,2,1,5,0,0
82307,-62.5,4,2,1,40,0,0
96529,-62.5,4,2,1,70,0,0
96974,-100,4,2,1,70,0,0
100307,-100,4,2,1,60,0,0
100529,-125,4,2,1,60,0,0
101307,-125,4,2,1,5,0,0
101418,-125,4,2,1,60,0,0
103085,-125,4,2,1,5,0,0
103196,-125,4,2,1,60,0,0
106085,-66.6666666666667,4,2,2,60,0,0
106307,-66.6666666666667,4,2,1,60,0,0
106863,-66.6666666666667,4,2,2,60,0,0
107196,-66.6666666666667,4,2,1,75,0,1
108974,-83.3333333333333,4,2,1,75,0,1
114307,-100,4,2,1,75,0,1
115641,-83.3333333333333,4,2,1,75,0,1
119974,-83.3333333333333,4,2,1,5,0,1
120085,-83.3333333333333,4,2,1,75,0,1
126752,-66.6666666666667,4,2,1,75,0,1
128529,-100,4,2,1,75,0,1
130307,-83.3333333333333,4,2,1,75,0,1
132085,-200,4,2,1,50,0,0
133418,-100,4,2,1,50,0,0
133863,-200,4,2,1,50,0,0
135196,-100,4,2,1,50,0,0
135641,-200,4,2,1,50,0,0
136974,-100,4,2,1,50,0,0
137418,-200,4,2,1,50,0,0
138752,-100,4,2,1,50,0,0
139196,-200,4,2,1,50,0,0
140529,-100,4,2,1,50,0,0
140974,-200,4,2,1,50,0,0
142307,-100,4,2,1,50,0,0
142752,-125,4,2,1,60,0,0
143974,-125,4,2,1,5,0,0
144085,-125,4,2,1,60,0,0
146640,-125,4,2,1,5,0,0
146752,-125,4,2,1,60,0,0
148085,-100,4,2,1,65,0,0
148418,-100,4,2,1,5,0,0
148529,-100,4,2,1,65,0,0
148862,-100,4,2,1,5,0,0
148973,-100,4,2,1,65,0,0
149863,-83.3333333333333,4,2,1,75,0,0
153641,-62.5,4,2,1,75,0,0
155418,-62.5,4,2,2,75,0,0
155641,-62.5,4,2,1,75,0,0
161418,-58.8235294117647,4,2,1,75,0,0
162307,-55.5555555555556,4,2,1,75,0,0
162640,-55.5555555555556,4,2,1,5,0,0
162752,-55.5555555555556,4,2,1,75,0,0
163418,-62.5,4,2,1,75,0,0
164085,-83.3333333333333,4,2,1,75,0,0
167196,-83.3333333333333,4,2,1,50,0,0
178307,-83.3333333333333,4,2,1,60,0,0
180085,-100,4,2,1,60,0,0
181863,-100,4,2,1,75,0,1
183641,-83.3333333333333,4,2,1,75,0,1
188974,-100,4,2,1,75,0,1
190752,-83.3333333333333,4,2,1,75,0,1
194640,-83.3333333333333,4,2,1,5,0,1
194752,-83.3333333333333,4,2,1,75,0,1
201418,-66.6666666666667,4,2,1,75,0,1
203196,-100,4,2,1,75,0,1
204974,-83.3333333333333,4,2,1,75,0,1
206752,-83.3333333333333,4,2,1,70,0,0
208529,-83.3333333333333,4,2,1,65,0,0
208752,-83.3333333333333,4,2,2,65,0,0
208974,-100,4,2,1,65,0,0
212307,-100,4,2,2,65,0,0
212530,-100,4,2,1,65,0,0
213196,-100,4,2,2,65,0,0
213418,-100,4,2,1,65,0,0
217418,-125,4,2,1,65,0,0
218752,-62.5,4,2,1,65,0,0
219085,-62.5,4,2,1,5,0,0
219196,-62.5,4,2,1,65,0,0
220974,-62.5,4,2,1,30,0,0

[Colours]
Combo1 : 77,223,106
Combo2 : 233,180,107
Combo3 : 75,133,239
Combo4 : 235,95,98

[HitObjects]
34,365,530,6,0,L|57:232,1,128,6|2,3:1|2:0,2:0:0:0:
55,238,1418,2,0,L|68:163,1,64,2|0,2:0|3:0,2:0:0:0:
81,104,1752,1,2,3:2:0:0:
81,104,1863,1,0,1:0:0:0:
199,185,2085,1,2,3:2:0:0:
199,185,2529,5,2,3:2:0:0:
244,119,2752,1,2,2:0:0:0:
321,142,2974,1,2,2:0:0:0:
322,222,3418,5,2,2:0:0:0:
246,248,3641,2,0,L|169:275,1,64,2|0,2:0|2:0,2:0:0:0:
291,367,4085,5,2,2:0:0:0:
341,285,4307,1,2,2:0:0:0:
435,265,4529,1,2,2:0:0:0:
504,332,4752,1,2,2:0:0:0:
424,251,4974,6,0,L|441:176,1,64,2|0,2:0|2:0,2:0:0:0:
366,55,5418,2,0,L|471:82,1,96,2|0,3:2|2:0,2:0:0:0:
374,142,5863,6,0,L|299:158,1,64,2|0,2:0|3:2,2:0:0:0:
56,221,6752,5,2,2:0:0:0:
368,150,7196,1,2,2:0:0:0:
156,9,7641,5,6,3:2:0:0:
31,208,7863,1,2,2:0:0:0:
189,168,8085,1,8,2:0:0:0:
0,47,8307,1,2,2:0:0:0:
319,221,8529,5,2,3:2:0:0:
182,194,8752,1,2,2:0:0:0:
297,137,8973,1,10,2:0:0:0:
211,271,9196,1,2,2:0:0:0:
336,358,9418,5,2,3:2:0:0:
469,328,9641,1,2,2:3:0:0:
469,328,9752,1,2,2:0:0:0:
469,328,9863,1,8,2:0:0:0:
440,207,10085,1,2,2:0:0:0:
314,245,10307,5,2,3:2:0:0:
314,245,10418,1,8,2:0:0:0:
314,245,10529,1,2,2:3:0:0:
503,366,10752,2,0,L|475:275,1,95.9999970703126,10|0,2:0|2:0,2:0:0:0:
313,241,11196,5,2,3:2:0:0:
173,153,11418,1,2,2:0:0:0:
350,87,11641,1,10,2:0:0:0:
204,6,11863,1,2,2:0:0:0:
290,243,12085,5,2,3:2:0:0:
408,179,12307,1,2,2:0:0:0:
399,300,12530,1,10,2:0:0:0:
300,121,12752,1,2,2:0:0:0:
187,231,12974,5,2,3:2:0:0:
58,266,13196,1,2,2:3:0:0:
58,266,13307,1,2,2:0:0:0:
58,266,13418,1,8,2:0:0:0:
27,145,13641,1,2,2:0:0:0:
228,111,13863,5,2,3:0:0:0:
228,111,13974,1,8,2:0:0:0:
228,111,14085,1,2,2:3:0:0:
75,181,14307,1,10,2:0:0:0:
10,41,14529,1,2,2:0:0:0:
182,189,14752,6,0,P|236:209|287:249,1,95.9999970703126,6|0,3:2|1:0,2:0:0:0:
345,158,15196,1,10,2:0:0:0:
303,81,15418,1,2,1:2:0:0:
415,224,15641,6,0,P|434:275|447:335,1,95.9999970703126,2|0,3:2|1:0,2:0:0:0:
261,213,16085,1,10,2:0:0:0:
368,132,16307,1,2,1:2:0:0:
443,315,16529,6,0,P|397:300|354:278,1,95.9999970703126,2|0,3:2|1:0,2:0:0:0:
237,375,16974,1,10,2:0:0:0:
96,283,17196,1,2,1:2:0:0:
247,113,17418,5,2,3:2:0:0:
63,66,17641,1,8,1:2:0:0:
261,116,17863,1,8,2:0:0:0:
81,237,18085,1,10,1:2:0:0:
55,232,18196,1,0,3:2:0:0:
34,219,18307,6,0,B|50:182|50:182|76:296,1,143.999995605469,6|2,3:2|3:2,2:0:0:0:
54,360,19085,1,2,2:0:0:0:
54,360,19196,1,2,3:2:0:0:
54,360,19641,6,0,B|90:327|136:340|136:340|164:377|221:374,1,167.999994873047,10|0,2:0|2:0,2:0:0:0:
290,321,20085,6,0,L|305:230,1,80,6|2,3:2|2:0,2:0:0:0:
319,168,20752,1,2,3:2:0:0:
319,168,20974,1,2,3:2:0:0:
290,321,21418,6,0,L|305:230,1,80,10|0,2:0|2:0,2:0:0:0:
480,98,21863,6,0,L|395:112,1,80,2|2,3:2|2:0,2:0:0:0:
319,168,22529,1,2,3:2:0:0:
319,168,22752,1,2,3:2:0:0:
480,98,23196,6,0,B|459:107|459:107|418:94|418:94|395:112,1,95.9999970703126,10|0,2:0|2:0,2:0:0:0:
183,64,23641,6,0,L|268:78,1,80,2|2,3:2|2:0,2:0:0:0:
319,168,24307,1,2,3:2:0:0:
319,168,24530,1,2,3:2:0:0:
183,64,24974,6,0,L|268:78,1,80,10|0,2:0|2:0,2:0:0:0:
389,255,25418,5,2,3:2:0:0:
310,238,25641,1,2,2:0:0:0:
301,158,25863,1,2,2:0:0:0:
374,126,26085,1,2,3:2:0:0:
428,185,26307,1,2,3:2:0:0:
332,214,26752,6,0,B|334:179|334:179|370:166|370:166|394:196|394:196|372:229|372:229|333:219,1,192,8|0,2:0|2:0,2:0:0:0:
232,275,27196,6,0,L|216:354,1,80,2|2,3:2|2:0,2:0:0:0:
120,263,27863,1,2,3:2:0:0:
120,263,28085,1,2,3:2:0:0:
232,275,28529,6,0,L|216:354,1,80,10|0,2:0|2:0,2:0:0:0:
133,166,28974,6,0,L|42:151,1,80,2|2,3:2|2:0,2:0:0:0:
143,267,29641,1,2,3:2:0:0:
143,267,29863,1,2,3:2:0:0:
133,166,30307,6,0,B|86:157|86:157|75:157|75:157|13:146|13:146|79:200,1,180.000006866455,10|0,2:0|2:0,2:0:0:0:
209,210,30752,6,0,L|246:101,1,90.0000034332277,2|0,3:2|2:0,2:0:0:0:
259,98,31196,2,0,L|242:24,1,60.0000022888184,2|0,2:0|3:0,2:0:0:0:
353,152,31641,6,0,L|373:245,1,90.0000034332277,2|0,3:2|2:0,2:0:0:0:
445,160,32085,6,0,L|421:50,1,100,10|0,2:0|2:0,2:0:0:0:
501,258,32529,6,0,L|368:285,1,120.000004577637,2|0,3:2|2:0,2:0:0:0:
311,301,32863,1,2,2:0:0:0:
311,301,32974,1,2,2:0:0:0:
207,209,33196,1,2,3:2:0:0:
70,246,33418,1,2,3:2:0:0:
196,384,33863,6,0,P|186:336|168:280,1,80,14|2,3:2|2:1,2:0:0:0:
164,272,34196,1,0,2:0:0:0:
162,242,34307,5,14,2:1:0:0:
87,229,34529,1,8,2:0:0:0:
8,216,34752,2,0,L|23:126,1,80,10|2,2:0|3:2,2:0:0:0:
260,179,35196,5,10,2:0:0:0:
181,166,35418,1,8,2:0:0:0:
102,153,35641,2,0,L|116:62,1,80,10|0,2:0|3:0,2:0:0:0:
367,113,36085,5,10,2:0:0:0:
280,100,36307,1,10,2:0:0:0:
193,87,36530,2,0,L|208:-4,1,80,10|2,2:0|3:2,2:0:0:0:
381,30,36974,5,10,2:0:0:0:
510,51,37196,1,8,2:0:0:0:
486,178,37418,2,0,L|470:271,1,80,8|2,2:0|2:1,2:0:0:0:
420,314,37752,1,0,2:0:0:0:
399,289,37863,5,6,3:1:0:0:
302,340,38085,1,2,1:2:0:0:
291,336,38196,1,0,3:0:0:0:
282,334,38307,2,0,P|241:355|205:364,1,64,10|2,2:0|3:2,2:0:0:0:
112,247,38752,2,0,P|87:273|94:340,1,96,2|0,3:2|2:0,2:0:0:0:
161,307,39196,2,0,P|188:275|187:230,1,64,10|0,2:0|1:0,2:0:0:0:
31,193,39641,5,4,3:2:0:0:
119,123,39863,1,2,1:2:0:0:
139,117,39974,1,0,3:0:0:0:
157,112,40085,2,0,P|112:100|87:82,1,64,10|2,3:2|3:2,2:0:0:0:
247,23,40529,2,0,P|288:10|344:54,1,96,2|0,3:2|2:0,2:0:0:0:
382,92,40974,1,10,2:0:0:0:
415,109,41085,1,8,2:0:0:0:
453,115,41196,1,0,1:0:0:0:
283,239,41418,6,0,P|298:275|304:315,1,80,4|0,3:2|2:0,2:0:0:0:
445,224,41863,1,10,2:0:0:0:
487,374,42085,1,2,2:0:0:0:
289,320,42307,6,0,P|242:301|186:295,1,80,2|0,3:2|1:0,2:0:0:0:
145,223,42641,1,0,1:0:0:0:
118,245,42752,2,0,P|71:263|15:269,1,80,10|2,2:0|2:0,2:0:0:0:
355,365,43196,5,14,2:0:0:0:
488,78,43640,1,10,2:0:0:0:
488,78,43863,2,0,L|501:36,2,40.000001525879,2|2|2,2:3|2:3|2:3,2:0:0:0:
457,114,44085,6,0,L|439:177,1,55.9999982910157,2|0,3:2|1:0,2:0:0:0:
288,274,44307,2,0,L|276:219,1,55.9999982910157,2|0,3:1|3:0,2:0:0:0:
338,55,44529,5,10,2:1:0:0:
308,39,44641,1,2,2:3:0:0:
259,43,44752,1,2,2:3:0:0:
209,84,44863,1,2,2:3:0:0:
199,158,44974,5,6,3:2:0:0:
341,247,45196,1,0,1:0:0:0:
245,384,45418,1,10,2:0:0:0:
110,288,45641,1,2,1:2:0:0:
354,244,45863,5,2,3:2:0:0:
458,279,46085,1,0,1:0:0:0:
490,175,46307,1,10,2:0:0:0:
391,139,46529,1,2,1:2:0:0:
190,158,46752,6,0,P|138:133|97:98,1,95.9999970703126,2|0,3:2|1:3,2:0:0:0:
8,195,47085,1,0,1:0:0:0:
24,205,47196,2,0,P|64:190|106:181,1,47.9999985351563,10|0,2:0|2:0,2:0:0:0:
186,246,47418,2,0,P|209:265|227:292,1,47.9999985351563,0|0,1:2|2:0,2:0:0:0:
58,359,47641,5,2,3:2:0:0:
93,327,47752,1,8,2:0:0:0:
110,283,47863,1,0,1:0:0:0:
17,125,48085,2,0,P|41:77|51:23,1,95.9999970703126,10|0,1:2|1:0,2:0:0:0:
352,61,48529,5,2,3:2:0:0:
292,223,48751,1,0,1:0:0:0:
132,174,48973,1,10,2:0:0:0:
191,16,49196,1,2,1:2:0:0:
321,221,49418,5,2,3:2:0:0:
420,176,49640,1,0,1:2:0:0:
460,275,49863,1,10,2:0:0:0:
362,316,50085,1,2,1:2:0:0:
492,144,50307,6,0,P|455:110|384:103,1,95.9999970703126,2|0,3:2|1:2,2:0:0:0:
309,191,50641,1,0,2:0:0:0:
288,218,50752,2,0,P|262:228|225:236,1,47.9999985351563,10|0,1:2|2:0,2:0:0:0:
171,122,50974,2,0,P|129:99|105:77,1,47.9999985351563,2|0,1:2|2:0,2:0:0:0:
345,16,51196,5,2,3:2:0:0:
308,52,51307,1,8,2:0:0:0:
296,99,51418,1,0,1:0:0:0:
364,265,51641,1,10,1:2:0:0:
488,157,51863,1,0,1:2:0:0:
205,289,52085,6,0,B|214:325|227:332|237:360,1,80,6|0,3:2|1:0,2:0:0:0:
323,182,52529,1,10,2:0:0:0:
188,101,52752,1,0,1:0:0:0:
358,191,52974,2,0,B|403:181|396:192|437:184,1,80,2|0,3:2|1:0,2:0:0:0:
165,209,53418,5,10,2:0:0:0:
250,39,53641,1,2,1:2:0:0:
36,193,53863,2,0,P|68:234|77:278,1,95.9999970703126,2|0,3:2|1:0,2:0:0:0:
126,355,54196,1,0,1:0:0:0:
116,372,54307,1,10,2:0:0:0:
299,292,54529,1,2,1:2:0:0:
117,80,54752,5,2,3:2:0:0:
287,149,54974,1,0,1:2:0:0:
173,274,55196,1,10,1:2:0:0:
27,215,55418,1,0,1:2:0:0:
301,255,55641,6,0,L|395:272,1,95.9999970703126,2|0,3:2|1:0,2:0:0:0:
511,193,56085,2,0,L|416:175,1,95.9999970703126,10|0,2:0|1:0,2:0:0:0:
332,59,56529,2,0,L|427:77,1,95.9999970703126,2|0,3:2|1:0,2:0:0:0:
470,196,56974,2,0,L|363:176,1,95.9999970703126,10|0,2:0|1:0,2:0:0:0:
189,156,57418,6,0,L|217:-3,1,143.999995605469,2|0,3:2|2:0,2:0:0:0:
289,56,57863,1,8,2:0:0:0:
279,103,57974,1,0,2:0:0:0:
270,150,58085,1,2,1:2:0:0:
444,363,58307,5,2,3:2:0:0:
425,346,58418,1,0,2:0:0:0:
406,325,58529,1,8,1:2:0:0:
380,307,58641,1,0,2:0:0:0:
352,288,58752,5,10,1:2:0:0:
303,314,58863,1,8,2:0:0:0:
242,327,58974,1,8,1:2:0:0:
175,303,59085,1,8,1:2:0:0:
123,242,59196,5,6,3:2:0:0:
247,54,59418,1,0,1:2:0:0:
44,112,59641,1,10,2:0:0:0:
262,194,59863,1,2,1:2:0:0:
140,313,60085,5,2,3:2:0:0:
20,192,60307,1,0,1:2:0:0:
0,320,60530,1,10,2:0:0:0:
137,233,60752,1,2,1:2:0:0:
272,369,60974,6,0,P|233:347|233:275,1,95.9999970703126,2|0,3:2|1:0,2:0:0:0:
296,212,61307,1,0,2:0:0:0:
285,194,61418,2,0,P|259:179|202:172,1,47.9999985351563,10|0,1:2|2:0,2:0:0:0:
150,235,61641,2,0,P|124:250|67:257,1,47.9999985351563,0|0,1:0|2:0,2:0:0:0:
0,120,61863,5,2,3:2:0:0:
14,74,61974,1,8,2:0:0:0:
37,32,62085,1,0,1:2:0:0:
206,149,62307,2,0,P|253:156|294:180,1,95.9999970703126,10|0,1:2|1:0,2:0:0:0:
424,296,62752,5,2,3:2:0:0:
353,21,62974,1,0,1:0:0:0:
292,183,63196,1,10,2:0:0:0:
512,71,63419,1,2,1:2:0:0:
359,269,63641,5,2,3:2:0:0:
503,340,63863,1,0,1:2:0:0:
455,232,64085,1,10,2:0:0:0:
367,352,64308,1,2,1:2:0:0:
272,197,64529,6,0,B|204:178|246:153|166:125,1,120.000004577637,2|0,3:2|1:2,2:0:0:0:
109,193,64863,1,0,2:0:0:0:
131,215,64974,2,0,P|149:249|162:290,1,60.0000022888184,10|0,1:2|2:0,2:0:0:0:
7,146,65196,2,0,P|20:113|49:72,1,60.0000022888184,2|0,1:2|2:0,2:0:0:0:
158,348,65418,5,2,3:2:0:0:
102,343,65529,1,8,2:0:0:0:
58,304,65640,1,0,1:0:0:0:
254,166,65863,1,10,2:0:0:0:
133,116,66085,1,0,1:0:0:0:
358,210,66307,6,0,B|320:223|319:236|264:261,1,80,6|0,3:2|1:2,2:0:0:0:
481,285,66752,1,10,2:0:0:0:
361,369,66974,1,0,1:0:0:0:
492,272,67196,2,0,B|475:223|493:231|473:175,1,80,2|0,3:2|1:2,2:0:0:0:
225,13,67641,5,10,1:2:0:0:
365,135,67863,1,2,1:2:0:0:
192,214,68085,2,0,L|89:254,1,95.9999970703126,2|0,3:2|1:0,2:0:0:0:
262,378,68529,1,10,2:0:0:0:
383,225,68752,1,2,1:2:0:0:
158,135,68974,5,2,3:2:0:0:
185,119,69085,1,0,1:0:0:0:
204,93,69196,1,10,2:0:0:0:
210,59,69307,1,0,2:0:0:0:
193,16,69418,5,10,2:0:0:0:
134,23,69529,1,10,2:0:0:0:
70,51,69641,1,10,1:2:0:0:
24,115,69752,1,10,1:2:0:0:
0,192,69863,5,6,3:2:0:0:
256,192,69974,12,2,71641,3:2:0:0:
417,364,71863,5,2,1:2:0:0:
417,364,71974,1,2,2:0:0:0:
417,364,72085,2,0,P|377:349|317:338,1,80,10|2,2:0|2:0,2:0:0:0:
243,277,72529,5,2,3:2:0:0:
256,247,72641,2,0,L|232:114,1,120,8|10,2:0|2:0,2:0:0:0:
320,74,73196,1,0,1:0:0:0:
176,58,73418,5,2,3:2:0:0:
109,171,73641,1,2,1:2:0:0:
0,112,73863,1,10,2:0:0:0:
56,5,74085,1,2,1:2:0:0:
166,248,74307,5,2,3:2:0:0:
238,211,74529,1,2,1:2:0:0:
200,139,74752,1,10,2:0:0:0:
128,176,74973,1,2,1:2:0:0:
87,283,75196,6,0,P|52:265|15:250,1,80,2|2,3:2|2:3,2:0:0:0:
132,349,75529,1,2,2:0:0:0:
140,359,75641,2,0,P|208:363|251:353,1,80,10|2,2:0|1:2,2:0:0:0:
358,282,76085,5,2,3:2:0:0:
358,282,76196,1,8,2:0:0:0:
358,282,76307,1,2,2:3:0:0:
469,364,76529,1,10,2:0:0:0:
512,238,76752,1,2,1:2:0:0:
411,145,76974,6,0,L|334:126,1,80,6|0,3:2|1:0,2:0:0:0:
248,182,77418,1,10,2:0:0:0:
203,97,77641,1,2,1:2:0:0:
391,58,77863,6,0,L|400:151,1,80,2|0,3:2|1:0,2:0:0:0:
421,267,78307,1,10,2:0:0:0:
315,336,78529,1,2,1:2:0:0:
170,212,78752,6,0,L|255:248,1,80,2|0,3:2|1:0,2:0:0:0:
122,362,79196,1,10,2:0:0:0:
32,234,79418,1,2,1:2:0:0:
231,135,79641,5,2,3:2:0:0:
405,51,79863,1,10,1:2:0:0:
215,135,80085,1,10,2:0:0:0:
402,217,80307,1,10,1:2:0:0:
434,208,80418,1,8,2:0:0:0:
454,186,80529,6,0,B|488:138|488:138|515:291,1,192,14|2,3:2|3:2,2:0:0:0:
458,322,81307,1,2,2:0:0:0:
458,322,81418,1,2,3:2:0:0:
458,322,81863,6,0,B|400:290|350:329|350:329|328:367|280:366,1,192,10|0,2:0|2:0,2:0:0:0:
194,320,82307,5,6,3:2:0:0:
256,192,96529,5,14,2:0:0:0:
177,208,96751,1,8,2:0:0:0:
99,225,96974,2,0,L|-1:249,1,80,10|2,2:0|3:2,2:0:0:0:
161,131,97418,5,10,2:0:0:0:
239,114,97640,1,8,2:0:0:0:
317,97,97863,2,0,L|417:73,1,80,10|0,2:0|3:0,2:0:0:0:
277,286,98307,5,10,2:0:0:0:
258,200,98529,1,10,2:0:0:0:
239,114,98752,2,0,L|212:2,1,80,10|2,2:0|3:2,2:0:0:0:
82,147,99196,5,10,2:0:0:0:
117,305,99418,1,8,2:0:0:0:
273,270,99641,1,8,2:0:0:0:
303,261,99752,1,0,2:0:0:0:
334,253,99863,1,2,2:1:0:0:
365,245,99974,1,0,2:0:0:0:
396,237,100085,5,6,3:1:0:0:
498,146,100307,1,2,1:2:0:0:
489,130,100418,1,2,3:2:0:0:
474,111,100529,2,0,P|453:84|440:51,1,64,10|0,2:0|3:0,2:0:0:0:
290,99,100974,2,0,P|310:139|380:157,1,96,2|0,3:2|2:0,2:0:0:0:
352,56,101418,2,0,P|335:38|288:21,1,64,10|2,2:0|1:2,2:0:0:0:
258,185,101863,5,4,3:2:0:0:
221,312,102085,1,2,2:0:0:0:
206,337,102196,1,0,1:0:0:0:
193,359,102307,2,0,P|155:373|121:395,1,64,10|2,2:0|3:2,2:0:0:0:
16,319,102752,2,0,P|65:301|90:235,1,96,2|0,3:2|2:0,2:0:0:0:
65,170,103196,1,10,2:0:0:0:
25,193,103307,1,8,2:0:0:0:
6,230,103418,1,0,3:2:0:0:
157,64,103641,6,0,P|124:38|106:14,1,64,6|2,3:2|1:2,2:0:0:0:
234,142,104085,1,10,2:0:0:0:
364,57,104307,1,2,1:2:0:0:
219,146,104529,6,0,P|184:157|142:165,1,64,2|0,3:2|1:0,2:0:0:0:
254,247,104863,1,2,1:2:0:0:
285,255,104974,2,0,P|313:280|335:306,1,64,10|2,1:2|2:0,2:0:0:0:
497,374,105418,5,10,2:1:0:0:
370,104,105863,1,10,2:0:0:0:
370,104,106085,2,0,L|410:93,2,40.000001525879,2|2|2,2:3|2:3|2:3,2:0:0:0:
335,75,106307,6,0,L|321:6,1,60.0000022888184,10|0,2:0|1:0,2:0:0:0:
482,192,106529,2,0,L|468:250,1,60.0000022888184,2|0,3:1|3:0,2:0:0:0:
248,129,106752,5,10,2:1:0:0:
222,88,106863,1,2,2:3:0:0:
167,52,106974,1,2,2:3:0:0:
92,51,107085,1,2,2:3:0:0:
19,88,107196,5,6,3:2:0:0:
163,6,107418,1,0,1:0:0:0:
238,158,107641,1,10,2:0:0:0:
98,254,107863,1,2,1:2:0:0:
261,170,108085,5,2,3:2:0:0:
364,256,108307,1,0,1:0:0:0:
420,139,108530,1,10,2:0:0:0:
320,57,108752,1,2,1:2:0:0:
251,185,108974,6,0,P|305:203|351:250,1,95.9999970703126,2|0,3:2|1:0,2:0:0:0:
448,292,109307,1,0,1:0:0:0:
476,282,109418,2,0,P|497:254|506:219,1,47.9999985351563,10|0,2:0|2:0,2:0:0:0:
366,362,109641,2,0,P|398:374|452:376,1,47.9999985351563,2|0,1:2|2:0,2:0:0:0:
277,268,109863,5,2,3:2:0:0:
229,273,109974,1,8,2:0:0:0:
191,301,110085,1,0,1:0:0:0:
70,366,110307,2,0,P|38:331|-8:296,1,95.9999970703126,10|0,1:2|1:0,2:0:0:0:
290,278,110752,5,2,3:2:0:0:
370,128,110974,1,0,1:2:0:0:
493,228,111197,1,10,2:0:0:0:
431,370,111419,1,2,1:2:0:0:
286,114,111641,5,2,3:2:0:0:
356,221,111863,1,0,1:0:0:0:
455,138,112086,1,10,2:0:0:0:
382,40,112308,1,2,1:2:0:0:
270,230,112529,6,0,P|285:282|289:356,1,95.9999970703126,2|0,3:2|1:2,2:0:0:0:
378,216,112863,1,0,2:0:0:0:
397,191,112974,2,0,P|425:164|468:139,1,47.9999985351563,10|0,1:2|2:0,2:0:0:0:
322,76,113196,2,0,P|295:58|251:51,1,47.9999985351563,0|0,1:0|2:0,2:0:0:0:
464,20,113418,5,2,3:2:0:0:
494,60,113529,1,8,2:0:0:0:
495,108,113640,1,0,1:0:0:0:
364,208,113863,1,10,1:2:0:0:
306,55,114085,1,0,1:2:0:0:
163,213,114307,6,0,B|176:248|183:254|190:289,1,80,6|0,3:2|1:0,2:0:0:0:
347,159,114752,1,10,2:0:0:0:
165,92,114974,1,0,1:0:0:0:
284,314,115196,2,0,B|263:264|284:276|262:238,1,80,2|0,3:2|1:0,2:0:0:0:
40,70,115641,5,10,0:0:0:0:
40,70,115863,1,0,1:0:0:0:
201,202,116085,2,0,P|159:181|152:114,1,95.9999970703126,2|0,3:2|1:0,2:0:0:0:
238,55,116418,1,2,1:2:0:0:
219,44,116529,2,0,P|237:33|287:26,1,47.9999985351563,10|0,2:0|2:0,2:0:0:0:
355,109,116752,2,0,P|370:140|361:182,1,47.9999985351563,2|0,1:2|2:0,2:0:0:0:
246,291,116974,5,2,3:2:0:0:
127,352,117196,1,0,1:0:0:0:
288,200,117418,1,10,1:2:0:0:
123,149,117641,1,0,1:2:0:0:
267,291,117863,6,0,P|309:327|336:390,1,95.9999970703126,2|0,3:2|1:0,2:0:0:0:
494,200,118307,2,0,P|436:178|390:143,1,95.9999970703126,10|0,2:0|1:0,2:0:0:0:
456,372,118752,2,0,P|421:306|413:261,1,95.9999970703126,2|0,3:2|1:0,2:0:0:0:
268,188,119196,2,0,P|222:175|175:171,1,95.9999970703126,10|0,2:0|1:0,2:0:0:0:
421,90,119641,6,0,P|482:112|501:225,1,143.999995605469,2|0,3:2|1:0,2:0:0:0:
416,192,120085,1,8,2:0:0:0:
371,176,120196,1,0,2:0:0:0:
342,138,120307,1,2,1:2:0:0:
129,40,120529,5,2,3:2:0:0:
156,43,120641,1,0,2:0:0:0:
181,56,120752,1,8,1:2:0:0:
200,83,120863,1,0,2:0:0:0:
204,117,120974,5,10,1:2:0:0:
160,163,121085,1,8,2:0:0:0:
140,225,121196,1,8,1:2:0:0:
162,293,121307,1,8,1:2:0:0:
229,339,121418,5,6,3:2:0:0:
339,220,121641,1,0,1:0:0:0:
188,146,121863,1,10,2:0:0:0:
68,270,122085,1,2,1:2:0:0:
267,130,122307,5,2,3:2:0:0:
381,190,122530,1,0,1:2:0:0:
467,91,122752,1,10,2:0:0:0:
345,32,122974,1,2,1:2:0:0:
110,128,123196,6,0,P|63:140|10:198,1,95.9999970703126,2|0,3:2|1:0,2:0:0:0:
99,49,123529,1,0,2:0:0:0:
121,31,123641,2,0,P|137:39|184:72,1,47.9999985351563,10|0,1:2|2:0,2:0:0:0:
255,152,123863,2,0,P|300:141|331:124,1,47.9999985351563,0|0,1:2|2:0,2:0:0:0:
431,16,124085,5,2,3:2:0:0:
452,58,124196,1,8,2:0:0:0:
457,106,124307,1,0,1:2:0:0:
298,226,124529,2,0,P|270:183|225:145,1,95.9999970703126,10|0,1:2|1:0,2:0:0:0:
374,364,124974,5,2,3:2:0:0:
495,246,125196,1,0,1:2:0:0:
353,154,125418,1,10,2:0:0:0:
221,271,125641,1,2,1:2:0:0:
383,82,125863,5,2,3:2:0:0:
251,124,126085,1,0,1:2:0:0:
322,232,126307,1,10,2:0:0:0:
449,201,126529,1,2,1:2:0:0:
173,132,126752,6,0,B|144:122|130:94|130:94|90:63|45:71,1,120.000004577637,2|0,3:2|1:2,2:0:0:0:
22,177,127085,1,0,2:0:0:0:
45,208,127196,2,0,P|61:246|71:291,1,60.0000022888184,10|0,1:2|2:0,2:0:0:0:
181,135,127418,2,0,P|198:98|226:63,1,60.0000022888184,0|0,1:2|2:0,2:0:0:0:
276,248,127641,5,2,3:2:0:0:
301,300,127752,1,8,2:0:0:0:
283,355,127863,1,0,1:0:0:0:
74,284,128085,1,10,1:2:0:0:
143,102,128307,1,0,1:0:0:0:
260,246,128529,6,0,B|293:234|311:250|362:223,1,80,6|0,3:2|1:2,2:0:0:0:
429,101,128974,1,10,2:0:0:0:
289,21,129196,1,0,1:0:0:0:
428,122,129418,2,0,B|454:150|434:187|464:215,1,80,2|0,3:2|1:2,2:0:0:0:
370,361,129863,5,10,1:2:0:0:
510,271,130085,1,2,1:2:0:0:
336,188,130307,2,0,L|320:304,1,95.9999970703126,2|0,3:2|1:0,2:0:0:0:
146,365,130752,1,10,1:2:0:0:
77,187,130974,1,2,1:2:0:0:
216,34,131196,5,2,3:2:0:0:
244,32,131307,1,2,2:0:0:0:
273,43,131418,1,10,2:0:0:0:
299,71,131529,1,2,2:0:0:0:
306,103,131641,5,10,2:0:0:0:
251,120,131752,1,10,2:0:0:0:
194,155,131863,1,10,2:0:0:0:
146,213,131974,1,10,2:0:0:0:
113,286,132085,6,0,L|41:297,1,60,6|2,3:2|1:2,2:0:0:0:
4,304,132529,2,0,L|11:356,1,40,2|2,1:2|3:2,2:0:0:0:
113,286,132974,2,0,L|119:340,1,40,2|0,3:2|2:0,2:0:0:0:
195,317,133307,1,0,1:2:0:0:
195,317,133418,6,0,L|182:225,1,80,10|0,1:2|3:2,2:0:0:0:
381,277,133863,6,0,L|324:289,1,40,2|2,3:2|1:2,2:0:0:0:
272,298,134196,1,0,3:2:0:0:
272,298,134307,2,0,L|259:246,1,40,2|2,3:2|3:2,2:0:0:0:
485,320,134752,5,2,3:2:0:0:
485,320,135196,2,0,L|479:350,1,20,10|0,2:3|2:0,2:0:0:0:
367,212,135641,6,0,L|380:286,1,60,2|0,3:2|1:2,2:0:0:0:
386,321,136085,2,0,L|331:330,1,40,2|2,1:2|3:2,2:0:0:0:
262,269,136529,2,0,L|256:215,1,40,2|0,3:2|2:0,2:0:0:0:
180,238,136862,1,0,1:2:0:0:
180,238,136974,6,0,L|193:330,1,80,10|0,1:2|3:2,2:0:0:0:
7,339,137418,6,0,L|72:330,1,60,2|0,3:2|3:2,2:0:0:0:
116,322,137862,2,0,L|108:269,1,40,2|0,3:2|3:2,2:0:0:0:
180,238,138307,5,2,3:2:0:0:
259,225,138529,1,0,1:2:0:0:
367,212,138752,2,0,L|393:208,1,20,10|0,2:3|2:0,2:0:0:0:
367,212,139196,6,0,L|295:223,1,60,2|2,3:2|1:2,2:0:0:0:
258,230,139641,2,0,L|250:181,1,40,2|2,1:2|3:2,2:0:0:0:
113,287,140085,2,0,L|121:336,1,40,2|0,3:2|2:0,2:0:0:0:
195,308,140418,1,0,1:2:0:0:
195,308,140529,6,0,L|176:211,1,80,10|0,1:2|3:2,2:0:0:0:
3,345,140974,6,0,L|54:335,1,40,2|2,3:2|2:0,2:0:0:0:
120,327,141307,1,0,3:2:0:0:
120,327,141418,2,0,L|110:280,1,40,2|2,1:2|3:2,2:0:0:0:
254,231,141863,5,2,3:2:0:0:
367,212,142085,1,0,1:2:0:0:
398,365,142307,2,0,L|366:371,1,20,10|0,2:3|2:0,2:0:0:0:
285,384,142529,1,0,1:2:0:0:
464,241,142752,6,0,L|448:169,1,64,6|0,3:2|2:0,2:0:0:0:
405,120,143085,1,2,3:2:0:0:
398,109,143196,2,0,L|417:29,1,64,10|2,2:0|3:2,2:0:0:0:
297,9,143641,2,0,L|185:37,1,96,2|0,3:2|2:0,2:0:0:0:
165,98,144085,1,10,2:0:0:0:
68,15,144307,1,2,2:0:0:0:
15,169,144529,6,0,P|54:162|96:143,1,64,2|0,3:2|2:0,2:0:0:0:
142,111,144863,1,0,3:0:0:0:
153,106,144974,2,0,P|184:113|212:127,1,64,10|2,2:0|3:2,2:0:0:0:
297,213,145418,2,0,P|285:241|278:290,1,64,2|0,3:2|2:0,2:0:0:0:
490,331,145863,5,10,2:0:0:0:
443,336,145974,1,8,2:0:0:0:
399,354,146085,1,2,3:2:0:0:
506,156,146307,6,0,B|480:161|480:161|463:195|423:210,1,96,6|0,3:2|2:0,2:0:0:0:
360,168,146752,2,0,L|348:96,1,64,10|2,2:0|2:0,2:0:0:0:
240,231,147196,2,0,L|260:156,1,64,2|2,3:2|2:0,2:0:0:0:
146,91,147641,1,10,2:0:0:0:
222,29,147863,1,2,2:0:0:0:
0,71,148085,6,0,P|29:114|46:202,1,120,10|0,2:0|2:0,2:0:0:0:
176,128,148529,2,0,P|171:187|141:238,1,120,10|0,2:0|2:0,2:0:0:0:
203,369,148973,1,10,1:2:0:0:
217,345,149085,1,0,1:2:0:0:
260,326,149196,1,0,3:2:0:0:
306,332,149307,1,0,3:0:0:0:
340,360,149418,5,10,2:1:0:0:
469,236,149641,1,0,1:2:0:0:
481,174,149752,1,0,1:0:0:0:
492,113,149863,6,0,L|471:18,1,95.9999970703126,6|2,3:2|2:0,2:0:0:0:
305,127,150307,2,0,B|353:135|353:135|407:154,1,95.9999970703126,10|2,2:0|2:0,2:0:0:0:
234,237,150752,2,0,B|196:248|196:248|170:247|170:247|114:278,1,95.9999970703126,2|2,3:2|2:0,2:0:0:0:
16,366,151196,2,0,B|35:362|35:362|50:349|50:349|69:358|69:358|130:344,1,95.9999970703126,10|2,2:0|2:0,2:0:0:0:
170,155,151641,6,0,B|143:145|143:145|109:169,1,47.9999985351563,2|0,3:2|2:0,2:0:0:0:
187,302,151863,2,0,B|186:284|186:284|209:266,1,47.9999985351563,2|0,2:0|2:0,2:0:0:0:
356,292,152085,2,0,B|339:284|339:284|335:256,1,47.9999985351563,10|0,2:0|2:0,2:0:0:0:
512,158,152307,2,0,B|453:189|453:189|426:179,1,95.9999970703126,2|0,2:0|3:2,2:0:0:0:
376,102,152641,1,8,2:0:0:0:
376,102,152752,5,2,1:2:0:0:
328,106,152863,1,2,2:0:0:0:
281,114,152974,2,0,B|260:96|260:96|274:19,1,95.9999970703126,10|0,1:2|1:0,2:0:0:0:
124,101,153418,5,2,3:2:0:0:
97,61,153529,1,2,2:0:0:0:
57,36,153641,2,0,P|23:24|-9:21,1,64,2|2,2:0|2:0,2:0:0:0:
193,174,153863,5,10,2:0:0:0:
241,170,153974,1,2,2:0:0:0:
282,148,154086,2,0,P|309:124|325:97,1,64,2|2,2:0|2:0,2:0:0:0:
103,125,154307,5,2,3:2:0:0:
66,155,154418,1,2,2:0:0:0:
52,200,154529,1,2,2:0:0:0:
65,246,154640,1,2,2:0:0:0:
101,277,154752,2,0,P|120:296|176:303,1,64,10|2,2:0|2:0,2:0:0:0:
271,361,154974,2,0,P|292:345|321:280,1,64,2|2,2:0|2:0,2:0:0:0:
458,178,155196,6,0,B|468:238|468:238|475:248|475:248|488:330,1,128,2|2,3:2|2:3,2:0:0:0:
421,368,155492,5,2,2:3:0:0:
410,361,155567,5,2,2:3:0:0:
400,353,155641,6,0,B|388:290|388:290|376:275|376:275|368:200,1,128,10|2,2:0|2:0,2:0:0:0:
500,115,156085,5,2,3:2:0:0:
456,96,156196,1,8,2:0:0:0:
493,67,156307,1,2,1:2:0:0:
318,173,156529,1,10,2:0:0:0:
220,9,156752,1,2,2:0:0:0:
94,170,156974,6,0,B|124:210|124:210|85:373|85:373|48:310,2,256,4|8|0,3:2|1:2|3:0,2:0:0:0:
269,368,158085,1,2,1:2:0:0:
318,357,158196,1,0,1:0:0:0:
368,348,158307,2,0,B|426:338|426:338|440:331|440:331|540:317,1,128,8|2,1:2|1:2,2:0:0:0:
235,271,158752,5,2,3:2:0:0:
72,232,158974,1,2,1:2:0:0:
115,68,159196,1,10,1:2:0:0:
275,109,159418,1,2,1:2:0:0:
135,291,159641,5,2,3:2:0:0:
52,113,159863,1,2,1:2:0:0:
251,27,160085,1,10,1:2:0:0:
345,226,160307,1,2,1:2:0:0:
345,226,160418,1,0,1:0:0:0:
345,226,160529,2,0,B|495:259|495:259|508:272|508:272|454:280|433:308,1,256,4|8,3:2|1:2,2:0:0:0:
263,136,161196,5,2,1:2:0:0:
201,147,161307,1,2,1:2:0:0:
140,161,161418,2,0,B|-5:186|-5:186|24:254|24:254|33:261|33:261|81:252,1,272.000005187988,6|8,3:2|1:2,2:0:0:0:
298,368,162085,5,2,1:2:0:0:
279,299,162196,1,2,2:0:0:0:
259,227,162307,2,0,B|242:156|242:156|246:152|246:152|222:55|222:55|283:39,1,215.999993408203,6|0,3:2|2:0,2:0:0:0:
346,27,162752,5,10,1:2:0:0:
97,182,162974,1,2,1:2:0:0:
365,263,163196,1,2,3:2:0:0:
199,20,163418,2,0,B|190:46|190:46|192:54|192:54|179:97,1,64,10|0,1:2|2:0,2:0:0:0:
147,280,163641,5,10,1:2:0:0:
369,159,163863,1,10,1:2:0:0:
437,184,163974,1,8,2:0:0:0:
506,214,164085,6,0,B|497:246|504:263|504:263|491:273|482:320,1,95.9999970703126,6|0,3:2|1:0,2:0:0:0:
315,379,164529,1,8,1:2:0:0:
259,198,164752,1,2,1:2:0:0:
259,198,164863,1,0,1:0:0:0:
259,198,164974,2,0,L|367:163,1,95.9999970703126,2|0,3:2|1:2,2:0:0:0:
145,48,165418,5,8,1:0:0:0:
34,216,165641,1,2,1:2:0:0:
34,216,165752,1,2,2:0:0:0:
34,216,165863,5,14,1:2:0:0:
300,45,166085,1,0,3:2:0:0:
254,290,166307,1,8,1:2:0:0:
42,19,166529,2,0,L|32:78,1,47.9999985351563,0|0,3:2|2:0,2:0:0:0:
0,315,166752,5,0,3:2:0:0:
0,315,167196,2,0,L|40:324,1,23.9999992675781,6|0,2:1|2:0,2:0:0:0:
285,289,178307,5,2,3:2:0:0:
169,252,178752,1,2,3:2:0:0:
169,131,179196,1,2,3:2:0:0:
285,93,179529,1,0,3:2:0:0:
285,93,179641,1,2,3:2:0:0:
356,192,179863,1,0,3:2:0:0:
285,289,180085,6,0,L|291:315,1,20,10|0,1:2|2:0,2:0:0:0:
20,345,181196,5,0,1:2:0:0:
39,327,181307,1,0,1:2:0:0:
67,310,181418,1,2,1:2:0:0:
95,294,181529,1,0,1:2:0:0:
142,276,181641,1,0,1:2:0:0:
204,257,181752,1,0,1:2:0:0:
274,241,181863,5,6,3:2:0:0:
330,79,182085,1,0,1:0:0:0:
82,181,182307,1,10,2:0:0:0:
139,18,182530,1,2,1:2:0:0:
362,273,182752,5,2,3:2:0:0:
246,330,182974,1,0,1:2:0:0:
183,214,183196,1,10,2:0:0:0:
296,150,183418,1,2,1:2:0:0:
383,280,183641,6,0,P|437:267|460:216,1,95.9999970703126,2|0,3:2|1:0,2:0:0:0:
501,121,183974,1,0,1:0:0:0:
470,103,184085,2,0,P|459:71|453:30,1,47.9999985351563,10|0,2:0|2:0,2:0:0:0:
338,38,184307,2,0,P|303:26|254:24,1,47.9999985351563,0|0,1:2|2:0,2:0:0:0:
165,134,184529,5,2,3:2:0:0:
109,126,184640,1,8,2:0:0:0:
67,87,184752,1,0,1:0:0:0:
288,115,184974,2,0,P|307:165|325:239,1,95.9999970703126,10|0,1:2|1:0,2:0:0:0:
57,365,185418,5,2,3:2:0:0:
155,166,185641,1,0,1:0:0:0:
210,315,185862,1,10,2:0:0:0:
5,215,186085,1,2,1:2:0:0:
221,326,186307,5,2,3:2:0:0:
335,383,186529,1,0,1:2:0:0:
390,267,186751,1,10,2:0:0:0:
273,209,186974,1,2,1:2:0:0:
512,380,187196,6,0,L|486:284,1,95.9999970703126,2|0,3:2|1:2,2:0:0:0:
399,191,187529,1,0,1:0:0:0:
417,153,187641,2,0,L|404:86,1,47.9999985351563,10|0,1:2|2:0,2:0:0:0:
291,30,187863,2,0,L|270:108,1,47.9999985351563,2|0,2:0|2:0,2:0:0:0:
198,207,188085,5,2,3:2:0:0:
154,170,188196,1,8,2:0:0:0:
95,163,188307,1,0,1:0:0:0:
341,268,188529,1,10,1:2:0:0:
264,87,188752,1,0,1:2:0:0:
176,357,188974,6,0,B|210:339|216:326|260:315,1,80,6|0,3:2|1:0,2:0:0:0:
49,202,189418,1,10,2:0:0:0:
240,146,189641,1,0,1:0:0:0:
19,219,189863,2,0,B|35:270|43:245|56:287,1,80,2|0,3:2|1:0,2:0:0:0:
339,145,190307,5,10,2:0:0:0:
115,24,190529,1,2,1:2:0:0:
325,69,190752,2,0,P|302:129|294:179,1,95.9999970703126,2|0,3:2|1:0,2:0:0:0:
347,222,191085,1,2,1:2:0:0:
365,228,191196,1,10,2:0:0:0:
235,363,191418,1,2,1:2:0:0:
422,152,191641,5,2,3:2:0:0:
511,264,191863,1,0,1:0:0:0:
330,136,192085,1,10,1:2:0:0:
500,44,192307,1,0,1:2:0:0:
252,129,192529,6,0,L|140:153,1,95.9999970703126,2|0,3:2|1:0,2:0:0:0:
352,309,192974,2,0,L|328:209,1,95.9999970703126,10|0,2:0|1:0,2:0:0:0:
158,149,193418,2,0,L|183:263,1,95.9999970703126,2|0,3:2|1:0,2:0:0:0:
329,215,193863,2,0,L|423:193,1,95.9999970703126,10|0,2:0|1:0,2:0:0:0:
108,261,194307,6,0,L|79:91,1,143.999995605469,2|0,3:2|1:0,2:0:0:0:
0,165,194752,1,8,1:2:0:0:
8,212,194863,1,0,2:0:0:0:
16,259,194974,1,2,1:2:0:0:
124,368,195196,5,2,3:2:0:0:
150,347,195307,1,0,2:0:0:0:
184,337,195418,1,8,1:2:0:0:
219,340,195529,1,0,2:0:0:0:
256,362,195641,5,10,1:2:0:0:
312,363,195752,1,8,2:0:0:0:
365,327,195863,1,8,1:2:0:0:
391,259,195974,1,8,1:2:0:0:
371,183,196085,5,6,3:2:0:0:
181,263,196307,1,2,1:2:0:0:
111,86,196529,1,10,2:0:0:0:
291,5,196752,1,2,1:2:0:0:
486,188,196974,5,2,3:2:0:0:
313,250,197196,1,0,1:2:0:0:
432,304,197418,1,10,2:0:0:0:
357,125,197641,1,2,1:2:0:0:
224,27,197863,6,0,P|175:44|137:86,1,95.9999970703126,2|2,3:2|1:2,2:0:0:0:
100,173,198196,1,0,1:0:0:0:
73,206,198307,2,0,P|30:215|-20:211,1,47.9999985351563,10|0,1:2|2:0,2:0:0:0:
184,276,198529,2,0,P|213:309|224:339,1,47.9999985351563,2|0,1:2|2:0,2:0:0:0:
38,126,198752,5,2,3:2:0:0:
36,78,198863,1,8,1:2:0:0:
51,33,198974,1,0,1:2:0:0:
249,112,199196,2,0,P|254:184|238:232,1,95.9999970703126,10|0,1:2|1:0,2:0:0:0:
356,381,199641,5,2,3:2:0:0:
442,201,199863,1,2,1:2:0:0:
171,290,200085,1,10,2:0:0:0:
244,106,200307,1,2,1:2:0:0:
0,339,200529,5,2,3:2:0:0:
186,249,200752,1,0,1:2:0:0:
48,206,200973,1,10,2:0:0:0:
131,384,201195,1,2,1:2:0:0:
270,278,201418,6,0,B|294:205|323:246|348:154,1,120.000004577637,2|0,3:2|1:2,2:0:0:0:
435,122,201752,1,0,1:0:0:0:
448,82,201863,2,0,P|437:32|424:-3,1,60.0000022888184,10|0,1:2|2:0,2:0:0:0:
235,79,202085,2,0,P|296:120|309:140,1,60.0000022888184,2|0,1:2|2:0,2:0:0:0:
160,230,202307,5,2,3:2:0:0:
97,215,202418,1,8,2:0:0:0:
52,168,202529,1,0,1:0:0:0:
253,201,202752,1,10,2:0:0:0:
46,302,202974,1,0,1:0:0:0:
169,14,203196,6,0,B|191:45|186:69|215:111,1,80,6|0,3:2|1:2,2:0:0:0:
134,298,203641,1,10,2:0:0:0:
67,93,203863,1,2,1:2:0:0:
315,179,204085,2,0,B|353:183|340:197|386:213,1,80,2|0,3:2|1:2,2:0:0:0:
299,375,204529,5,10,1:2:0:0:
112,292,204752,1,2,1:2:0:0:
358,175,204974,2,0,L|453:130,1,95.9999970703126,2|0,3:2|1:0,2:0:0:0:
194,6,205418,1,10,2:0:0:0:
64,187,205641,1,2,2:0:0:0:
231,371,205863,5,2,3:2:0:0:
257,341,205974,1,0,1:0:0:0:
301,327,206085,1,10,2:0:0:0:
350,337,206196,1,2,2:0:0:0:
396,368,206307,5,10,2:0:0:0:
457,352,206418,1,10,2:0:0:0:
509,305,206529,1,10,2:0:0:0:
510,230,206641,1,10,2:0:0:0:
456,166,206752,5,6,3:2:0:0:
256,192,206863,12,2,208529,3:2:0:0:
104,340,208752,5,2,2:3:0:0:
104,340,208863,1,2,2:0:0:0:
104,340,208974,2,0,P|65:362|5:357,1,80,10|2,2:0|2:0,2:0:0:0:
157,228,209418,5,2,3:2:0:0:
184,237,209529,2,0,P|228:259|265:340,1,120,8|10,2:0|2:0,2:0:0:0:
334,381,210085,1,0,2:0:0:0:
458,301,210307,5,2,3:2:0:0:
343,247,210530,1,2,2:0:0:0:
387,139,210752,1,10,2:0:0:0:
502,192,210974,1,2,2:0:0:0:
289,148,211196,5,2,3:2:0:0:
363,118,211419,1,2,2:0:0:0:
333,44,211641,1,10,2:0:0:0:
259,72,211863,1,2,2:0:0:0:
241,230,212085,6,0,P|223:173|193:128,1,80,2|2,3:2|2:3,2:0:0:0:
94,86,212418,1,2,2:0:0:0:
106,63,212530,2,0,P|132:41|183:13,1,80,10|2,2:0|2:0,2:0:0:0:
133,162,212974,5,0,3:2:0:0:
133,162,213085,1,8,2:0:0:0:
133,162,213196,1,2,2:3:0:0:
221,258,213418,1,10,2:0:0:0:
150,364,213641,1,2,2:0:0:0:
247,180,213863,6,0,L|344:164,1,80,6|0,3:2|1:0,2:0:0:0:
419,114,214307,1,10,2:0:0:0:
480,199,214529,1,0,1:0:0:0:
354,278,214752,6,0,L|266:259,1,80,2|0,3:2|1:0,2:0:0:0:
197,155,215196,1,10,2:0:0:0:
260,35,215418,1,0,1:2:0:0:
332,190,215641,6,0,L|307:299,1,80,2|0,3:2|1:0,2:0:0:0:
465,358,216085,1,10,2:0:0:0:
511,206,216307,1,2,1:2:0:0:
236,358,216529,5,2,3:2:0:0:
55,275,216752,1,10,1:2:0:0:
290,227,216974,1,10,2:0:0:0:
100,121,217196,1,10,1:2:0:0:
84,154,217307,1,8,2:0:0:0:
70,187,217418,6,0,B|36:139|36:139|9:292,1,192,6|2,3:2|3:2,2:0:0:0:
75,330,218196,1,2,2:0:0:0:
75,330,218307,1,2,3:2:0:0:
75,330,218752,6,0,B|135:303|181:344|181:344|206:384|257:382,1,192,10|0,2:0|2:0,2:0:0:0:
386,320,219196,5,6,3:2:0:0:
256,192,219307,12,2,220974,2:0:0:0:
