osu file format v14

[General]
AudioFilename: audio.mp3
AudioLeadIn: 0
PreviewTime: 64257
Countdown: 1
SampleSet: None
StackLeniency: 0.7
Mode: 0
LetterboxInBreaks: 0
WidescreenStoryboard: 1

[Editor]
Bookmarks: 104971
DistanceSpacing: 0.9
BeatDivisor: 8
GridSize: 16
TimelineZoom: 1

[Metadata]
Title:Gioventu' Bruciata
TitleUnicode:Gioventù Bruciata
Artist:Mahmood
ArtistUnicode:Mahmood
Creator:Kama
Version:Heartbroken CS6+AR10
Source:
Tags:
BeatmapID:2045587
BeatmapSetID:977328

[Difficulty]
HPDrainRate:0
CircleSize:6
OverallDifficulty:8
ApproachRate:10
SliderMultiplier:2.1
SliderTickRate:1

[Events]
//Background and Video events
0,0,"synthpop-synth-retrowave-stas-fedorov-muzyka-darkwave-synth.jpg",0,0
//Break Periods
//Storyboard Layer 0 (Background)
//Storyboard Layer 1 (Fail)
//Storyboard Layer 2 (Pass)
//Storyboard Layer 3 (Foreground)
//Storyboard Sound Samples

[TimingPoints]
400,571.428571428571,4,2,0,5,1,0
471,-100,4,2,0,40,0,0
17542,-400,4,2,0,40,0,0
18685,-100,4,2,0,40,0,0
22971,-200,4,2,0,40,0,0
23542,-100,4,2,0,40,0,0
25257,-200,4,2,0,40,0,0
25828,-100,4,2,0,40,0,0
31257,-400,4,2,0,40,0,0
32399,-100,4,2,0,40,0,0
36685,-200,4,2,0,40,0,0
37257,-100,4,2,0,40,0,0
44971,-200,4,2,0,40,0,0
45542,-100,4,2,0,40,0,0
59828,-133.333333333333,4,3,0,40,0,0
63828,-100,4,1,0,40,0,0
64399,-80,4,2,0,40,0,1
82114,-86.9565217391304,4,2,0,40,0,0
82685,-80,4,2,0,40,0,1
100971,-125,4,2,0,40,0,0
104399,-200,4,2,0,40,0,0
104971,-100,4,2,0,5,0,0
105542,-100,4,2,0,40,0,0

[Colours]
Combo1 : 255,255,255
Combo2 : 255,174,64
Combo3 : 255,145,145
Combo4 : 202,136,159

[HitObjects]
80,112,400,22,0,P|140:134|183:115,1,105
272,80,971,1,0,0:0:0:0:
224,256,1257,1,0,0:0:0:0:
335,205,1542,2,0,P|384:192|432:224,1,105
80,224,2114,1,0,0:0:0:0:
192,288,2399,1,0,0:0:0:0:
192,288,2971,5,0,0:0:0:0:
192,288,3257,2,0,L|64:304,1,105
304,176,3828,2,0,P|304:224|336:272,1,105
416,224,4399,1,0,0:0:0:0:
96,80,4685,2,0,L|112:208,1,105
208,224,5257,1,0,0:0:0:0:
192,336,5542,1,0,0:0:0:0:
64,288,5828,1,0,0:0:0:0:
288,304,6114,6,0,P|331:283|384:304,1,105
336,384,6685,1,0,0:0:0:0:
432,272,6971,1,0,0:0:0:0:
432,272,7542,1,0,0:0:0:0:
384,112,7828,2,0,B|391:151|391:151|369:187|369:187|373:222,1,105
224,256,8399,2,0,P|172:278|112:256,1,105
128,144,8971,1,0,0:0:0:0:
272,112,9257,1,0,0:0:0:0:
272,112,9828,5,0,0:0:0:0:
206,166,10114,2,0,P|249:204|313:188,1,105
400,208,10685,2,0,P|434:243|450:301,2,105
304,320,11542,1,0,0:0:0:0:
304,320,12114,2,0,P|259:343|201:328,1,105
249,248,12685,1,0,0:0:0:0:
112,112,12971,2,0,L|121:222,1,105
304,96,13542,1,0,0:0:0:0:
304,96,13828,2,0,B|352:127|406:122|406:122|419:170|464:224,1,210
368,272,14685,5,0,0:0:0:0:
288,224,14971,1,0,0:0:0:0:
224,288,15257,2,0,P|176:304|116:286,1,105
384,176,15828,1,0,0:0:0:0:
288,336,16114,1,0,0:0:0:0:
222,140,16685,5,0,0:0:0:0:
289,243,16971,1,0,0:0:0:0:
307,158,17257,1,0,0:0:0:0:
204,225,17542,2,0,L|96:240,1,105
91,243,18971,5,0,0:0:0:0:
80,96,19828,2,0,B|140:86|180:128|180:128|213:163|274:158,1,210
368,128,20685,1,0,0:0:0:0:
352,272,21257,1,0,0:0:0:0:
288,320,21542,2,0,P|236:333|182:311,1,105
416,352,22114,1,0,0:0:0:0:
480,288,22399,2,0,L|512:176,1,105
432,112,22971,2,0,L|400:224,1,105
354,51,23828,5,0,0:0:0:0:
241,165,24114,1,0,0:0:0:0:
403,212,24399,1,0,0:0:0:0:
256,256,24685,2,0,L|144:272,1,105
224,357,25257,2,0,L|336:341,1,105
400,368,26114,1,0,0:0:0:0:
464,96,26685,6,0,P|471:148|436:203,1,105
368,240,27257,1,0,0:0:0:0:
368,240,27399,1,0,0:0:0:0:
368,240,27542,2,0,P|361:188|396:133,1,105
208,96,28114,1,0,0:0:0:0:
71,228,28399,6,0,P|112:208|171:224,2,105
128,336,29257,1,0,0:0:0:0:
259,301,29542,1,0,0:0:0:0:
164,196,29828,1,0,0:0:0:0:
164,196,30399,1,0,0:0:0:0:
368,80,30685,2,0,P|317:79|266:114,1,105
386,157,31257,2,0,L|496:162,1,105
506,171,32685,1,0,0:0:0:0:
112,208,33542,6,0,B|163:194|163:194|214:213,1,105
80,304,34114,1,0,0:0:0:0:
176,144,34399,1,0,0:0:0:0:
176,144,34971,1,0,0:0:0:0:
223,210,35257,2,0,P|271:226|342:215,1,105
416,192,35828,1,0,0:0:0:0:
479,120,36114,2,0,P|434:90|381:102,1,105
208,96,36685,2,0,P|253:126|306:114,1,105
301,119,37542,1,0,0:0:0:0:
305,122,38114,6,0,B|271:166|271:166|218:181,1,105
160,240,38685,1,0,0:0:0:0:
320,304,38971,1,0,0:0:0:0:
416,96,39542,2,0,L|400:208,1,105
320,272,40114,1,0,0:0:0:0:
208,240,40399,2,0,P|151:242|108:278,1,105
336,304,40971,5,0,0:0:0:0:
336,304,41114,1,0,0:0:0:0:
336,304,41257,1,0,0:0:0:0:
416,208,41542,2,0,P|368:178|311:185,1,105
208,208,42114,1,0,0:0:0:0:
112,48,42399,2,0,B|106:84|106:84|121:158,1,105
352,144,42971,1,0,0:0:0:0:
288,256,43542,5,0,0:0:0:0:
288,256,43828,2,0,P|336:256|384:288,1,105
400,112,44399,1,0,0:0:0:0:
448,224,44685,1,0,0:0:0:0:
288,80,44971,2,0,B|251:92|251:92|210:87|210:87|176:96,1,105
80,288,46114,5,0,0:0:0:0:
160,160,46685,1,0,0:0:0:0:
240,304,47257,2,0,L|368:288,1,105
384,192,47828,2,0,L|272:208,2,105
144,96,48971,1,0,0:0:0:0:
144,96,49542,2,0,P|188:117|257:106,1,105
320,144,50114,1,0,0:0:0:0:
160,224,50399,2,0,L|176:288,1,52.5
160,304,50685,6,0,P|224:320|304:208,1,210
208,80,51828,1,0,0:0:0:0:
192,176,52399,1,0,0:0:0:0:
304,64,52685,1,0,0:0:0:0:
320,80,52828,1,0,0:0:0:0:
336,96,52971,2,0,P|352:144|336:208,1,105
256,160,53542,2,0,P|240:208|256:272,1,105
336,336,54114,1,0,0:0:0:0:
176,304,54685,5,0,0:0:0:0:
176,304,54828,1,0,0:0:0:0:
176,304,54971,2,0,B|124:323|124:323|65:313,1,105
32,224,55542,1,0,0:0:0:0:
80,64,55828,2,0,P|80:112|112:160,1,105
208,192,56399,1,0,0:0:0:0:
192,80,56685,1,0,0:0:0:0:
112,160,56971,1,0,0:0:0:0:
352,96,57257,5,0,0:0:0:0:
352,96,57542,2,0,P|376:127|444:128,1,105
480,240,58114,2,0,L|368:256,1,105
304,320,58685,1,0,0:0:0:0:
240,224,58971,1,0,0:0:0:0:
240,224,59257,2,0,B|185:231|185:231|131:219,1,105
64,48,59828,6,0,P|112:80|176:48,1,118.125004506111
256,16,60399,2,0,L|240:144,1,118.125004506111
304,224,60971,2,0,P|246:223|246:271,1,118.125004506111
448,288,61542,2,0,P|416:304|371:303,1,78.7500030040742
373,303,61971,1,0,0:0:0:0:
373,303,62114,1,0,0:0:0:0:
256,352,62399,1,0,0:0:0:0:
81,202,62685,2,0,P|121:240|193:225,1,118.125004506111
224,64,63257,2,0,B|257:110|257:110|246:174,1,118.125004506111
256,256,63828,1,0,0:0:0:0:
96,112,64399,6,0,B|133:102|165:109|165:109|191:88|226:87,1,131.25
320,48,64971,1,0,0:0:0:0:
256,224,65257,1,0,0:0:0:0:
400,176,65542,2,0,P|454:211|466:288,1,131.25
384,272,66114,2,0,L|368:368,2,65.625
160,320,66685,1,0,0:0:0:0:
272,336,66971,1,0,0:0:0:0:
96,208,67257,2,0,P|59:262|64:336,2,131.25
288,64,68114,5,0,0:0:0:0:
192,80,68399,1,0,0:0:0:0:
352,144,68685,2,0,L|368:176,3,32.8125
383,183,68971,2,0,P|431:167|495:231,1,131.25
288,256,69542,1,0,0:0:0:0:
464,320,69828,1,0,0:0:0:0:
304,352,70114,2,0,L|246:382,2,65.625
208,240,70685,6,0,P|136:232|93:292,1,131.25
352,272,71257,1,0,0:0:0:0:
384,160,71542,1,0,0:0:0:0:
272,128,71828,1,0,0:0:0:0:
240,240,72114,2,0,B|194:295|194:295|128:304,1,131.25
64,208,72685,5,0,0:0:0:0:
64,208,72828,1,0,0:0:0:0:
64,208,72971,2,0,L|48:256,6,32.8125
121,139,73542,6,0,B|137:155|137:155|165:33,1,131.25
240,144,74114,1,0,0:0:0:0:
303,87,74399,2,0,P|330:153|284:218,1,131.25
336,304,74971,1,0,0:0:0:0:
240,352,75257,2,0,B|208:352|208:352|164:335,2,65.625
208,224,75828,1,0,0:0:0:0:
64,192,76114,1,0,0:0:0:0:
272,112,76399,2,0,P|336:112|384:160,1,131.25
300,202,76971,1,0,0:0:0:0:
432,112,77257,5,0,0:0:0:0:
304,48,77542,1,0,0:0:0:0:
304,48,77685,1,0,0:0:0:0:
304,48,77828,2,0,L|240:48,4,32.8125
368,256,78399,1,0,0:0:0:0:
368,256,78685,6,0,P|304:288|240:256,1,131.25
176,192,79257,2,0,P|240:160|304:192,1,131.25
292,179,79685,1,0,0:0:0:0:
292,179,79828,1,0,0:0:0:0:
368,96,80114,1,0,0:0:0:0:
256,64,80399,2,0,L|112:80,1,131.25
96,192,80971,2,0,L|240:176,1,131.25
256,288,81542,1,0,0:0:0:0:
368,304,81828,6,0,L|384:336,2,32.8125
400,208,82114,2,0,P|432:208|464:224,2,60.3750011515618
341,119,82685,6,0,P|293:87|213:119,1,131.25
272,192,83257,1,0,0:0:0:0:
176,272,83542,2,0,P|146:284|92:278,2,65.625
272,320,84114,1,0,0:0:0:0:
160,160,84399,1,0,0:0:0:0:
336,240,84685,2,0,P|368:224|448:272,1,131.25
400,336,85257,1,0,0:0:0:0:
400,336,85542,2,0,L|391:174,1,131.25
256,64,86114,5,0,0:0:0:0:
192,176,86399,1,0,0:0:0:0:
320,176,86685,1,0,0:0:0:0:
416,224,86971,1,0,0:0:0:0:
416,224,87042,1,0,0:0:0:0:
416,224,87114,1,0,0:0:0:0:
416,224,87185,1,0,0:0:0:0:
416,224,87257,6,0,B|375:277|375:277|304:288,1,131.25
256,192,87828,1,0,0:0:0:0:
96,224,88114,1,0,0:0:0:0:
128,48,88399,2,0,P|160:96|146:194,1,131.25
96,320,88971,2,0,P|128:288|208:336,1,131.25
288,352,89542,1,0,0:0:0:0:
400,256,89828,1,0,0:0:0:0:
256,160,90114,1,0,0:0:0:0:
368,352,90399,1,0,0:0:0:0:
336,96,90685,1,0,0:0:0:0:
432,128,90971,6,0,L|448:160,2,32.8125
336,96,91257,2,0,B|304:80|304:80|272:80,2,65.625
192,112,91828,6,0,P|178:169|224:224,1,131.25
400,176,92399,2,0,P|441:224|428:286,1,131.25
304,176,92970,1,0,0:0:0:0:
220,222,93257,2,0,P|160:240|128:176,2,131.25
304,176,94114,1,0,0:0:0:0:
400,208,94399,2,0,B|435:232|435:232|427:325|427:325,1,131.25
304,288,94971,2,0,B|269:264|269:264|277:171|277:171,1,131.25
176,112,95542,5,0,0:0:0:0:
176,112,95829,2,0,P|143:116|115:133,2,65.625
256,112,96257,1,0,0:0:0:0:
336,96,96399,2,0,P|400:112|432:176,1,131.25
464,64,96971,1,0,0:0:0:0:
352,176,97257,1,0,0:0:0:0:
480,224,97542,1,0,0:0:0:0:
480,224,97685,1,0,0:0:0:0:
480,224,97829,2,0,L|490:288,2,65.625
336,288,98399,5,0,0:0:0:0:
256,336,98685,2,0,P|191:320|158:247,1,131.25
192,160,99257,2,0,B|233:178|233:178|269:158|322:144,1,131.25
313,146,99828,1,0,0:0:0:0:
416,96,100399,1,0,0:0:0:0:
400,208,100971,6,0,L|384:304,1,84
288,336,101542,2,0,L|304:240,1,84
192,160,102114,1,0,0:0:0:0:
96,96,102399,1,0,0:0:0:0:
160,288,102685,1,0,0:0:0:0:
272,96,102971,1,0,0:0:0:0:
272,96,103257,2,0,P|320:112|352:96,1,84
432,128,103828,1,0,0:0:0:0:
400,256,104114,1,0,0:0:0:0:
304,160,104399,2,0,P|256:176|201:158,1,105,0|4,0:0|0:0,0:0:0:0:
