osu file format v14

[General]
AudioFilename: audio.mp3
AudioLeadIn: 0
PreviewTime: 60530
Countdown: 1
SampleSet: Soft
StackLeniency: 0.8
Mode: 0
LetterboxInBreaks: 0
SkinPreference:Default
WidescreenStoryboard: 1

[Editor]
Bookmarks: 101469
DistanceSpacing: 0.7
BeatDivisor: 3
GridSize: 8
TimelineZoom: 1.4

[Metadata]
Title:Buoy Base Galaxy
TitleUnicode:フローターランド
Artist:Mahito Yokota
ArtistUnicode:横田真人
Creator:YokesPai
Version:Easy
Source:Super Mario Galaxy
Tags:Furōtā Rando Gyarakushī 近藤浩治 koji kondo nintendo wii electronic instrumental orchestral video game vgm ost floater land classical ORIGINAL SOUND TRACK Platinum Version mario galaxy orchestra super bros スーパーマリオギャラクシー Bloxi
BeatmapID:1620343
BeatmapSetID:770713

[Difficulty]
HPDrainRate:2
CircleSize:2
OverallDifficulty:2
ApproachRate:2
SliderMultiplier:0.72
SliderTickRate:1

[Events]
//Background and Video events
0,0,"buoy base galaxy.jpg",0,0
//Break Periods
2,47631,59393
//Storyboard Layer 0 (Background)
//Storyboard Layer 1 (Fail)
//Storyboard Layer 2 (Pass)
//Storyboard Layer 3 (Foreground)
//Storyboard Layer 4 (Overlay)
//Storyboard Sound Samples

[TimingPoints]
108,422.535211267606,4,2,0,40,1,0
6868,-100,4,2,0,50,0,0
47431,-100,4,2,0,40,0,0
60953,-100,4,2,0,50,0,0
74474,-100,4,2,0,50,0,1
87995,-100,4,2,0,70,0,1
94755,-100,4,2,0,50,0,0
104755,-100,4,2,0,5,0,0

[Colours]
Combo1 : 128,255,255
Combo2 : 176,176,0
Combo3 : 0,191,0
Combo4 : 255,128,128
SliderBorder : 255,255,0
SliderTrackOverride : 0,0,0

[HitObjects]
256,336,108,6,0,L|184:336,1,72,8|2,3:0|3:2,0:0:0:0:
184,248,953,2,0,L|256:248,1,72,2|2,3:0|3:2,0:0:0:0:
256,160,1798,2,0,L|184:160,1,72,2|2,3:0|3:2,0:0:0:0:
184,72,2643,2,0,L|256:72,1,72,2|2,3:0|3:2,0:0:0:0:
344,72,3488,6,0,L|344:144,1,72,8|2,3:0|3:2,0:0:0:0:
432,144,4333,2,0,L|432:72,1,72,2|2,3:0|3:2,0:0:0:0:
344,72,5178,1,2,3:0:0:0:
200,72,6023,1,2,3:0:0:0:
56,72,6868,6,0,L|56:144,1,72,2|2,3:0|3:0,0:0:0:0:
56,232,7713,1,2,3:0:0:0:
200,232,8558,2,0,L|200:160,1,72,2|2,3:0|3:0,0:0:0:0:
200,72,9403,1,2,3:0:0:0:
344,72,10248,6,0,L|344:144,1,72,2|2,3:0|3:0,0:0:0:0:
344,232,11093,1,2,3:0:0:0:
200,232,11938,2,0,L|200:160,1,72,2|2,3:0|3:0,0:0:0:0:
200,72,12784,1,2,3:0:0:0:
112,72,13206,1,2,3:0:0:0:
112,160,13629,6,0,L|112:232,2,72,2|2|2,3:0|3:2|3:2,0:0:0:0:
112,72,14896,1,2,3:2:0:0:
200,72,15319,2,0,L|272:72,2,72,2|2|2,3:2|3:2|3:2,0:0:0:0:
200,216,17009,6,0,L|272:216,2,72,2|2|2,3:0|3:2|3:2,0:0:0:0:
200,128,18277,1,2,3:2:0:0:
112,128,18699,2,0,L|40:128,2,72,2|2|2,3:2|3:2|1:2,0:0:0:0:
256,192,20389,6,0,L|256:336,1,144,2|2,3:0|3:0,0:0:0:0:
400,336,22079,2,0,L|400:264,1,72,2|0,3:0|3:0,0:0:0:0:
400,176,22924,2,0,L|400:128,2,48,2|2|2,3:0|3:0|3:0,0:0:0:0:
376,176,23769,2,0,L|232:176,1,144,2|2,3:0|3:0,0:0:0:0:
32,208,25460,6,0,L|32:280,1,72,2|2,3:0|3:0,0:0:0:0:
120,280,26305,1,2,3:0:0:0:
120,192,26727,1,2,3:0:0:0:
208,192,27150,6,0,L|208:48,1,144,2|2,3:0|3:0,0:0:0:0:
352,48,28840,2,0,L|352:120,1,72,2|0,3:0|3:0,0:0:0:0:
352,216,29685,2,0,L|352:264,2,48,2|2|2,3:0|3:0|3:0,0:0:0:0:
328,216,30530,2,0,L|184:216,1,144,2|2,3:0|3:0,0:0:0:0:
0,208,32220,5,2,3:0:0:0:
0,120,32643,1,2,3:0:0:0:
88,120,33065,1,2,3:0:0:0:
176,120,33488,1,2,3:0:0:0:
264,120,33910,6,0,L|408:120,1,144,2|2,3:1|3:1,0:0:0:0:
408,264,35600,2,0,L|336:264,1,72,2|0,3:1|3:0,0:0:0:0:
248,264,36446,2,0,L|248:216,2,48,2|2|2,3:1|3:1|3:1,0:0:0:0:
224,264,37291,2,0,L|80:264,1,144,2|2,3:1|3:1,0:0:0:0:
0,104,38981,5,2,3:0:0:0:
88,104,39403,1,2,3:0:0:0:
176,104,39826,1,2,3:0:0:0:
264,104,40248,1,2,3:0:0:0:
264,192,40671,6,0,L|264:336,1,144,2|2,3:1|3:1,0:0:0:0:
120,336,42361,2,0,L|120:256,1,72,2|0,3:1|3:0,0:0:0:0:
112,176,43206,2,0,L|64:176,2,48,2|2|2,3:1|3:1|3:1,0:0:0:0:
136,176,44051,2,2,B|352:176,1,216,2|0,3:1|3:0,0:1:0:0:
256,192,45741,12,2,47431,3:2:0:0:
256,192,60953,5,2,3:0:0:0:
400,120,61798,1,2,3:0:0:0:
256,48,62643,1,2,3:0:0:0:
232,192,63488,2,0,L|232:241,2,48,2|2|2,3:0|3:0|3:0,0:0:0:0:
256,192,64333,5,2,3:0:0:0:
328,336,65178,1,2,3:0:0:0:
400,192,66023,1,2,3:0:0:0:
256,168,66868,2,0,L|208:168,2,48,2|2|2,3:0|3:0|3:0,0:0:0:0:
256,192,67713,5,2,3:0:0:0:
112,264,68558,1,2,3:0:0:0:
256,336,69403,1,2,3:0:0:0:
256,192,70248,2,0,L|256:144,2,48,2|2|2,3:0|3:0|3:0,0:0:0:0:
256,192,71093,12,2,72784,3:0:0:0:
256,192,74474,6,0,L|400:192,1,144,6|2,3:1|3:1,0:0:0:0:
400,16,76164,2,0,L|256:16,1,144,2|2,3:1|3:1,0:0:0:0:
256,104,77431,1,0,1:0:0:0:
256,192,77854,2,0,L|256:336,2,144,2|2|2,3:1|3:1|3:1,0:0:0:0:
344,192,79967,1,2,3:1:0:0:
432,192,80389,1,2,3:1:0:0:
256,192,81234,6,0,L|112:192,1,144,6|2,3:1|3:1,0:0:0:0:
112,280,82502,1,0,1:0:0:0:
112,368,82924,2,0,L|256:368,1,144,2|2,3:1|3:1,0:0:0:0:
256,280,84192,1,0,1:0:0:0:
256,192,84615,2,0,L|256:48,2,144,2|2|2,3:1|3:1|3:1,0:0:0:0:
168,192,86727,1,2,3:1:0:0:
80,192,87150,1,2,3:1:0:0:
256,192,87995,5,6,3:1:0:0:
344,192,88417,1,0,1:0:0:0:
432,192,88840,2,0,L|504:192,1,72,2|0,3:1|1:0,0:0:0:0:
504,104,89685,1,2,3:1:0:0:
416,104,90108,1,0,1:0:0:0:
328,104,90530,2,0,L|256:104,1,72,2|0,3:1|1:0,0:0:0:0:
256,192,91375,5,2,3:1:0:0:
168,192,91798,1,0,1:0:0:0:
80,192,92220,2,0,L|8:192,1,72,2|0,3:1|1:0,0:0:0:0:
8,280,93065,1,2,3:1:0:0:
96,280,93488,1,0,1:0:0:0:
184,280,93910,1,2,3:1:0:0:
272,280,94333,1,0,1:0:0:0:
272,192,94755,6,0,L|272:48,2,144,6|2|2,3:2|3:2|3:2,0:0:0:0:
416,192,97291,1,2,3:2:0:0:
272,192,98136,2,0,L|272:336,2,144,2|2|2,1:2|3:2|3:2,0:0:0:0:
128,192,100671,1,2,3:0:0:0:
128,104,101093,1,2,3:0:0:0:
256,192,101516,12,0,104896,0:0:0:0:
