osu file format v14

[General]
AudioFilename: audio.mp3
AudioLeadIn: 0
PreviewTime: 102080
Countdown: 0
SampleSet: Soft
StackLeniency: 0.2
Mode: 0
LetterboxInBreaks: 0
EpilepsyWarning: 1
WidescreenStoryboard: 1

[Editor]
Bookmarks: 8780,26060,45260,52940,75980,87500,95180,102860,118220,125900,141260,156620,171980
DistanceSpacing: 0.2
BeatDivisor: 4
GridSize: 32
TimelineZoom: 5.899997

[Metadata]
Title:humanly
TitleUnicode:人間らしい
Artist:Mahiru
ArtistUnicode:まひる
Creator:Vanya2
Version:Artificial
Source:
Tags:zawajiro alevi bluirre mononymous mono japanese rock jrock j-rock cover vocaloid gumi ningenrashii ユリイ・カノン yurry canon yurrycanon 人間劇場
BeatmapID:3856534
BeatmapSetID:1874177

[Difficulty]
HPDrainRate:5
CircleSize:3.8
OverallDifficulty:9.2
ApproachRate:9.6
SliderMultiplier:2
SliderTickRate:1

[Events]
//Background and Video events
0,0,"ed8d7f36-d770-48f1-b219-8aa007e50446 (1).jpg",0,0
Video,54,"video.mp4"
//Break Periods
//Storyboard Layer 0 (Background)
//Storyboard Layer 1 (Fail)
//Storyboard Layer 2 (Pass)
//Storyboard Layer 3 (Foreground)
//Storyboard Layer 4 (Overlay)
//Storyboard Sound Samples

[TimingPoints]
1100,240,4,2,1,70,1,0
4700,-50,4,2,1,70,0,0
4940,-100,4,2,1,70,0,0
8780,-83.3333333333333,4,2,1,80,0,0
26060,-100,4,2,1,60,0,0
45260,-100,4,2,1,70,0,0
51020,-50,4,2,1,70,0,0
52220,-400,4,2,1,60,0,0
52940,-66.6666666666667,4,2,1,90,0,1
53180,-83.3333333333333,4,2,1,90,0,1
55340,-66.6666666666667,4,2,1,90,0,1
55580,-83.3333333333333,4,2,1,90,0,1
60380,-66.6666666666667,4,2,1,90,0,1
60860,-83.3333333333333,4,2,1,90,0,1
63020,-66.6666666666667,4,2,1,90,0,1
63260,-83.3333333333333,4,2,1,90,0,1
66140,-66.6666666666667,4,2,1,90,0,1
66380,-83.3333333333333,4,2,1,90,0,1
69140,-66.6666666666667,4,2,1,90,0,1
69380,-83.3333333333333,4,2,1,90,0,1
71060,-66.6666666666667,4,2,1,90,0,1
71300,-83.3333333333333,4,2,1,90,0,1
72140,-66.6666666666667,4,2,1,90,0,1
72380,-83.3333333333333,4,2,1,90,0,1
72980,-66.6666666666667,4,2,1,90,0,1
73220,-83.3333333333333,4,2,1,90,0,1
75980,-83.3333333333333,4,2,1,60,0,0
84020,-100,4,2,1,60,0,0
92540,-66.6666666666667,4,2,1,60,0,0
92780,-50,4,2,1,60,0,0
93260,-100,4,2,1,60,0,0
95180,-100,4,2,1,70,0,0
102140,-400,4,2,1,60,0,0
102860,-66.6666666666667,4,2,1,90,0,1
103100,-83.3333333333333,4,2,1,90,0,1
105260,-66.6666666666667,4,2,1,90,0,1
105500,-83.3333333333333,4,2,1,90,0,1
110300,-66.6666666666667,4,2,1,90,0,1
110540,-83.3333333333333,4,2,1,90,0,1
112940,-66.6666666666667,4,2,1,90,0,1
113180,-83.3333333333333,4,2,1,90,0,1
118220,-50,4,2,1,70,0,0
118280,-50,4,2,1,5,0,0
119180,-83.3333333333333,4,2,1,70,0,0
119240,-83.3333333333333,4,2,1,5,0,0
120140,-133.333333333333,4,2,1,70,0,0
120200,-133.333333333333,4,2,1,5,0,0
121100,-200,4,2,1,70,0,0
121160,-200,4,2,1,5,0,0
122060,-200,4,2,1,70,0,0
122120,-200,4,2,1,5,0,0
123020,-133.333333333333,4,2,1,70,0,0
123080,-133.333333333333,4,2,1,5,0,0
123980,-83.3333333333333,4,2,1,70,0,0
124040,-83.3333333333333,4,2,1,5,0,0
124940,-114.942528735632,4,2,1,70,0,0
125900,-83.3333333333333,4,2,1,80,0,0
139340,-83.3333333333333,4,2,1,90,0,1
141260,-83.3333333333333,4,2,1,80,0,0
155660,-66.6666666666667,4,2,1,80,0,0
156500,-50,4,2,1,80,0,0
156620,-200,4,2,1,50,0,0
157400,-200,4,2,1,5,0,0
157460,-200,4,2,1,50,0,0
158480,-200,4,2,1,5,0,0
158540,-200,4,2,1,50,0,0
159320,-200,4,2,1,5,0,0
159380,-200,4,2,1,50,0,0
160400,-200,4,2,1,5,0,0
160460,-200,4,2,1,50,0,0
161240,-200,4,2,1,5,0,0
161300,-200,4,2,1,50,0,0
162320,-200,4,2,1,5,0,0
162380,-200,4,2,1,60,0,0
163220,-83.3333333333333,4,2,1,60,0,0
164060,-66.6666666666667,4,2,1,60,0,0
164300,-66.6666666666667,4,2,1,70,0,0
164540,-83.3333333333333,4,2,1,70,0,0
170060,-83.3333333333333,4,2,1,80,0,0
171260,-83.3333333333333,4,2,1,60,0,0
171980,-66.6666666666667,4,2,1,90,0,1
172220,-83.3333333333333,4,2,1,90,0,1
172580,-66.6666666666667,4,2,1,90,0,1
173420,-83.3333333333333,4,2,1,90,0,1
174380,-66.6666666666667,4,2,1,90,0,1
174620,-83.3333333333333,4,2,1,90,0,1
176660,-66.6666666666667,4,2,1,90,0,1
176900,-83.3333333333333,4,2,1,90,0,1
178580,-66.6666666666667,4,2,1,90,0,1
178820,-83.3333333333333,4,2,1,90,0,1
179660,-66.6666666666667,4,2,1,90,0,1
179900,-83.3333333333333,4,2,1,90,0,1
180140,-66.6666666666667,4,2,1,90,0,1
180860,-83.3333333333333,4,2,1,90,0,1
182060,-66.6666666666667,4,2,1,90,0,1
182300,-83.3333333333333,4,2,1,90,0,1
184340,-66.6666666666667,4,2,1,90,0,1
184580,-83.3333333333333,4,2,1,90,0,1
186260,-66.6666666666667,4,2,1,90,0,1
186500,-83.3333333333333,4,2,1,90,0,1
188180,-66.6666666666667,4,2,1,90,0,1
188420,-83.3333333333333,4,2,1,90,0,1
190100,-66.6666666666667,4,2,1,90,0,1
190340,-83.3333333333333,4,2,1,90,0,1
191180,-66.6666666666667,4,2,1,90,0,1
191420,-83.3333333333333,4,2,1,90,0,1
192020,-66.6666666666667,4,2,1,90,0,1
192260,-83.3333333333333,4,2,1,90,0,1
195020,-83.3333333333333,4,2,1,100,0,1
202220,-83.3333333333333,4,2,1,100,0,0

[Colours]
Combo1 : 37,226,170
Combo2 : 152,250,165
Combo3 : 252,153,148
Combo4 : 168,228,239

[HitObjects]
361,102,1100,5,2,3:2:0:0:
358,115,1220,1,2,3:2:0:0:
502,171,1340,2,0,B|484:153|484:153|411:172,1,100,2|0,1:2|3:2,0:0:0:0:
294,282,1580,2,0,P|283:329|316:364,1,100,2|0,1:2|3:2,0:0:0:0:
315,363,1820,1,2,1:2:0:0:
383,255,1940,6,0,B|358:279|312:270|300:232|300:232|287:198|241:188|219:208,1,200,2|2,3:2|3:2,0:0:0:0:
81,117,2300,2,0,B|67:68|67:68|103:33,1,100,2|0,1:2|0:0,0:0:0:0:
246,108,2540,5,2,1:2:0:0:
70,205,2660,1,2,3:2:0:0:
155,93,2780,5,2,1:2:0:0:
165,99,2900,1,2,1:2:0:0:
211,230,3020,5,2,3:2:0:0:
151,180,3140,1,2,3:2:0:0:
256,100,3260,2,0,P|288:135|277:181,1,100,2|0,1:2|3:2,0:0:0:0:
97,312,3500,2,0,L|0:286,1,100,2|0,1:2|3:2,0:0:0:0:
64,223,3740,1,2,1:2:0:0:
148,380,3860,6,0,B|212:362|212:362|244:305|244:305|310:288,1,200,2|2,3:2|1:2,0:0:0:0:
405,169,4220,1,2,3:2:0:0:
333,127,4340,5,2,1:2:0:0:
386,256,4460,1,2,3:2:0:0:
512,0,4700,5,2,2:0:0:0:
70,164,4940,5,2,3:2:0:0:
66,152,5060,1,2,3:2:0:0:
179,113,5180,2,0,B|117:96|117:96|142:121,1,100,2|0,1:2|3:2,0:0:0:0:
310,43,5420,2,0,B|345:78|345:78|332:126,1,100,2|0,1:2|3:2,0:0:0:0:
256,100,5660,1,2,1:2:0:0:
382,248,5780,6,0,P|324:174|237:210,1,200,2|2,3:2|3:2,0:0:0:0:
81,330,6140,2,0,B|56:323|56:323|36:250,1,100,2|0,1:2|0:0,0:0:0:0:
252,291,6380,5,2,1:2:0:0:
150,384,6500,1,2,3:2:0:0:
133,261,6620,5,2,1:2:0:0:
143,271,6740,1,2,1:2:0:0:
244,376,6860,5,2,3:2:0:0:
318,345,6980,1,2,3:2:0:0:
280,195,7100,2,0,B|268:239|268:239|263:245|263:245|251:290,1,100,2|0,1:2|3:2,0:0:0:0:
444,190,7340,2,0,P|397:201|362:168,1,100,2|0,1:2|3:2,0:0:0:0:
335,92,7580,1,2,1:2:0:0:
451,6,7700,6,0,B|361:29|361:29|350:39|350:39|260:63,1,200,2|2,3:2|1:2,0:0:0:0:
194,24,8060,1,2,3:2:0:0:
62,139,8180,5,2,1:2:0:0:
252,73,8300,1,2,3:2:0:0:
0,0,8540,5,4,3:3:0:0:
147,185,8780,6,0,B|126:164|126:164|11:195|11:195|3:226,1,179.999994506836,6|0,3:2|0:0,0:0:0:0:
62,280,9020,1,2,1:2:0:0:
231,383,9140,2,0,P|270:340|257:284,1,119.999996337891,2|0,3:2|0:0,0:0:0:0:
117,370,9380,1,2,3:2:0:0:
234,203,9500,5,2,1:2:0:0:
159,176,9620,1,2,0:0:0:0:
239,301,9740,6,0,B|319:280|319:280|329:271|329:271|411:249,1,179.999994506836,2|0,3:2|0:0,0:0:0:0:
485,264,9980,2,0,B|527:306|527:306|511:364,1,119.999996337891,2|0,1:2|0:0,0:0:0:0:
249,310,10220,2,0,L|364:278,1,119.999996337891,2|0,3:2|3:2,0:0:0:0:
472,75,10460,2,0,P|429:35|373:48,1,119.999996337891,2|0,1:2|0:0,0:0:0:0:
512,152,10700,6,0,P|411:89|293:94,1,239.999992675781,2|2,3:2|1:2,0:0:0:0:
220,69,11060,2,0,B|182:71|179:29|179:29|216:21|222:50,1,119.999996337891,2|0,3:2|0:0,0:0:0:0:
364,57,11300,1,2,3:2:0:0:
231,152,11420,5,2,1:2:0:0:
306,6,11540,1,2,0:0:0:0:
274,226,11660,6,0,P|207:170|121:186,1,179.999994506836,2|0,3:2|0:0,0:0:0:0:
53,147,11900,2,0,B|31:168|31:168|54:256,1,119.999996337891,2|0,1:2|0:0,0:0:0:0:
123,302,12140,5,2,3:2:0:0:
261,232,12260,1,0,3:2:0:0:
202,340,12380,5,2,1:2:0:0:
198,327,12500,1,0,0:0:0:0:
135,198,12620,6,0,B|175:186|217:224|207:271|207:271|200:314|242:353|276:345,1,239.999992675781,6|2,3:2|1:2,0:0:0:0:
441,201,12980,2,0,B|387:186|387:186|381:180|381:180|326:166,1,119.999996337891,2|0,3:2|0:0,0:0:0:0:
495,287,13220,1,2,3:2:0:0:
357,361,13340,5,2,1:2:0:0:
336,285,13460,1,2,0:0:0:0:
455,196,13580,6,0,B|497:153|497:153|481:95,1,119.999996337891,2|0,3:2|0:0,0:0:0:0:
308,10,13820,2,0,B|253:24|253:24|247:30|247:30|193:44,1,119.999996337891,2|0,1:2|0:0,0:0:0:0:
335,179,14060,5,2,3:2:0:0:
405,10,14180,1,0,3:2:0:0:
405,125,14300,5,2,1:2:0:0:
334,89,14420,1,0,0:0:0:0:
236,202,14540,6,0,B|155:223|155:223|145:232|145:232|65:253,1,179.999994506836,2|0,3:2|0:0,0:0:0:0:
2,207,14780,1,2,1:2:0:0:
141,384,14900,2,0,B|119:363|119:363|142:275,1,119.999996337891,2|0,3:2|0:0,0:0:0:0:
199,58,15140,1,2,3:2:0:0:
251,211,15260,5,2,1:2:0:0:
133,112,15380,1,2,0:0:0:0:
218,295,15500,6,0,B|276:311|276:311|318:269,1,119.999996337891,2|0,1:2|3:2,0:0:0:0:
403,117,15740,2,0,L|371:2,1,119.999996337891,2|0,1:2|3:2,0:0:0:0:
460,180,15980,5,2,1:2:0:0:
324,133,16100,1,0,3:2:0:0:
489,42,16220,5,2,1:2:0:0:
310,138,16340,1,0,3:2:0:0:
512,300,16460,6,0,B|388:266|388:266|390:238|375:217,1,179.999994506836,6|0,3:2|0:0,0:0:0:0:
312,260,16700,1,2,1:2:0:0:
173,362,16820,2,0,B|98:342|98:342|139:331,1,119.999996337891,2|0,3:2|0:0,0:0:0:0:
248,384,17060,1,2,3:2:0:0:
182,237,17180,5,2,1:2:0:0:
250,200,17300,1,2,0:0:0:0:
176,354,17420,6,0,L|128:181,1,179.999994506836,2|0,3:2|0:0,0:0:0:0:
72,123,17660,2,0,P|16:140|0:195,1,119.999996337891,2|0,1:2|0:0,0:0:0:0:
229,14,17900,2,0,L|196:129,1,119.999996337891,2|0,3:2|3:2,0:0:0:0:
0,0,18140,2,0,P|43:38|99:26,1,119.999996337891,2|0,1:2|0:0,0:0:0:0:
250,200,18380,6,0,B|291:238|291:238|381:214|381:214|433:199|435:150,1,239.999992675781,2|2,3:2|1:2,0:0:0:0:
429,132,18740,2,0,P|373:149|356:204,1,119.999996337891,2|0,3:2|0:0,0:0:0:0:
489,76,18980,1,2,3:2:0:0:
356,103,19100,5,2,1:2:0:0:
435,149,19220,1,2,0:0:0:0:
301,273,19340,6,0,B|275:267|244:296|249:328|249:328|256:363|225:392|195:383,1,179.999994506836,2|0,3:2|0:0,0:0:0:0:
128,339,19580,2,0,B|170:297|170:297|227:312,1,119.999996337891,2|0,1:2|0:0,0:0:0:0:
362,384,19820,5,2,3:2:0:0:
307,261,19940,1,0,3:2:0:0:
432,339,20060,5,2,1:2:0:0:
436,327,20180,1,0,0:0:0:0:
269,382,20300,6,0,B|258:343|258:343|104:302|104:302|93:262,1,239.999992675781,6|2,3:2|1:2,0:0:0:0:
149,118,20660,2,0,P|187:160|175:216,1,119.999996337891,2|0,3:2|0:0,0:0:0:0:
0,125,20900,1,2,3:2:0:0:
93,262,21020,5,2,1:2:0:0:
25,303,21140,1,2,0:0:0:0:
47,193,21260,6,0,L|162:226,1,119.999996337891,2|0,3:2|0:0,0:0:0:0:
319,107,21500,2,0,B|341:86|341:86|318:-2,1,119.999996337891,2|0,1:2|0:0,0:0:0:0:
134,0,21740,5,2,3:2:0:0:
225,156,21860,1,0,3:2:0:0:
219,71,21980,5,2,1:2:0:0:
149,118,22100,1,0,0:0:0:0:
275,261,22220,6,0,B|355:282|355:282|365:291|365:291|445:312,1,179.999994506836,2|0,3:2|0:0,0:0:0:0:
507,267,22460,1,2,1:2:0:0:
356,313,22580,2,0,B|318:311|315:352|315:352|352:361|358:332,1,119.999996337891,2|0,3:2|0:0,0:0:0:0:
283,351,22820,1,2,3:2:0:0:
359,176,22940,5,2,1:2:0:0:
450,326,23060,1,2,0:0:0:0:
414,108,23180,6,0,P|453:149|440:205,1,119.999996337891,2|0,1:2|3:2,0:0:0:0:
210,314,23420,2,0,B|156:300|156:300|150:294|150:294|96:279,1,119.999996337891,2|0,1:2|3:2,0:0:0:0:
207,63,23660,5,2,1:2:0:0:
275,261,23780,1,0,3:2:0:0:
300,89,23900,5,2,1:2:0:0:
279,250,24020,1,0,3:2:0:0:
209,213,24140,5,2,0:0:0:0:
456,28,24500,5,2,0:0:0:0:
452,19,24620,1,2,0:0:0:0:
237,137,24980,5,2,0:0:0:0:
15,28,25220,5,2,0:0:0:0:
96,279,25460,5,2,0:0:0:0:
100,270,25580,1,2,0:0:0:0:
131,197,25820,5,2,0:0:0:0:
10,284,26060,6,0,B|74:302|74:302|106:359|106:359|172:376,1,200,6|0,3:2|0:0,0:0:0:0:
280,283,26420,1,2,1:2:0:0:
281,267,26540,2,0,P|244:235|198:248,1,100,2|0,3:2|0:0,0:0:0:0:
329,362,26780,2,0,B|353:355|353:355|373:282,1,100,2|2,1:2|1:2,0:0:0:0:
442,242,27020,5,2,3:2:0:0:
508,281,27140,1,2,0:0:0:0:
447,232,27260,5,2,0:0:0:0:
486,210,27380,1,2,1:2:0:0:
437,227,27500,6,0,B|461:202|452:156|414:144|414:144|380:131|370:85|390:63,1,200,2|2,3:2|1:2,0:0:0:0:
392,68,27860,1,0,1:2:0:0:
495,74,27980,6,0,B|405:98|405:98|393:108|393:108|305:132,1,200,2|0,3:2|0:0,0:0:0:0:
154,37,28340,1,2,1:2:0:0:
141,43,28460,2,0,B|104:78|104:78|118:126,1,100,2|2,3:2|0:0,0:0:0:0:
248,12,28700,2,0,L|221:108,1,100,2|2,1:2|1:2,0:0:0:0:
80,281,28940,5,2,3:2:0:0:
6,260,29060,1,2,0:0:0:0:
27,186,29180,1,2,0:0:0:0:
101,207,29300,1,2,1:2:0:0:
88,289,29420,2,0,B|100:333|100:333|105:339|105:339|117:384,1,100,2|0,3:2|0:0,0:0:0:0:
243,236,29660,5,2,1:2:0:0:
187,186,29780,1,0,1:2:0:0:
176,302,29900,6,0,B|201:326|247:317|259:279|259:279|272:245|318:235|340:255,1,200,6|0,3:2|0:0,0:0:0:0:
359,341,30260,1,2,1:2:0:0:
350,349,30380,2,0,P|303:362|267:330,1,100,2|0,3:2|0:0,0:0:0:0:
450,382,30620,2,0,L|423:286,1,100,2|2,1:2|1:2,0:0:0:0:
365,230,30860,5,2,3:2:0:0:
330,245,30980,1,2,0:0:0:0:
372,216,31100,5,2,0:0:0:0:
297,170,31220,1,0,1:2:0:0:
387,212,31340,6,0,B|411:122|411:122|421:110|421:110|445:22,1,200,2|2,3:2|1:2,0:0:0:0:
445,21,31700,1,0,1:2:0:0:
319,68,31820,6,0,B|285:59|250:90|258:129|258:129|264:165|229:197|200:190,1,200,2|0,3:2|0:0,0:0:0:0:
135,47,32180,1,0,1:2:0:0:
146,41,32300,2,0,B|194:27|194:27|229:64,1,100,2|0,3:2|0:0,0:0:0:0:
91,154,32540,2,0,B|72:136|72:136|0:155,1,100,2|2,1:2|1:2,0:0:0:0:
150,325,32780,6,0,B|195:337|195:337|201:342|201:342|245:354,1,100,2|2,1:2|3:2,0:0:0:0:
48,257,33020,2,0,B|11:292|11:292|25:340,1,100,2|2,1:2|3:2,0:0:0:0:
218,267,33260,5,2,1:2:0:0:
215,254,33380,1,0,1:2:0:0:
142,315,33500,5,2,1:2:0:0:
201,176,33620,1,0,1:2:0:0:
257,350,33740,6,0,P|348:376|413:307,1,200,6|2,3:2|0:0,0:0:0:0:
488,288,34100,2,0,P|501:241|469:205,1,100,2|0,3:2|0:0,0:0:0:0:
471,128,34340,2,0,P|437:93|390:102,1,100,2|0,0:0|0:0,0:0:0:0:
325,49,34580,6,0,B|305:82|305:82|218:81|173:159,1,200,2|2,3:2|0:0,0:0:0:0:
173,159,35060,1,2,3:2:0:0:
95,137,35180,2,0,P|38:96|64:32,1,150,2|0,3:2|0:0,0:0:0:0:
141,68,35420,6,0,B|165:93|156:139|118:151|118:151|84:164|74:210|94:232,2,200,2|2|2,3:2|3:2|0:0,0:0:0:0:
202,13,36020,2,0,P|249:4|282:38,1,100,2|0,3:2|0:0,0:0:0:0:
363,50,36260,2,0,P|394:86|381:132,1,100,2|0,0:0|0:0,0:0:0:0:
431,197,36500,6,0,P|408:289|316:312,1,200,2|2,3:2|0:0,0:0:0:0:
316,312,36980,1,2,3:2:0:0:
161,277,37100,5,2,1:2:0:0:
191,348,37220,1,2,1:2:0:0:
298,232,37340,5,2,1:2:0:0:
264,377,37460,1,2,1:2:0:0:
166,271,37580,6,0,B|141:247|95:256|83:294|83:294|70:328|24:338|2:318,1,200,6|0,3:2|0:0,0:0:0:0:
82,143,37940,1,2,1:2:0:0:
72,150,38060,2,0,P|59:196|91:232,1,100,2|0,3:2|0:0,0:0:0:0:
222,89,38300,2,0,P|172:88|128:65,1,100,2|2,1:2|1:2,0:0:0:0:
241,184,38540,5,2,3:2:0:0:
313,55,38660,1,2,0:0:0:0:
209,11,38780,5,2,0:0:0:0:
237,82,38900,1,2,1:2:0:0:
164,136,39020,6,0,B|189:112|235:121|247:159|247:159|260:193|306:203|328:183,1,200,2|2,3:2|1:2,0:0:0:0:
327,183,39380,1,0,1:2:0:0:
445,239,39500,6,0,P|354:213|289:282,1,200,2|0,3:2|0:0,0:0:0:0:
481,316,39860,1,2,1:2:0:0:
473,325,39980,2,0,P|426:337|390:305,1,100,2|0,3:2|0:0,0:0:0:0:
235,352,40220,2,0,P|201:317|210:270,1,100,2|2,1:2|1:2,0:0:0:0:
380,88,40460,5,2,3:2:0:0:
327,183,40580,1,2,0:0:0:0:
306,109,40700,1,2,0:0:0:0:
401,162,40820,1,2,1:2:0:0:
317,194,40940,2,0,B|273:182|273:182|267:177|267:177|222:165,1,100,2|0,3:2|0:0,0:0:0:0:
67,156,41180,5,2,1:2:0:0:
0,196,41300,1,0,1:2:0:0:
85,72,41420,6,0,B|109:160|109:160|119:172|119:172|143:262,1,200,6|0,3:2|0:0,0:0:0:0:
43,353,41780,1,2,1:2:0:0:
31,349,41900,2,0,B|16:300|16:300|52:265,1,100,2|0,3:2|0:0,0:0:0:0:
205,334,42140,2,0,B|223:351|223:351|296:332,1,100,2|2,1:2|1:2,0:0:0:0:
482,263,42380,5,2,3:2:0:0:
339,202,42500,1,2,0:0:0:0:
371,360,42620,5,2,0:0:0:0:
446,335,42740,1,2,1:2:0:0:
387,281,42860,6,0,B|363:256|372:210|410:198|410:198|444:185|454:139|434:117,1,200,2|2,3:2|1:2,0:0:0:0:
434,117,43220,1,2,1:2:0:0:
512,8,43340,6,0,B|498:52|498:52|422:73|422:73|378:84|356:49,1,200,2|0,3:2|0:0,0:0:0:0:
361,167,43700,1,2,1:2:0:0:
372,175,43820,2,0,P|418:162|433:116,1,100,2|0,3:2|0:0,0:0:0:0:
279,5,44060,2,0,B|261:23|261:23|280:96,1,100,2|2,1:2|1:2,0:0:0:0:
231,159,44300,5,2,1:2:0:0:
219,165,44420,1,2,3:2:0:0:
295,279,44540,5,2,1:2:0:0:
158,216,44660,1,2,3:2:0:0:
280,95,44780,5,2,1:2:0:0:
216,285,44900,1,0,1:2:0:0:
97,220,45020,6,0,L|145:207,1,50,0|0,1:2|0:0,0:0:0:0:
305,287,45140,2,0,L|353:274,1,50,0|0,1:2|0:0,0:0:0:0:
473,159,45260,6,0,P|450:67|357:45,1,200,6|2,3:2|1:2,0:0:0:0:
292,89,45620,1,2,1:2:0:0:
458,47,45740,5,2,3:2:0:0:
398,205,45860,1,2,0:0:0:0:
383,120,45980,5,2,1:2:0:0:
392,127,46100,1,2,0:0:0:0:
229,30,46220,6,0,B|194:65|194:65|207:113,1,100,2|0,3:2|0:0,0:0:0:0:
52,284,46460,2,0,B|-10:267|-10:267|23:258,1,100,2|0,1:2|1:2,0:0:0:0:
213,384,46700,2,0,P|270:346|239:285,1,150,2|0,3:2|0:0,0:0:0:0:
164,302,46940,2,0,P|133:316|161:297,1,100,0|0,1:2|0:0,0:0:0:0:
349,211,47180,5,2,3:2:0:0:
382,330,47300,1,2,0:0:0:0:
395,216,47420,5,2,1:2:0:0:
334,324,47540,1,2,1:2:0:0:
425,253,47660,5,2,3:2:0:0:
305,287,47780,1,2,0:0:0:0:
419,300,47900,5,2,1:2:0:0:
309,239,48020,1,2,0:0:0:0:
465,159,48140,6,0,B|482:141|482:141|463:68,1,100,2|2,3:2|0:0,0:0:0:0:
320,10,48380,2,0,P|273:22|258:68,1,100,2|0,1:2|1:2,0:0:0:0:
412,2,48620,5,2,3:2:0:0:
416,10,48680,1,0,1:2:0:0:
406,9,48740,1,0,1:2:0:0:
299,138,48860,6,0,P|276:149|252:149,1,50,0|0,1:2|0:0,0:0:0:0:
183,185,48980,2,0,P|162:171|149:150,1,50,0|0,1:2|0:0,0:0:0:0:
174,55,49100,6,0,B|198:145|198:145|208:157|208:157|232:245,1,200,6|2,3:2|1:2,0:0:0:0:
196,313,49460,1,2,1:2:0:0:
27,336,49580,5,2,3:2:0:0:
125,271,49700,1,0,0:0:0:0:
205,323,49820,5,2,1:2:0:0:
279,343,49940,1,2,2:2:0:0:
402,240,50060,6,0,B|415:192|415:192|380:157,1,100,2|0,3:2|0:0,0:0:0:0:
182,49,50300,1,2,1:2:0:0:
118,103,50420,1,2,1:2:0:0:
57,53,50540,5,2,3:2:0:0:
231,112,50660,1,0,0:0:0:0:
44,206,50780,5,2,1:2:0:0:
245,110,50900,1,0,1:2:0:0:
0,0,51020,5,2,3:2:0:0:
211,206,51260,5,2,3:2:0:0:
460,35,51500,5,2,3:2:0:0:
287,294,51740,5,2,3:2:0:0:
4,122,51980,5,2,3:2:0:0:
269,47,52220,6,0,L|256:96,2,50,2|2|2,2:2|2:2|2:2,0:0:0:0:
26,329,52940,6,0,B|63:338|103:303|93:260|93:260|87:219|126:184|158:191,1,225.000008583069,6|0,3:2|0:0,0:0:0:0:
221,236,53180,2,0,P|178:274|122:262,1,119.999996337891,2|0,1:2|0:0,0:0:0:0:
79,195,53420,1,2,3:2:0:0:
261,86,53540,2,0,B|282:167|282:167|291:177|291:177|313:257,1,179.999994506836,2|0,3:2|0:0,0:0:0:0:
383,288,53780,6,0,P|451:241|414:167,1,179.999994506836,2|0,3:2|0:0,0:0:0:0:
341,180,54020,1,2,3:2:0:0:
377,297,54140,5,2,1:2:0:0:
412,157,54260,1,2,0:0:0:0:
411,369,54380,6,0,B|353:385|353:385|310:343,1,119.999996337891,2|0,3:2|3:2,0:0:0:0:
218,187,54620,2,0,L|250:72,1,119.999996337891,2|0,1:2|0:0,0:0:0:0:
0,204,54860,6,0,P|62:263|146:244,1,179.999994506836,6|0,3:2|0:0,0:0:0:0:
205,194,55100,2,0,L|237:79,1,119.999996337891,2|0,1:2|0:0,0:0:0:0:
491,302,55340,6,0,B|529:340|529:340|365:296,1,225.000008583069,2|0,3:2|0:0,0:0:0:0:
292,324,55580,1,2,1:2:0:0:
383,157,55700,2,0,P|438:174|455:229,1,119.999996337891,2|0,3:2|0:0,0:0:0:0:
256,47,55940,1,2,3:2:0:0:
205,194,56060,5,2,1:2:0:0:
329,102,56180,1,2,0:0:0:0:
276,162,56300,6,0,B|221:147|221:147|214:141|214:141|161:127,1,119.999996337891,2|0,3:2|3:2,0:0:0:0:
0,230,56540,2,0,B|-16:288|-16:288|26:331,1,119.999996337891,2|0,1:2|0:0,0:0:0:0:
214,325,56780,5,6,3:2:0:0:
81,260,56900,1,2,0:0:0:0:
130,355,57020,5,2,1:2:0:0:
138,344,57140,1,2,0:0:0:0:
141,131,57260,5,2,3:2:0:0:
214,325,57380,1,2,3:2:0:0:
285,271,57500,5,2,1:2:0:0:
61,162,57620,2,0,B|45:104|45:104|87:61,1,119.999996337891,2|0,3:2|0:0,0:0:0:0:
261,35,57860,5,2,3:2:0:0:
183,199,57980,1,2,1:2:0:0:
141,131,58100,6,0,P|216:178|304:174,1,179.999994506836,2|0,0:0|0:0,0:0:0:0:
359,116,58340,1,2,3:2:0:0:
505,25,58460,2,0,P|448:12|406:51,1,119.999996337891,2|0,1:2|3:2,0:0:0:0:
447,246,58700,5,6,1:2:0:0:
378,222,58820,1,2,3:2:0:0:
312,273,58940,5,2,1:2:0:0:
160,333,59060,1,2,3:2:0:0:
280,163,59180,5,2,1:2:0:0:
369,353,59300,1,2,3:2:0:0:
280,151,59420,5,2,1:2:0:0:
209,196,59540,2,0,B|168:186|126:222|136:269|136:269|143:312|101:350|66:343,1,239.999992675781,6|0,3:2|3:2,0:0:0:0:
0,299,59900,2,0,B|43:257|43:257|101:273,1,119.999996337891,0|0,1:2|0:0,0:0:0:0:
280,141,60140,5,2,3:2:0:0:
83,35,60260,1,0,3:2:0:0:
64,127,60380,6,0,L|136:107,1,75.0000028610231,0|0,1:2|1:2,0:0:0:0:
268,16,60500,2,0,L|340:35,1,75.0000028610231,0|0,1:2|1:2,0:0:0:0:
455,144,60620,6,0,B|300:186|300:186|302:221|283:247,1,225.000008583069,6|0,3:2|0:0,0:0:0:0:
398,335,60860,2,0,P|418:282|374:247,1,119.999996337891,2|0,1:2|0:0,0:0:0:0:
293,255,61100,5,2,3:2:0:0:
130,332,61220,1,2,3:2:0:0:
198,384,61340,5,2,1:2:0:0:
36,214,61460,2,0,B|116:236|116:236|126:245|126:245|207:266,1,179.999994506836,2|0,3:2|0:0,0:0:0:0:
283,247,61700,1,2,3:2:0:0:
176,120,61820,2,0,P|120:128|112:183,1,119.999996337891,2|0,1:2|0:0,0:0:0:0:
268,16,62060,6,0,B|297:23|297:23|321:110,1,119.999996337891,2|0,3:2|3:2,0:0:0:0:
131,263,62300,2,0,P|72:257|35:213,1,119.999996337891,2|0,1:2|0:0,0:0:0:0:
30,37,62540,6,0,B|87:53|87:53|116:104|116:104|175:119,1,179.999994506836,6|0,3:2|0:0,0:0:0:0:
186,108,62780,2,0,B|131:93|131:93|124:87|124:87|72:73,1,119.999996337891,2|0,1:2|0:0,0:0:0:0:
283,247,63020,6,0,B|310:220|362:231|375:273|375:273|390:311|442:322|466:300,1,225.000008583069,2|0,3:2|0:0,0:0:0:0:
510,238,63260,1,2,1:2:0:0:
283,234,63380,2,0,P|339:221|381:260,1,119.999996337891,2|0,3:2|0:0,0:0:0:0:
191,327,63620,1,2,3:2:0:0:
257,156,63740,5,2,1:2:0:0:
311,328,63860,1,2,0:0:0:0:
189,198,63980,6,0,B|204:143|204:143|210:136|210:136|224:84,1,119.999996337891,2|0,3:2|3:2,0:0:0:0:
8,204,64220,2,0,P|64:191|106:230,1,119.999996337891,2|0,1:2|0:0,0:0:0:0:
163,17,64460,5,6,3:2:0:0:
2,102,64580,1,2,0:0:0:0:
135,108,64700,5,2,1:2:0:0:
130,96,64820,1,2,0:0:0:0:
30,21,64940,5,2,3:2:0:0:
110,218,65060,1,2,3:2:0:0:
167,2,65180,5,2,1:2:0:0:
8,204,65300,6,0,P|126:198|226:261,1,239.999992675781,2|2,3:2|3:2,0:0:0:0:
427,145,65660,1,2,1:2:0:0:
394,69,65780,1,2,0:0:0:0:
322,22,65900,5,2,3:2:0:0:
271,193,66020,1,2,3:2:0:0:
497,72,66140,6,0,B|470:45|418:56|405:98|405:98|390:136|338:147|314:125,1,225.000008583069,2|0,1:2|0:0,0:0:0:0:
256,71,66380,5,6,1:2:0:0:
55,73,66500,1,2,3:2:0:0:
128,36,66620,5,2,1:2:0:0:
312,123,66740,1,2,3:2:0:0:
146,212,66860,5,2,1:2:0:0:
174,107,66980,1,2,3:2:0:0:
202,1,67100,1,2,1:2:0:0:
53,221,67220,6,0,B|133:243|133:243|143:252|143:252|224:273,1,179.999994506836,6|0,3:2|0:0,0:0:0:0:
295,237,67460,1,0,3:2:0:0:
442,351,67580,5,0,1:2:0:0:
223,284,67700,1,0,3:2:0:0:
397,178,67820,5,0,1:2:0:0:
393,171,67880,1,0,1:0:0:0:
404,175,67940,1,0,1:2:0:0:
331,373,68060,5,2,3:2:0:0:
261,137,68180,1,2,1:2:0:0:
475,220,68300,6,0,B|468:249|468:249|381:273,1,119.999996337891,6|0,1:2|3:2,0:0:0:0:
186,168,68540,2,0,P|172:111|212:69,1,119.999996337891,2|0,1:2|3:2,0:0:0:0:
371,0,68780,2,0,L|338:115,1,119.999996337891,2|0,1:2|3:2,0:0:0:0:
393,171,69020,1,2,1:2:0:0:
237,289,69140,6,0,B|209:315|157:304|144:262|144:262|129:224|77:213|53:235,1,225.000008583069,2|0,3:2|0:0,0:0:0:0:
5,297,69380,1,2,3:2:0:0:
57,355,69500,1,2,1:2:0:0:
131,327,69620,1,2,3:2:0:0:
43,223,69740,6,0,B|26:165|26:165|69:124,1,119.999996337891,2|0,1:2|3:2,0:0:0:0:
206,0,69980,2,0,P|249:35|229:87,1,119.999996337891,0|2,1:2|3:2,0:0:0:0:
22,4,70220,5,6,1:2:0:0:
166,159,70340,1,0,3:2:0:0:
296,46,70460,5,2,1:2:0:0:
229,87,70580,1,0,3:2:0:0:
295,215,70700,6,0,B|352:231|352:231|393:188,1,119.999996337891,2|0,1:2|3:2,0:0:0:0:
329,142,70940,1,2,1:2:0:0:
381,326,71060,6,0,B|407:298|396:246|354:233|354:233|316:218|305:166|327:142,1,225.000008583069,2|0,3:2|0:0,0:0:0:0:
399,108,71300,1,2,3:2:0:0:
460,229,71420,5,2,1:2:0:0:
393,189,71540,1,2,3:2:0:0:
237,266,71660,6,0,B|183:280|183:280|176:286|176:286|122:300,1,119.999996337891,2|0,1:2|3:2,0:0:0:0:
297,361,71900,6,0,L|239:345,1,59.9999981689454,2|0,1:2|1:2,0:0:0:0:
64,205,72020,2,0,L|121:220,1,59.9999981689454,2|0,1:2|1:2,0:0:0:0:
149,383,72140,6,0,B|176:282|176:282|187:269|187:269|214:168,1,225.000008583069,6|0,1:2|0:0,0:0:0:0:
180,100,72380,2,0,P|123:86|81:126,1,119.999996337891,2|0,1:2|3:2,0:0:0:0:
299,25,72620,6,0,B|320:45|320:45|297:132,1,119.999996337891,2|0,1:2|3:2,0:0:0:0:
228,166,72860,1,2,1:2:0:0:
406,246,72980,6,0,B|409:248|456:211|437:143|333:119|296:212,1,225.000008583069,2|0,3:2|0:0,0:0:0:0:
336,282,73220,1,2,3:2:0:0:
409,257,73340,1,2,1:2:0:0:
339,293,73460,1,2,3:2:0:0:
393,376,73580,6,0,P|350:337|294:350,1,119.999996337891,2|0,1:2|3:2,0:0:0:0:
162,208,73820,2,0,B|141:188|141:188|164:101,1,119.999996337891,2|0,1:2|3:2,0:0:0:0:
122,298,74060,5,6,1:2:0:0:
228,166,74180,1,0,3:2:0:0:
212,295,74300,5,2,1:2:0:0:
201,285,74420,1,0,3:2:0:0:
101,147,74540,5,2,1:2:0:0:
272,237,74660,1,2,3:2:0:0:
251,75,74780,5,2,1:2:0:0:
48,214,74900,2,0,B|3:172|3:172|19:115,1,119.999996337891,6|0,3:2|0:0,0:0:0:0:
303,8,75140,2,0,B|347:49|347:49|331:106,1,119.999996337891,0|0,3:2|0:0,0:0:0:0:
73,13,75380,1,4,3:2:0:0:
228,166,75500,1,4,3:2:0:0:
445,45,75740,5,4,3:3:0:0:
280,343,75980,6,0,P|240:300|254:244,1,119.999996337891,6|0,3:2|0:0,0:0:0:0:
452,196,76220,2,0,P|491:238|477:294,1,119.999996337891,2|0,3:2|0:0,0:0:0:0:
348,188,76460,5,2,1:2:0:0:
399,359,76580,2,0,B|378:278|378:278|369:268|369:268|348:188,1,179.999994506836,2|0,3:2|0:0,0:0:0:0:
440,199,76820,6,0,B|452:239|414:281|367:271|367:271|324:264|285:306|293:340,1,239.999992675781,2|2,3:2|1:2,0:0:0:0:
404,372,77180,2,0,B|434:343|422:287|376:273|376:273|336:257|323:201|347:176,2,239.999992675781,2|2|2,3:2|1:2|3:2,0:0:0:0:
181,18,77900,6,0,B|123:2|123:2|81:44,1,119.999996337891,6|0,3:2|0:0,0:0:0:0:
125,216,78140,2,0,B|183:232|183:232|225:190,1,119.999996337891,2|0,3:2|0:0,0:0:0:0:
67,141,78380,5,2,1:2:0:0:
238,89,78500,2,0,B|157:110|157:110|147:119|147:119|67:140,1,179.999994506836,2|0,3:2|0:0,0:0:0:0:
69,57,78740,6,0,B|79:95|79:95|233:136|233:136|244:175,1,239.999992675781,2|2,3:2|1:2,0:0:0:0:
210,240,79100,1,2,3:2:0:0:
197,246,79220,1,0,0:0:0:0:
125,216,79340,5,2,1:2:0:0:
216,351,79460,1,0,3:2:0:0:
80,282,79580,5,2,1:2:0:0:
244,175,79700,1,0,1:2:0:0:
123,351,79820,6,0,B|103:372|103:372|16:349,1,119.999996337891,6|0,3:2|0:0,0:0:0:0:
256,171,80060,2,0,B|276:150|276:150|363:173,1,119.999996337891,2|0,3:2|0:0,0:0:0:0:
125,216,80300,5,2,1:2:0:0:
291,345,80420,2,0,P|298:266|220:276,1,179.999994506836,2|0,3:2|0:0,0:0:0:0:
216,356,80660,6,0,P|324:344|297:241,1,239.999992675781,2|2,3:2|1:2,0:0:0:0:
220,276,81020,2,0,B|249:246|305:258|319:304|319:304|335:344|391:357|416:333,2,239.999992675781,2|2|2,3:2|1:2|3:2,0:0:0:0:
459,182,81740,6,0,P|498:139|483:83,1,119.999996337891,6|0,3:2|0:0,0:0:0:0:
293,36,81980,2,0,P|253:78|268:134,1,119.999996337891,2|0,3:2|0:0,0:0:0:0:
406,0,82220,5,2,1:2:0:0:
361,178,82340,2,0,B|378:208|378:208|341:249|341:249|330:195|330:195|360:178,1,179.999994506836,2|0,3:2|0:0,0:0:0:0:
251,201,82580,6,0,B|278:174|278:174|432:216|432:216|443:258,1,239.999992675781,2|2,3:2|1:2,0:0:0:0:
459,182,82940,5,2,3:2:0:0:
336,269,83060,1,0,0:0:0:0:
354,347,83180,2,0,B|347:318|347:318|260:294,1,119.999996337891,2|0,1:2|3:2,0:0:0:0:
13,197,83420,2,0,B|20:226|20:226|107:250,1,119.999996337891,2|0,1:2|1:2,0:0:0:0:
103,341,83660,6,0,B|95:307|134:265|177:272|177:272|224:282|262:240|250:200,1,239.999992675781,6|2,3:2|0:0,0:0:0:0:
315,149,84020,2,0,P|302:101|257:86,1,100,2|0,3:2|0:0,0:0:0:0:
217,21,84260,2,0,P|170:8|133:40,1,100,2|0,0:0|0:0,0:0:0:0:
55,28,84500,6,0,P|-14:92|11:184,1,200,2|2,3:2|0:0,0:0:0:0:
11,184,84980,1,2,3:2:0:0:
63,242,85100,2,0,P|137:241|200:280,1,150,2|0,3:2|0:0,0:0:0:0:
264,325,85340,6,0,P|165:324|80:375,2,200,2|2|2,3:2|3:2|0:0,0:0:0:0:
340,301,85940,2,0,P|374:266|365:219,1,100,2|0,3:2|0:0,0:0:0:0:
424,169,86180,2,0,P|411:121|366:106,1,100,2|0,0:0|0:0,0:0:0:0:
296,181,86420,6,0,B|334:180|334:180|377:104|467:104,1,200,2|2,3:2|0:0,0:0:0:0:
467,104,86900,1,2,3:2:0:0:
332,37,87020,5,2,1:2:0:0:
366,106,87140,1,2,1:2:0:0:
465,22,87260,5,2,1:2:0:0:
406,187,87380,1,2,1:2:0:0:
457,272,87500,6,0,B|393:254|393:254|361:197|361:197|295:180,1,200,6|0,3:2|0:0,0:0:0:0:
227,223,87860,1,2,1:2:0:0:
177,82,87980,5,2,3:2:0:0:
249,109,88100,1,2,0:0:0:0:
136,198,88220,2,0,B|91:210|91:210|85:215|85:215|41:227,1,100,2|2,1:2|1:2,0:0:0:0:
116,22,88460,6,0,B|79:57|79:57|93:105,1,100,2|2,3:2|0:0,0:0:0:0:
305,171,88700,2,0,B|342:136|342:136|328:88,1,100,2|2,0:0|1:2,0:0:0:0:
201,124,88940,2,0,B|225:149|216:195|178:207|178:207|144:220|134:266|154:288,1,200,2|2,3:2|1:2,0:0:0:0:
153,287,89300,1,0,1:2:0:0:
58,384,89420,6,0,B|72:340|72:340|148:319|148:319|192:308|214:343,1,200,2|0,3:2|0:0,0:0:0:0:
229,238,89780,1,2,1:2:0:0:
216,230,89900,2,0,P|169:241|152:286,1,100,2|2,3:2|0:0,0:0:0:0:
280,384,90140,5,2,1:2:0:0:
213,342,90260,1,2,1:2:0:0:
303,212,90380,5,2,3:2:0:0:
375,183,90500,1,2,0:0:0:0:
346,111,90620,1,2,0:0:0:0:
274,140,90740,1,2,1:2:0:0:
387,186,90860,2,0,B|432:198|432:198|438:203|438:203|482:215,1,100,2|0,3:2|0:0,0:0:0:0:
277,60,91100,5,2,1:2:0:0:
416,5,91220,1,0,1:2:0:0:
274,140,91340,1,6,3:2:0:0:
274,140,92300,6,0,B|219:145|214:201|214:201|230:168|269:161,1,150,2|0,3:2|0:0,0:0:0:0:
121,133,92540,6,0,B|74:215|155:256|155:256|115:215|146:155,1,225.000008583069,2|0,3:2|0:0,0:0:0:0:
22,291,92780,6,0,B|78:400|178:338|178:338|112:358|68:288,1,300,2|0,3:2|0:0,0:0:0:0:
239,285,93020,5,2,1:2:0:0:
246,291,93080,1,0,1:2:0:0:
248,281,93140,1,0,1:2:0:0:
386,384,93260,6,0,B|406:362|396:316|362:303|362:303|324:291|315:245|339:220,1,200,6|0,3:2|3:2,0:0:0:0:
481,245,93620,1,2,1:2:0:0:
485,259,93740,2,0,P|467:303|420:314,1,100,2|0,3:2|3:2,0:0:0:0:
267,183,93980,1,2,1:2:0:0:
333,137,94100,1,2,1:2:0:0:
348,225,94220,5,2,1:2:0:0:
338,220,94340,1,2,3:2:0:0:
258,101,94460,5,2,1:2:0:0:
422,186,94580,1,2,3:2:0:0:
274,268,94700,5,2,1:2:0:0:
368,63,94820,1,0,1:2:0:0:
186,203,94940,6,0,P|161:202|138:192,1,50,0|0,1:2|0:0,0:0:0:0:
62,181,95060,2,0,P|49:159|47:134,1,50,0|0,1:2|0:0,0:0:0:0:
187,21,95180,6,0,B|277:45|277:45|289:55|289:55|377:79,1,200,6|2,3:2|1:2,0:0:0:0:
448,50,95540,1,2,1:2:0:0:
348,225,95660,2,0,B|303:237|303:237|297:242|297:242|253:254,1,100,2|2,3:2|0:0,0:0:0:0:
411,288,95900,5,2,1:2:0:0:
422,294,96020,1,2,0:0:0:0:
296,153,96140,6,0,P|306:199|351:217,1,100,2|0,3:2|0:0,0:0:0:0:
180,330,96380,2,0,P|197:285|244:274,1,100,2|0,1:2|1:2,0:0:0:0:
70,155,96620,6,0,P|132:194|205:190,1,150,2|0,3:2|0:0,0:0:0:0:
224,113,96860,2,0,P|211:81|218:114,1,100,0|0,1:2|3:2,0:0:0:0:
54,366,97100,5,2,3:2:0:0:
14,227,97220,1,2,0:0:0:0:
151,187,97340,1,2,1:2:0:0:
191,324,97460,1,2,1:2:0:0:
73,178,97580,5,2,3:2:0:0:
4,304,97700,1,2,0:0:0:0:
130,373,97820,1,2,1:2:0:0:
199,247,97940,1,2,0:0:0:0:
101,294,98060,6,0,P|95:260|106:292,1,100,2|2,3:2|0:0,0:0:0:0:
261,384,98300,2,0,B|284:378|284:378|304:305,1,100,2|0,1:2|1:2,0:0:0:0:
268,152,98540,5,2,3:2:0:0:
272,160,98600,1,0,1:2:0:0:
262,159,98660,1,0,1:2:0:0:
434,76,98780,2,0,L|449:133,1,50,0|0,1:2|0:0,0:0:0:0:
404,190,98900,2,0,L|419:247,1,50,0|0,1:2|0:0,0:0:0:0:
476,340,99020,6,0,P|409:271|318:299,1,200,6|2,3:2|1:2,0:0:0:0:
277,368,99380,1,2,1:2:0:0:
143,265,99500,2,0,P|135:217|170:184,1,100,2|0,3:2|0:0,0:0:0:0:
324,28,99740,2,0,L|349:124,1,100,2|2,1:2|2:2,0:0:0:0:
148,101,99980,6,0,B|104:89|104:89|98:84|98:84|53:72,1,100,2|0,3:2|0:0,0:0:0:0:
225,249,100220,1,2,1:2:0:0:
259,179,100340,1,2,1:2:0:0:
75,229,100460,2,0,B|86:273|86:273|85:280|85:280|97:325,1,100,2|0,3:2|0:0,0:0:0:0:
164,369,100700,1,2,1:2:0:0:
348,290,100820,1,0,1:2:0:0:
415,335,100940,5,2,3:2:0:0:
81,218,101180,5,2,3:2:0:0:
468,144,101420,5,2,3:2:0:0:
123,23,101660,5,2,3:2:0:0:
247,355,101900,5,2,3:2:0:0:
388,67,102140,6,0,L|401:18,2,50,2|2|2,2:2|2:2|2:2,0:0:0:0:
162,266,102860,6,0,P|182:176|244:244,1,225.000008583069,6|0,3:2|0:0,0:0:0:0:
220,320,103100,2,0,B|208:340|208:340|233:367|233:367|240:331|240:331|220:320,1,119.999996337891,2|0,1:2|0:0,0:0:0:0:
159,276,103340,1,2,3:2:0:0:
272,119,103460,2,0,B|352:141|352:141|362:150|362:150|443:171,1,179.999994506836,2|0,3:2|0:0,0:0:0:0:
496,84,103700,6,0,B|473:61|473:61|358:91|358:91|350:120,1,179.999994506836,2|0,3:2|0:0,0:0:0:0:
370,198,103940,1,2,3:2:0:0:
179,89,104060,5,2,1:2:0:0:
314,16,104180,1,2,0:0:0:0:
272,119,104300,5,2,3:2:0:0:
260,105,104420,1,0,3:2:0:0:
155,14,104540,2,0,P|98:1|56:40,1,119.999996337891,2|0,1:2|0:0,0:0:0:0:
105,251,104780,6,0,B|135:138|148:202|178:89,1,179.999994506836,6|0,3:2|0:0,0:0:0:0:
38,59,105020,2,0,P|55:114|110:130,1,119.999996337891,2|0,1:2|0:0,0:0:0:0:
264,279,105260,6,0,B|236:252|184:263|171:305|171:305|156:343|104:354|80:332,1,225.000008583069,2|0,3:2|0:0,0:0:0:0:
25,276,105500,1,2,1:2:0:0:
188,104,105620,2,0,B|203:159|203:159|209:166|209:166|223:219,1,119.999996337891,2|0,3:2|0:0,0:0:0:0:
410,293,105860,1,2,3:2:0:0:
289,368,105980,5,2,1:2:0:0:
389,215,106100,1,2,0:0:0:0:
476,342,106220,2,0,B|433:384|433:384|375:368,1,119.999996337891,2|0,3:2|3:2,0:0:0:0:
335,74,106460,2,0,B|320:129|320:129|314:136|314:136|300:187,1,119.999996337891,2|0,1:2|0:0,0:0:0:0:
512,99,106700,5,6,3:2:0:0:
402,24,106820,1,2,0:0:0:0:
404,132,106940,5,2,1:2:0:0:
414,126,107060,1,2,0:0:0:0:
470,186,107180,5,2,3:2:0:0:
283,277,107300,1,2,3:2:0:0:
375,368,107420,5,2,1:2:0:0:
294,173,107540,2,0,P|254:215|267:271,1,119.999996337891,2|0,3:2|0:0,0:0:0:0:
225,339,107780,1,2,3:2:0:0:
358,237,107900,5,2,1:2:0:0:
187,165,108020,1,2,0:0:0:0:
228,96,108140,5,0,3:2:0:0:
298,73,108260,1,0,3:2:0:0:
179,174,108380,2,0,B|127:160|127:160|120:154|120:154|65:139,1,119.999996337891,2|0,1:2|3:2,0:0:0:0:
225,339,108620,5,6,1:2:0:0:
266,269,108740,1,2,3:2:0:0:
83,236,108860,5,2,1:2:0:0:
136,384,108980,1,2,3:2:0:0:
182,155,109100,5,2,1:2:0:0:
136,370,109220,1,2,3:2:0:0:
50,126,109340,5,2,1:2:0:0:
258,262,109460,2,0,P|237:167|173:240,1,239.999992675781,6|0,3:2|3:2,0:0:0:0:
266,269,109820,2,0,B|341:248|298:240|374:220,1,119.999996337891,0|0,1:2|0:0,0:0:0:0:
512,107,110060,5,2,3:2:0:0:
355,47,110180,1,0,3:2:0:0:
442,41,110300,6,0,L|422:113,1,75.0000028610231,0|0,1:2|1:2,0:0:0:0:
466,178,110420,2,0,L|446:250,1,75.0000028610231,0|0,1:2|1:2,0:0:0:0:
363,372,110540,5,6,3:2:0:0:
266,269,110660,1,2,2:2:0:0:
356,215,110780,5,2,1:2:0:0:
251,352,110900,1,2,2:2:0:0:
171,327,111020,6,0,P|123:251|128:163,1,179.999994506836,2|0,3:2|0:0,0:0:0:0:
195,121,111260,1,2,1:2:0:0:
1,192,111380,2,0,P|89:188|164:236,1,179.999994506836,2|0,3:2|0:0,0:0:0:0:
180,315,111620,1,2,3:2:0:0:
92,280,111740,5,2,1:2:0:0:
236,193,111860,1,2,2:2:0:0:
138,52,111980,2,0,B|96:95|96:95|112:153,1,119.999996337891,2|0,3:2|3:2,0:0:0:0:
281,273,112220,2,0,B|310:266|310:266|334:179,1,119.999996337891,2|0,1:2|0:0,0:0:0:0:
345,332,112460,6,0,B|312:301|312:301|346:170,1,179.999994506836,6|0,3:2|0:0,0:0:0:0:
312,96,112700,1,2,1:2:0:0:
383,60,112820,1,2,2:2:0:0:
424,255,112940,6,0,B|425:258|484:249|502:181|424:108|345:170,1,225.000008583069,2|0,3:2|0:0,0:0:0:0:
345,247,113180,1,2,1:2:0:0:
174,111,113300,2,0,B|140:128|158:166|158:166|194:154|185:126,1,119.999996337891,2|0,3:2|0:0,0:0:0:0:
235,66,113540,1,2,3:2:0:0:
93,213,113660,6,0,P|37:195|19:141,1,119.999996337891,2|2,1:2|0:0,0:0:0:0:
148,282,113900,2,0,P|105:321|48:310,1,119.999996337891,2|0,3:2|3:2,0:0:0:0:
235,268,114140,2,0,P|247:324|209:367,1,119.999996337891,2|0,1:2|0:0,0:0:0:0:
181,193,114380,5,6,3:2:0:0:
48,310,114500,1,2,0:0:0:0:
155,296,114620,5,2,1:2:0:0:
148,282,114740,1,2,0:0:0:0:
29,134,114860,5,2,3:2:0:0:
241,254,114980,1,2,3:2:0:0:
84,231,115100,5,2,1:2:0:0:
213,109,115220,2,0,B|271:93|271:93|314:135,1,119.999996337891,2|0,3:2|0:0,0:0:0:0:
146,20,115460,1,2,3:2:0:0:
195,189,115580,5,2,1:2:0:0:
305,19,115700,1,2,0:0:0:0:
144,35,115820,2,0,B|102:78|102:78|118:136,1,119.999996337891,2|2,3:2|3:2,0:0:0:0:
253,266,116060,2,0,B|304:252|304:252|311:246|311:246|366:231,1,119.999996337891,2|0,1:2|3:2,0:0:0:0:
140,298,116300,5,6,1:2:0:0:
273,167,116420,1,2,3:2:0:0:
295,368,116540,5,2,1:2:0:0:
92,221,116660,1,2,3:2:0:0:
282,158,116780,5,2,1:2:0:0:
130,308,116900,1,2,3:2:0:0:
253,266,117020,5,2,1:2:0:0:
200,202,117140,1,6,3:2:0:0:
256,0,118220,6,0,L|256:100,1,100,6|0,3:2|0:0,0:0:0:0:
256,100,119180,6,0,L|256:160,1,59.9999981689454,6|0,3:2|0:0,0:0:0:0:
256,160,120140,6,0,L|256:220,1,37.5000014305115,6|0,3:2|0:0,0:0:0:0:
256,197,121100,6,0,L|256:222,1,25,6|0,3:2|0:0,0:0:0:0:
256,384,122060,6,0,L|256:359,1,25,6|0,3:2|0:0,0:0:0:0:
256,359,123020,6,0,L|256:321,1,37.5000014305115,6|0,3:2|0:0,0:0:0:0:
256,321,123980,6,0,L|256:261,1,59.9999981689454,6|0,3:2|0:0,0:0:0:0:
256,261,124940,6,0,L|256:0,1,261.000002190399,6|6,3:2|3:2,0:0:0:0:
256,0,125660,1,2,0:0:0:0:
147,278,125900,6,0,B|124:299|83:290|72:256|72:256|60:226|19:217|0:235,1,179.999994506836,6|0,3:2|0:0,0:0:0:0:
20,309,126140,2,0,B|45:314|76:286|71:253|71:253|64:219|95:191|125:198,1,179.999994506836,0|0,1:2|0:0,0:0:0:0:
203,218,126380,1,0,1:2:0:0:
259,161,126500,1,0,3:2:0:0:
223,22,126620,2,0,P|150:44|201:101,1,179.999994506836,2|0,1:2|0:0,0:0:0:0:
259,161,126860,6,0,B|340:140|340:140|350:131|350:131|430:109,1,179.999994506836,6|0,3:2|0:0,0:0:0:0:
470,42,127100,1,2,1:2:0:0:
402,7,127220,1,0,3:2:0:0:
476,172,127340,2,0,B|455:193|455:193|368:170,1,119.999996337891,2|0,1:2|3:2,0:0:0:0:
95,216,127580,2,0,B|115:194|115:194|202:217,1,119.999996337891,2|0,1:2|0:0,0:0:0:0:
337,324,127820,6,0,B|365:294|354:238|308:224|308:224|267:208|255:153|279:127,1,239.999992675781,6|0,3:2|1:2,0:0:0:0:
279,127,128180,1,0,3:2:0:0:
249,205,128300,1,0,1:2:0:0:
329,191,128420,1,0,3:2:0:0:
181,39,128540,2,0,L|147:165,1,119.999996337891,2|0,1:2|0:0,0:0:0:0:
0,323,128780,6,0,B|8:292|8:292|123:261|123:261|144:282,1,179.999994506836,6|0,3:2|0:0,0:0:0:0:
176,352,129020,2,0,P|232:365|274:326,1,119.999996337891,2|0,1:2|3:2,0:0:0:0:
56,186,129260,2,0,P|43:129|83:87,1,119.999996337891,2|0,1:2|3:2,0:0:0:0:
374,118,129500,1,2,1:2:0:0:
329,191,129620,1,2,0:0:0:0:
245,168,129740,6,0,P|197:92|202:4,1,179.999994506836,6|0,3:2|0:0,0:0:0:0:
273,38,129980,2,0,B|279:63|250:94|218:89|218:89|183:82|155:113|162:143,1,179.999994506836,0|0,1:2|0:0,0:0:0:0:
180,220,130220,1,0,1:2:0:0:
108,262,130340,1,0,3:2:0:0:
9,202,130460,2,0,P|34:130|89:182,1,179.999994506836,2|0,1:2|0:0,0:0:0:0:
108,262,130700,6,0,P|196:258|271:306,1,179.999994506836,6|0,3:2|0:0,0:0:0:0:
344,279,130940,1,2,1:2:0:0:
398,336,131060,1,0,3:2:0:0:
512,273,131180,2,0,P|524:216|484:174,1,119.999996337891,2|0,1:2|3:2,0:0:0:0:
380,29,131420,2,0,P|325:46|308:101,1,119.999996337891,2|0,1:2|0:0,0:0:0:0:
463,7,131660,6,0,B|487:33|474:88|433:104|433:104|388:118|376:174|405:204,1,239.999992675781,6|0,3:2|1:2,0:0:0:0:
404,203,132020,1,0,3:2:0:0:
250,169,132140,2,0,P|210:126|222:70,1,119.999996337891,0|0,1:2|3:2,0:0:0:0:
287,22,132380,1,2,1:2:0:0:
361,53,132500,1,2,0:0:0:0:
244,179,132620,6,0,B|164:201|164:201|154:210|154:210|73:231,1,179.999994506836,6|0,3:2|0:0,0:0:0:0:
34,163,132860,2,0,B|92:147|92:147|135:189,1,119.999996337891,0|0,1:2|3:2,0:0:0:0:
60,379,133100,1,0,1:2:0:0:
8,319,133220,1,0,3:2:0:0:
209,291,133340,2,0,B|251:248|251:248|235:190,1,119.999996337891,2|0,1:2|0:0,0:0:0:0:
31,174,133580,6,0,B|38:145|38:145|154:114|154:114|162:85,1,179.999994506836,6|0,3:2|0:0,0:0:0:0:
134,205,133820,2,0,P|86:129|91:41,1,179.999994506836,0|0,1:2|0:0,0:0:0:0:
163,8,134060,1,0,1:2:0:0:
233,45,134180,1,0,3:2:0:0:
396,137,134300,2,0,P|445:79|372:57,1,179.999994506836,2|0,1:2|0:0,0:0:0:0:
300,86,134540,6,0,B|279:167|279:167|270:177|270:177|248:257,1,179.999994506836,6|0,3:2|0:0,0:0:0:0:
297,319,134780,1,2,1:2:0:0:
365,283,134900,1,0,3:2:0:0:
247,147,135020,2,0,B|172:167|172:167|213:178,1,119.999996337891,2|0,1:2|3:2,0:0:0:0:
410,353,135260,2,0,B|485:333|485:333|444:322,1,119.999996337891,2|0,1:2|0:0,0:0:0:0:
434,174,135500,6,0,B|397:164|397:164|285:277|285:277|296:318,1,239.999992675781,6|0,3:2|1:2,0:0:0:0:
296,318,135860,1,0,3:2:0:0:
237,368,135980,1,0,1:2:0:0:
161,337,136100,1,0,3:2:0:0:
212,177,136220,2,0,B|233:156|233:156|210:69,1,119.999996337891,2|0,1:2|0:0,0:0:0:0:
42,0,136460,6,0,P|-19:59|6:141,1,179.999994506836,6|0,3:2|0:0,0:0:0:0:
49,208,136700,2,0,P|105:195|147:234,1,119.999996337891,2|0,1:2|3:2,0:0:0:0:
293,3,136940,2,0,P|276:57|221:74,1,119.999996337891,2|0,1:2|3:2,0:0:0:0:
376,281,137180,1,2,1:2:0:0:
416,216,137300,1,2,0:0:0:0:
343,144,137420,6,0,B|322:167|331:208|365:219|365:219|395:231|404:272|386:291,1,179.999994506836,6|0,3:2|0:0,0:0:0:0:
314,232,137660,2,0,B|307:206|336:175|368:180|368:180|403:187|431:156|424:126,1,179.999994506836,0|0,1:2|0:0,0:0:0:0:
375,62,137900,1,0,1:2:0:0:
337,131,138020,1,0,3:2:0:0:
512,177,138140,2,0,L|396:208,1,119.999996337891,2|0,1:2|0:0,0:0:0:0:
213,98,138380,6,0,P|200:41|239:0,1,119.999996337891,6|0,3:2|0:0,0:0:0:0:
0,202,138620,2,0,L|115:233,1,119.999996337891,2|0,1:2|3:2,0:0:0:0:
349,379,138860,2,0,P|388:337|375:280,1,119.999996337891,2|0,1:2|3:2,0:0:0:0:
135,371,139100,1,2,1:2:0:0:
81,313,139220,1,2,0:0:0:0:
124,243,139340,5,6,1:2:0:0:
260,299,139460,1,0,1:2:0:0:
173,303,139580,5,0,1:2:0:0:
243,268,139700,1,0,1:2:0:0:
292,203,139820,5,0,1:2:0:0:
131,123,139940,1,0,1:2:0:0:
271,43,140060,5,0,1:2:0:0:
197,200,140180,1,0,1:2:0:0:
377,254,140300,5,0,1:2:0:0:
336,117,140420,1,0,1:2:0:0:
275,175,140540,5,0,1:2:0:0:
483,107,140660,1,0,1:2:0:0:
414,164,140780,5,0,1:2:0:0:
257,15,140900,1,0,1:2:0:0:
377,254,141020,5,0,1:2:0:0:
477,0,141140,1,0,1:2:0:0:
229,166,141260,6,0,B|200:196|144:184|130:138|130:138|114:98|58:85|33:109,1,239.999992675781,6|2,3:2|1:2,0:0:0:0:
128,312,141620,2,0,B|170:269|170:269|154:211,1,119.999996337891,2|0,3:2|0:0,0:0:0:0:
18,296,141860,1,2,3:2:0:0:
130,102,141980,5,2,1:2:0:0:
86,167,142100,1,2,0:0:0:0:
205,279,142220,6,0,B|285:300|285:300|295:309|295:309|375:330,1,179.999994506836,2|0,3:2|0:0,0:0:0:0:
451,298,142460,2,0,P|489:254|476:198,1,119.999996337891,2|0,1:2|0:0,0:0:0:0:
216,270,142700,2,0,L|342:304,1,119.999996337891,2|0,3:2|3:2,0:0:0:0:
464,118,142940,2,0,P|407:106|364:146,1,119.999996337891,2|0,1:2|0:0,0:0:0:0:
372,374,143180,6,0,B|328:207|328:207|362:192|371:157,1,239.999992675781,2|2,3:2|1:2,0:0:0:0:
188,7,143540,2,0,B|210:27|210:27|187:114,1,119.999996337891,2|0,3:2|0:0,0:0:0:0:
118,159,143780,1,2,3:2:0:0:
256,56,143900,5,2,1:2:0:0:
296,127,144020,1,2,0:0:0:0:
120,52,144140,6,0,B|99:133|99:133|90:143|90:143|68:223,1,179.999994506836,2|0,3:2|0:0,0:0:0:0:
110,291,144380,2,0,P|166:303|209:265,1,119.999996337891,2|0,1:2|0:0,0:0:0:0:
53,378,144620,5,2,3:2:0:0:
198,259,144740,1,0,3:2:0:0:
195,342,144860,5,2,1:2:0:0:
181,335,144980,1,0,0:0:0:0:
54,233,145100,6,0,B|13:192|13:192|60:367,1,239.999992675781,6|2,3:2|1:2,0:0:0:0:
265,209,145460,2,0,B|222:167|222:167|164:183,1,119.999996337891,2|0,3:2|0:0,0:0:0:0:
346,204,145700,1,2,3:2:0:0:
181,335,145820,5,2,1:2:0:0:
198,259,145940,1,2,0:0:0:0:
294,384,146060,6,0,P|365:332|453:340,1,179.999994506836,2|0,3:2|0:0,0:0:0:0:
512,284,146300,2,0,P|503:228|447:219,1,119.999996337891,2|0,1:2|0:0,0:0:0:0:
326,35,146540,2,0,P|282:70|302:122,1,119.999996337891,2|0,3:2|3:2,0:0:0:0:
512,87,146780,2,0,P|459:66|424:110,1,119.999996337891,2|0,1:2|0:0,0:0:0:0:
269,289,147020,6,0,B|247:311|205:302|194:268|194:268|182:238|140:228|121:246,1,179.999994506836,2|0,3:2|0:0,0:0:0:0:
55,210,147260,1,2,1:2:0:0:
169,108,147380,2,0,P|207:151|194:207,1,119.999996337891,2|0,3:2|0:0,0:0:0:0:
19,107,147620,1,2,3:2:0:0:
201,24,147740,5,2,1:2:0:0:
174,98,147860,1,2,0:0:0:0:
5,0,147980,6,0,L|38:126,1,119.999996337891,2|0,1:2|3:2,0:0:0:0:
208,295,148220,2,0,P|263:277|281:223,1,119.999996337891,2|0,1:2|3:2,0:0:0:0:
46,315,148460,5,2,1:2:0:0:
133,192,148580,1,0,3:2:0:0:
100,384,148700,5,2,1:2:0:0:
136,177,148820,1,0,3:2:0:0:
0,384,148940,6,0,B|80:363|80:363|90:354|90:354|170:332,1,179.999994506836,6|0,3:2|0:0,0:0:0:0:
242,368,149180,1,2,1:2:0:0:
408,250,149300,2,0,P|446:293|433:349,1,119.999996337891,2|0,3:2|0:0,0:0:0:0:
295,226,149540,1,2,3:2:0:0:
439,141,149660,5,2,1:2:0:0:
368,102,149780,1,2,0:0:0:0:
412,238,149900,6,0,B|470:254|470:254|513:212,1,119.999996337891,2|0,3:2|0:0,0:0:0:0:
294,139,150140,2,0,B|279:85|279:85|273:78|273:78|259:24,1,119.999996337891,2|0,1:2|0:0,0:0:0:0:
167,261,150380,2,0,B|109:277|109:277|66:235,1,119.999996337891,2|0,3:2|3:2,0:0:0:0:
270,351,150620,2,0,B|284:297|284:297|290:290|290:290|304:236,1,119.999996337891,2|0,1:2|0:0,0:0:0:0:
83,125,150860,6,0,P|174:155|143:64,1,239.999992675781,2|2,3:2|1:2,0:0:0:0:
378,175,151220,2,0,P|334:136|278:149,1,119.999996337891,2|0,3:2|0:0,0:0:0:0:
232,214,151460,1,2,3:2:0:0:
365,307,151580,5,2,1:2:0:0:
285,158,151700,1,2,0:0:0:0:
491,188,151820,6,0,B|471:210|471:210|384:187,1,119.999996337891,2|0,3:2|0:0,0:0:0:0:
217,100,152060,2,0,P|204:43|242:0,1,119.999996337891,2|0,1:2|0:0,0:0:0:0:
425,36,152300,5,2,3:2:0:0:
285,158,152420,1,0,3:2:0:0:
348,53,152540,5,2,1:2:0:0:
399,111,152660,1,0,0:0:0:0:
217,100,152780,6,0,B|176:88|134:126|145:173|145:173|151:216|109:255|75:247,1,239.999992675781,6|2,3:2|1:2,0:0:0:0:
10,199,153140,2,0,P|52:160|108:173,1,119.999996337891,2|0,3:2|0:0,0:0:0:0:
154,240,153380,1,2,3:2:0:0:
60,358,153500,5,2,1:2:0:0:
9,302,153620,1,2,0:0:0:0:
171,370,153740,6,0,L|344:322,1,179.999994506836,2|0,3:2|0:0,0:0:0:0:
396,261,153980,2,0,P|409:204|370:162,1,119.999996337891,2|0,1:2|0:0,0:0:0:0:
178,355,154220,2,0,L|293:322,1,119.999996337891,2|0,3:2|3:2,0:0:0:0:
108,173,154460,2,0,P|69:130|82:74,1,119.999996337891,2|0,1:2|0:0,0:0:0:0:
210,210,154700,6,0,B|251:172|251:172|341:196|341:196|393:211|395:260,1,239.999992675781,2|2,3:2|1:2,0:0:0:0:
354,73,155060,2,0,P|299:90|282:146,1,119.999996337891,2|0,3:2|0:0,0:0:0:0:
320,216,155300,1,2,3:2:0:0:
468,331,155420,2,0,P|450:276|394:259,1,119.999996337891,2|2,1:2|0:0,0:0:0:0:
175,371,155660,6,0,P|149:330|152:282,1,75.0000028610231,2|0,1:2|0:0,0:0:0:0:
76,329,155780,6,0,P|98:286|141:264,1,75.0000028610231,2|0,1:2|0:0,0:0:0:0:
61,222,155900,6,0,P|108:220|149:246,1,75.0000028610231,2|0,1:2|0:0,0:0:0:0:
245,198,156020,6,0,P|222:240|179:262,1,75.0000028610231,2|0,1:2|0:0,0:0:0:0:
58,332,156140,6,0,P|15:353|-7:396,1,75.0000028610231,2|0,1:2|0:0,0:0:0:0:
139,151,156260,6,0,P|141:103|116:62,1,75.0000028610231,2|0,1:2|0:0,0:0:0:0:
255,311,156380,6,0,P|295:337|343:335,1,75.0000028610231,2|0,1:2|0:0,0:0:0:0:
170,249,156500,6,0,P|143:269|174:255,1,100,2|0,1:2|0:0,0:0:0:0:
161,260,156620,6,0,B|195:292|270:275|292:220|292:220|311:158|386:142|425:183,1,325,6|0,3:2|0:0,0:0:0:0:
430,271,157460,6,0,B|385:281|329:229|337:170|337:170|352:107|295:56|237:73|237:73|292:86|303:139,1,425,2|0,0:0|0:0,0:0:0:0:
401,81,158540,6,0,B|378:131|321:136|321:136|263:351,1,325,6|0,3:2|0:0,0:0:0:0:
184,355,159380,2,0,B|167:330|169:291|169:291|99:342|10:317|10:317|106:389|99:305|188:367,1,425,2|0,0:0|0:0,0:0:0:0:
335,383,160460,6,0,B|348:331|348:331|197:180|197:180|142:196,1,325,6|0,3:2|0:0,0:0:0:0:
112,290,161300,6,0,B|201:276|196:197|188:191|178:185|163:54|414:36|387:218|307:241|273:209,1,425,2|0,0:0|0:0,0:0:0:0:
207,247,162380,5,6,1:2:0:0:
145,195,162500,1,2,3:2:0:0:
226,37,162620,5,2,1:2:0:0:
88,137,162740,1,2,3:2:0:0:
282,113,162860,5,2,1:2:0:0:
97,11,162980,1,2,3:2:0:0:
142,77,163100,5,2,1:2:0:0:
344,7,163220,2,0,B|373:37|362:91|317:106|317:106|276:122|264:177|288:204,1,239.999992675781,2|0,3:2|3:2,0:0:0:0:
460,159,163580,2,0,P|451:103|395:94,1,119.999996337891,0|0,1:2|0:0,0:0:0:0:
287,203,163820,1,0,3:2:0:0:
435,333,163940,1,0,3:2:0:0:
343,350,164060,6,0,L|363:278,1,75.0000028610231,0|0,1:2|1:2,0:0:0:0:
431,238,164180,2,0,L|451:166,1,75.0000028610231,0|0,1:2|1:2,0:0:0:0:
363,277,164300,6,0,B|334:303|283:293|270:251|270:251|255:213|203:202|178:224,1,225.000008583069,6|0,3:2|0:0,0:0:0:0:
155,303,164540,2,0,P|211:315|255:277,1,119.999996337891,2|0,1:2|0:0,0:0:0:0:
49,181,164780,2,0,P|38:124|77:81,1,119.999996337891,2|2,3:2|3:2,0:0:0:0:
39,300,165020,1,2,1:2:0:0:
194,194,165140,6,0,B|171:111|171:111|162:101|162:101|141:23,1,179.999994506836,2|0,3:2|0:0,0:0:0:0:
67,0,165380,1,2,3:2:0:0:
229,118,165500,2,0,P|283:98|301:43,1,119.999996337891,2|0,1:2|0:0,0:0:0:0:
115,225,165740,2,0,L|0:192,1,119.999996337891,2|0,3:2|3:2,0:0:0:0:
216,384,165980,2,0,P|177:341|187:284,1,119.999996337891,2|0,1:2|0:0,0:0:0:0:
414,159,166220,6,0,P|461:233|458:322,1,179.999994506836,6|0,3:2|0:0,0:0:0:0:
393,372,166460,2,0,P|336:384|292:346,1,119.999996337891,2|0,1:2|0:0,0:0:0:0:
509,148,166700,2,0,B|478:177|424:166|409:121|409:121|393:80|338:68|311:92,1,239.999992675781,2|2,3:2|1:2,0:0:0:0:
239,194,167060,6,0,B|280:237|280:237|338:220,1,119.999996337891,2|0,3:2|0:0,0:0:0:0:
390,157,167300,1,2,3:2:0:0:
223,25,167420,2,0,B|180:66|180:66|197:124,1,119.999996337891,2|2,1:2|0:0,0:0:0:0:
400,173,167660,2,0,B|443:132|443:132|426:74,1,119.999996337891,2|0,3:2|3:2,0:0:0:0:
331,234,167900,2,0,B|273:251|273:251|232:208,1,119.999996337891,2|0,1:2|0:0,0:0:0:0:
64,87,168140,6,0,P|8:95|0:151,1,119.999996337891,6|2,3:2|0:0,0:0:0:0:
119,351,168380,2,0,B|134:295|134:295|140:288|140:288|154:236,1,119.999996337891,2|2,1:2|0:0,0:0:0:0:
225,199,168620,1,2,3:2:0:0:
49,288,168740,1,2,3:2:0:0:
65,211,168860,1,2,1:2:0:0:
182,309,168980,6,0,B|223:347|223:347|313:323|313:323|365:308|367:259,1,239.999992675781,2|2,3:2|3:2,0:0:0:0:
357,235,169340,2,0,P|301:252|282:307,1,119.999996337891,2|2,1:2|0:0,0:0:0:0:
449,268,169580,2,0,P|461:211|423:167,1,119.999996337891,2|2,3:2|3:2,0:0:0:0:
479,357,169820,2,0,P|422:367|379:328,1,119.999996337891,2|0,1:2|3:2,0:0:0:0:
265,118,170060,5,6,1:2:0:0:
404,56,170180,1,0,3:2:0:0:
353,125,170300,5,0,1:2:0:0:
317,48,170420,1,0,3:2:0:0:
159,15,170540,5,0,1:2:0:0:
124,168,170660,1,0,3:2:0:0:
265,118,170780,5,0,1:2:0:0:
17,62,170900,1,4,3:2:0:0:
261,277,171980,6,0,B|288:177|288:177|299:164|299:164|326:63,1,225.000008583069,6|0,3:2|0:0,0:0:0:0:
270,5,172220,2,0,P|214:-7|171:31,1,119.999996337891,2|0,1:2|0:0,0:0:0:0:
133,115,172460,1,2,3:2:0:0:
319,222,172580,2,0,P|299:132|237:200,1,225.000008583069,2|0,3:2|0:0,0:0:0:0:
261,277,172820,6,0,B|288:250|340:261|353:303|353:303|368:341|420:352|445:329,1,225.000008583069,2|0,3:2|0:0,0:0:0:0:
489,264,173060,1,2,3:2:0:0:
346,340,173180,5,2,1:2:0:0:
499,257,173300,1,2,0:0:0:0:
371,128,173420,6,0,B|342:135|342:135|318:222,1,119.999996337891,2|0,3:2|3:2,0:0:0:0:
175,367,173660,2,0,P|119:358|112:302,1,119.999996337891,2|0,1:2|0:0,0:0:0:0:
267,368,173900,6,0,B|251:307|251:307|200:278|200:278|184:221,1,179.999994506836,6|0,3:2|0:0,0:0:0:0:
128,171,174140,2,0,B|70:155|70:155|27:197,1,119.999996337891,2|0,1:2|0:0,0:0:0:0:
328,46,174380,6,0,B|331:44|378:81|359:149|255:173|218:80,1,225.000008583069,2|0,3:2|0:0,0:0:0:0:
254,10,174620,1,2,1:2:0:0:
365,143,174740,2,0,B|418:157|418:157|425:163|425:163|479:177,1,119.999996337891,2|0,3:2|0:0,0:0:0:0:
315,254,174980,1,2,3:2:0:0:
433,321,175100,5,2,1:2:0:0:
354,132,175220,1,2,0:0:0:0:
282,177,175340,6,0,B|168:207|232:220|119:250,1,179.999994506836,2|0,3:2|0:0,0:0:0:0:
80,181,175580,2,0,B|138:165|138:165|181:207,1,119.999996337891,2|0,1:2|0:0,0:0:0:0:
60,327,175820,5,6,3:2:0:0:
0,157,175940,1,2,0:0:0:0:
115,265,176060,5,2,1:2:0:0:
119,250,176180,1,2,0:0:0:0:
0,267,176300,5,2,3:2:0:0:
180,206,176420,1,2,3:2:0:0:
79,156,176540,5,2,1:2:0:0:
166,337,176660,2,0,B|204:302|204:302|289:324|289:324|338:338|340:384,1,225.000008583069,2|0,3:2|0:0,0:0:0:0:
306,298,176900,5,2,3:2:0:0:
465,234,177020,1,2,1:2:0:0:
434,307,177140,6,0,B|420:254|420:254|414:247|414:247|400:193,1,119.999996337891,2|0,0:0|3:2,0:0:0:0:
449,125,177380,1,2,3:2:0:0:
286,10,177500,2,0,B|272:63|272:63|266:70|266:70|252:124,1,119.999996337891,2|0,1:2|3:2,0:0:0:0:
512,70,177740,5,6,1:2:0:0:
438,38,177860,1,2,3:2:0:0:
375,92,177980,5,2,1:2:0:0:
238,135,178100,1,2,3:2:0:0:
180,192,178220,5,2,1:2:0:0:
0,142,178340,1,2,3:2:0:0:
193,200,178460,5,2,1:2:0:0:
81,34,178580,2,0,B|108:62|98:113|55:127|55:127|17:142|6:194|28:219,1,225.000008583069,6|0,3:2|0:0,0:0:0:0:
94,259,178820,1,0,3:2:0:0:
0,384,178940,2,0,P|81:303|192:332,1,239.999992675781,0|2,1:2|3:2,0:0:0:0:
360,384,179300,5,0,3:2:0:0:
356,374,179360,1,0,1:2:0:0:
369,375,179420,2,0,P|394:359|409:334,1,59.9999981689454,0|0,1:2|1:2,0:0:0:0:
486,309,179540,2,0,P|485:279|471:253,1,59.9999981689454,0|0,1:2|1:2,0:0:0:0:
506,182,179660,6,0,B|479:208|479:208|336:169|336:169|326:131,1,225.000008583069,6|0,3:2|0:0,0:0:0:0:
380,74,179900,2,0,P|423:109|402:161,1,119.999996337891,2|0,1:2|0:0,0:0:0:0:
221,32,180140,2,0,B|182:22|143:56|152:100|152:100|159:140|119:176|86:170,1,225.000008583069,2|0,3:2|0:0,0:0:0:0:
17,141,180380,1,2,1:2:0:0:
244,129,180500,6,0,B|215:156|164:146|150:103|150:103|135:65|83:54|58:76,1,225.000008583069,2|0,3:2|0:0,0:0:0:0:
17,141,180740,1,2,3:2:0:0:
165,261,180860,6,0,B|186:240|186:240|163:153,1,119.999996337891,2|0,1:2|0:0,0:0:0:0:
0,297,181100,2,0,P|56:285|99:323,1,119.999996337891,2|0,3:2|3:2,0:0:0:0:
266,211,181340,2,0,P|278:267|239:310,1,119.999996337891,2|0,1:2|0:0,0:0:0:0:
221,108,181580,6,0,P|161:170|181:254,1,179.999994506836,6|0,3:2|0:0,0:0:0:0:
239,310,181820,2,0,B|292:324|292:324|299:330|299:330|353:344,1,119.999996337891,2|0,1:2|0:0,0:0:0:0:
490,100,182060,6,0,B|528:62|528:62|364:106,1,225.000008583069,2|0,3:2|0:0,0:0:0:0:
294,67,182300,1,2,1:2:0:0:
381,234,182420,2,0,P|436:225|444:170,1,119.999996337891,2|0,3:2|0:0,0:0:0:0:
386,117,182660,1,2,3:2:0:0:
458,259,182780,5,2,1:2:0:0:
306,170,182900,1,2,0:0:0:0:
140,319,183020,2,0,P|57:294|32:212,1,179.999994506836,2|0,3:2|0:0,0:0:0:0:
83,151,183260,2,0,B|106:151|106:151|117:116|117:116|82:128|82:128|83:151,1,119.999996337891,2|0,1:2|0:0,0:0:0:0:
213,96,183500,5,6,3:2:0:0:
55,0,183620,1,2,0:0:0:0:
187,0,183740,5,2,1:2:0:0:
183,15,183860,1,2,0:0:0:0:
88,163,183980,5,2,3:2:0:0:
272,30,184100,1,2,3:2:0:0:
117,68,184220,5,2,1:2:0:0:
246,238,184340,2,0,B|347:211|347:211|360:200|360:200|460:173,1,225.000008583069,2|0,3:2|0:0,0:0:0:0:
499,106,184580,1,2,3:2:0:0:
358,163,184700,5,2,1:2:0:0:
386,238,184820,1,2,0:0:0:0:
351,149,184940,5,2,3:2:0:0:
467,257,185060,1,2,3:2:0:0:
341,375,185180,2,0,B|299:332|299:332|315:274,1,119.999996337891,2|0,1:2|3:2,0:0:0:0:
487,337,185420,5,6,1:2:0:0:
421,383,185540,1,2,3:2:0:0:
309,262,185660,5,2,1:2:0:0:
146,197,185780,1,2,3:2:0:0:
103,277,185900,5,2,1:2:0:0:
267,169,186020,1,2,3:2:0:0:
52,75,186140,5,2,1:2:0:0:
206,263,186260,6,0,B|179:235|190:183|232:170|232:170|270:155|281:103|259:79,1,225.000008583069,6|0,3:2|0:0,0:0:0:0:
192,41,186500,1,0,3:2:0:0:
134,108,186620,5,0,1:2:0:0:
328,34,186740,1,0,3:2:0:0:
453,149,186860,5,0,1:2:0:0:
462,144,186920,1,0,1:0:0:0:
452,139,186980,1,0,1:2:0:0:
434,0,187100,5,2,3:2:0:0:
349,189,187220,1,2,1:2:0:0:
505,301,187340,6,0,B|498:272|498:272|411:248,1,119.999996337891,6|0,1:2|3:2,0:0:0:0:
243,364,187580,2,0,P|199:328|219:276,1,119.999996337891,2|0,1:2|3:2,0:0:0:0:
400,71,187820,2,0,B|346:85|346:85|339:91|339:91|285:105,1,119.999996337891,2|0,1:2|3:2,0:0:0:0:
218,64,188060,1,2,1:2:0:0:
29,167,188180,6,0,P|93:101|112:190,1,225.000008583069,2|0,3:2|0:0,0:0:0:0:
53,246,188420,1,2,3:2:0:0:
124,290,188540,1,2,1:2:0:0:
180,233,188660,1,2,3:2:0:0:
46,353,188780,2,0,P|63:297|118:279,1,119.999996337891,2|0,1:2|3:2,0:0:0:0:
44,83,189020,2,0,P|100:70|143:109,1,119.999996337891,0|2,1:2|3:2,0:0:0:0:
279,218,189260,5,6,1:2:0:0:
433,111,189380,1,0,3:2:0:0:
300,37,189500,5,2,1:2:0:0:
350,97,189620,1,0,3:2:0:0:
484,45,189740,6,0,B|528:86|528:86|512:143,1,119.999996337891,2|0,1:2|3:2,0:0:0:0:
451,195,189980,1,2,1:2:0:0:
473,334,190100,6,0,B|396:314|396:314|360:250|360:250|289:230,1,225.000008583069,2|0,3:2|0:0,0:0:0:0:
225,279,190340,1,2,3:2:0:0:
162,109,190460,5,2,1:2:0:0:
234,145,190580,1,2,3:2:0:0:
150,245,190700,2,0,B|96:259|96:259|89:265|89:265|35:279,1,119.999996337891,2|0,1:2|3:2,0:0:0:0:
209,336,190940,6,0,L|225:278,1,59.9999981689454,2|0,1:2|1:2,0:0:0:0:
146,166,191060,2,0,L|162:108,1,59.9999981689454,2|0,1:2|1:2,0:0:0:0:
295,24,191180,6,0,B|331:14|331:14|436:119|436:119|473:109,1,225.000008583069,6|0,1:2|0:0,0:0:0:0:
498,35,191420,2,0,P|445:14|410:58,1,119.999996337891,2|0,1:2|3:2,0:0:0:0:
293,208,191660,2,0,B|314:283|322:240|342:316,1,119.999996337891,2|0,1:2|3:2,0:0:0:0:
410,354,191900,1,2,1:2:0:0:
393,183,192020,6,0,P|304:248|194:238,1,225.000008583069,2|0,3:2|0:0,0:0:0:0:
136,187,192260,1,2,3:2:0:0:
173,119,192380,1,2,1:2:0:0:
111,66,192500,1,2,3:2:0:0:
194,238,192620,2,0,B|248:252|248:252|255:258|255:258|309:272,1,119.999996337891,2|0,1:2|3:2,0:0:0:0:
512,143,192860,2,0,B|528:86|528:86|484:45,1,119.999996337891,2|0,1:2|3:2,0:0:0:0:
286,2,193100,5,6,1:2:0:0:
393,183,193220,1,0,3:2:0:0:
407,78,193340,5,2,1:2:0:0:
402,93,193460,1,0,3:2:0:0:
272,169,193580,5,2,1:2:0:0:
489,243,193700,1,2,3:2:0:0:
324,278,193820,5,2,1:2:0:0:
508,151,193940,2,0,L|391:182,1,119.999996337891,6|0,3:2|1:2,0:0:0:0:
255,344,194180,1,0,3:2:0:0:
242,263,194300,5,0,1:2:0:0:
316,288,194420,1,0,3:2:0:0:
97,335,194540,5,0,1:2:0:0:
88,330,194600,1,0,1:0:0:0:
98,325,194660,1,0,3:2:0:0:
143,184,194780,5,0,1:2:0:0:
251,356,194900,1,0,1:2:0:0:
3,166,195020,5,6,1:2:0:0:
63,217,195140,1,0,3:2:0:0:
138,192,195260,1,2,1:2:0:0:
155,114,195380,1,0,3:2:0:0:
122,2,195500,5,2,1:2:0:0:
87,70,195620,1,0,3:2:0:0:
228,171,195740,5,2,1:2:0:0:
373,25,195860,1,2,3:2:0:0:
435,71,195980,1,0,1:2:0:0:
404,142,196100,1,2,3:2:0:0:
282,106,196220,5,2,1:2:0:0:
448,68,196340,1,2,3:2:0:0:
502,129,196460,5,2,1:2:0:0:
499,145,196580,1,0,3:2:0:0:
452,211,196700,5,0,1:2:0:0:
455,227,196820,1,2,3:2:0:0:
454,359,196940,5,6,1:2:0:0:
410,293,197060,1,0,3:2:0:0:
334,274,197180,1,2,1:2:0:0:
265,310,197300,1,0,3:2:0:0:
138,224,197420,5,2,1:2:0:0:
156,151,197540,1,0,3:2:0:0:
221,240,197660,5,2,1:2:0:0:
89,384,197780,1,2,3:2:0:0:
22,337,197900,1,0,1:2:0:0:
72,279,198020,1,2,3:2:0:0:
140,321,198140,5,2,1:2:0:0:
43,173,198260,1,2,3:2:0:0:
0,239,198380,5,2,1:2:0:0:
170,144,198500,1,0,3:2:0:0:
76,43,198620,6,0,L|92:101,1,59.9999981689454,2|0,1:2|1:2,0:0:0:0:
140,208,198740,2,0,L|156:150,1,59.9999981689454,2|0,1:2|1:2,0:0:0:0:
304,27,198860,5,6,1:2:0:0:
381,12,198980,1,0,3:2:0:0:
433,71,199100,1,2,1:2:0:0:
409,148,199220,1,0,3:2:0:0:
267,176,199340,5,2,1:2:0:0:
340,201,199460,1,0,3:2:0:0:
438,274,199580,5,2,1:2:0:0:
254,384,199700,1,2,3:2:0:0:
234,310,199820,1,0,1:2:0:0:
214,236,199940,1,2,3:2:0:0:
345,317,200060,5,2,1:2:0:0:
437,173,200180,1,2,3:2:0:0:
324,103,200300,5,2,1:2:0:0:
329,117,200420,1,0,3:2:0:0:
468,258,200540,5,2,1:2:0:0:
340,201,200660,1,0,3:2:0:0:
421,85,200780,5,6,1:2:0:0:
351,301,200900,1,0,3:2:0:0:
168,358,201020,5,2,1:2:0:0:
118,136,201140,1,0,3:2:0:0:
251,153,201260,5,2,1:2:0:0:
19,199,201380,1,2,3:2:0:0:
92,252,201500,5,2,1:2:0:0:
218,23,201620,2,0,B|233:78|233:78|239:85|239:85|253:137,1,119.999996337891,6|0,3:2|0:0,0:0:0:0:
446,275,201860,2,0,P|501:266|510:210,1,119.999996337891,6|0,3:2|0:0,0:0:0:0:
279,346,202100,5,6,3:2:0:0:
413,102,202220,1,6,3:2:0:0:
