osu file format v14

[General]
AudioFilename: audio.mp3
AudioLeadIn: 0
PreviewTime: 64691
Countdown: 0
SampleSet: Soft
StackLeniency: 0.4
Mode: 0
LetterboxInBreaks: 0
WidescreenStoryboard: 1

[Editor]
DistanceSpacing: 1
BeatDivisor: 4
GridSize: 8
TimelineZoom: 1.8

[Metadata]
Title:Taishou x
TitleUnicode:対象x
Artist:Mahiru
ArtistUnicode:まひる
Creator:kuyusu
Version:Insane
Source:
Tags:YURRY CANON ユリイ・カノン vocaloid megpoid gumi メグッポイド Toward x Japanese rock cover utaite Regina
BeatmapID:2579287
BeatmapSetID:1238277

[Difficulty]
HPDrainRate:5
CircleSize:4
OverallDifficulty:7.8
ApproachRate:8.8
SliderMultiplier:2
SliderTickRate:1

[Events]
//Background and Video events
0,0,"a.jpg",0,0
//Break Periods
2,164376,170606
//Storyboard Layer 0 (Background)
//Storyboard Layer 1 (Fail)
//Storyboard Layer 2 (Pass)
//Storyboard Layer 3 (Foreground)
//Storyboard Layer 4 (Overlay)
//Storyboard Sound Samples

[TimingPoints]
1824,441.176470588235,4,2,1,40,1,0
1824,-125,4,2,1,40,0,0
8882,-100,4,2,1,50,0,0
15831,-100,4,2,1,5,0,0
15941,-100,4,2,1,50,0,0
23000,-76.9230769230769,4,2,1,60,0,0
37118,-100,4,2,1,50,0,0
51235,-111.111111111111,4,2,1,45,0,0
54434,-111.111111111111,4,2,1,5,0,0
54544,-111.111111111111,4,2,1,45,0,0
57522,-111.111111111111,4,2,1,5,0,0
57632,-111.111111111111,4,2,1,45,0,0
58294,-111.111111111111,4,2,1,40,0,0
61823,-100,4,2,1,50,0,0
63588,-200,4,2,1,50,0,0
65353,-66.6666666666667,4,2,1,70,0,1
67448,-58.8235294117647,4,2,1,70,0,1
68221,-66.6666666666667,4,2,1,70,0,1
81566,-58.8235294117647,4,2,1,70,0,1
82339,-66.6666666666667,4,2,1,70,0,1
93588,-76.9230769230769,4,2,1,60,0,0
107706,-90.9090909090909,4,2,1,55,0,0
121823,-111.111111111111,4,2,1,45,0,0
123919,-111.111111111111,4,2,1,5,0,0
124029,-111.111111111111,4,2,1,45,0,0
125022,-111.111111111111,4,2,1,5,0,0
125132,-111.111111111111,4,2,1,45,0,0
128110,-111.111111111111,4,2,1,5,0,0
128220,-111.111111111111,4,2,1,45,0,0
128882,-111.111111111111,4,2,1,40,0,0
132412,-100,4,2,1,50,0,0
134176,-200,4,2,1,50,0,0
135279,-100,4,2,1,50,0,0
135941,-66.6666666666667,4,2,1,70,0,1
138037,-58.8235294117647,4,2,1,70,0,1
138809,-66.6666666666667,4,2,1,70,0,1
152154,-58.8235294117647,4,2,1,70,0,1
152926,-66.6666666666667,4,2,1,70,0,1
164176,-125,4,2,1,40,0,0
178294,-71.4285714285714,4,2,1,60,0,0
178625,-71.4285714285714,4,2,1,5,0,0
178735,-71.4285714285714,4,2,1,60,0,0
182154,-71.4285714285714,4,2,1,5,0,0
182265,-71.4285714285714,4,2,1,60,0,0
185684,-71.4285714285714,4,2,1,5,0,0
185794,-71.4285714285714,4,2,1,60,0,0
189213,-71.4285714285714,4,2,1,5,0,0
189324,-71.4285714285714,4,2,1,60,0,0
191750,-200,4,2,1,40,0,0
199471,-111.111111111111,4,2,1,45,0,0
200243,-111.111111111111,4,2,1,5,0,0
200353,-111.111111111111,4,2,1,45,0,0
203000,-100,4,2,1,50,0,0
206529,-66.6666666666667,4,2,1,70,0,1
208625,-58.8235294117647,4,2,1,70,0,1
209397,-66.6666666666667,4,2,1,70,0,1
220537,-66.6666666666667,4,2,1,70,0,0
220647,-62.5,4,2,1,80,0,1
222743,-55.5555555555556,4,2,1,80,0,1
223515,-62.5,4,2,1,80,0,1
236529,-200,4,2,1,40,0,0
236971,-200,4,2,1,5,0,0
237191,-200,4,2,1,40,0,0

[Colours]
Combo1 : 113,112,113
Combo2 : 162,138,130
Combo3 : 187,166,183
Combo4 : 181,184,169

[HitObjects]
109,87,1824,5,2,3:2:0:0:
149,161,2044,1,2,0:0:0:0:
149,161,2154,2,0,L|138:213,2,40,0|0|2,0:0|3:2|0:0,0:0:0:0:
92,275,2596,5,2,0:0:0:0:
92,275,2706,1,4,3:0:0:0:
60,259,2816,1,0,0:0:0:0:
60,259,2926,2,0,L|51:219,1,40,0|2,0:0|0:0,0:0:0:0:
343,154,3588,5,2,3:2:0:0:
303,228,3808,1,2,0:0:0:0:
303,228,3919,2,0,L|314:280,2,40,0|0|2,0:0|3:0|0:0,0:0:0:0:
360,342,4360,5,2,0:0:0:0:
360,342,4470,1,0,3:0:0:0:
392,326,4580,1,0,0:0:0:0:
392,326,4691,1,0,0:0:0:0:
399,286,4801,1,2,0:0:0:0:
330,30,5353,5,2,3:2:0:0:
376,94,5573,1,2,0:0:0:0:
376,94,5684,2,0,L|428:83,2,40,0|0|2,0:0|3:0|0:0,0:0:0:0:
332,162,6125,5,2,0:0:0:0:
332,162,6235,1,4,3:0:0:0:
304,140,6345,1,0,0:0:0:0:
304,140,6456,2,0,L|252:129,1,40,0|2,0:0|0:0,0:0:0:0:
98,226,7118,5,2,3:2:0:0:
52,290,7338,1,2,0:0:0:0:
52,290,7449,2,0,L|0:279,2,40,0|0|2,0:0|3:0|0:0,0:0:0:0:
96,358,7890,5,2,0:0:0:0:
96,358,8000,1,0,3:0:0:0:
126,332,8110,1,0,0:0:0:0:
126,332,8221,1,0,0:0:0:0:
165,327,8331,1,2,0:0:0:0:
346,360,8882,5,0,3:0:0:0:
346,360,9103,2,0,P|341:333|331:299,1,50,2|2,0:0|0:0,0:0:0:0:
397,270,9323,2,0,P|402:243|412:209,1,50,2|2,3:2|0:0,0:0:0:0:
346,180,9544,2,0,P|341:153|331:119,1,50,2|2,0:0|0:0,0:0:0:0:
389,78,9765,6,0,B|261:48|305:145|179:113,1,200,6|0,3:0|3:0,0:0:0:0:
201,117,10426,2,0,P|207:92|211:68,1,50,2|2,0:0|0:0,0:0:0:0:
159,14,10647,6,0,P|110:33|36:48,1,100,2|2,3:2|0:0,0:0:0:0:
9,95,10978,2,0,P|15:119|19:143,1,50,2|0,0:0|3:0,0:0:0:0:
72,197,11198,2,0,P|65:221|61:245,2,50,2|2|2,0:0|0:0|0:0,0:0:0:0:
0,361,11529,2,0,P|30:332|109:335,1,100,2|2,3:2|0:0,0:0:0:0:
150,373,11860,1,2,0:0:0:0:
150,373,11971,2,0,P|199:369|236:337,1,100,0|0,3:0|0:0,0:0:0:0:
271,194,12412,5,0,3:0:0:0:
271,194,12632,2,0,P|278:221|282:249,1,50,2|2,0:0|0:0,0:0:0:0:
353,220,12853,2,0,P|372:239|390:262,1,50,2|2,3:2|0:0,0:0:0:0:
437,201,13073,2,0,P|463:208|490:218,1,50,2|2,0:0|0:0,0:0:0:0:
451,120,13294,6,0,P|359:128|353:220,1,200,6|0,3:0|3:0,0:0:0:0:
352,219,13956,2,0,P|332:199|309:181,1,50,2|2,0:0|0:0,0:0:0:0:
256,121,14176,6,0,P|231:167|173:174,1,100,2|2,3:2|0:0,0:0:0:0:
136,123,14507,2,0,P|116:142|93:160,1,50,2|0,0:0|3:0,0:0:0:0:
46,210,14728,2,0,P|26:190|3:172,2,50,2|2|2,0:0|0:0|0:0,0:0:0:0:
104,323,15059,2,0,P|113:272|130:215,1,100,2|2,3:2|0:0,0:0:0:0:
98,155,15390,2,0,P|89:104|72:47,1,100,2|2,0:0|0:0,0:0:0:0:
150,44,15721,2,0,P|168:26|187:10,1,50,2|0,0:0|0:0,0:0:0:0:
261,40,15941,5,0,3:0:0:0:
261,40,16162,2,0,P|258:70|264:102,1,50,2|2,0:0|0:0,0:0:0:0:
203,137,16382,2,0,P|206:167|200:199,1,50,2|2,3:2|0:0,0:0:0:0:
261,234,16603,2,0,P|258:264|264:296,1,50,2|2,0:0|0:0,0:0:0:0:
206,334,16823,6,0,P|296:310|375:389,1,200,6|0,3:0|3:0,0:0:0:0:
370,374,17485,2,0,P|391:356|417:346,1,50,2|2,0:0|0:0,0:0:0:0:
498,369,17706,6,0,P|484:320|475:271,1,100,2|2,3:2|0:0,0:0:0:0:
427,211,18037,2,0,P|402:208|377:211,1,50,2|0,0:0|3:0,0:0:0:0:
462,146,18257,2,0,P|492:143|524:149,2,50,2|2|2,0:0|0:0|0:0,0:0:0:0:
440,53,18588,2,0,P|404:86|349:89,1,100,2|2,3:2|0:0,0:0:0:0:
311,165,18919,1,2,0:0:0:0:
311,165,19029,2,0,P|275:131|220:128,1,100,0|0,3:0|0:0,0:0:0:0:
101,224,19471,5,0,3:0:0:0:
101,224,19691,2,0,P|96:254|86:283,1,50,2|2,0:0|0:0,0:0:0:0:
163,170,19912,2,0,P|173:198|179:228,1,50,2|2,3:2|0:0,0:0:0:0:
189,92,20132,2,0,P|212:111|232:134,1,50,2|2,0:0|0:0,0:0:0:0:
172,11,20353,6,0,P|150:107|89:185,1,200,6|0,3:0|3:0,0:0:0:0:
89,185,21015,2,0,P|83:160|74:137,1,50,2|2,0:0|0:0,0:0:0:0:
0,250,21235,6,0,P|49:256|97:271,1,100,2|2,3:2|0:0,0:0:0:0:
159,313,21566,2,0,P|149:336|144:360,1,50,2|0,0:0|3:0,0:0:0:0:
226,280,21787,2,0,P|216:256|211:232,2,50,2|2|2,0:0|0:0|0:0,0:0:0:0:
294,312,22118,2,0,B|421:276|379:370|516:348,1,200,6|0,3:0|0:0,0:0:0:0:
481,351,22779,1,2,0:0:0:0:
349,229,23000,6,0,P|367:160|405:96,1,129.999994049073,6|2,3:2|0:0,0:0:0:0:
472,43,23331,2,0,P|438:33|386:26,1,64.9999970245363,10|0,0:0|3:0,0:0:0:0:
312,88,23551,1,2,0:0:0:0:
312,88,23662,2,0,P|278:98|226:105,1,64.9999970245363,10|0,0:0|0:0,0:0:0:0:
112,7,23882,6,0,P|162:44|163:106,1,129.999994049073,2|2,3:2|0:0,0:0:0:0:
3,86,24213,2,0,P|34:80|65:70,1,64.9999970245363,10|0,0:0|3:0,0:0:0:0:
106,177,24434,1,2,0:0:0:0:
106,177,24544,2,0,P|137:182|168:192,1,64.9999970245363,10|0,0:0|0:0,0:0:0:0:
145,378,24765,6,0,B|105:327|105:327|129:264,1,129.999994049073,2|2,3:2|0:0,0:0:0:0:
259,301,25096,2,0,P|227:306|196:315,1,64.9999970245363,10|0,0:0|3:0,0:0:0:0:
308,238,25316,1,2,0:0:0:0:
308,238,25426,2,0,B|348:289|348:289|324:352,1,129.999994049073,10|0,0:0|3:0,0:0:0:0:
224,231,25757,5,2,0:0:0:0:
239,187,25868,1,2,0:0:0:0:
276,161,25978,1,10,0:0:0:0:
321,157,26088,2,0,P|354:168|377:197,2,64.9999970245363,2|2|10,3:2|0:0|0:0,0:0:0:0:
373,189,26529,6,0,P|413:134|392:54,1,129.999994049073,6|2,3:2|0:0,0:0:0:0:
327,21,26860,2,0,P|330:55|300:91,1,64.9999970245363,10|0,0:0|3:0,0:0:0:0:
472,11,27081,1,2,0:0:0:0:
472,11,27191,2,0,P|477:44|515:72,1,64.9999970245363,10|0,0:0|0:0,0:0:0:0:
373,189,27412,6,0,P|423:150|487:151,1,129.999994049073,2|2,3:2|0:0,0:0:0:0:
306,241,27743,2,0,P|281:220|249:215,1,64.9999970245363,10|0,0:0|3:0,0:0:0:0:
398,327,27963,1,2,0:0:0:0:
398,327,28073,2,0,P|391:295|390:242,1,64.9999970245363,10|0,0:0|0:0,0:0:0:0:
325,113,28294,6,0,P|320:177|307:241,1,129.999994049073,2|2,3:2|0:0,0:0:0:0:
243,140,28625,2,0,P|211:144|186:165,1,64.9999970245363,10|0,0:0|3:0,0:0:0:0:
122,288,28846,1,2,0:0:0:0:
122,288,28956,2,0,P|117:223|104:159,1,129.999994049073,10|0,0:0|3:0,0:0:0:0:
35,48,29287,5,2,0:0:0:0:
35,48,29397,1,2,0:0:0:0:
2,71,29507,5,10,0:0:0:0:
46,85,29618,1,10,3:2:0:0:
72,49,29728,1,10,0:0:0:0:
45,12,29838,1,10,0:0:0:0:
2,26,29948,1,8,0:0:0:0:
2,71,30059,6,0,B|76:43|66:103|150:70,1,129.999994049073,6|2,3:2|0:0,0:0:0:0:
222,14,30390,2,0,P|211:52|209:91,1,64.9999970245363,10|0,0:0|3:0,0:0:0:0:
104,159,30610,1,2,0:0:0:0:
104,159,30721,2,0,P|113:189|117:222,1,64.9999970245363,10|0,0:0|0:0,0:0:0:0:
237,246,30941,6,0,P|180:273|162:333,1,129.999994049073,2|2,3:2|0:0,0:0:0:0:
311,309,31272,2,0,P|314:276|324:245,1,64.9999970245363,10|0,0:0|3:0,0:0:0:0:
443,257,31493,1,2,0:0:0:0:
443,257,31603,2,0,P|420:286|390:298,1,64.9999970245363,10|0,0:0|0:0,0:0:0:0:
393,162,31823,6,0,P|453:170|517:215,1,129.999994049073,2|2,3:2|0:0,0:0:0:0:
324,245,32154,2,0,P|320:212|310:181,1,64.9999970245363,10|0,0:0|3:0,0:0:0:0:
296,88,32375,1,2,0:0:0:0:
296,88,32485,2,0,P|242:123|178:133,1,129.999994049073,10|0,0:0|3:0,0:0:0:0:
347,21,32816,5,2,0:0:0:0:
374,57,32926,1,2,0:0:0:0:
417,72,33037,1,10,0:0:0:0:
462,72,33147,2,0,P|465:42|446:7,2,64.9999970245363,2|2|10,3:2|0:0|0:0,0:0:0:0:
450,11,33588,6,0,P|430:78|427:140,1,129.999994049073,6|2,3:2|0:0,0:0:0:0:
397,232,33919,2,0,P|380:204|348:187,1,64.9999970245363,10|0,0:0|3:0,0:0:0:0:
253,290,34140,1,2,0:0:0:0:
253,290,34250,2,0,P|270:318|302:335,1,64.9999970245363,10|0,0:0|0:0,0:0:0:0:
326,261,34471,6,0,P|321:196|302:134,1,129.999994049073,2|2,3:2|0:0,0:0:0:0:
344,64,34801,2,0,P|376:68|407:78,1,64.9999970245363,10|0,0:0|3:0,0:0:0:0:
271,33,35022,1,2,0:0:0:0:
271,33,35132,2,0,P|238:36|207:46,1,64.9999970245363,10|0,0:0|0:0,0:0:0:0:
41,43,35353,6,0,P|101:50|142:110,1,129.999994049073,2|2,3:2|0:0,0:0:0:0:
14,172,35684,2,0,P|7:135|-5:98,1,64.9999970245363,10|0,0:0|3:0,0:0:0:0:
68,245,35904,1,2,0:0:0:0:
68,245,36015,2,0,P|105:193|167:186,1,129.999994049073,10|0,0:0|3:0,0:0:0:0:
253,259,36346,5,2,0:0:0:0:
253,259,36456,1,2,0:0:0:0:
224,294,36566,5,10,0:0:0:0:
208,251,36676,1,10,3:2:0:0:
239,218,36787,1,10,0:0:0:0:
282,228,36896,1,10,0:0:0:0:
313,195,37007,1,8,0:0:0:0:
299,153,37117,5,0,3:0:0:0:
299,153,37338,2,0,P|321:162|351:171,1,50,2|2,0:0|0:0,0:0:0:0:
377,238,37559,2,0,P|399:229|429:220,1,50,2|2,3:2|0:0,0:0:0:0:
455,153,37779,2,0,P|477:162|507:171,1,50,2|2,0:0|0:0,0:0:0:0:
501,245,38000,6,0,B|490:111|460:182|452:38,1,200,6|0,3:0|3:0,0:0:0:0:
452,52,38662,2,0,P|430:61|400:70,1,50,2|0,0:0|0:0,0:0:0:0:
336,11,38882,6,0,P|331:59|309:128,1,100,2|0,3:2|0:0,0:0:0:0:
248,140,39213,2,0,P|202:119|152:109,1,100,2|0,0:0|0:0,0:0:0:0:
136,36,39544,2,0,P|114:45|84:54,1,50,2|2,0:0|0:0,0:0:0:0:
15,66,39765,2,0,P|28:114|33:163,1,100,2|2,3:2|0:0,0:0:0:0:
89,221,40096,1,2,0:0:0:0:
89,221,40206,2,0,P|75:269|70:318,1,100,0|0,3:0|0:0,0:0:0:0:
210,371,40647,5,0,3:0:0:0:
210,371,40868,2,0,P|207:340|200:313,1,50,2|2,0:0|0:0,0:0:0:0:
279,300,41088,2,0,P|260:274|241:254,1,50,2|2,3:2|0:0,0:0:0:0:
303,204,41309,2,0,P|274:191|247:183,1,50,2|2,0:0|0:0,0:0:0:0:
275,108,41529,6,0,P|310:209|386:286,1,200,6|0,3:0|3:0,0:0:0:0:
372,276,42191,2,0,P|401:263|428:255,1,50,2|2,0:0|0:0,0:0:0:0:
488,316,42412,6,0,P|492:266|506:218,1,100,2|2,3:0|0:0,0:0:0:0:
439,183,42743,2,0,P|410:170|383:162,1,50,2|0,0:0|3:0,0:0:0:0:
466,106,42963,2,0,P|495:93|522:85,2,50,2|2|2,0:0|0:0|0:0,0:0:0:0:
415,49,43294,2,0,P|367:34|315:31,1,100,2|2,3:2|0:0,0:0:0:0:
272,91,43625,2,0,P|224:106|172:109,1,100,2|0,0:0|0:0,0:0:0:0:
120,56,43956,2,0,P|95:57|71:65,1,50,2|0,0:0|0:0,0:0:0:0:
30,128,44176,5,0,3:0:0:0:
30,128,44397,2,0,P|43:156|55:190,1,50,2|2,0:0|0:0,0:0:0:0:
121,195,44618,2,0,P|108:223|96:257,1,50,2|2,3:2|0:0,0:0:0:0:
30,262,44838,2,0,P|43:290|55:324,1,50,2|2,0:0|0:0,0:0:0:0:
121,329,45059,6,0,P|202:295|260:384,1,200,6|0,3:0|3:0,0:0:0:0:
261,372,45721,2,0,P|270:348|280:326,1,50,2|2,0:0|0:0,0:0:0:0:
340,258,45941,6,0,P|361:302|411:312,1,100,2|2,3:2|0:0,0:0:0:0:
469,268,46272,2,0,P|448:222|433:174,1,100,2|0,0:0|0:0,0:0:0:0:
493,128,46603,2,0,P|503:105|512:82,1,50,2|2,0:0|0:0,0:0:0:0:
421,96,46823,2,0,P|366:94|322:115,1,100,2|2,3:2|0:0,0:0:0:0:
290,180,47154,1,2,0:0:0:0:
290,180,47265,2,0,P|244:160|194:163,1,100,0|0,3:0|0:0,0:0:0:0:
100,304,47706,5,0,3:0:0:0:
100,304,47926,2,0,P|89:281|73:262,1,50,2|2,0:0|0:0,0:0:0:0:
131,210,48147,2,0,P|110:195|87:187,1,50,2|0,3:2|0:0,0:0:0:0:
113,111,48368,2,0,P|88:108|63:113,1,50,2|2,0:0|0:0,0:0:0:0:
47,37,48588,6,0,B|49:36|181:42|100:132|232:139,1,200,6|0,3:0|3:0,0:0:0:0:
211,136,49250,2,0,P|231:121|254:113,1,50,2|2,0:0|0:0,0:0:0:0:
327,34,49471,6,0,P|329:85|349:154,1,100,2|2,3:2|0:0,0:0:0:0:
419,112,49801,1,2,0:0:0:0:
419,112,49912,2,0,P|438:126|462:135,1,50,2|0,3:2|0:0,0:0:0:0:
396,191,50132,2,0,P|377:205|353:214,1,50,2|0,0:0|0:0,0:0:0:0:
465,237,50353,5,10,3:2:0:0:
432,268,50463,1,8,0:0:0:0:
423,313,50573,1,10,0:0:0:0:
442,354,50684,1,10,3:2:0:0:
481,380,50794,1,8,0:0:0:0:
462,337,50904,1,10,0:0:0:0:
423,313,51014,1,10,3:2:0:0:
378,317,51125,1,8,0:0:0:0:
343,347,51235,6,0,P|276:293|178:271,1,179.999994506836,6|8,3:2|0:0,0:0:0:0:
121,320,51897,1,2,3:2:0:0:
19,254,52118,2,0,P|39:308|43:419,1,134.999995880127,2|2,3:2|0:0,0:0:0:0:
14,359,52559,1,8,0:0:0:0:
121,320,52779,1,2,0:0:0:0:
58,182,53000,6,0,P|96:204|140:204,1,89.9999972534181,2|2,3:2|0:0,0:0:0:0:
186,270,53441,2,0,P|224:247|246:209,1,89.9999972534181,10|2,0:0|3:2,0:0:0:0:
208,120,53882,2,0,L|314:136,1,89.9999972534181,2|0,3:2|0:0,0:0:0:0:
318,168,54213,2,0,L|406:181,1,89.9999972534181,2|0,0:0|0:0,0:0:0:0:
433,212,54544,2,0,L|477:218,1,44.999998626709,2|2,0:0|0:0,0:0:0:0:
495,181,54765,6,0,P|411:192|382:273,1,179.999994506836,6|8,3:2|0:0,0:0:0:0:
436,332,55426,1,2,3:2:0:0:
356,350,55647,2,0,P|290:355|213:369,1,134.999995880127,2|2,3:2|0:0,0:0:0:0:
260,379,56088,1,8,0:0:0:0:
223,291,56309,1,2,0:0:0:0:
382,273,56529,6,0,P|348:244|305:237,1,89.9999972534181,2|2,3:2|0:0,0:0:0:0:
270,163,56970,2,0,P|228:179|200:212,1,89.9999972534181,10|2,0:0|3:2,0:0:0:0:
223,291,57412,2,0,L|178:298,1,44.999998626709,2|0,3:2|0:0,0:0:0:0:
147,322,57632,1,2,0:0:0:0:
147,322,57743,2,0,L|102:314,1,44.999998626709,2|8,0:0|0:0,0:0:0:0:
24,295,58073,1,8,0:0:0:0:
80,160,58294,5,2,3:2:0:0:
80,160,60059,5,2,0:0:0:0:
80,160,61823,5,6,3:0:0:0:
174,69,62044,1,4,3:0:0:0:
295,116,62265,1,4,3:0:0:0:
201,207,62486,1,4,3:0:0:0:
44,141,62706,5,4,3:0:0:0:
185,46,62927,1,4,3:0:0:0:
330,134,63147,1,6,3:0:0:0:
189,229,63369,1,6,3:0:0:0:
156,28,63588,6,0,L|146:111,2,75,6|6|6,3:2|3:2|3:2,0:0:0:0:
156,28,64691,5,2,0:0:0:0:
147,102,64912,1,2,0:0:0:0:
138,176,65132,1,2,0:0:0:0:
8,298,65353,6,0,B|97:276|84:343|159:331,1,150.000005722046,6|2,3:2|0:0,0:0:0:0:
250,194,65684,2,0,P|211:261|264:307,1,150.000005722046,2|0,0:0|0:0,0:0:0:0:
351,161,66015,2,0,P|347:198|338:234,1,75.0000028610231,2|0,0:0|0:0,0:0:0:0:
476,293,66235,6,0,P|481:330|488:366,1,75.0000028610231,2|8,3:2|0:0,0:0:0:0:
337,339,66456,1,2,0:0:0:0:
337,339,66566,2,0,P|403:304|477:294,1,150.000005722046,2|0,0:0|0:0,0:0:0:0:
338,234,66897,2,0,P|306:216|270:208,1,75.0000028610231,2|0,0:0|0:0,0:0:0:0:
187,321,67118,6,0,P|181:246|167:158,1,150.000005722046,2|0,3:2|0:0,0:0:0:0:
290,39,67448,2,0,P|276:122|268:207,1,170.000003242493,2|0,0:0|0:0,0:0:0:0:
113,94,67779,2,0,P|155:88|197:78,1,85.0000016212464,2|0,0:0|0:0,0:0:0:0:
357,155,68000,2,0,P|399:159|440:169,1,85.0000016212464,2|8,3:2|0:0,0:0:0:0:
496,16,68221,5,8,3:0:0:0:
496,16,68441,1,8,3:0:0:0:
440,169,68662,6,0,P|444:210|453:247,1,75.0000028610231,2|0,0:0|0:0,0:0:0:0:
493,328,68882,6,0,P|436:273|369:290,1,150.000005722046,6|0,3:2|0:0,0:0:0:0:
206,304,69213,2,0,P|202:266|194:230,1,75.0000028610231,2|8,0:0|0:0,0:0:0:0:
295,274,69434,1,2,0:0:0:0:
295,274,69544,2,0,P|286:310|283:347,1,75.0000028610231,2|0,0:0|0:0,0:0:0:0:
123,287,69765,6,0,P|89:301|52:334,1,75.0000028610231,2|8,3:2|0:0,0:0:0:0:
93,164,69985,1,2,0:0:0:0:
93,164,70096,2,0,P|70:193|55:240,1,75.0000028610231,2|8,0:0|0:0,0:0:0:0:
5,72,70316,1,2,0:0:0:0:
5,72,70426,2,0,P|0:108|10:156,1,75.0000028610231,2|0,0:0|0:0,0:0:0:0:
71,0,70647,6,0,P|108:63|174:97,1,150.000005722046,2|0,3:2|0:0,0:0:0:0:
353,70,70978,2,0,P|287:103|249:167,1,150.000005722046,2|0,0:0|0:0,0:0:0:0:
418,122,71309,2,0,P|436:90|437:53,1,75.0000028610231,2|0,0:0|0:0,0:0:0:0:
286,14,71529,2,0,P|268:46|267:83,1,75.0000028610231,2|8,3:2|0:0,0:0:0:0:
418,122,71750,5,8,3:0:0:0:
418,122,71971,1,8,3:0:0:0:
411,166,72081,1,8,0:0:0:0:
375,193,72191,1,10,0:0:0:0:
330,193,72301,1,8,0:0:0:0:
294,167,72412,6,0,B|323:254|281:232|311:323,1,150.000005722046,6|2,3:2|0:0,0:0:0:0:
440,312,72743,2,0,P|415:282|372:271,1,75.0000028610231,2|8,0:0|0:0,0:0:0:0:
233,342,72963,1,2,0:0:0:0:
233,342,73073,2,0,P|209:371|175:385,1,75.0000028610231,2|0,0:0|0:0,0:0:0:0:
77,306,73294,6,0,P|87:343|92:385,1,75.0000028610231,2|8,3:2|0:0,0:0:0:0:
239,237,73515,1,2,0:0:0:0:
239,237,73625,2,0,B|192:269|192:269|95:222,1,150.000005722046,2|0,0:0|0:0,0:0:0:0:
202,98,73956,2,0,P|197:135|187:171,1,75.0000028610231,2|0,0:0|0:0,0:0:0:0:
340,284,74176,6,0,P|319:211|310:137,1,150.000005722046,2|0,3:2|0:0,0:0:0:0:
508,105,74507,2,0,P|480:165|400:181,1,150.000005722046,2|0,0:0|0:0,0:0:0:0:
334,57,74838,2,0,P|370:74|389:115,1,75.0000028610231,2|0,0:0|0:0,0:0:0:0:
479,251,75059,2,0,P|488:176|508:104,1,150.000005722046,2|0,3:2|0:0,0:0:0:0:
507,104,75500,1,8,0:0:0:0:
387,10,75721,2,0,P|367:41|333:56,1,75.0000028610231,2|0,0:0|0:0,0:0:0:0:
160,28,75941,6,0,P|215:41|265:123,1,150.000005722046,6|2,3:2|0:0,0:0:0:0:
370,181,76272,1,0,0:0:0:0:
370,181,76382,2,0,P|332:184|299:201,1,75.0000028610231,10|0,0:0|0:0,0:0:0:0:
222,270,76603,2,0,P|184:266|151:249,1,75.0000028610231,2|0,0:0|0:0,0:0:0:0:
264,115,76823,6,0,B|289:254|239:209|265:357,1,225.000008583069,2|0,3:2|0:0,0:0:0:0:
336,282,77265,2,0,P|369:265|406:262,1,75.0000028610231,10|0,0:0|0:0,0:0:0:0:
500,362,77485,2,0,P|462:359|429:342,1,75.0000028610231,2|0,0:0|0:0,0:0:0:0:
472,197,77706,5,6,3:0:0:0:
336,282,77926,5,4,3:0:0:0:
329,237,78037,1,4,3:0:0:0:
322,192,78147,1,4,3:2:0:0:
493,62,78368,5,4,3:0:0:0:
486,107,78479,1,4,3:0:0:0:
479,152,78589,1,4,3:2:0:0:
254,137,78809,5,10,0:0:0:0:
287,106,78919,1,8,0:0:0:0:
331,100,79029,1,10,3:2:0:0:
370,122,79140,1,8,0:0:0:0:
409,144,79250,1,10,0:0:0:0:
453,138,79360,1,8,0:0:0:0:
486,107,79471,6,0,P|414:114|386:180,1,150.000005722046,6|0,3:2|0:0,0:0:0:0:
428,285,79801,2,0,P|439:249|465:215,1,75.0000028610231,2|8,0:0|0:0,0:0:0:0:
344,285,80022,1,2,0:0:0:0:
344,285,80132,2,0,P|333:249|307:215,1,75.0000028610231,2|0,0:0|0:0,0:0:0:0:
180,128,80353,6,0,B|220:166|220:166|325:125,1,150.000005722046,2|0,3:2|0:0,0:0:0:0:
265,0,80684,2,0,P|252:36|243:78,1,75.0000028610231,2|8,0:0|0:0,0:0:0:0:
88,125,80904,1,2,0:0:0:0:
88,125,81015,2,0,P|101:161|110:203,1,75.0000028610231,2|0,0:0|0:0,0:0:0:0:
214,266,81235,6,0,B|130:243|143:317|67:293,1,150.000005722046,2|0,3:2|0:0,0:0:0:0:
283,213,81566,2,0,P|354:255|338:351,1,170.000003242493,2|0,0:0|0:0,0:0:0:0:
191,347,81897,2,0,P|226:361|276:370,1,85.0000016212464,2|0,0:0|0:0,0:0:0:0:
392,250,82118,2,0,P|427:236|477:227,1,85.0000016212464,2|8,3:2|0:0,0:0:0:0:
511,380,82338,5,8,3:0:0:0:
511,380,82559,1,8,3:0:0:0:
473,227,82779,6,0,P|473:188|482:137,1,75.0000028610231,2|0,0:0|0:0,0:0:0:0:
374,25,83000,6,0,P|434:58|537:80,1,150.000005722046,6|2,3:2|0:0,0:0:0:0:
357,113,83331,2,0,P|324:131|288:142,1,75.0000028610231,2|8,0:0|0:0,0:0:0:0:
179,39,83551,1,2,0:0:0:0:
179,39,83662,2,0,P|214:50|247:68,1,75.0000028610231,2|0,0:0|0:0,0:0:0:0:
114,118,83882,6,0,P|101:78|80:42,1,75.0000028610231,2|8,3:2|0:0,0:0:0:0:
80,202,84103,1,2,0:0:0:0:
80,202,84213,2,0,P|48:173|12:153,1,75.0000028610231,2|8,0:0|0:0,0:0:0:0:
92,291,84434,1,2,0:0:0:0:
92,291,84544,2,0,P|50:282|9:282,1,75.0000028610231,2|0,0:0|0:0,0:0:0:0:
139,365,84765,6,0,P|179:295|152:221,1,150.000005722046,2|0,3:2|0:0,0:0:0:0:
114,118,85096,2,0,B|214:111|174:175|273:177,1,150.000005722046,2|0,0:0|0:0,0:0:0:0:
312,99,85426,2,0,P|319:137|338:170,1,75.0000028610231,0|0,0:0|0:0,0:0:0:0:
291,245,85647,2,0,P|284:281|266:314,1,75.0000028610231,2|8,3:2|0:0,0:0:0:0:
406,329,85868,5,8,3:0:0:0:
406,329,86088,1,8,3:0:0:0:
375,295,86198,1,8,0:0:0:0:
376,249,86309,1,10,0:0:0:0:
409,219,86419,1,8,0:0:0:0:
453,223,86529,6,0,P|441:297|431:384,1,150.000005722046,6|2,3:2|0:0,0:0:0:0:
324,360,86860,2,0,P|295:334|262:313,1,75.0000028610231,2|8,0:0|0:0,0:0:0:0:
174,181,87081,1,2,0:0:0:0:
174,181,87191,2,0,P|145:207|112:227,1,75.0000028610231,2|0,0:0|0:0,0:0:0:0:
191,350,87412,6,0,P|181:319|197:269,1,75.0000028610231,2|8,3:2|0:0,0:0:0:0:
194,93,87632,1,2,0:0:0:0:
194,93,87743,2,0,P|248:136|255:212,1,150.000005722046,2|0,0:0|0:0,0:0:0:0:
383,288,88073,2,0,P|410:262|442:242,1,75.0000028610231,2|0,0:0|0:0,0:0:0:0:
353,137,88294,6,0,P|343:168|359:218,1,75.0000028610231,2|0,3:2|0:0,0:0:0:0:
512,104,88515,1,2,0:0:0:0:
512,104,88625,2,0,P|434:86|364:44,1,150.000005722046,2|0,0:0|0:0,0:0:0:0:
240,26,88956,2,0,P|276:17|309:0,1,75.0000028610231,2|0,0:0|0:0,0:0:0:0:
194,131,89176,2,0,P|157:64|71:62,1,150.000005722046,2|0,3:2|0:0,0:0:0:0:
89,54,89618,1,8,0:0:0:0:
0,173,89838,2,0,P|36:182|69:199,1,75.0000028610231,2|0,0:0|0:0,0:0:0:0:
262,208,90059,6,0,P|184:226|114:268,1,150.000005722046,6|2,3:2|0:0,0:0:0:0:
53,353,90390,1,0,0:0:0:0:
53,353,90500,2,0,P|49:315|37:259,1,75.0000028610231,10|0,0:0|0:0,0:0:0:0:
151,186,90721,2,0,P|155:148|162:112,1,75.0000028610231,2|0,0:0|0:0,0:0:0:0:
262,208,90941,6,0,B|391:155|374:290|496:243,1,225.000008583069,2|0,3:2|0:0,0:0:0:0:
328,353,91382,2,0,P|324:315|317:278,1,75.0000028610231,10|0,0:0|0:0,0:0:0:0:
401,139,91603,2,0,P|394:175|390:213,1,75.0000028610231,2|0,0:0|0:0,0:0:0:0:
341,69,91823,5,6,3:0:0:0:
262,208,92044,5,4,3:0:0:0:
219,193,92154,1,4,3:0:0:0:
176,178,92265,1,4,3:2:0:0:
2,81,92485,5,6,3:0:0:0:
45,66,92595,1,4,3:0:0:0:
88,51,92706,1,6,3:2:0:0:
124,238,92927,5,8,0:0:0:0:
93,205,93037,1,8,0:0:0:0:
87,161,93147,1,8,3:2:0:0:
109,122,93258,1,8,0:0:0:0:
131,83,93368,1,8,0:0:0:0:
125,39,93478,1,8,0:0:0:0:
94,6,93588,6,0,P|129:59|207:62,1,129.999994049073,6|2,3:2|0:0,0:0:0:0:
287,10,93919,2,0,P|274:40|272:85,1,64.9999970245363,10|0,0:0|3:0,0:0:0:0:
192,153,94140,1,2,0:0:0:0:
192,153,94250,2,0,P|205:183|207:228,1,64.9999970245363,10|0,0:0|0:0,0:0:0:0:
383,215,94471,6,0,P|348:162|285:152,1,129.999994049073,2|2,3:2|0:0,0:0:0:0:
286,302,94801,2,0,P|289:269|302:240,1,64.9999970245363,10|0,0:0|3:0,0:0:0:0:
444,272,95022,1,2,0:0:0:0:
444,272,95132,2,0,P|456:301|460:333,1,64.9999970245363,10|0,0:0|0:0,0:0:0:0:
260,374,95353,6,0,P|314:337|395:323,1,129.999994049073,2|2,3:2|0:0,0:0:0:0:
203,314,95684,2,0,P|176:294|146:284,1,64.9999970245363,10|0,0:0|3:0,0:0:0:0:
46,363,95904,1,2,0:0:0:0:
46,363,96015,2,0,P|64:301|59:236,1,129.999994049073,10|0,0:0|3:0,0:0:0:0:
30,49,96346,5,2,0:0:0:0:
0,83,96456,1,2,0:0:0:0:
0,128,96566,1,10,0:0:0:0:
25,165,96676,2,0,P|53:150|58:99,2,64.9999970245363,2|2|10,3:2|0:0|0:0,0:0:0:0:
63,120,97118,6,0,B|139:100|116:164|209:141,1,129.999994049073,6|2,3:2|0:0,0:0:0:0:
166,3,97448,2,0,P|170:35|182:65,1,64.9999970245363,10|0,0:0|3:0,0:0:0:0:
269,135,97669,1,2,0:0:0:0:
269,135,97779,2,0,P|263:167|254:197,1,64.9999970245363,10|0,0:0|0:0,0:0:0:0:
260,50,98000,6,0,P|324:56|386:74,1,129.999994049073,2|2,3:2|0:0,0:0:0:0:
512,11,98331,2,0,P|478:14|448:21,1,64.9999970245363,10|0,0:0|3:0,0:0:0:0:
433,150,98551,1,2,0:0:0:0:
433,150,98662,2,0,P|462:160|494:167,1,64.9999970245363,10|0,0:0|0:0,0:0:0:0:
512,249,98882,6,0,P|451:272|446:348,1,129.999994049073,2|2,3:2|0:0,0:0:0:0:
348,302,99213,2,0,L|357:376,1,64.9999970245363,10|0,0:0|3:0,0:0:0:0:
265,349,99434,1,2,0:0:0:0:
265,349,99544,2,0,P|250:288|191:267,1,129.999994049073,10|0,0:0|3:0,0:0:0:0:
75,304,99875,5,2,0:0:0:0:
75,304,99985,1,2,0:0:0:0:
106,336,100096,5,10,0:0:0:0:
113,291,100206,1,10,3:2:0:0:
82,257,100316,1,10,0:0:0:0:
75,212,100426,1,10,0:0:0:0:
106,178,100537,1,8,0:0:0:0:
113,133,100647,6,0,P|52:115|2:153,1,129.999994049073,6|2,3:2|0:0,0:0:0:0:
7,4,100978,2,0,P|39:29|82:37,1,64.9999970245363,10|0,0:0|3:0,0:0:0:0:
167,100,101198,1,2,0:0:0:0:
167,100,101309,2,0,P|137:111|113:133,1,64.9999970245363,10|0,0:0|0:0,0:0:0:0:
219,33,101529,6,0,P|279:14|329:52,1,129.999994049073,2|2,3:2|0:0,0:0:0:0:
311,175,101860,2,0,P|297:139|272:106,1,64.9999970245363,10|0,0:0|3:0,0:0:0:0:
395,156,102081,1,2,0:0:0:0:
395,156,102191,2,0,P|395:117|407:78,1,64.9999970245363,10|0,0:0|0:0,0:0:0:0:
434,245,102412,6,0,P|375:237|318:278,1,129.999994049073,2|2,3:2|0:0,0:0:0:0:
398,383,102743,2,0,P|398:350|391:318,1,64.9999970245363,10|0,0:0|3:0,0:0:0:0:
313,380,102963,1,2,0:0:0:0:
313,380,103073,2,0,P|261:342|198:349,1,129.999994049073,10|0,0:0|3:0,0:0:0:0:
109,361,103404,5,2,0:0:0:0:
122,317,103515,1,2,0:0:0:0:
110,274,103625,1,10,0:0:0:0:
78,242,103735,2,0,L|11:257,2,64.9999970245363,2|2|10,3:2|0:0|0:0,0:0:0:0:
14,256,104176,6,0,L|148:281,1,129.999994049073,6|2,3:2|0:0,0:0:0:0:
235,296,104507,2,0,P|220:260|220:221,1,64.9999970245363,10|0,0:0|3:0,0:0:0:0:
141,197,104728,1,2,0:0:0:0:
141,197,104838,2,0,P|156:161|156:122,1,64.9999970245363,10|0,0:0|0:0,0:0:0:0:
241,158,105059,6,0,L|368:134,1,129.999994049073,2|2,3:2|0:0,0:0:0:0:
347,60,105390,2,0,P|317:77|298:124,1,64.9999970245363,10|0,0:0|3:0,0:0:0:0:
397,207,105610,1,2,0:0:0:0:
397,207,105721,2,0,P|427:190|446:143,1,64.9999970245363,10|0,0:0|0:0,0:0:0:0:
319,227,105941,6,0,P|332:293|339:370,1,129.999994049073,2|2,3:2|0:0,0:0:0:0:
243,259,106272,2,0,P|225:231|197:216,1,64.9999970245363,10|0,0:0|3:0,0:0:0:0:
171,295,106493,1,2,0:0:0:0:
171,295,106603,2,0,P|134:351|76:382,1,129.999994049073,10|0,0:0|3:0,0:0:0:0:
246,344,106934,5,2,0:0:0:0:
246,344,107044,1,2,0:0:0:0:
226,384,107154,5,10,0:0:0:0:
271,378,107265,1,10,3:2:0:0:
289,336,107375,1,10,0:0:0:0:
307,294,107485,1,10,0:0:0:0:
325,252,107596,1,8,0:0:0:0:
374,250,107706,5,4,3:2:0:0:
374,250,107926,2,0,P|370:223|363:197,1,55.0000016784668,2|10,0:0|0:0,0:0:0:0:
441,183,108147,2,0,P|445:156|452:130,1,55.0000016784668,2|0,0:0|0:0,0:0:0:0:
378,106,108368,2,0,P|374:79|367:53,1,55.0000016784668,10|2,0:0|0:0,0:0:0:0:
427,4,108588,6,0,P|381:19|305:28,1,110.000003356934,2|2,3:2|0:0,0:0:0:0:
267,84,108919,2,0,P|240:75|214:69,1,55.0000016784668,2|8,3:2|0:0,0:0:0:0:
17,50,109250,5,2,0:0:0:0:
40,27,109360,1,10,0:0:0:0:
65,5,109471,6,0,P|81:54|96:124,1,110.000003356934,2|2,3:2|0:0,0:0:0:0:
169,137,109801,2,0,P|160:163|154:189,1,55.0000016784668,10|0,0:0|0:0,0:0:0:0:
98,243,110022,2,0,P|71:234|45:228,2,55.0000016784668,2|10|2,0:0|0:0|0:0,0:0:0:0:
139,308,110353,2,0,P|191:291|245:284,1,110.000003356934,2|2,3:2|0:0,0:0:0:0:
282,217,110684,1,2,3:2:0:0:
282,217,110794,2,0,P|334:233|388:240,1,110.000003356934,8|0,0:0|0:0,0:0:0:0:
500,134,111235,5,4,3:2:0:0:
500,134,111456,2,0,P|474:147|446:176,1,55.0000016784668,2|10,0:0|0:0,0:0:0:0:
432,50,111676,2,0,P|415:74|406:113,1,55.0000016784668,2|2,0:0|0:0,0:0:0:0:
331,12,111897,2,0,P|329:41|340:79,1,55.0000016784668,10|2,0:0|0:0,0:0:0:0:
224,28,112118,6,0,P|239:75|281:129,1,110.000003356934,2|2,3:2|0:0,0:0:0:0:
211,167,112448,2,0,P|203:193|191:218,1,55.0000016784668,2|8,3:2|0:0,0:0:0:0:
344,324,112779,5,2,0:0:0:0:
340,291,112889,1,10,0:0:0:0:
336,258,113000,6,0,P|282:269|230:286,1,110.000003356934,2|2,3:2|0:0,0:0:0:0:
188,352,113331,2,0,P|161:343|135:336,1,55.0000016784668,10|0,0:0|0:0,0:0:0:0:
83,279,113551,2,0,P|56:287|30:294,2,55.0000016784668,2|10|2,0:0|0:0|0:0,0:0:0:0:
115,208,113882,2,0,P|104:159|63:103,1,110.000003356934,2|2,3:2|0:0,0:0:0:0:
112,45,114213,2,0,P|161:51|228:32,1,110.000003356934,2|2,3:2|0:0,0:0:0:0:
272,92,114544,2,0,P|299:87|326:90,1,55.0000016784668,10|8,0:0|0:0,0:0:0:0:
393,49,114765,5,4,3:2:0:0:
393,49,114985,2,0,P|405:82|403:107,1,55.0000016784668,2|10,0:0|0:0,0:0:0:0:
355,162,115206,2,0,P|343:195|345:220,1,55.0000016784668,2|2,0:0|0:0,0:0:0:0:
399,274,115426,2,0,P|411:307|409:332,1,55.0000016784668,10|2,0:0|0:0,0:0:0:0:
351,376,115647,6,0,P|396:350|480:354,1,110.000003356934,2|2,3:2|0:0,0:0:0:0:
319,300,115978,2,0,P|290:283|257:282,1,55.0000016784668,2|8,3:2|0:0,0:0:0:0:
133,355,116309,5,2,0:0:0:0:
163,366,116419,1,10,0:0:0:0:
193,377,116529,2,0,L|180:257,1,110.000003356934,2|2,3:2|0:0,0:0:0:0:
211,196,116860,2,0,B|235:212|235:212|276:198,1,55.0000016784668,10|0,0:0|0:0,0:0:0:0:
324,160,117081,2,0,B|348:151|348:151|372:167,2,55.0000016784668,2|10|2,0:0|0:0|0:0,0:0:0:0:
255,124,117412,2,0,L|268:4,1,110.000003356934,2|2,3:2|0:0,0:0:0:0:
187,41,117743,1,2,3:2:0:0:
187,41,117853,2,0,B|152:67|152:67|76:36,1,110.000003356934,8|0,0:0|0:0,0:0:0:0:
20,181,118294,5,4,3:2:0:0:
20,181,118515,2,0,P|28:150|29:122,1,55.0000016784668,2|10,0:0|0:0,0:0:0:0:
93,219,118735,2,0,P|115:196|130:172,1,55.0000016784668,2|2,0:0|0:0,0:0:0:0:
137,288,118956,2,0,P|167:279|192:266,1,55.0000016784668,10|2,0:0|0:0,0:0:0:0:
140,370,119176,6,0,B|139:371|144:367|196:373|272:355,1,110.000003356934,2|2,3:2|0:0,0:0:0:0:
319,309,119507,2,0,P|323:340|332:374,1,55.0000016784668,2|8,3:2|0:0,0:0:0:0:
450,235,119838,5,2,0:0:0:0:
418,244,119948,1,8,0:0:0:0:
386,255,120059,6,0,P|404:193|407:130,1,110.000003356934,2|2,3:2|0:0,0:0:0:0:
463,94,120390,1,8,0:0:0:0:
463,94,120500,2,0,P|453:68|447:17,1,55.0000016784668,2|0,0:0|0:0,0:0:0:0:
370,39,120721,2,0,P|364:65|354:91,1,55.0000016784668,10|2,0:0|0:0,0:0:0:0:
329,174,120941,2,0,P|282:141|221:136,1,110.000003356934,2|2,3:2|0:0,0:0:0:0:
178,191,121272,2,0,P|133:222|79:230,1,110.000003356934,2|2,3:2|0:0,0:0:0:0:
14,188,121603,2,0,P|8:161|-1:135,1,55.0000016784668,2|8,0:0|0:0,0:0:0:0:
143,62,121823,6,0,P|106:144|79:230,1,179.999994506836,6|8,3:2|0:0,0:0:0:0:
149,271,122485,1,2,3:2:0:0:
126,349,122706,2,0,P|66:366|5:327,1,134.999995880127,2|2,3:2|0:0,0:0:0:0:
35,301,123147,1,8,0:0:0:0:
137,345,123368,1,2,0:0:0:0:
229,267,123588,6,0,L|364:298,1,134.999995880127,2|0,3:2|0:0,0:0:0:0:
400,305,124029,2,0,P|378:263|384:208,1,89.9999972534181,10|2,0:0|3:2,0:0:0:0:
409,135,124471,2,0,L|321:155,1,89.9999972534181,2|0,3:2|0:0,0:0:0:0:
295,186,124801,2,0,L|207:206,1,89.9999972534181,2|0,0:0|0:0,0:0:0:0:
181,237,125132,2,0,L|137:247,1,44.999998626709,2|2,0:0|0:0,0:0:0:0:
107,275,125353,6,0,B|138:210|138:210|69:107,1,179.999994506836,6|8,3:2|0:0,0:0:0:0:
117,49,126015,1,2,3:2:0:0:
187,89,126235,2,0,L|318:58,1,134.999995880127,2|2,3:2|0:0,0:0:0:0:
294,91,126676,1,8,0:0:0:0:
187,9,126897,1,2,0:0:0:0:
77,120,127118,6,0,P|91:162|125:189,1,89.9999972534181,2|2,3:2|0:0,0:0:0:0:
119,271,127559,2,0,P|163:278|204:263,1,89.9999972534181,10|2,0:0|3:2,0:0:0:0:
233,187,128000,2,0,L|276:197,1,44.999998626709,2|0,3:2|0:0,0:0:0:0:
310,228,128221,1,2,0:0:0:0:
310,228,128331,2,0,L|353:217,1,44.999998626709,2|8,0:0|0:0,0:0:0:0:
431,193,128662,1,8,0:0:0:0:
403,59,128882,5,2,3:2:0:0:
403,59,130647,5,2,0:0:0:0:
403,59,132412,5,6,3:0:0:0:
298,135,132632,1,4,3:0:0:0:
376,239,132853,1,4,3:0:0:0:
479,162,133073,1,4,3:0:0:0:
385,28,133294,5,4,3:0:0:0:
268,150,133514,1,4,3:0:0:0:
390,267,133735,1,6,3:0:0:0:
507,145,133955,1,6,3:0:0:0:
248,126,134176,6,0,L|255:210,2,75,6|6|6,3:2|3:2|3:2,0:0:0:0:
248,126,135279,5,10,0:0:0:0:
251,163,135390,1,8,0:0:0:0:
254,200,135500,1,10,0:0:0:0:
257,237,135610,1,8,0:0:0:0:
260,274,135720,1,10,0:0:0:0:
263,311,135831,1,8,0:0:0:0:
266,348,135941,6,0,P|206:317|110:309,1,150.000005722046,6|2,3:2|0:0,0:0:0:0:
0,231,136272,2,0,P|41:295|1:364,1,150.000005722046,2|0,0:0|0:0,0:0:0:0:
144,379,136603,2,0,P|132:344|121:279,1,75.0000028610231,2|0,0:0|0:0,0:0:0:0:
251,163,136823,6,0,P|243:199|231:235,1,75.0000028610231,2|8,3:2|0:0,0:0:0:0:
89,195,137044,1,2,0:0:0:0:
89,195,137154,2,0,P|163:202|230:235,1,150.000005722046,2|0,0:0|0:0,0:0:0:0:
355,272,137485,2,0,P|318:279|285:296,1,75.0000028610231,2|0,0:0|0:0,0:0:0:0:
465,344,137706,6,0,P|436:277|477:218,1,150.000005722046,2|0,3:2|0:0,0:0:0:0:
477,135,138037,2,0,B|383:137|425:198|311:189,1,170.000003242493,2|0,0:0|0:0,0:0:0:0:
309,23,138368,2,0,P|326:61|338:102,1,85.0000016212464,2|0,0:0|0:0,0:0:0:0:
477,218,138588,2,0,P|459:256|447:297,1,85.0000016212464,2|8,3:2|0:0,0:0:0:0:
322,190,138809,5,8,3:0:0:0:
322,190,139029,1,8,3:0:0:0:
447,297,139250,6,0,P|410:304|377:321,1,75.0000028610231,2|0,0:0|0:0,0:0:0:0:
237,229,139471,6,0,P|270:293|304:373,1,150.000005722046,6|0,3:2|0:0,0:0:0:0:
161,271,139801,2,0,P|128:289|91:296,1,75.0000028610231,2|8,0:0|0:0,0:0:0:0:
223,138,140022,1,2,0:0:0:0:
223,138,140132,2,0,P|259:145|292:162,1,75.0000028610231,2|0,0:0|0:0,0:0:0:0:
183,9,140353,6,0,P|172:44|158:79,1,75.0000028610231,2|8,3:2|0:0,0:0:0:0:
69,71,140573,1,2,0:0:0:0:
69,71,140684,2,0,P|77:107|83:144,1,75.0000028610231,2|8,0:0|0:0,0:0:0:0:
1,181,140904,1,2,0:0:0:0:
1,181,141015,2,0,P|26:208|50:237,1,75.0000028610231,2|0,0:0|0:0,0:0:0:0:
43,384,141235,6,0,P|78:319|176:302,1,150.000005722046,2|0,3:2|0:0,0:0:0:0:
269,227,141566,2,0,P|237:294|212:365,1,150.000005722046,2|0,0:0|0:0,0:0:0:0:
327,302,141897,2,0,P|360:284|396:278,1,75.0000028610231,2|0,0:0|0:0,0:0:0:0:
328,161,142118,2,0,P|294:143|258:137,1,75.0000028610231,2|8,3:2|0:0,0:0:0:0:
415,200,142338,5,8,3:0:0:0:
415,200,142559,1,8,3:0:0:0:
411,155,142669,1,8,0:0:0:0:
425,112,142779,1,10,0:0:0:0:
461,85,142890,1,8,0:0:0:0:
505,80,143000,6,0,P|510:160|510:242,1,150.000005722046,6|2,3:2|0:0,0:0:0:0:
454,294,143331,2,0,P|420:283|366:275,1,75.0000028610231,2|8,0:0|0:0,0:0:0:0:
259,138,143551,1,2,0:0:0:0:
259,138,143662,2,0,P|295:131|331:120,1,75.0000028610231,2|0,0:0|0:0,0:0:0:0:
292,290,143882,6,0,P|302:253|308:216,1,75.0000028610231,2|8,3:2|0:0,0:0:0:0:
187,87,144103,1,2,0:0:0:0:
187,87,144213,2,0,P|172:158|218:216,1,150.000005722046,2|0,0:0|0:0,0:0:0:0:
347,47,144544,2,0,P|337:83|331:120,1,75.0000028610231,2|0,0:0|0:0,0:0:0:0:
162,8,144765,6,0,P|87:16|16:40,1,150.000005722046,2|0,3:2|0:0,0:0:0:0:
186,88,145096,2,0,P|260:97|332:121,1,150.000005722046,2|0,0:0|0:0,0:0:0:0:
116,171,145426,2,0,P|110:133|100:97,1,75.0000028610231,2|0,0:0|0:0,0:0:0:0:
218,216,145647,2,0,P|197:288|184:362,1,150.000005722046,2|0,3:2|0:0,0:0:0:0:
184,362,146088,1,8,0:0:0:0:
46,246,146309,2,0,P|80:249|128:261,1,75.0000028610231,2|0,0:0|0:0,0:0:0:0:
305,198,146529,6,0,B|400:204|349:253|452:264,1,150.000005722046,6|2,3:2|0:0,0:0:0:0:
326,355,146860,1,0,0:0:0:0:
326,355,146971,2,0,P|323:321|311:273,1,75.0000028610231,10|0,0:0|0:0,0:0:0:0:
218,216,147191,2,0,P|221:178|230:142,1,75.0000028610231,2|0,0:0|0:0,0:0:0:0:
366,12,147412,6,0,L|383:90,1,75.0000028610231,2|8,3:2|0:0,0:0:0:0:
292,41,147632,2,0,L|309:119,1,75.0000028610231,2|0,0:0|0:0,0:0:0:0:
434,155,147853,6,0,L|417:233,1,75.0000028610231,10|0,0:0|0:0,0:0:0:0:
508,184,148073,2,0,L|491:262,1,75.0000028610231,2|0,0:0|0:0,0:0:0:0:
313,281,148294,5,6,3:0:0:0:
229,142,148515,5,4,3:0:0:0:
185,147,148625,1,4,3:0:0:0:
141,153,148735,1,4,3:2:0:0:
0,294,148956,5,4,3:0:0:0:
44,299,149066,1,4,3:0:0:0:
88,305,149176,1,4,3:2:0:0:
60,127,149397,5,10,0:0:0:0:
54,171,149507,1,8,0:0:0:0:
74,211,149618,1,10,3:2:0:0:
115,229,149728,1,8,0:0:0:0:
156,247,149838,1,10,0:0:0:0:
175,287,149949,1,8,0:0:0:0:
169,331,150059,6,0,P|132:271|162:188,1,150.000005722046,6|0,3:2|0:0,0:0:0:0:
283,160,150390,2,0,P|266:190|221:213,1,75.0000028610231,2|8,0:0|0:0,0:0:0:0:
139,121,150610,1,2,0:0:0:0:
139,121,150721,2,0,P|158:88|190:70,1,75.0000028610231,2|0,0:0|0:0,0:0:0:0:
280,8,150941,6,0,P|266:43|279:78,1,75.0000028610231,2|8,3:2|0:0,0:0:0:0:
390,57,151162,1,2,0:0:0:0:
390,57,151272,2,0,P|362:79|355:116,1,75.0000028610231,2|8,0:0|0:0,0:0:0:0:
462,153,151493,1,2,0:0:0:0:
462,153,151603,2,0,P|425:160|402:188,1,75.0000028610231,2|0,0:0|0:0,0:0:0:0:
508,284,151823,6,0,P|435:266|362:280,1,150.000005722046,2|0,3:2|0:0,0:0:0:0:
217,374,152154,2,0,B|225:267|192:320|204:188,1,170.000003242493,2|0,0:0|0:0,0:0:0:0:
362,280,152485,2,0,P|317:265|277:242,1,85.0000016212464,2|0,0:0|0:0,0:0:0:0:
135,333,152706,2,0,P|94:345|57:366,1,85.0000016212464,2|8,3:2|0:0,0:0:0:0:
202,206,152926,5,8,3:0:0:0:
202,206,153147,1,8,3:0:0:0:
57,366,153368,6,0,P|51:328|41:293,1,75.0000028610231,2|0,0:0|0:0,0:0:0:0:
120,136,153588,6,0,P|95:209|31:204,1,150.000005722046,6|0,3:2|0:0,0:0:0:0:
52,54,153919,2,0,P|46:91|36:127,1,75.0000028610231,2|8,0:0|0:0,0:0:0:0:
188,53,154140,1,2,0:0:0:0:
188,53,154250,2,0,P|193:90|204:126,1,75.0000028610231,2|0,0:0|0:0,0:0:0:0:
343,41,154471,6,0,P|308:53|274:69,1,75.0000028610231,2|8,3:2|0:0,0:0:0:0:
353,133,154691,1,2,0:0:0:0:
353,133,154801,2,0,P|328:161|307:192,1,75.0000028610231,2|8,0:0|0:0,0:0:0:0:
406,208,155022,1,2,0:0:0:0:
406,208,155132,2,0,P|398:244|396:282,1,75.0000028610231,2|0,0:0|0:0,0:0:0:0:
512,200,155353,6,0,P|510:136|500:35,1,150.000005722046,2|0,3:2|0:0,0:0:0:0:
431,122,155684,2,0,P|361:109|343:41,1,150.000005722046,2|0,0:0|0:0,0:0:0:0:
257,95,156015,2,0,P|265:131|268:169,1,75.0000028610231,2|0,0:0|0:0,0:0:0:0:
395,281,156235,2,0,P|396:244|406:207,1,75.0000028610231,2|8,3:2|0:0,0:0:0:0:
322,330,156456,5,8,3:0:0:0:
322,330,156676,1,8,3:0:0:0:
281,310,156787,1,8,0:0:0:0:
236,307,156897,1,10,0:0:0:0:
194,323,157007,1,8,0:0:0:0:
169,360,157118,6,0,P|167:272|149:207,1,150.000005722046,6|2,3:2|0:0,0:0:0:0:
14,229,157448,2,0,P|42:252|79:257,1,75.0000028610231,2|8,0:0|0:0,0:0:0:0:
209,158,157669,1,2,0:0:0:0:
209,158,157779,2,0,P|180:134|143:129,1,75.0000028610231,2|0,0:0|0:0,0:0:0:0:
284,224,158000,6,0,P|290:183|301:132,1,75.0000028610231,2|8,3:2|0:0,0:0:0:0:
380,40,158221,1,2,0:0:0:0:
380,40,158331,2,0,B|293:26|320:87|219:69,1,150.000005722046,2|0,0:0|0:0,0:0:0:0:
131,56,158662,2,0,P|138:92|143:129,1,75.0000028610231,2|0,0:0|0:0,0:0:0:0:
204,282,158882,6,0,P|162:223|90:222,1,150.000005722046,2|0,3:2|0:0,0:0:0:0:
255,370,159213,2,0,P|297:311|369:309,1,150.000005722046,2|0,0:0|0:0,0:0:0:0:
450,353,159544,2,0,P|455:315|462:279,1,75.0000028610231,2|0,0:0|0:0,0:0:0:0:
344,161,159765,2,0,P|358:234|368:308,1,150.000005722046,2|0,3:2|0:0,0:0:0:0:
369,309,160206,1,8,0:0:0:0:
499,156,160426,2,0,P|461:150|425:143,1,75.0000028610231,2|0,0:0|0:0,0:0:0:0:
218,93,160647,6,0,P|292:82|365:68,1,150.000005722046,6|2,3:2|0:0,0:0:0:0:
356,234,160978,1,0,0:0:0:0:
356,234,161088,2,0,P|350:196|343:160,1,75.0000028610231,10|0,0:0|0:0,0:0:0:0:
218,93,161309,2,0,P|223:55|230:19,1,75.0000028610231,2|0,0:0|0:0,0:0:0:0:
259,191,161529,6,0,B|130:138|147:273|25:226,1,225.000008583069,2|0,3:2|0:0,0:0:0:0:
83,140,161971,2,0,P|120:143|154:158,1,75.0000028610231,10|0,0:0|0:0,0:0:0:0:
205,263,162191,2,0,P|239:277|276:281,1,75.0000028610231,2|0,0:0|0:0,0:0:0:0:
428,178,162412,5,6,3:0:0:0:
276,281,162632,5,4,3:0:0:0:
275,235,162743,1,4,3:0:0:0:
274,190,162853,1,4,3:2:0:0:
427,270,163073,5,6,3:0:0:0:
426,316,163184,1,4,3:0:0:0:
425,361,163294,1,6,3:2:0:0:
284,334,163514,5,4,3:0:0:0:
284,334,163624,1,4,3:0:0:0:
284,334,163735,1,4,3:0:0:0:
428,224,163956,5,4,3:0:0:0:
239,115,164176,5,4,3:2:0:0:
60,52,171235,6,0,P|52:91|72:135,1,80,6|0,3:2|0:0,0:0:0:0:
105,132,171566,2,0,P|134:158|182:163,1,80,2|0,0:0|0:0,0:0:0:0:
208,143,171897,1,2,3:2:0:0:
322,158,172118,6,0,P|330:119|310:75,1,80,2|0,0:0|0:0,0:0:0:0:
277,78,172449,2,0,P|247:51|199:46,1,80,2|0,0:0|0:0,0:0:0:0:
174,67,172780,1,2,0:0:0:0:
66,186,173000,6,0,L|83:283,1,80,2|0,3:2|0:0,0:0:0:0:
118,275,173331,2,0,L|135:372,1,80,2|0,0:0|0:0,0:0:0:0:
170,364,173662,1,2,3:2:0:0:
274,363,173882,6,0,L|257:266,1,80,2|0,0:0|0:0,0:0:0:0:
222,274,174213,2,0,L|205:177,1,80,2|0,0:0|0:0,0:0:0:0:
170,185,174544,1,2,0:0:0:0:
303,58,174765,6,0,B|344:49|344:49|388:88,1,80,6|0,3:2|0:0,0:0:0:0:
387,111,175096,2,0,B|373:150|373:150|318:170,1,80,2|0,0:0|0:0,0:0:0:0:
298,171,175426,1,2,3:2:0:0:
208,195,175647,6,0,B|167:206|167:206|146:261,1,80,2|0,0:0|0:0,0:0:0:0:
158,280,175978,2,0,B|188:309|188:309|246:299,1,80,2|0,0:0|0:0,0:0:0:0:
265,292,176308,1,2,0:0:0:0:
444,212,176529,6,0,P|450:237|424:286,1,80,2|0,3:2|0:0,0:0:0:0:
386,282,176860,2,0,P|366:248|372:209,1,80,2|0,0:0|0:0,0:0:0:0:
409,192,177190,1,2,3:2:0:0:
498,107,177412,6,0,P|504:82|478:33,1,80,2|0,0:0|0:0,0:0:0:0:
440,37,177743,2,0,P|420:70|426:109,1,80,2|0,0:0|0:0,0:0:0:0:
463,127,178073,1,2,0:0:0:0:
275,13,178294,6,0,B|291:149|244:83|263:234,1,209.999993591309,6|0,3:2|0:0,0:0:0:0:
195,75,178735,1,0,3:0:0:0:
195,75,178846,1,8,0:0:0:0:
195,75,178956,2,0,P|155:80|110:92,1,69.9999978637696,2|8,3:2|0:0,0:0:0:0:
35,156,179176,6,0,P|107:165|188:186,1,139.999995727539,2|8,3:2|0:0,0:0:0:0:
208,337,179507,2,0,P|212:268|261:220,1,139.999995727539,2|8,3:2|0:0,0:0:0:0:
348,370,179838,2,0,P|308:375|263:387,1,69.9999978637696,2|8,3:2|0:0,0:0:0:0:
366,289,180059,6,0,P|406:294|451:306,1,69.9999978637696,2|0,3:2|0:0,0:0:0:0:
512,343,180279,1,10,0:0:0:0:
512,343,180390,2,0,P|464:293|460:225,1,139.999995727539,2|8,0:0|0:0,0:0:0:0:
486,92,180721,2,0,P|503:124|503:161,1,69.9999978637696,2|8,3:2|0:0,0:0:0:0:
421,146,180941,2,0,P|353:129|284:121,1,139.999995727539,2|8,3:2|0:0,0:0:0:0:
284,121,181382,6,0,P|295:152|301:208,1,69.9999978637696,2|8,0:0|0:0,0:0:0:0:
378,224,181603,2,0,P|372:256|349:307,1,69.9999978637696,2|8,3:2|0:0,0:0:0:0:
223,228,181823,6,0,B|101:233|151:321|27:332,1,209.999993591309,2|0,3:2|0:0,0:0:0:0:
218,384,182265,1,0,3:0:0:0:
218,384,182375,1,8,0:0:0:0:
218,384,182485,2,0,P|209:349|203:305,1,69.9999978637696,2|8,3:2|0:0,0:0:0:0:
117,192,182706,6,0,P|111:227|103:261,1,69.9999978637696,2|0,3:2|0:0,0:0:0:0:
223,228,182926,1,10,0:0:0:0:
223,228,183037,2,0,P|202:162|230:100,1,139.999995727539,2|8,3:2|0:0,0:0:0:0:
302,23,183368,2,0,P|307:57|316:91,1,69.9999978637696,2|8,3:2|0:0,0:0:0:0:
162,17,183588,6,0,P|153:50|140:83,1,69.9999978637696,2|0,3:2|0:0,0:0:0:0:
5,130,183809,1,10,0:0:0:0:
5,130,183919,2,0,P|72:139|116:192,1,139.999995727539,2|8,0:0|0:0,0:0:0:0:
91,301,184250,2,0,P|117:278|151:276,1,69.9999978637696,2|8,3:2|0:0,0:0:0:0:
203,176,184471,2,0,B|220:268|301:275|301:275|356:220|446:267,1,279.999991455078,2|0,3:2|0:0,0:0:0:0:
379,378,185022,1,8,0:0:0:0:
383,336,185132,1,0,3:0:0:0:
345,352,185243,1,8,0:0:0:0:
371,357,185353,6,0,B|387:221|340:287|357:149,1,209.999993591309,6|0,3:2|0:0,0:0:0:0:
497,63,185794,1,0,3:0:0:0:
497,63,185904,1,8,0:0:0:0:
497,63,186015,2,0,P|465:82|420:91,1,69.9999978637696,2|8,3:2|0:0,0:0:0:0:
326,14,186235,6,0,P|345:81|359:175,1,139.999995727539,2|8,3:2|0:0,0:0:0:0:
465,168,186566,2,0,P|446:236|435:305,1,139.999995727539,2|8,3:2|0:0,0:0:0:0:
363,249,186897,2,0,P|331:230|286:221,1,69.9999978637696,2|8,3:2|0:0,0:0:0:0:
202,153,187118,6,0,P|234:134|279:125,1,69.9999978637696,2|0,3:2|0:0,0:0:0:0:
136,256,187338,1,10,0:0:0:0:
136,256,187448,2,0,P|124:186|106:119,1,139.999995727539,2|8,0:0|0:0,0:0:0:0:
9,19,187779,2,0,P|6:50|19:87,1,69.9999978637696,2|8,3:2|0:0,0:0:0:0:
91,41,188000,2,0,B|159:20|242:59,1,139.999995727539,2|8,3:2|0:0,0:0:0:0:
227,52,188441,6,0,P|198:72|185:104,1,69.9999978637696,2|8,0:0|0:0,0:0:0:0:
106,119,188662,2,0,P|91:150|96:184,1,69.9999978637696,2|8,3:2|0:0,0:0:0:0:
258,143,188882,6,0,B|380:148|330:236|454:247,1,209.999993591309,2|0,3:2|0:0,0:0:0:0:
500,178,189323,1,0,3:0:0:0:
500,178,189434,1,8,0:0:0:0:
500,178,189544,2,0,P|466:168|434:154,1,69.9999978637696,2|8,3:2|0:0,0:0:0:0:
353,225,189765,6,0,P|318:232|287:246,1,69.9999978637696,2|0,3:2|0:0,0:0:0:0:
210,345,189985,1,10,0:0:0:0:
210,345,190096,2,0,P|207:281|193:194,1,139.999995727539,2|8,3:2|0:0,0:0:0:0:
58,282,190426,2,0,P|92:289|123:303,1,69.9999978637696,2|8,3:2|0:0,0:0:0:0:
150,133,190647,6,0,P|63:136|126:202,2,209.999993591309,6|6|6,3:2|3:2|3:2,0:0:0:0:
150,133,191750,6,0,P|158:101|171:70,2,50,2|2|2,0:0|0:0|0:0,0:0:0:0:
207,294,192412,5,6,3:2:0:0:
207,294,193294,1,2,0:0:0:0:
364,237,194177,5,6,3:2:0:0:
364,237,195059,1,2,0:0:0:0:
308,78,195941,5,6,3:2:0:0:
308,78,196823,1,2,0:0:0:0:
150,133,197706,5,6,3:2:0:0:
150,133,198588,1,2,0:0:0:0:
257,185,199029,1,0,0:0:0:0:
364,237,199471,6,0,P|386:195|429:147,1,89.9999972534181,6|2,3:2|0:0,0:0:0:0:
452,158,199801,2,0,P|430:116|387:68,1,89.9999972534181,2|2,0:0|0:0,0:0:0:0:
367,63,200132,2,0,P|348:76|328:86,1,44.999998626709,2|0,0:0|0:0,0:0:0:0:
290,72,200353,6,0,B|207:60|237:121|145:106,2,134.999995880127,2|2|2,3:2|0:0|0:0,0:0:0:0:
370,169,201235,2,0,B|453:157|423:218|515:203,2,134.999995880127,2|2|2,3:2|0:0|0:0,0:0:0:0:
280,153,202118,2,0,P|301:244|310:342,1,179.999994506836,2|0,3:2|3:0,0:0:0:0:
309,330,202779,1,2,0:0:0:0:
280,153,203000,5,6,3:0:0:0:
218,267,203221,1,6,3:0:0:0:
146,159,203441,1,6,3:0:0:0:
208,45,203662,1,6,3:0:0:0:
299,167,203882,5,6,3:0:0:0:
194,299,204103,1,6,3:0:0:0:
126,144,204323,1,6,3:0:0:0:
231,12,204544,1,6,3:0:0:0:
318,181,204765,5,6,3:0:0:0:
146,159,204985,5,4,3:0:0:0:
154,193,205096,1,4,3:0:0:0:
164,226,205206,2,0,L|266:252,1,100,4|0,3:2|0:0,0:0:0:0:
273,288,205537,1,8,0:0:0:0:
273,288,205647,1,4,3:0:0:0:
400,383,205868,5,10,0:0:0:0:
408,349,205979,1,8,0:0:0:0:
416,315,206088,1,10,0:0:0:0:
424,281,206198,1,8,0:0:0:0:
432,247,206309,1,10,0:0:0:0:
439,212,206419,1,8,0:0:0:0:
447,178,206529,6,0,P|386:210|297:188,1,150.000005722046,6|2,3:2|0:0,0:0:0:0:
287,31,206860,2,0,P|352:-1|425:12,1,150.000005722046,2|0,0:0|0:0,0:0:0:0:
328,110,207191,2,0,L|249:120,1,75.0000028610231,2|0,0:0|0:0,0:0:0:0:
128,40,207412,6,0,L|202:49,1,75.0000028610231,2|8,3:2|0:0,0:0:0:0:
207,197,207632,1,2,0:0:0:0:
207,197,207743,2,0,B|225:108|181:146|205:37,1,150.000005722046,2|0,0:0|0:0,0:0:0:0:
48,49,208073,2,0,P|57:84|53:132,1,75.0000028610231,2|0,0:0|0:0,0:0:0:0:
14,230,208294,6,0,P|50:172|142:175,1,150.000005722046,2|0,3:2|0:0,0:0:0:0:
301,226,208625,2,0,B|195:194|221:271|141:248,1,170.000003242493,2|0,0:0|0:0,0:0:0:0:
202,113,208956,2,0,P|211:154|207:197,1,85.0000016212464,2|0,0:0|0:0,0:0:0:0:
258,300,209176,2,0,P|250:339|254:387,1,85.0000016212464,2|8,3:2|0:0,0:0:0:0:
140,248,209397,5,8,3:0:0:0:
140,248,209618,1,8,3:0:0:0:
254,384,209838,6,0,P|298:374|360:371,1,75.0000028610231,2|0,0:0|0:0,0:0:0:0:
390,242,210059,6,0,P|406:328|459:385,1,150.000005722046,6|0,3:2|0:0,0:0:0:0:
512,185,210390,2,0,P|475:176|438:171,1,75.0000028610231,2|8,0:0|0:0,0:0:0:0:
316,253,210610,1,2,0:0:0:0:
316,253,210721,2,0,P|358:249|399:239,1,75.0000028610231,2|0,0:0|0:0,0:0:0:0:
272,125,210941,6,0,P|251:159|247:207,1,75.0000028610231,2|8,3:2|0:0,0:0:0:0:
162,200,211162,1,2,0:0:0:0:
162,200,211272,2,0,P|160:239|181:283,1,75.0000028610231,2|8,0:0|0:0,0:0:0:0:
104,319,211493,1,2,0:0:0:0:
104,319,211603,2,0,P|122:354|162:381,1,75.0000028610231,2|0,0:0|0:0,0:0:0:0:
15,340,211823,6,0,P|15:265|7:190,1,150.000005722046,2|0,3:2|0:0,0:0:0:0:
162,200,212154,2,0,P|161:125|169:50,1,150.000005722046,2|0,0:0|0:0,0:0:0:0:
17,108,212485,2,0,P|51:119|83:166,1,75.0000028610231,2|0,0:0|0:0,0:0:0:0:
221,160,212706,2,0,P|187:171|155:218,1,75.0000028610231,2|8,3:2|0:0,0:0:0:0:
104,319,212926,5,8,3:0:0:0:
104,319,213147,1,8,3:0:0:0:
132,283,213257,1,8,0:0:0:0:
177,279,213368,1,10,0:0:0:0:
217,297,213478,1,8,0:0:0:0:
238,336,213588,6,0,P|275:272|341:237,1,150.000005722046,6|2,3:2|0:0,0:0:0:0:
430,314,213919,2,0,P|425:274|423:225,1,75.0000028610231,2|8,0:0|0:0,0:0:0:0:
263,233,214140,1,2,0:0:0:0:
263,233,214250,2,0,P|268:193|270:144,1,75.0000028610231,2|0,0:0|0:0,0:0:0:0:
476,167,214471,6,0,P|434:161|390:159,1,75.0000028610231,2|8,3:2|0:0,0:0:0:0:
356,44,214691,1,2,0:0:0:0:
356,44,214801,2,0,P|316:127|232:167,1,150.000005722046,2|0,0:0|0:0,0:0:0:0:
157,91,215132,2,0,P|199:84|241:82,1,75.0000028610231,2|0,0:0|0:0,0:0:0:0:
86,168,215353,6,0,P|71:94|45:24,1,150.000005722046,2|0,3:2|0:0,0:0:0:0:
35,227,215684,2,0,B|85:188|85:188|183:220,1,150.000005722046,2|0,0:0|0:0,0:0:0:0:
121,356,216015,2,0,P|114:315|92:268,1,75.0000028610231,2|0,0:0|0:0,0:0:0:0:
260,230,216235,2,0,P|227:308|210:391,1,150.000005722046,2|0,3:2|0:0,0:0:0:0:
212,371,216676,1,8,0:0:0:0:
394,298,216897,2,0,P|352:291|310:289,1,75.0000028610231,2|0,0:0|0:0,0:0:0:0:
506,360,217118,6,0,P|473:282|456:199,1,150.000005722046,6|2,3:2|0:0,0:0:0:0:
382,104,217448,1,0,0:0:0:0:
382,104,217559,2,0,P|384:150|376:212,1,75.0000028610231,10|0,0:0|0:0,0:0:0:0:
462,78,217779,2,0,P|479:115|503:150,1,75.0000028610231,2|0,0:0|0:0,0:0:0:0:
311,55,218000,6,0,P|211:113|242:217,1,225.000008583069,2|0,3:2|0:0,0:0:0:0:
382,178,218441,2,0,P|346:166|310:174,1,75.0000028610231,10|0,0:0|0:0,0:0:0:0:
189,278,218662,2,0,P|224:289|260:283,1,75.0000028610231,2|0,0:0|0:0,0:0:0:0:
110,166,218882,5,6,3:0:0:0:
66,342,219103,5,4,3:0:0:0:
54,298,219213,1,4,3:0:0:0:
42,254,219323,1,4,3:2:0:0:
213,190,219544,5,4,3:0:0:0:
201,234,219654,1,4,3:0:0:0:
189,278,219764,1,4,3:2:0:0:
26,159,219985,5,10,0:0:0:0:
66,175,220096,1,8,0:0:0:0:
110,166,220206,1,10,0:0:0:0:
144,137,220316,1,8,0:0:0:0:
176,109,220426,1,10,0:0:0:0:
220,99,220536,1,8,0:0:0:0:
262,117,220647,6,0,P|232:195|285:257,1,160,6|8,3:2|0:0,0:0:0:0:
394,158,220978,2,0,L|303:184,1,80,2|0,0:0|3:0,0:0:0:0:
231,329,221198,1,2,3:2:0:0:
231,329,221309,2,0,L|322:355,1,80,10|0,0:0|0:0,0:0:0:0:
394,158,221529,6,0,B|412:267|373:224|391:342,1,160,2|8,3:2|0:0,0:0:0:0:
469,119,221860,2,0,P|445:89|398:73,1,80,2|0,0:0|3:0,0:0:0:0:
257,114,222081,1,2,3:2:0:0:
257,114,222191,2,0,P|295:102|322:74,1,80,10|0,0:0|0:0,0:0:0:0:
116,26,222412,6,0,P|170:89|142:165,1,160,2|8,3:2|0:0,0:0:0:0:
0,217,222743,2,0,B|108:179|87:273|204:232,1,179.999994506836,2|0,0:0|3:0,0:0:0:0:
68,380,223073,2,0,P|58:333|32:265,1,89.9999972534181,10|0,0:0|0:0,0:0:0:0:
150,156,223294,2,0,P|159:111|173:69,1,89.9999972534181,2|0,3:2|0:0,0:0:0:0:
0,16,223515,6,0,B|10:46|10:46|23:58|23:58|34:86,1,80,8|0,3:0|0:0,0:0:0:0:
11,13,223735,2,0,B|21:43|21:43|34:55|34:55|45:83,1,80,8|0,3:0|0:0,0:0:0:0:
173,69,223956,5,2,3:2:0:0:
209,38,224066,1,0,3:0:0:0:
179,0,224176,6,0,P|165:49|149:175,1,160,6|10,3:2|0:0,0:0:0:0:
321,103,224507,2,0,P|286:100|240:110,1,80,2|0,0:0|3:0,0:0:0:0:
106,242,224728,1,2,3:2:0:0:
106,242,224838,2,0,P|141:239|187:249,1,80,10|0,0:0|0:0,0:0:0:0:
286,189,225059,6,0,P|277:227|267:288,1,80,2|0,3:2|0:0,0:0:0:0:
406,226,225279,1,10,0:0:0:0:
406,226,225390,2,0,P|379:254|340:302,1,80,2|0,0:0|3:0,0:0:0:0:
491,318,225610,1,2,3:2:0:0:
491,318,225721,2,0,P|453:329|395:351,1,80,10|0,0:0|0:0,0:0:0:0:
433,84,225941,6,0,B|447:187|476:131|491:229,1,160,2|8,3:2|0:0,0:0:0:0:
353,109,226272,2,0,P|288:150|290:226,1,160,2|0,0:0|3:0,0:0:0:0:
414,342,226603,2,0,P|374:347|311:366,1,80,8|0,0:0|0:0,0:0:0:0:
179,291,226823,2,0,P|219:296|282:315,1,80,2|0,3:2|0:0,0:0:0:0:
51,384,227044,6,0,B|41:354|41:354|28:342|28:342|17:314,1,80,8|0,3:0|0:0,0:0:0:0:
62,381,227264,2,0,B|52:351|52:351|39:339|39:339|28:311,1,80,8|8,3:0|0:0,0:0:0:0:
96,185,227485,5,10,0:0:0:0:
122,226,227596,1,8,0:0:0:0:
95,266,227706,6,0,P|138:155|178:107,1,160,6|10,3:2|0:0,0:0:0:0:
51,33,228037,2,0,P|54:72|67:110,1,80,2|0,0:0|3:0,0:0:0:0:
232,78,228257,1,2,3:2:0:0:
232,78,228368,2,0,P|227:37|214:0,1,80,10|0,0:0|0:0,0:0:0:0:
213,199,228588,6,0,P|235:167|273:157,1,80,2|0,3:2|0:0,0:0:0:0:
349,18,228809,1,10,0:0:0:0:
349,18,228919,2,0,B|322:76|322:76|382:172,1,160,2|0,0:0|3:0,0:0:0:0:
479,112,229250,2,0,P|456:80|418:70,1,80,10|0,0:0|0:0,0:0:0:0:
289,235,229471,6,0,P|282:195|273:157,1,80,2|0,3:2|0:0,0:0:0:0:
477,207,229691,1,10,0:0:0:0:
477,207,229801,2,0,P|402:238|353:299,1,160,2|0,0:0|3:0,0:0:0:0:
457,377,230132,2,0,P|464:338|473:299,1,80,10|0,0:0|0:0,0:0:0:0:
353,298,230353,2,0,B|258:286|296:356|186:341,1,160,2|8,3:2|0:0,0:0:0:0:
205,342,230794,5,0,3:0:0:0:
238,307,230904,1,0,3:0:0:0:
238,258,231015,1,10,0:0:0:0:
214,216,231125,1,8,0:0:0:0:
168,200,231235,6,0,P|138:281|129:368,1,160,6|6,3:2|3:0,0:0:0:0:
0,222,231566,1,0,0:0:0:0:
0,222,231676,2,0,P|34:220|80:202,1,80,6|0,3:0|0:0,0:0:0:0:
228,134,231897,2,0,P|190:119|151:115,1,80,6|0,3:0|0:0,0:0:0:0:
326,208,232118,6,0,L|314:128,1,80,6|0,3:0|0:0,0:0:0:0:
163,35,232338,2,0,L|151:114,1,80,4|0,3:0|0:0,0:0:0:0:
364,69,232559,6,0,P|331:48|292:50,1,80,6|0,3:0|0:0,0:0:0:0:
162,241,232779,2,0,P|201:243|235:222,1,80,6|0,3:0|0:0,0:0:0:0:
314,128,233000,5,6,3:0:0:0:
345,164,233110,1,0,3:0:0:0:
326,208,233221,1,4,3:0:0:0:
322,255,233331,1,0,3:0:0:0:
355,289,233441,1,4,3:0:0:0:
351,336,233551,1,0,3:0:0:0:
307,356,233662,1,6,3:0:0:0:
269,326,233772,1,0,3:0:0:0:
313,308,233882,6,0,B|344:328|369:372,1,80,6|0,3:0|0:0,0:0:0:0:
468,318,234103,5,8,0:0:0:0:
468,318,234213,1,8,0:0:0:0:
462,351,234323,5,8,3:2:0:0:
435,310,234434,1,8,0:0:0:0:
475,284,234544,1,10,0:0:0:0:
502,325,234655,1,8,0:0:0:0:
468,318,234765,6,0,P|480:277|496:233,1,80,6|0,3:2|3:0,0:0:0:0:
371,118,234985,2,0,P|360:79|346:41,1,80,6|0,3:0|3:0,0:0:0:0:
491,159,235206,5,6,3:0:0:0:
444,169,235316,1,0,3:0:0:0:
417,208,235426,1,6,3:0:0:0:
370,198,235536,1,0,3:0:0:0:
336,232,235647,5,6,3:0:0:0:
318,187,235757,1,0,3:0:0:0:
278,158,235868,1,6,3:0:0:0:
230,152,235978,1,0,3:0:0:0:
189,173,236088,5,6,3:0:0:0:
189,173,236198,1,0,3:0:0:0:
231,205,236309,5,6,3:0:0:0:
231,205,236419,1,0,3:0:0:0:
230,152,236529,6,0,B|160:210|224:216|139:289,1,150,2|2,0:0|0:0,0:0:0:0:
146,262,237412,2,0,P|195:294|221:337,1,100,2|0,0:0|0:0,0:0:0:0:
