osu file format v14

[General]
AudioFilename: audio.mp3
AudioLeadIn: 0
PreviewTime: 64691
Countdown: 0
SampleSet: Soft
StackLeniency: 0.4
Mode: 0
LetterboxInBreaks: 0
WidescreenStoryboard: 1

[Editor]
DistanceSpacing: 1
BeatDivisor: 4
GridSize: 16
TimelineZoom: 1.8

[Metadata]
Title:Taishou x
TitleUnicode:対象x
Artist:Mahiru
ArtistUnicode:まひる
Creator:kuyusu
Version:Hard
Source:
Tags:YURRY CANON ユリイ・カノン vocaloid megpoid gumi メグッポイド Toward x Japanese rock cover utaite Regina
BeatmapID:2581223
BeatmapSetID:1238277

[Difficulty]
HPDrainRate:4
CircleSize:3.6
OverallDifficulty:7
ApproachRate:8
SliderMultiplier:1.6
SliderTickRate:1

[Events]
//Background and Video events
0,0,"a.jpg",0,0
//Break Periods
2,164376,170485
//Storyboard Layer 0 (Background)
//Storyboard Layer 1 (Fail)
//Storyboard Layer 2 (Pass)
//Storyboard Layer 3 (Foreground)
//Storyboard Layer 4 (Overlay)
//Storyboard Sound Samples

[TimingPoints]
1824,441.176470588235,4,2,1,40,1,0
1824,-125,4,2,1,40,0,0
8882,-100,4,2,1,50,0,0
15831,-100,4,2,1,5,0,0
15941,-100,4,2,1,50,0,0
22890,-100,4,2,1,5,0,0
23000,-90.9090909090909,4,2,1,60,0,0
37118,-100,4,2,1,50,0,0
51235,-111.111111111111,4,2,1,45,0,0
54434,-111.111111111111,4,2,1,5,0,0
54544,-111.111111111111,4,2,1,45,0,0
57522,-111.111111111111,4,2,1,5,0,0
57632,-111.111111111111,4,2,1,45,0,0
58294,-111.111111111111,4,2,1,40,0,0
61823,-100,4,2,1,50,0,0
63588,-150.375939849624,4,2,1,50,0,0
64691,-100,4,2,1,50,0,0
65353,-83.3333333333333,4,2,1,70,0,1
93588,-90.9090909090909,4,2,1,60,0,0
107706,-95.2380952380952,4,2,1,55,0,0
121823,-111.111111111111,4,2,1,45,0,0
123919,-111.111111111111,4,2,1,5,0,0
124029,-111.111111111111,4,2,1,45,0,0
125022,-111.111111111111,4,2,1,5,0,0
125132,-111.111111111111,4,2,1,45,0,0
128110,-111.111111111111,4,2,1,5,0,0
128220,-111.111111111111,4,2,1,45,0,0
128882,-111.111111111111,4,2,1,40,0,0
132412,-100,4,2,1,50,0,0
134176,-150.375939849624,4,2,1,50,0,0
135279,-100,4,2,1,50,0,0
135941,-83.3333333333333,4,2,1,70,0,1
164176,-125,4,2,1,40,0,0
178294,-86.9565217391304,4,2,1,60,0,0
178625,-86.9565217391304,4,2,1,5,0,0
178735,-86.9565217391304,4,2,1,60,0,0
182154,-86.9565217391304,4,2,1,5,0,0
182265,-86.9565217391304,4,2,1,60,0,0
185684,-86.9565217391304,4,2,1,5,0,0
185794,-86.9565217391304,4,2,1,60,0,0
189213,-86.9565217391304,4,2,1,5,0,0
189324,-86.9565217391304,4,2,1,60,0,0
191750,-142.857142857143,4,2,1,40,0,0
199471,-111.111111111111,4,2,1,45,0,0
200243,-111.111111111111,4,2,1,5,0,0
200353,-111.111111111111,4,2,1,45,0,0
203000,-100,4,2,1,50,0,0
206529,-83.3333333333333,4,2,1,70,0,1
220537,-83.3333333333333,4,2,1,70,0,0
220647,-76.9230769230769,4,2,1,80,0,1
236529,-142.857142857143,4,2,1,40,0,0
236971,-142.857142857143,4,2,1,5,0,0
237191,-142.857142857143,4,2,1,40,0,0

[Colours]
Combo1 : 113,112,113
Combo2 : 162,138,130
Combo3 : 187,166,183
Combo4 : 181,184,169

[HitObjects]
6,124,1824,6,0,P|69:135|146:177,1,128,2|0,3:2|3:2,0:0:0:0:
186,114,2485,2,0,L|191:64,1,32,0|2,0:0|0:0,0:0:0:0:
210,49,2706,2,0,P|267:77|329:92,1,128,4|0,3:0|0:0,0:0:0:0:
402,230,3588,6,0,P|339:241|262:283,1,128,2|0,3:2|3:0,0:0:0:0:
222,220,4250,2,0,L|217:170,1,32,0|2,0:0|0:0,0:0:0:0:
248,164,4471,2,0,L|254:100,2,64,0|0|0,3:0|0:0|0:0,0:0:0:0:
113,89,5353,6,0,P|56:103|19:185,1,128,2|0,3:2|3:0,0:0:0:0:
41,232,6015,2,0,L|72:235,1,32,0|2,0:0|0:0,0:0:0:0:
102,258,6235,2,0,P|134:311|195:327,1,128,4|0,3:0|0:0,0:0:0:0:
302,216,7118,6,0,P|359:230|396:312,1,128,2|0,3:2|3:0,0:0:0:0:
366,356,7779,2,0,L|334:352,1,32,0|2,0:0|0:0,0:0:0:0:
303,329,8000,2,0,L|239:335,2,64,0|0|0,3:0|0:0|0:0,0:0:0:0:
395,160,8882,5,0,3:0:0:0:
434,90,9103,2,0,P|472:81|512:76,2,80,2|2|2,0:0|3:2|0:0,0:0:0:0:
370,40,9765,2,0,P|293:43|262:112,1,160,6|0,3:0|0:0,0:0:0:0:
226,183,10426,2,0,P|206:178|186:174,1,40,2|2,0:0|0:0,0:0:0:0:
152,195,10647,6,0,P|143:155|132:117,2,80,2|2|0,3:2|0:0|3:0,0:0:0:0:
127,271,11309,1,2,0:0:0:0:
55,237,11529,2,0,P|43:275|35:314,1,80,2|2,3:2|0:0,0:0:0:0:
88,374,11971,1,0,3:0:0:0:
205,265,12412,5,0,3:0:0:0:
278,297,12632,2,0,P|268:341|248:387,2,80,2|2|2,0:0|3:2|0:0,0:0:0:0:
323,230,13294,2,0,B|417:207|385:276|485:256,1,160,6|0,3:0|3:0,0:0:0:0:
456,179,13956,2,0,P|447:156|442:133,1,40,2|2,0:0|0:0,0:0:0:0:
474,115,14176,6,0,P|488:77|496:38,2,80,2|2|0,3:2|0:0|3:0,0:0:0:0:
405,73,14838,1,2,0:0:0:0:
329,101,15059,2,0,P|303:52|239:29,2,120,2|2|2,3:2|0:0|0:0,0:0:0:0:
291,171,15941,5,0,3:0:0:0:
216,141,16162,2,0,L|133:132,2,80,2|2|2,0:0|3:2|0:0,0:0:0:0:
226,220,16823,2,0,P|202:290|116:323,1,160,6|0,3:0|0:0,0:0:0:0:
91,252,17485,2,0,L|51:256,1,40,2|2,0:0|0:0,0:0:0:0:
16,276,17706,6,0,P|9:315|0:354,2,80,2|2|0,3:2|0:0|3:0,0:0:0:0:
3,196,18368,1,2,0:0:0:0:
53,134,18588,2,0,L|132:142,1,80,2|2,3:2|0:0,0:0:0:0:
212,150,19029,1,0,3:0:0:0:
338,52,19471,5,0,3:0:0:0:
407,93,19691,2,0,L|486:85,2,80,2|2|2,0:0|3:2|0:0,0:0:0:0:
353,152,20353,2,0,B|341:257|376:215|364:310,1,160,6|0,3:0|3:0,0:0:0:0:
314,372,21015,2,0,L|274:367,1,40,2|2,0:0|0:0,0:0:0:0:
234,372,21235,6,0,P|249:325|246:276,1,80,2|2,3:2|0:0,0:0:0:0:
214,275,21566,2,0,P|200:237|198:197,1,80,2|2,0:0|0:0,0:0:0:0:
218,163,21897,1,2,0:0:0:0:
298,172,22118,2,0,B|372:180|332:218|425:234,2,120,6|2|2,3:0|0:0|0:0,0:0:0:0:
286,84,23000,6,0,P|242:65|192:72,1,88.000002685547,6|2,3:2|0:0,0:0:0:0:
175,103,23331,2,0,P|135:121|91:119,1,88.000002685547,10|2,0:0|0:0,0:0:0:0:
56,92,23662,1,10,0:0:0:0:
14,168,23882,5,2,3:2:0:0:
92,219,24103,1,2,0:0:0:0:
92,219,24213,2,0,L|75:305,1,88.000002685547,10|2,0:0|0:0,0:0:0:0:
39,331,24544,1,10,0:0:0:0:
113,378,24765,5,2,3:2:0:0:
192,338,24985,1,2,0:0:0:0:
192,338,25096,2,0,P|218:347|252:351,1,44.0000013427735,10|0,0:0|3:0,0:0:0:0:
278,369,25316,1,2,0:0:0:0:
278,369,25426,2,0,P|292:319|350:282,1,88.000002685547,10|0,0:0|3:0,0:0:0:0:
360,285,25757,6,0,L|417:296,2,44.0000013427735,2|2|10,0:0|0:0|0:0,0:0:0:0:
332,250,26088,2,0,L|288:258,2,44.0000013427735,2|2|10,3:2|0:0|0:0,0:0:0:0:
376,173,26529,6,0,P|419:172|467:188,1,88.000002685547,6|2,3:2|0:0,0:0:0:0:
489,151,26860,2,0,P|466:113|456:64,1,88.000002685547,10|2,0:0|0:0,0:0:0:0:
466,27,27191,1,10,0:0:0:0:
379,7,27412,5,2,3:2:0:0:
316,67,27632,1,2,0:0:0:0:
316,67,27743,2,0,L|209:81,1,88.000002685547,10|2,0:0|0:0,0:0:0:0:
190,99,28073,1,10,0:0:0:0:
107,67,28294,5,2,3:2:0:0:
91,156,28515,1,2,0:0:0:0:
91,156,28625,2,0,L|99:199,1,44.0000013427735,10|0,0:0|3:0,0:0:0:0:
79,240,28846,1,2,0:0:0:0:
79,240,28956,2,0,P|41:251|18:292,1,88.000002685547,10|0,0:0|3:0,0:0:0:0:
45,326,29287,6,0,L|87:336,1,44.0000013427735,2|2,0:0|0:0,0:0:0:0:
128,320,29507,2,0,L|170:309,3,44.0000013427735,10|10|10|10,0:0|3:2|0:0|0:0,0:0:0:0:
250,346,30059,6,0,P|256:304|281:235,1,88.000002685547,6|2,3:2|0:0,0:0:0:0:
307,238,30390,2,0,P|300:194|287:152,1,88.000002685547,10|2,0:0|0:0,0:0:0:0:
272,110,30721,1,10,0:0:0:0:
327,41,30941,5,2,3:2:0:0:
417,58,31162,1,2,0:0:0:0:
417,58,31272,2,0,P|403:99|397:143,1,88.000002685547,10|2,0:0|0:0,0:0:0:0:
436,162,31603,1,10,0:0:0:0:
388,236,31823,5,2,3:2:0:0:
441,314,32044,1,2,0:0:0:0:
441,314,32154,2,0,P|431:333|426:355,1,44.0000013427735,10|0,0:0|3:0,0:0:0:0:
388,375,32375,1,2,0:0:0:0:
388,375,32485,2,0,P|351:352|291:352,1,88.000002685547,10|0,0:0|3:0,0:0:0:0:
275,317,32816,6,0,L|264:260,2,44.0000013427735,2|2|10,0:0|0:0|0:0,0:0:0:0:
237,340,33147,2,0,L|228:383,2,44.0000013427735,2|2|10,3:2|0:0|0:0,0:0:0:0:
189,265,33588,6,0,P|160:242|103:241,1,88.000002685547,6|2,3:2|0:0,0:0:0:0:
94,279,33919,2,0,P|65:302|8:303,1,88.000002685547,10|2,0:0|0:0,0:0:0:0:
1,263,34250,1,10,0:0:0:0:
47,188,34471,5,2,3:2:0:0:
6,117,34691,1,2,0:0:0:0:
6,117,34801,2,0,L|38:28,1,88.000002685547,10|2,0:0|0:0,0:0:0:0:
79,25,35132,1,10,0:0:0:0:
129,97,35353,5,2,3:2:0:0:
214,68,35573,1,2,0:0:0:0:
214,68,35684,2,0,P|233:58|255:54,1,44.0000013427735,10|0,0:0|3:0,0:0:0:0:
289,90,35904,1,2,0:0:0:0:
289,90,36015,2,0,P|272:137|304:180,1,88.000002685547,10|0,0:0|3:0,0:0:0:0:
326,190,36346,6,0,L|344:266,1,44.0000013427735,2|2,0:0|0:0,0:0:0:0:
310,268,36566,2,0,L|299:310,3,44.0000013427735,10|10|10|10,0:0|3:2|0:0|0:0,0:0:0:0:
353,369,37118,5,0,3:0:0:0:
425,335,37338,2,0,P|471:354|512:380,2,80,2|2|2,0:0|3:2|0:0,0:0:0:0:
396,260,38000,2,0,P|401:176|422:75,1,160,6|0,3:0|3:0,0:0:0:0:
363,39,38662,2,0,P|344:46|326:55,1,40,2|0,0:0|0:0,0:0:0:0:
302,86,38882,6,0,P|266:57|208:46,1,80,2|0,3:2|0:0,0:0:0:0:
200,68,39213,2,0,P|164:97|106:108,1,80,2|0,0:0|0:0,0:0:0:0:
93,96,39544,1,2,0:0:0:0:
30,145,39765,2,0,P|23:184|20:224,1,80,2|2,3:2|0:0,0:0:0:0:
47,300,40206,1,0,3:0:0:0:
190,228,40647,5,0,3:0:0:0:
246,285,40868,2,0,P|252:324|255:364,2,80,2|2|2,0:0|3:2|0:0,0:0:0:0:
280,213,41529,2,0,B|370:192|353:268|449:240,1,160,6|0,3:0|3:0,0:0:0:0:
480,181,42191,2,0,P|479:161|477:141,1,40,2|2,0:0|0:0,0:0:0:0:
450,111,42412,6,0,P|487:91|501:36,2,80,2|2|0,3:0|0:0|3:0,0:0:0:0:
385,64,43073,1,2,0:0:0:0:
320,111,43294,2,0,B|319:189|342:152|339:239,2,120,2|2|2,3:2|0:0|0:0,0:0:0:0:
260,57,44176,5,0,3:0:0:0:
184,82,44397,2,0,P|166:46|131:28,2,80,2|2|2,0:0|3:2|0:0,0:0:0:0:
157,157,45059,2,0,P|83:165|0:181,1,160,6|0,3:0|3:0,0:0:0:0:
7,260,45721,2,0,P|18:276|26:294,1,40,2|2,0:0|0:0,0:0:0:0:
62,310,45941,6,0,P|43:345|32:383,2,80,2|2|0,3:2|0:0|0:0,0:0:0:0:
133,272,46603,1,2,0:0:0:0:
211,287,46823,2,0,L|225:186,1,80,2|2,3:2|0:0,0:0:0:0:
275,147,47265,1,0,3:0:0:0:
180,19,47706,5,0,3:0:0:0:
138,87,47926,2,0,L|58:97,2,80,2|2|2,0:0|3:2|0:0,0:0:0:0:
185,151,48588,2,0,L|343:172,1,160,6|0,3:0|3:0,0:0:0:0:
415,208,49250,2,0,P|407:226|405:246,1,40,2|2,0:0|0:0,0:0:0:0:
424,281,49471,5,2,3:2:0:0:
376,345,49691,1,2,0:0:0:0:
376,345,49801,1,2,0:0:0:0:
376,345,49912,2,0,P|335:341|272:339,1,80,2|2,3:2|0:0,0:0:0:0:
220,365,50353,5,10,3:2:0:0:
220,365,50463,1,8,0:0:0:0:
220,365,50573,2,0,L|201:309,1,40,10|10,0:0|3:2,0:0:0:0:
225,291,50794,2,0,L|244:235,3,40,8|10|10|8,0:0|0:0|3:2|0:0,0:0:0:0:
220,217,51235,6,0,B|138:200|161:265|60:244,1,143.999995605469,6|8,3:2|0:0,0:0:0:0:
29,189,51897,1,2,3:2:0:0:
75,124,52118,2,0,P|65:72|14:18,2,107.999996704102,2|2|2,3:2|0:0|0:0,0:0:0:0:
142,164,53000,6,0,L|229:178,1,71.9999978027344,2|2,3:2|0:0,0:0:0:0:
276,127,53441,2,0,L|363:141,1,71.9999978027344,10|2,0:0|3:2,0:0:0:0:
410,90,53882,2,0,P|443:110|455:157,1,71.9999978027344,2|0,3:2|0:0,0:0:0:0:
487,163,54213,2,0,P|486:201|451:235,1,71.9999978027344,2|0,0:0|0:0,0:0:0:0:
440,257,54544,2,0,L|404:262,1,35.9999989013672,2|2,0:0|0:0,0:0:0:0:
375,235,54765,6,0,P|307:249|286:325,1,143.999995605469,6|8,3:2|0:0,0:0:0:0:
222,364,55426,1,2,3:2:0:0:
150,329,55647,2,0,P|98:337|34:358,2,107.999996704102,2|2|2,3:2|0:0|0:0,0:0:0:0:
211,278,56529,6,0,L|225:191,1,71.9999978027344,2|2,3:2|0:0,0:0:0:0:
161,155,56970,2,0,L|175:68,1,71.9999978027344,10|2,0:0|3:2,0:0:0:0:
114,29,57412,2,0,P|77:23|32:8,2,71.9999978027344,2|2|8,3:2|0:0|0:0,0:0:0:0:
189,5,58073,1,8,0:0:0:0:
249,56,58294,5,2,3:2:0:0:
249,56,60059,5,2,0:0:0:0:
249,56,61823,6,0,P|283:78|336:73,1,80,6|4,3:0|3:0,0:0:0:0:
364,155,62265,2,0,P|341:189|346:242,1,80,4|4,3:0|3:0,0:0:0:0:
265,271,62706,2,0,P|230:248|177:253,1,80,4|4,3:0|3:0,0:0:0:0:
149,171,63147,2,0,P|171:136|166:83,1,80,6|6,3:0|3:0,0:0:0:0:
249,56,63588,6,0,P|283:78|336:73,2,80,6|6|6,3:2|3:2|3:2,0:0:0:0:
97,50,64691,5,2,0:0:0:0:
171,98,64912,1,2,0:0:0:0:
167,185,65132,1,2,0:0:0:0:
160,293,65353,6,0,P|101:261|46:313,2,143.999995605469,6|2|2,3:2|0:0|0:0,0:0:0:0:
213,373,66235,2,0,L|308:381,1,95.9999970703126,2|2,3:2|0:0,0:0:0:0:
330,338,66566,2,0,L|425:329,1,95.9999970703126,2|0,0:0|0:0,0:0:0:0:
464,357,66897,1,2,0:0:0:0:
496,266,67118,6,0,P|499:218|467:161,1,95.9999970703126,2|0,3:2|0:0,0:0:0:0:
435,157,67448,2,0,P|391:176|358:233,1,95.9999970703126,2|0,0:0|0:0,0:0:0:0:
338,256,67779,2,0,L|290:260,1,47.9999985351563,2|0,0:0|0:0,0:0:0:0:
258,223,68000,2,0,L|210:227,1,47.9999985351563,2|8,3:2|0:0,0:0:0:0:
171,256,68221,5,8,3:0:0:0:
96,196,68441,1,8,3:0:0:0:
124,104,68662,2,0,L|187:89,1,47.9999985351563,2|0,0:0|0:0,0:0:0:0:
201,56,68882,6,0,P|225:104|287:112,1,95.9999970703126,6|0,3:2|0:0,0:0:0:0:
310,111,69213,2,0,P|334:63|396:55,1,95.9999970703126,2|2,0:0|0:0,0:0:0:0:
407,82,69544,1,2,0:0:0:0:
502,69,69765,5,2,3:2:0:0:
469,161,69985,1,2,0:0:0:0:
469,161,70096,2,0,L|486:268,1,95.9999970703126,2|2,0:0|0:0,0:0:0:0:
509,296,70426,1,2,0:0:0:0:
428,349,70647,6,0,P|389:322|329:315,1,95.9999970703126,2|0,3:2|0:0,0:0:0:0:
299,337,70978,2,0,P|260:364|200:371,1,95.9999970703126,2|0,0:0|0:0,0:0:0:0:
170,348,71309,2,0,L|155:285,1,47.9999985351563,2|0,0:0|0:0,0:0:0:0:
196,271,71529,2,0,L|211:208,1,47.9999985351563,2|8,3:2|0:0,0:0:0:0:
182,182,71750,5,8,3:0:0:0:
245,110,71971,1,8,3:0:0:0:
245,110,72081,1,8,0:0:0:0:
245,110,72191,2,0,L|230:47,1,47.9999985351563,10|8,0:0|0:0,0:0:0:0:
198,30,72412,6,0,P|155:33|99:73,1,95.9999970703126,6|2,3:2|0:0,0:0:0:0:
61,58,72743,2,0,P|42:96|48:165,1,95.9999970703126,2|2,0:0|0:0,0:0:0:0:
70,187,73073,2,0,L|130:194,1,47.9999985351563,2|0,0:0|0:0,0:0:0:0:
160,169,73294,5,2,3:2:0:0:
233,239,73515,1,2,0:0:0:0:
233,239,73625,2,0,L|328:227,1,95.9999970703126,2|0,0:0|0:0,0:0:0:0:
363,259,73956,1,2,0:0:0:0:
456,238,74176,6,0,P|472:183|509:131,1,95.9999970703126,2|0,3:2|0:0,0:0:0:0:
445,137,74507,2,0,P|429:82|392:30,1,95.9999970703126,2|0,0:0|0:0,0:0:0:0:
424,3,74838,1,2,0:0:0:0:
327,1,75059,2,0,L|232:13,1,95.9999970703126,2|0,3:2|0:0,0:0:0:0:
137,32,75500,1,8,0:0:0:0:
93,117,75721,2,0,L|45:110,1,47.9999985351563,2|0,0:0|0:0,0:0:0:0:
4,87,75941,6,0,P|15:133|15:181,1,95.9999970703126,6|2,3:2|0:0,0:0:0:0:
107,206,76382,2,0,P|95:252|95:300,1,95.9999970703126,10|2,0:0|0:0,0:0:0:0:
15,354,76823,2,0,B|102:329|80:387|166:361,1,143.999995605469,2|0,3:2|0:0,0:0:0:0:
184,325,77265,2,0,P|231:325|278:336,1,95.9999970703126,10|2,0:0|0:0,0:0:0:0:
364,379,77706,5,6,3:0:0:0:
457,356,77926,2,0,L|451:308,1,47.9999985351563,4|4,3:0|3:0,0:0:0:0:
445,260,78147,1,4,3:2:0:0:
348,248,78368,2,0,P|322:252|291:265,2,47.9999985351563,4|4|4,3:0|3:0|3:2,0:0:0:0:
413,178,78809,1,10,0:0:0:0:
413,178,78919,1,8,0:0:0:0:
413,178,79029,2,0,L|418:130,1,47.9999985351563,10|8,3:2|0:0,0:0:0:0:
380,99,79250,2,0,L|375:51,1,47.9999985351563,10|8,0:0|0:0,0:0:0:0:
406,14,79471,6,0,P|473:15|494:88,2,143.999995605469,6|2|2,3:2|0:0|0:0,0:0:0:0:
310,4,80353,2,0,P|264:17|194:25,1,95.9999970703126,2|0,3:2|0:0,0:0:0:0:
192,66,80684,2,0,P|146:53|76:45,1,95.9999970703126,2|2,0:0|0:0,0:0:0:0:
51,36,81015,1,2,0:0:0:0:
17,125,81235,6,0,P|15:172|37:214,1,95.9999970703126,2|0,3:2|0:0,0:0:0:0:
73,246,81566,2,0,P|113:220|160:220,1,95.9999970703126,2|0,0:0|0:0,0:0:0:0:
183,263,81897,2,0,L|245:277,1,47.9999985351563,2|0,0:0|0:0,0:0:0:0:
277,263,82118,2,0,L|339:277,1,47.9999985351563,2|8,3:2|0:0,0:0:0:0:
363,300,82338,5,8,3:0:0:0:
459,294,82559,1,8,3:0:0:0:
403,215,82779,2,0,L|417:153,1,47.9999985351563,2|0,0:0|0:0,0:0:0:0:
451,138,83000,6,0,P|406:124|357:85,1,95.9999970703126,6|2,3:2|0:0,0:0:0:0:
344,53,83331,2,0,P|305:80|259:94,1,95.9999970703126,2|2,0:0|0:0,0:0:0:0:
211,92,83662,1,2,0:0:0:0:
128,42,83882,5,2,3:2:0:0:
73,120,84103,1,2,0:0:0:0:
73,120,84213,2,0,P|99:160|107:213,1,95.9999970703126,2|2,0:0|0:0,0:0:0:0:
93,253,84544,1,2,0:0:0:0:
91,349,84765,6,0,P|126:376|186:346,1,95.9999970703126,2|0,3:2|0:0,0:0:0:0:
195,321,85096,2,0,P|239:308|277:335,1,95.9999970703126,2|0,0:0|0:0,0:0:0:0:
321,353,85426,2,0,L|375:333,1,47.9999985351563
402,368,85647,2,0,L|447:384,1,47.9999985351563,2|8,3:2|0:0,0:0:0:0:
486,356,85868,5,8,3:0:0:0:
445,280,86088,1,8,3:0:0:0:
445,280,86198,1,8,0:0:0:0:
445,280,86309,2,0,L|461:234,1,47.9999985351563,10|8,0:0|0:0,0:0:0:0:
503,208,86529,6,0,P|489:163|453:132,1,95.9999970703126,6|2,3:2|0:0,0:0:0:0:
447,85,86860,2,0,P|401:73|356:89,1,95.9999970703126,2|2,0:0|0:0,0:0:0:0:
316,117,87191,2,0,L|332:162,1,47.9999985351563,2|0,0:0|0:0,0:0:0:0:
370,192,87412,5,2,3:2:0:0:
326,279,87632,1,2,0:0:0:0:
326,279,87743,2,0,P|280:290|235:274,1,95.9999970703126,2|0,0:0|0:0,0:0:0:0:
209,234,88073,1,2,0:0:0:0:
234,141,88294,6,0,B|192:119|192:119|134:145,1,95.9999970703126,2|2,3:2|0:0,0:0:0:0:
132,184,88625,2,0,B|90:206|90:206|32:180,1,95.9999970703126,2|0,0:0|0:0,0:0:0:0:
17,146,88956,1,2,0:0:0:0:
31,51,89176,2,0,L|149:59,1,95.9999970703126,2|0,3:2|0:0,0:0:0:0:
214,17,89618,1,8,0:0:0:0:
294,69,89838,2,0,L|341:65,1,47.9999985351563,2|0,0:0|0:0,0:0:0:0:
388,52,90059,6,0,P|369:94|385:138,1,95.9999970703126,6|2,3:2|0:0,0:0:0:0:
474,176,90500,2,0,P|492:218|476:262,1,95.9999970703126,10|2,0:0|0:0,0:0:0:0:
403,325,90941,2,0,P|346:282|253:301,1,143.999995605469,2|0,3:2|0:0,0:0:0:0:
251,328,91382,2,0,P|212:354|166:346,1,95.9999970703126,10|2,0:0|0:0,0:0:0:0:
81,298,91823,5,6,3:0:0:0:
162,246,92044,2,0,P|159:222|145:191,1,47.9999985351563,4|4,3:0|3:0,0:0:0:0:
116,165,92265,1,4,3:2:0:0:
20,165,92485,2,0,L|9:221,2,47.9999985351563,6|4|6,3:0|3:0|3:2,0:0:0:0:
72,87,92926,1,8,0:0:0:0:
72,87,93037,1,8,0:0:0:0:
72,87,93147,2,0,P|75:63|89:32,1,47.9999985351563,8|8,3:2|0:0,0:0:0:0:
131,41,93368,2,0,P|153:31|187:28,1,47.9999985351563,8|8,0:0|0:0,0:0:0:0:
216,46,93588,6,0,P|256:65|324:76,1,88.000002685547,6|2,3:2|0:0,0:0:0:0:
337,53,93919,2,0,P|376:34|419:24,1,88.000002685547,10|2,0:0|0:0,0:0:0:0:
456,48,94250,1,10,0:0:0:0:
480,132,94471,5,2,3:2:0:0:
419,195,94691,1,2,0:0:0:0:
419,195,94801,2,0,L|404:313,1,88.000002685547,10|2,0:0|0:0,0:0:0:0:
428,321,95132,1,10,0:0:0:0:
353,367,95353,5,2,3:2:0:0:
275,324,95573,1,2,0:0:0:0:
275,324,95684,2,0,P|251:322|221:334,1,44.0000013427735,10|0,0:0|3:0,0:0:0:0:
213,368,95904,1,2,0:0:0:0:
214,368,96015,2,0,P|170:371|129:355,1,88.000002685547,10|0,0:0|3:0,0:0:0:0:
102,320,96346,6,0,L|46:331,2,44.0000013427735,2|2|10,0:0|0:0|0:0,0:0:0:0:
125,282,96676,2,0,L|181:293,2,44.0000013427735,2|2|10,3:2|0:0|0:0,0:0:0:0:
68,213,97118,6,0,P|97:168|154:151,1,88.000002685547,6|2,3:2|0:0,0:0:0:0:
170,160,97448,2,0,P|199:205|256:222,1,88.000002685547,10|2,0:0|0:0,0:0:0:0:
271,209,97779,1,10,0:0:0:0:
343,259,98000,5,2,3:2:0:0:
412,203,98221,1,2,0:0:0:0:
412,203,98331,2,0,P|404:159|399:115,1,88.000002685547,10|2,0:0|0:0,0:0:0:0:
412,73,98662,1,10,0:0:0:0:
342,19,98882,5,2,3:2:0:0:
265,59,99103,1,2,0:0:0:0:
265,59,99213,2,0,L|214:40,1,44.0000013427735,10|0,0:0|3:0,0:0:0:0:
193,19,99434,1,2,0:0:0:0:
193,19,99544,2,0,P|188:62|180:106,1,88.000002685547,10|0,0:0|3:0,0:0:0:0:
153,140,99875,6,0,L|111:155,1,44.0000013427735,2|2,0:0|0:0,0:0:0:0:
80,123,100096,2,0,L|38:107,3,44.0000013427735,10|10|10|10,0:0|3:2|0:0|0:0,0:0:0:0:
4,188,100647,6,0,P|19:230|23:288,1,88.000002685547,6|2,3:2|0:0,0:0:0:0:
13,316,100978,2,0,P|55:301|113:297,1,88.000002685547,10|2,0:0|0:0,0:0:0:0:
138,313,101309,1,10,0:0:0:0:
195,246,101529,5,2,3:2:0:0:
149,176,101750,1,2,0:0:0:0:
149,176,101860,2,0,L|172:68,1,88.000002685547,10|2,0:0|0:0,0:0:0:0:
179,47,102191,1,10,0:0:0:0:
254,92,102412,5,2,3:2:0:0:
312,27,102632,1,2,0:0:0:0:
312,27,102743,2,0,L|365:41,1,44.0000013427735,10|0,0:0|3:0,0:0:0:0:
400,29,102963,1,2,0:0:0:0:
400,29,103073,2,0,L|418:115,1,88.000002685547,10|0,0:0|3:0,0:0:0:0:
456,138,103404,6,0,L|498:126,2,44.0000013427735,2|2|10,0:0|0:0|0:0,0:0:0:0:
416,157,103735,2,0,L|373:145,2,44.0000013427735,2|2|10,3:2|0:0|0:0,0:0:0:0:
463,231,104176,6,0,P|473:277|456:322,1,88.000002685547,6|2,3:2|0:0,0:0:0:0:
425,342,104507,2,0,P|383:329|340:339,1,88.000002685547,10|2,0:0|0:0,0:0:0:0:
306,367,104838,1,10,0:0:0:0:
234,316,105059,5,2,3:2:0:0:
161,362,105279,1,2,0:0:0:0:
161,362,105390,2,0,P|118:372|76:359,1,88.000002685547,10|2,0:0|0:0,0:0:0:0:
56,320,105721,1,10,0:0:0:0:
111,251,105941,5,2,3:2:0:0:
50,194,106162,1,2,0:0:0:0:
50,194,106272,2,0,P|59:171|79:138,1,44.0000013427735,10|0,0:0|3:0,0:0:0:0:
114,145,106493,1,2,0:0:0:0:
114,145,106603,2,0,P|98:104|76:65,1,88.000002685547,10|0,0:0|3:0,0:0:0:0:
49,30,106934,6,0,L|101:23,1,44.0000013427735,2|2,0:0|0:0,0:0:0:0:
128,49,107154,2,0,L|171:54,3,44.0000013427735,10|10|10|10,0:0|3:2|0:0|0:0,0:0:0:0:
249,21,107706,5,4,3:2:0:0:
309,79,107926,2,0,L|288:177,2,83.9999974365235,2|2|10,0:0|0:0|0:0,0:0:0:0:
377,30,108588,2,0,P|421:28|476:61,1,83.9999974365235,2|2,3:2|0:0,0:0:0:0:
482,77,108919,2,0,L|490:118,1,41.9999987182618,2|8,3:2|0:0,0:0:0:0:
423,169,109250,2,0,L|414:210,1,41.9999987182618,2|10,0:0|0:0,0:0:0:0:
427,249,109471,6,0,P|465:233|507:235,2,83.9999974365235,2|2|0,3:2|0:0|0:0,0:0:0:0:
383,320,110132,1,10,0:0:0:0:
306,285,110353,2,0,L|288:367,1,83.9999974365235,2|2,3:2|0:0,0:0:0:0:
205,379,110794,1,8,0:0:0:0:
165,304,111015,2,0,L|124:295,1,41.9999987182618,0|8,0:0|0:0,0:0:0:0:
100,260,111235,5,4,3:2:0:0:
25,299,111456,2,0,L|42:381,2,83.9999974365235,2|2|10,0:0|0:0|0:0,0:0:0:0:
6,216,112118,2,0,P|29:178|84:157,1,83.9999974365235,2|2,3:2|0:0,0:0:0:0:
104,165,112448,2,0,P|122:184|152:194,1,41.9999987182618,2|8,3:2|0:0,0:0:0:0:
185,258,112779,2,0,P|198:242|216:231,1,41.9999987182618,2|10,0:0|0:0,0:0:0:0:
242,198,113000,6,0,P|262:233|298:254,2,83.9999974365235,2|2|0,3:2|0:0|0:0,0:0:0:0:
242,113,113662,1,10,0:0:0:0:
296,49,113882,2,0,L|402:62,1,83.9999974365235,2|2,3:2|0:0,0:0:0:0:
412,33,114213,2,0,L|495:22,1,83.9999974365235,2|2,3:2|0:0,0:0:0:0:
510,62,114544,2,0,L|504:103,1,41.9999987182618,10|8,0:0|0:0,0:0:0:0:
498,145,114765,5,4,3:2:0:0:
442,207,114985,2,0,P|458:252|456:306,2,83.9999974365235,2|2|10,0:0|0:0|0:0,0:0:0:0:
369,164,115647,2,0,P|329:176|268:174,1,83.9999974365235,2|2,3:2|0:0,0:0:0:0:
253,151,115978,2,0,P|232:151|211:155,1,41.9999987182618,2|8,3:2|0:0,0:0:0:0:
159,221,116309,2,0,P|138:220|117:216,1,41.9999987182618,2|10,0:0|0:0,0:0:0:0:
76,208,116529,6,0,P|78:166|93:127,2,83.9999974365235,2|2|0,3:2|0:0|0:0,0:0:0:0:
94,290,117191,1,10,0:0:0:0:
177,301,117412,2,0,L|193:391,1,83.9999974365235,2|2,3:2|0:0,0:0:0:0:
274,367,117853,1,8,0:0:0:0:
309,291,118073,2,0,L|350:298,1,41.9999987182618,0|8,0:0|0:0,0:0:0:0:
382,326,118294,5,4,3:2:0:0:
453,281,118515,2,0,P|478:314|487:354,2,83.9999974365235,2|2|10,0:0|0:0|0:0,0:0:0:0:
390,225,119176,2,0,P|399:184|424:151,1,83.9999974365235,2|2,3:2|0:0,0:0:0:0:
457,124,119507,2,0,P|453:103|442:85,1,41.9999987182618,2|8,3:2|0:0,0:0:0:0:
364,53,119838,2,0,P|360:73|349:91,1,41.9999987182618,2|8,0:0|0:0,0:0:0:0:
311,109,120059,6,0,P|277:83|237:74,1,83.9999974365235,2|2,3:2|0:0,0:0:0:0:
211,108,120390,1,8,0:0:0:0:
211,108,120500,2,0,P|177:133|137:142,1,83.9999974365235,2|10,0:0|0:0,0:0:0:0:
57,114,120941,2,0,L|35:219,1,83.9999974365235,2|2,3:2|0:0,0:0:0:0:
68,226,121272,2,0,L|90:331,1,83.9999974365235,2|2,3:2|0:0,0:0:0:0:
62,343,121603,1,2,0:0:0:0:
131,379,121823,6,0,P|198:354|285:361,1,143.999995605469,6|8,3:2|0:0,0:0:0:0:
345,378,122485,1,2,3:2:0:0:
399,320,122706,2,0,P|449:338|502:336,2,107.999996704102,2|2|2,3:2|0:0|0:0,0:0:0:0:
350,257,123588,6,0,L|335:128,1,107.999996704102,2|0,3:2|0:0,0:0:0:0:
308,122,124029,2,0,P|273:131|237:128,1,71.9999978027344,10|2,0:0|3:2,0:0:0:0:
175,78,124471,2,0,P|139:75|104:84,1,71.9999978027344,2|0,3:2|0:0,0:0:0:0:
65,89,124801,2,0,P|45:118|35:153,1,71.9999978027344,2|0,0:0|0:0,0:0:0:0:
39,193,125132,2,0,L|75:205,1,35.9999989013672,2|2,0:0|0:0,0:0:0:0:
107,184,125353,6,0,B|122:274|90:240|113:341,1,143.999995605469,6|8,3:2|0:0,0:0:0:0:
182,358,126015,1,2,3:2:0:0:
251,320,126235,2,0,P|300:333|348:364,2,107.999996704102,2|2|2,3:2|0:0|0:0,0:0:0:0:
189,269,127118,6,0,L|180:172,1,71.9999978027344,2|2,3:2|0:0,0:0:0:0:
247,152,127559,2,0,L|238:55,1,71.9999978027344,10|2,0:0|3:2,0:0:0:0:
295,23,128000,2,0,P|329:31|361:48,2,71.9999978027344,2|2|8,3:2|0:0|0:0,0:0:0:0:
216,9,128662,1,8,0:0:0:0:
161,65,128882,5,2,3:2:0:0:
161,65,130647,5,2,0:0:0:0:
161,65,132412,6,0,B|175:105|175:105|141:157,1,80,6|4,3:0|3:0,0:0:0:0:
210,204,132853,2,0,B|250:190|250:190|302:224,1,80,4|4,3:0|3:0,0:0:0:0:
349,155,133294,2,0,B|335:115|335:115|369:63,1,80,4|4,3:0|3:0,0:0:0:0:
300,16,133735,2,0,B|260:30|260:30|208:-4,1,80,6|6,3:0|3:0,0:0:0:0:
161,65,134176,6,0,B|175:105|175:105|141:157,2,80,6|6|6,3:2|3:2|3:2,0:0:0:0:
6,60,135279,5,10,0:0:0:0:
6,60,135390,1,8,0:0:0:0:
6,60,135500,2,0,L|17:110,3,40,10|8|10|8,0:0|0:0|0:0|0:0,0:0:0:0:
49,132,135941,6,0,P|91:76|161:65,2,143.999995605469,6|2|2,3:2|0:0|0:0,0:0:0:0:
87,220,136823,2,0,P|138:209|188:207,1,95.9999970703126,2|2,3:2|0:0,0:0:0:0:
204,249,137154,2,0,P|255:260|305:262,1,95.9999970703126,2|0,0:0|0:0,0:0:0:0:
337,233,137485,1,2,0:0:0:0:
419,282,137706,6,0,P|459:260|472:202,1,95.9999970703126,2|0,3:2|0:0,0:0:0:0:
510,182,138037,2,0,P|510:136|467:96,1,95.9999970703126,2|0,0:0|0:0,0:0:0:0:
445,65,138368,2,0,L|381:72,1,47.9999985351563,2|0,0:0|0:0,0:0:0:0:
356,95,138588,2,0,L|292:102,1,47.9999985351563,2|8,3:2|0:0,0:0:0:0:
264,80,138809,5,8,3:0:0:0:
198,149,139029,1,8,3:0:0:0:
255,226,139250,2,0,L|262:290,1,47.9999985351563,2|0,0:0|0:0,0:0:0:0:
243,318,139471,6,0,P|202:290|156:288,1,95.9999970703126,6|0,3:2|0:0,0:0:0:0:
130,327,139801,2,0,P|89:355|43:357,1,95.9999970703126,2|2,0:0|0:0,0:0:0:0:
7,325,140132,1,2,0:0:0:0:
51,239,140353,5,2,3:2:0:0:
6,160,140573,1,2,0:0:0:0:
6,160,140684,2,0,L|35:45,1,95.9999970703126,2|2,0:0|0:0,0:0:0:0:
70,41,141015,1,2,0:0:0:0:
130,114,141235,6,0,P|172:92|219:92,1,95.9999970703126,2|0,3:2|0:0,0:0:0:0:
253,57,141566,2,0,P|295:78|342:78,1,95.9999970703126,2|0,0:0|0:0,0:0:0:0:
389,89,141897,2,0,L|403:148,1,47.9999985351563,2|0,0:0|0:0,0:0:0:0:
384,181,142118,2,0,L|370:240,1,47.9999985351563,2|8,3:2|0:0,0:0:0:0:
403,264,142338,5,8,3:0:0:0:
358,352,142559,1,8,3:0:0:0:
358,352,142669,1,8,0:0:0:0:
358,352,142779,2,0,L|299:338,1,47.9999985351563,10|8,0:0|0:0,0:0:0:0:
269,363,143000,6,0,P|247:320|248:272,1,95.9999970703126,6|2,3:2|0:0,0:0:0:0:
217,235,143331,2,0,P|243:195|284:171,1,95.9999970703126,2|2,0:0|0:0,0:0:0:0:
325,196,143662,2,0,L|371:184,1,47.9999985351563,2|0,0:0|0:0,0:0:0:0:
407,152,143882,5,2,3:2:0:0:
387,62,144103,1,2,0:0:0:0:
387,62,144213,2,0,P|344:40|296:41,1,95.9999970703126,2|0,0:0|0:0,0:0:0:0:
253,63,144544,1,2,0:0:0:0:
165,24,144765,6,0,P|143:66|144:114,1,95.9999970703126,2|0,3:2|0:0,0:0:0:0:
103,140,145096,2,0,P|124:182|123:230,1,95.9999970703126,2|0,0:0|0:0,0:0:0:0:
139,275,145426,1,2,0:0:0:0:
94,360,145647,2,0,L|199:381,1,95.9999970703126,2|0,3:2|0:0,0:0:0:0:
275,338,146088,1,8,0:0:0:0:
362,376,146309,2,0,L|409:366,1,47.9999985351563,2|0,0:0|0:0,0:0:0:0:
456,375,146529,6,0,P|480:334|485:286,1,95.9999970703126,6|2,3:2|0:0,0:0:0:0:
406,231,146971,2,0,P|381:190|376:142,1,95.9999970703126,10|2,0:0|0:0,0:0:0:0:
434,66,147412,2,0,B|392:38|392:38|343:52,1,95.9999970703126,2|2,3:2|0:0,0:0:0:0:
266,101,147853,2,0,B|222:113|222:113|180:85,1,95.9999970703126,10|2,0:0|0:0,0:0:0:0:
108,20,148294,5,6,3:0:0:0:
22,64,148515,2,0,P|33:88|40:113,1,47.9999985351563,4|4,3:0|3:0,0:0:0:0:
35,156,148735,1,4,3:2:0:0:
126,186,148956,2,0,P|147:175|171:170,2,47.9999985351563,4|4|4,3:0|3:0|3:2,0:0:0:0:
59,254,149397,1,10,0:0:0:0:
59,254,149507,1,8,0:0:0:0:
59,254,149618,2,0,P|48:278|41:303,1,47.9999985351563,10|8,3:2|0:0,0:0:0:0:
73,334,149838,2,0,P|88:355|106:374,1,47.9999985351563,10|8,0:0|0:0,0:0:0:0:
149,358,150059,6,0,P|207:319|276:333,2,143.999995605469,6|2|2,3:2|0:0|0:0,0:0:0:0:
144,246,150941,2,0,L|130:136,1,95.9999970703126,2|2,3:2|0:0,0:0:0:0:
83,145,151272,2,0,L|97:35,1,95.9999970703126,2|2,0:0|0:0,0:0:0:0:
121,9,151603,1,2,0:0:0:0:
198,65,151823,6,0,P|241:45|288:49,1,95.9999970703126,2|0,3:2|0:0,0:0:0:0:
320,84,152154,2,0,P|315:131|288:169,1,95.9999970703126,2|0,0:0|0:0,0:0:0:0:
243,191,152485,2,0,L|249:238,1,47.9999985351563,2|0,0:0|0:0,0:0:0:0:
221,279,152706,2,0,L|227:326,1,47.9999985351563,2|8,3:2|0:0,0:0:0:0:
264,357,152926,5,8,3:0:0:0:
339,296,153147,1,8,3:0:0:0:
417,350,153368,2,0,L|464:343,1,47.9999985351563,2|0,0:0|0:0,0:0:0:0:
487,302,153588,6,0,P|462:257|463:196,1,95.9999970703126,6|0,3:2|0:0,0:0:0:0:
488,175,153919,2,0,P|484:127|460:86,1,95.9999970703126,2|2,0:0|0:0,0:0:0:0:
419,59,154250,1,2,0:0:0:0:
345,120,154471,5,2,3:2:0:0:
274,64,154691,1,2,0:0:0:0:
274,64,154801,2,0,B|225:83|225:83|169:44,1,95.9999970703126,2|2,0:0|0:0,0:0:0:0:
154,25,155132,1,2,0:0:0:0:
61,52,155353,6,0,P|57:101|41:161,1,95.9999970703126,2|0,3:2|0:0,0:0:0:0:
84,175,155684,2,0,P|87:222|98:269,1,95.9999970703126,2|0,0:0|0:0,0:0:0:0:
72,310,156015,2,0,L|123:325,1,47.9999985351563,2|0,0:0|0:0,0:0:0:0:
154,354,156235,2,0,L|200:340,1,47.9999985351563,2|8,3:2|0:0,0:0:0:0:
236,309,156456,5,8,3:0:0:0:
334,347,156676,1,8,3:0:0:0:
334,347,156787,1,8,0:0:0:0:
334,347,156897,2,0,L|347:300,1,47.9999985351563,10|8,0:0|0:0,0:0:0:0:
346,253,157118,6,0,P|391:268|435:234,1,95.9999970703126,6|2,3:2|0:0,0:0:0:0:
476,251,157448,2,0,P|511:220|510:173,1,95.9999970703126,2|2,0:0|0:0,0:0:0:0:
486,131,157779,2,0,L|439:117,1,47.9999985351563,2|0,0:0|0:0,0:0:0:0:
393,129,158000,5,2,3:2:0:0:
312,85,158221,1,2,0:0:0:0:
312,85,158331,2,0,P|276:115|277:162,1,95.9999970703126,2|0,0:0|0:0,0:0:0:0:
310,197,158662,1,2,0:0:0:0:
302,292,158882,6,0,L|184:314,1,95.9999970703126,2|0,3:2|0:0,0:0:0:0:
182,268,159213,2,0,L|87:250,1,95.9999970703126,2|0,0:0|0:0,0:0:0:0:
51,282,159544,1,2,0:0:0:0:
6,196,159765,2,0,P|8:145|24:92,1,95.9999970703126,2|0,3:2|0:0,0:0:0:0:
82,28,160206,1,8,0:0:0:0:
148,97,160426,2,0,L|195:88,1,47.9999985351563,2|0,0:0|0:0,0:0:0:0:
241,69,160647,6,0,P|231:114|266:161,1,95.9999970703126,6|2,3:2|0:0,0:0:0:0:
351,165,161088,2,0,P|361:210|326:257,1,95.9999970703126,10|2,0:0|0:0,0:0:0:0:
272,322,161529,2,0,P|331:286|413:319,1,143.999995605469,2|0,3:2|0:0,0:0:0:0:
419,349,161971,2,0,P|463:362|505:340,1,95.9999970703126,10|2,0:0|0:0,0:0:0:0:
510,244,162412,5,6,3:0:0:0:
435,183,162632,2,0,P|410:183|387:190,1,47.9999985351563,4|4,3:0|3:0,0:0:0:0:
354,224,162853,1,4,3:2:0:0:
276,167,163073,2,0,L|267:110,2,47.9999985351563,6|4|6,3:0|3:0|3:2,0:0:0:0:
238,260,163515,1,4,3:0:0:0:
238,260,163625,1,4,3:0:0:0:
238,260,163735,2,0,P|196:246|141:238,1,95.9999970703126,4|4,3:0|3:0,0:0:0:0:
56,272,164176,5,4,3:2:0:0:
200,93,171235,6,0,P|155:105|88:93,2,96,6|2|2,3:2|0:0|3:2,0:0:0:0:
249,33,172118,2,0,P|281:34|308:51,1,64,2|0,0:0|0:0,0:0:0:0:
344,59,172448,2,0,P|359:87|357:119,1,64,2|0,0:0|0:0,0:0:0:0:
341,153,172779,1,2,0:0:0:0:
377,220,173000,6,0,P|422:208|489:220,2,96,2|2|2,3:2|0:0|3:2,0:0:0:0:
338,286,173882,1,2,0:0:0:0:
267,309,174103,1,0,0:0:0:0:
267,309,174213,2,0,L|182:299,1,64,2|0,0:0|0:0,0:0:0:0:
164,298,174544,1,2,0:0:0:0:
70,277,174765,6,0,B|89:326|89:326|63:383,2,96,6|2|2,3:2|0:0|3:2,0:0:0:0:
16,221,175647,2,0,L|38:160,1,64,2|0,0:0|0:0,0:0:0:0:
47,123,175978,2,0,L|110:112,1,64,2|0,0:0|0:0,0:0:0:0:
140,135,176309,1,2,0:0:0:0:
212,111,176529,6,0,B|231:62|231:62|205:5,2,96,2|2|2,3:2|0:0|3:2,0:0:0:0:
243,181,177412,1,2,0:0:0:0:
316,152,177632,1,0,0:0:0:0:
316,152,177743,2,0,L|379:162,1,64,2|0,0:0|0:0,0:0:0:0:
416,172,178073,1,2,0:0:0:0:
482,236,178294,6,0,P|462:318|366:315,1,184.000003509522,6|0,3:2|3:0,0:0:0:0:
332,240,178956,1,2,3:2:0:0:
272,309,179176,2,0,P|231:328|187:317,1,92.0000017547608,2|8,3:2|0:0,0:0:0:0:
180,271,179507,2,0,P|142:244|97:247,1,92.0000017547608,2|8,3:2|0:0,0:0:0:0:
60,273,179838,1,2,3:2:0:0:
3,200,180059,5,2,3:2:0:0:
42,119,180279,1,10,0:0:0:0:
42,119,180390,2,0,P|87:123|128:144,1,92.0000017547608,2|8,0:0|0:0,0:0:0:0:
152,183,180721,1,2,3:2:0:0:
228,131,180941,2,0,P|268:152|314:156,1,92.0000017547608,2|8,3:2|0:0,0:0:0:0:
373,85,181382,5,2,0:0:0:0:
461,110,181603,1,2,3:2:0:0:
492,196,181823,6,0,B|382:211|449:276|328:293,1,184.000003509522,2|0,3:2|3:0,0:0:0:0:
303,373,182485,1,2,3:2:0:0:
229,318,182706,2,0,L|198:212,1,92.0000017547608,2|10,3:2|0:0,0:0:0:0:
169,198,183037,2,0,L|200:92,1,92.0000017547608,2|8,3:2|0:0,0:0:0:0:
224,74,183368,1,2,3:2:0:0:
150,18,183588,5,2,3:2:0:0:
69,59,183809,1,10,0:0:0:0:
69,59,183919,2,0,P|54:102|57:151,1,92.0000017547608,2|8,0:0|0:0,0:0:0:0:
77,188,184250,1,2,3:2:0:0:
18,259,184471,2,0,P|109:243|142:321,1,184.000003509522,2|0,3:2|0:0,0:0:0:0:
226,374,185132,1,0,3:0:0:0:
226,374,185243,1,8,0:0:0:0:
226,374,185353,6,0,P|316:355|424:340,1,184.000003509522,6|0,3:2|3:0,0:0:0:0:
497,359,186015,1,2,3:2:0:0:
499,267,186235,2,0,P|490:215|475:172,1,92.0000017547608,2|8,3:2|0:0,0:0:0:0:
432,168,186566,2,0,P|441:116|456:73,1,92.0000017547608,2|8,3:2|0:0,0:0:0:0:
473,37,186897,1,2,3:2:0:0:
384,10,187118,5,2,3:2:0:0:
351,98,187338,1,10,0:0:0:0:
351,98,187448,2,0,L|257:108,1,92.0000017547608,2|8,0:0|0:0,0:0:0:0:
213,112,187779,1,2,3:2:0:0:
156,38,188000,2,0,L|64:28,1,92.0000017547608,2|8,3:2|0:0,0:0:0:0:
7,100,188441,5,2,0:0:0:0:
65,170,188662,1,2,3:2:0:0:
8,242,188882,6,0,P|33:325|119:335,1,184.000003509522,2|0,3:2|3:0,0:0:0:0:
182,267,189544,1,2,3:2:0:0:
225,345,189765,2,0,P|269:335|323:343,1,92.0000017547608,2|10,3:2|0:0,0:0:0:0:
343,304,190096,2,0,P|387:314|441:306,1,92.0000017547608,2|8,3:2|0:0,0:0:0:0:
474,328,190426,1,2,3:2:0:0:
505,241,190647,6,0,P|498:170|436:135,2,138.000002632141,6|6|6,3:2|3:2|3:2,0:0:0:0:
323,207,191750,6,0,L|326:145,2,55.9999982910157,2|2|2,0:0|0:0|0:0,0:0:0:0:
281,275,192412,5,6,3:2:0:0:
281,275,193294,1,2,0:0:0:0:
204,217,194176,5,6,3:2:0:0:
204,217,195058,1,2,0:0:0:0:
117,258,195941,5,6,3:2:0:0:
117,258,196823,1,2,0:0:0:0:
113,353,197706,5,6,3:2:0:0:
113,353,198588,2,0,L|120:236,1,111.999996582031,2|0,0:0|0:0,0:0:0:0:
92,116,199471,6,0,P|131:128|189:123,1,71.9999978027344,6|2,3:2|0:0,0:0:0:0:
187,98,199801,2,0,P|226:86|284:91,1,71.9999978027344,2|2,0:0|0:0,0:0:0:0:
292,104,200132,1,2,0:0:0:0:
364,136,200353,6,0,P|397:95|395:42,2,107.999996704102,2|2|2,3:2|0:0|0:0,0:0:0:0:
301,184,201235,2,0,P|299:236|332:277,2,107.999996704102,2|2|2,3:2|0:0|0:0,0:0:0:0:
376,211,202118,2,0,B|463:192|438:250|513:231,1,143.999995605469,2|0,3:2|3:0,0:0:0:0:
494,154,202779,1,2,0:0:0:0:
422,102,203000,6,0,P|383:111|351:135,1,80,6|6,3:0|3:0,0:0:0:0:
269,167,203441,2,0,P|278:205|302:237,1,80,6|6,3:0|3:0,0:0:0:0:
334,320,203882,2,0,P|372:310|404:286,1,80,6|6,3:0|3:0,0:0:0:0:
487,255,204323,2,0,P|477:216|453:184,1,80,6|6,3:0|3:0,0:0:0:0:
422,102,204765,5,6,3:0:0:0:
349,146,204985,1,4,3:0:0:0:
349,146,205096,1,4,3:0:0:0:
349,146,205206,2,0,L|257:155,1,80,4|0,3:2|0:0,0:0:0:0:
232,139,205537,1,8,0:0:0:0:
232,139,205647,1,4,3:0:0:0:
174,206,205868,5,10,0:0:0:0:
174,206,205978,1,8,0:0:0:0:
174,206,206088,2,0,L|134:202,3,40,10|8|10|8,0:0|0:0|0:0|0:0,0:0:0:0:
90,181,206529,6,0,P|121:119|65:42,2,143.999995605469,6|2|2,3:2|0:0|0:0,0:0:0:0:
21,248,207412,2,0,P|66:264|120:293,1,95.9999970703126,2|2,3:2|0:0,0:0:0:0:
124,331,207743,2,0,P|166:309|211:292,1,95.9999970703126,2|0,0:0|0:0,0:0:0:0:
258,305,208073,1,2,0:0:0:0:
346,266,208294,6,0,P|384:296|409:355,1,95.9999970703126,2|0,3:2|0:0,0:0:0:0:
452,327,208625,2,0,P|450:279|467:235,1,95.9999970703126,2|0,0:0|0:0,0:0:0:0:
510,213,208956,2,0,L|484:148,1,47.9999985351563,2|0,0:0|0:0,0:0:0:0:
448,148,209176,2,0,L|422:83,1,47.9999985351563,2|8,3:2|0:0,0:0:0:0:
430,55,209397,5,8,3:0:0:0:
345,8,209618,1,8,3:0:0:0:
271,69,209838,2,0,L|206:43,1,47.9999985351563,2|0,0:0|0:0,0:0:0:0:
183,29,210059,6,0,P|190:76|178:122,1,95.9999970703126,6|0,3:2|0:0,0:0:0:0:
137,147,210390,2,0,P|129:194|141:240,1,95.9999970703126,2|2,0:0|0:0,0:0:0:0:
178,271,210721,1,2,0:0:0:0:
139,358,210941,5,2,3:2:0:0:
45,332,211162,1,2,0:0:0:0:
45,332,211272,2,0,P|52:284|40:238,1,95.9999970703126,2|2,0:0|0:0,0:0:0:0:
6,204,211603,1,2,0:0:0:0:
37,113,211823,6,0,P|83:100|130:108,1,95.9999970703126,2|0,3:2|0:0,0:0:0:0:
157,147,212154,2,0,P|203:159|250:151,1,95.9999970703126,2|0,0:0|0:0,0:0:0:0:
278,112,212485,2,0,L|323:127,1,47.9999985351563,2|0,0:0|0:0,0:0:0:0:
354,164,212706,2,0,L|399:148,1,47.9999985351563,2|8,3:2|0:0,0:0:0:0:
426,108,212926,5,8,3:0:0:0:
490,193,213147,1,8,3:0:0:0:
490,193,213257,1,8,0:0:0:0:
490,193,213368,2,0,L|474:238,1,47.9999985351563,10|8,0:0|0:0,0:0:0:0:
488,284,213588,6,0,P|457:320|411:329,1,95.9999970703126,6|2,3:2|0:0,0:0:0:0:
376,362,213919,2,0,P|329:353|298:318,1,95.9999970703126,2|2,0:0|0:0,0:0:0:0:
296,270,214250,2,0,L|311:224,1,47.9999985351563,2|0,0:0|0:0,0:0:0:0:
358,217,214471,5,2,3:2:0:0:
377,127,214691,1,2,0:0:0:0:
377,127,214801,2,0,P|346:90|300:81,1,95.9999970703126,2|0,0:0|0:0,0:0:0:0:
255,100,215132,1,2,0:0:0:0:
163,70,215353,6,0,B|139:113|139:113|157:162,1,95.9999970703126,2|0,3:2|0:0,0:0:0:0:
199,175,215684,2,0,B|223:218|223:218|205:267,1,95.9999970703126,2|0,0:0|0:0,0:0:0:0:
170,294,216015,1,2,0:0:0:0:
77,320,216235,2,0,P|36:296|16:253,1,95.9999970703126,2|0,3:2|0:0,0:0:0:0:
60,167,216676,1,8,0:0:0:0:
20,79,216897,2,0,P|32:59|54:48,1,47.9999985351563,2|0,0:0|0:0,0:0:0:0:
95,73,217118,6,0,L|212:93,1,95.9999970703126,6|2,3:2|0:0,0:0:0:0:
260,24,217559,2,0,L|354:7,1,95.9999970703126,10|2,0:0|0:0,0:0:0:0:
437,56,218000,2,0,P|412:126|432:219,1,143.999995605469,2|0,3:2|0:0,0:0:0:0:
431,240,218441,2,0,L|336:223,1,95.9999970703126,10|2,0:0|0:0,0:0:0:0:
251,178,218882,5,6,3:0:0:0:
188,251,219103,2,0,L|196:298,1,47.9999985351563,4|4,3:0|3:0,0:0:0:0:
218,340,219323,1,4,3:2:0:0:
132,383,219544,2,0,P|108:377|84:375,2,47.9999985351563,4|4|4,3:0|3:0|3:2,0:0:0:0:
91,286,219985,1,10,0:0:0:0:
91,286,220096,1,8,0:0:0:0:
91,286,220206,2,0,L|100:238,1,47.9999985351563,10|8,0:0|0:0,0:0:0:0:
66,204,220426,2,0,L|57:156,1,47.9999985351563,10|8,0:0|0:0,0:0:0:0:
73,107,220647,6,0,P|123:110|179:80,1,103.999995239258,6|8,3:2|0:0,0:0:0:0:
213,118,220978,2,0,P|191:164|194:215,1,103.999995239258,2|2,0:0|3:2,0:0:0:0:
232,253,221309,1,10,0:0:0:0:
298,173,221529,2,0,P|348:169|404:199,1,103.999995239258,2|8,3:2|0:0,0:0:0:0:
412,241,221860,2,0,P|406:266|404:292,1,51.999997619629,2|0,0:0|3:0,0:0:0:0:
362,322,222081,1,2,3:2:0:0:
362,322,222191,2,0,P|367:347|369:373,1,51.999997619629,10|0,0:0|0:0,0:0:0:0:
421,378,222412,6,0,P|473:355|495:310,1,103.999995239258,2|8,3:2|0:0,0:0:0:0:
487,263,222743,2,0,P|491:211|503:160,1,103.999995239258,2|0,0:0|3:0,0:0:0:0:
510,109,223073,2,0,L|436:104,1,51.999997619629,10|0,0:0|0:0,0:0:0:0:
417,72,223294,2,0,L|343:67,1,51.999997619629,2|0,3:2|0:0,0:0:0:0:
322,98,223515,5,8,3:0:0:0:
233,43,223735,1,8,3:0:0:0:
163,121,223956,1,2,3:2:0:0:
163,121,224066,1,0,3:0:0:0:
163,121,224176,6,0,P|144:171|165:234,1,103.999995239258,6|10,3:2|0:0,0:0:0:0:
200,245,224507,2,0,P|247:225|297:235,1,103.999995239258,2|2,0:0|3:2,0:0:0:0:
334,271,224838,1,10,0:0:0:0:
431,234,225059,2,0,P|441:183|422:136,1,103.999995239258,2|10,3:2|0:0,0:0:0:0:
386,98,225390,2,0,L|335:86,1,51.999997619629,2|0,0:0|3:0,0:0:0:0:
310,133,225610,1,2,3:2:0:0:
310,133,225721,2,0,L|259:144,1,51.999997619629,10|0,0:0|0:0,0:0:0:0:
207,138,225941,6,0,P|230:92|226:41,1,103.999995239258,2|8,3:2|0:0,0:0:0:0:
178,20,226272,2,0,P|135:49|84:51,1,103.999995239258,2|0,0:0|3:0,0:0:0:0:
32,48,226603,2,0,L|43:98,1,51.999997619629,8|0,0:0|0:0,0:0:0:0:
74,140,226823,2,0,L|62:190,1,51.999997619629,2|0,3:2|0:0,0:0:0:0:
35,235,227044,5,8,3:0:0:0:
93,333,227265,1,8,3:0:0:0:
93,333,227375,1,8,0:0:0:0:
93,333,227485,2,0,L|143:321,1,51.999997619629,10|8,0:0|0:0,0:0:0:0:
187,349,227706,6,0,P|226:302|277:293,1,103.999995239258,6|10,3:2|0:0,0:0:0:0:
300,253,228037,2,0,P|360:264|392:304,1,103.999995239258,2|2,0:0|3:2,0:0:0:0:
406,343,228368,2,0,L|456:355,1,51.999997619629,10|0,0:0|0:0,0:0:0:0:
503,332,228588,5,2,3:2:0:0:
464,240,228809,1,10,0:0:0:0:
464,240,228919,2,0,L|475:135,1,103.999995239258,2|0,0:0|3:0,0:0:0:0:
496,89,229250,1,10,0:0:0:0:
411,28,229471,6,0,P|363:36|316:78,1,103.999995239258,2|10,3:2|0:0,0:0:0:0:
287,109,229801,2,0,P|247:75|196:66,1,103.999995239258,2|0,0:0|3:0,0:0:0:0:
154,95,230132,2,0,P|128:96|104:86,1,51.999997619629,10|0,0:0|0:0,0:0:0:0:
62,55,230353,2,0,L|72:158,1,103.999995239258,2|8,3:2|0:0,0:0:0:0:
15,248,230794,1,0,3:0:0:0:
15,248,230904,1,0,3:0:0:0:
15,248,231015,2,0,L|9:299,1,51.999997619629,10|8,0:0|0:0,0:0:0:0:
40,340,231235,6,0,P|57:321|81:310,1,51.999997619629,6|0,3:2|0:0,0:0:0:0:
122,278,231456,2,0,P|139:296|163:307,1,51.999997619629,6|0,3:0|0:0,0:0:0:0:
198,345,231676,2,0,P|248:335|286:301,1,103.999995239258,6|6,3:0|3:0,0:0:0:0:
219,219,232118,2,0,P|246:149|323:140,1,155.999992858887,6|0,3:0|0:0,0:0:0:0:
344,186,232559,2,0,P|366:198|392:200,1,51.999997619629,6|0,3:0|0:0,0:0:0:0:
427,161,232779,1,6,3:0:0:0:
512,234,233000,5,6,3:0:0:0:
512,234,233110,1,0,3:0:0:0:
512,234,233221,2,0,L|494:295,3,51.999997619629,4|0|4|0,3:0|3:0|3:0|3:0,0:0:0:0:
466,326,233662,2,0,P|444:339|419:345,1,51.999997619629,6|0,3:0|3:0,0:0:0:0:
384,304,233882,2,0,P|330:290|231:331,1,155.999992858887,6|8,3:0|0:0,0:0:0:0:
201,359,234323,2,0,L|140:341,3,51.999997619629,8|8|10|8,3:2|0:0|0:0|0:0,0:0:0:0:
100,358,234765,6,0,P|97:332|92:306,1,51.999997619629,6|0,3:2|3:0,0:0:0:0:
56,270,234985,2,0,P|58:244|63:218,1,51.999997619629,6|0,3:0|3:0,0:0:0:0:
93,175,235206,2,0,P|144:180|195:193,1,103.999995239258,6|6,3:0|3:0,0:0:0:0:
246,217,235537,1,0,3:0:0:0:
246,217,235647,2,0,P|207:152|232:74,1,155.999992858887,6|0,3:0|3:0,0:0:0:0:
278,61,236088,2,0,P|306:72|330:94,1,51.999997619629,6|0,3:0|3:0,0:0:0:0:
369,109,236309,2,0,P|373:138|366:170,1,51.999997619629,6|0,3:0|3:0,0:0:0:0:
334,196,236529,6,0,P|333:279|352:361,1,167.999994873047,2|2,0:0|0:0,0:0:0:0:
436,368,237412,2,0,P|459:316|491:271,1,111.999996582031,2|0,0:0|0:0,0:0:0:0:
