osu file format v14

[General]
AudioFilename: audio.mp3
AudioLeadIn: 0
PreviewTime: 189468
Countdown: 0
SampleSet: Soft
StackLeniency: 0.3
Mode: 0
LetterboxInBreaks: 0
WidescreenStoryboard: 1

[Editor]
Bookmarks: 30031,46031,62031,78031,94031,110031,126031,142031,158031,174031,190031,206031,222031,238031
DistanceSpacing: 0.2
BeatDivisor: 4
GridSize: 32
TimelineZoom: 3.399998

[Metadata]
Title:Hana ni Ame o, Kimi ni Uta o
TitleUnicode:花に雨を、君に歌を
Artist:Mahiru & Ado
ArtistUnicode:まひる & Ado
Creator:Vanya2
Version:Insane
Source:
Tags:majk00 pigeons arsalan thunderbird2678 japanese rock jrock j-rock pop jpop j-pop duet female vocal cover the binary
BeatmapID:3563494
BeatmapSetID:1720462

[Difficulty]
HPDrainRate:4
CircleSize:3.2
OverallDifficulty:8
ApproachRate:9
SliderMultiplier:1.7
SliderTickRate:1

[Events]
//Background and Video events
Video,0,"iyiy.mp4"
0,0,"daaaa.jpg",0,0
//Break Periods
//Storyboard Layer 0 (Background)
//Storyboard Layer 1 (Fail)
//Storyboard Layer 2 (Pass)
//Storyboard Layer 3 (Foreground)
//Storyboard Layer 4 (Overlay)
//Storyboard Sound Samples

[TimingPoints]
2031,250,4,2,10,30,1,0
9031,-100,4,2,15,45,0,0
10031,-100,4,2,20,64,0,0
10281,-100,4,2,14,64,0,0
10406,-100,4,2,15,64,0,0
10656,-100,4,2,12,64,0,0
10781,-100,4,2,10,64,0,0
10906,-100,4,2,12,64,0,0
11031,-100,4,2,21,64,0,0
11281,-100,4,2,22,64,0,0
11406,-100,4,2,23,64,0,0
11656,-100,4,2,15,64,0,0
11781,-100,4,2,14,64,0,0
11906,-100,4,2,10,64,0,0
12031,-100,4,2,24,64,0,0
12281,-100,4,2,14,64,0,0
12406,-100,4,2,15,64,0,0
12781,-100,4,2,22,64,0,0
12906,-100,4,2,15,64,0,0
13031,-100,4,2,25,64,0,0
13156,-100,4,2,15,64,0,0
13281,-100,4,2,14,64,0,0
13406,-100,4,2,10,64,0,0
13531,-100,4,2,13,64,0,0
13656,-100,4,2,13,60,0,0
13781,-100,4,2,26,64,0,0
13906,-100,4,2,13,64,0,0
14031,-100,4,2,20,64,0,0
14281,-100,4,2,14,64,0,0
14406,-100,4,2,15,64,0,0
14656,-100,4,2,12,64,0,0
14781,-100,4,2,10,64,0,0
14906,-100,4,2,12,64,0,0
15031,-100,4,2,21,64,0,0
15281,-100,4,2,22,64,0,0
15406,-100,4,2,23,64,0,0
15656,-100,4,2,15,64,0,0
15781,-100,4,2,14,64,0,0
15906,-100,4,2,10,64,0,0
16031,-100,4,2,24,64,0,0
16281,-100,4,2,14,64,0,0
16406,-100,4,2,15,64,0,0
16781,-100,4,2,22,64,0,0
16906,-100,4,2,15,64,0,0
17031,-100,4,2,27,64,0,0
17156,-100,4,2,15,64,0,0
17281,-100,4,2,14,64,0,0
17406,-100,4,2,10,64,0,0
17531,-100,4,2,13,64,0,0
17656,-100,4,2,26,64,0,0
17781,-100,4,2,13,64,0,0
17906,-100,4,2,10,64,0,0
18031,-100,4,2,20,64,0,0
18281,-100,4,2,14,64,0,0
18406,-100,4,2,15,64,0,0
18656,-100,4,2,12,64,0,0
18781,-100,4,2,10,64,0,0
18906,-100,4,2,12,64,0,0
19031,-100,4,2,21,64,0,0
19281,-100,4,2,22,64,0,0
19406,-100,4,2,23,64,0,0
19656,-100,4,2,15,64,0,0
19781,-100,4,2,14,64,0,0
19906,-100,4,2,10,64,0,0
20031,-100,4,2,24,64,0,0
20281,-100,4,2,14,64,0,0
20406,-100,4,2,15,64,0,0
20781,-100,4,2,22,64,0,0
20906,-100,4,2,15,64,0,0
21031,-100,4,2,25,64,0,0
21156,-100,4,2,15,64,0,0
21281,-100,4,2,14,64,0,0
21406,-100,4,2,10,64,0,0
21531,-100,4,2,13,64,0,0
21656,-100,4,2,13,60,0,0
21781,-100,4,2,26,64,0,0
21906,-100,4,2,13,64,0,0
22031,-100,4,2,20,64,0,0
22281,-100,4,2,14,64,0,0
22406,-100,4,2,15,64,0,0
22656,-100,4,2,12,64,0,0
22781,-100,4,2,10,64,0,0
22906,-100,4,2,12,64,0,0
23031,-100,4,2,21,64,0,0
23281,-100,4,2,22,64,0,0
23406,-100,4,2,23,64,0,0
23656,-100,4,2,15,64,0,0
23781,-100,4,2,14,64,0,0
23906,-100,4,2,10,64,0,0
24031,-100,4,2,24,64,0,0
24281,-100,4,2,14,64,0,0
24406,-100,4,2,15,64,0,0
24781,-100,4,2,22,64,0,0
24906,-100,4,2,15,64,0,0
25031,-100,4,2,27,64,0,0
25156,-100,4,2,15,64,0,0
25281,-100,4,2,14,64,0,0
25406,-100,4,2,10,64,0,0
25531,-100,4,2,13,64,0,0
25656,-100,4,2,13,60,0,0
25781,-100,4,2,26,64,0,0
25906,-100,4,2,13,64,0,0
26031,-100,4,2,28,64,0,0
28031,-133.333333333333,4,2,29,45,0,0
37656,-133.333333333333,4,2,10,45,0,0
38031,-133.333333333333,4,2,29,45,0,0
46031,-111.111111111111,4,2,29,52,0,0
57531,-111.111111111111,4,2,10,52,0,0
58031,-133.333333333333,4,2,29,45,0,0
60031,-100,4,2,29,60,0,0
62031,-90.9090909090909,4,2,29,68,0,1
78656,-90.9090909090909,4,2,10,68,0,1
78781,-90.9090909090909,4,2,29,68,0,1
79656,-90.9090909090909,4,2,10,68,0,1
79781,-90.9090909090909,4,2,29,68,0,1
82656,-90.9090909090909,4,2,10,68,0,1
82781,-90.9090909090909,4,2,29,68,0,1
83656,-90.9090909090909,4,2,10,68,0,1
83781,-90.9090909090909,4,2,29,68,0,1
84656,-90.9090909090909,4,2,10,68,0,1
84781,-90.9090909090909,4,2,29,68,0,1
86656,-90.9090909090909,4,2,10,68,0,1
86781,-90.9090909090909,4,2,29,68,0,1
87656,-90.9090909090909,4,2,10,68,0,1
87781,-90.9090909090909,4,2,29,68,0,1
90656,-90.9090909090909,4,2,10,68,0,1
90781,-90.9090909090909,4,2,29,68,0,1
91656,-90.9090909090909,4,2,10,68,0,1
91781,-90.9090909090909,4,2,29,68,0,1
92656,-90.9090909090909,4,2,10,68,0,1
92781,-90.9090909090909,4,2,29,68,0,1
94031,-100,4,2,30,64,0,0
94281,-100,4,2,14,64,0,0
94406,-100,4,2,15,64,0,0
94656,-100,4,2,12,64,0,0
94781,-100,4,2,10,64,0,0
94906,-100,4,2,12,64,0,0
95031,-100,4,2,31,64,0,0
95281,-100,4,2,22,64,0,0
95406,-100,4,2,23,64,0,0
95656,-100,4,2,15,64,0,0
95781,-100,4,2,14,64,0,0
95906,-100,4,2,10,64,0,0
96031,-100,4,2,32,64,0,0
96281,-100,4,2,14,64,0,0
96406,-100,4,2,15,64,0,0
96781,-100,4,2,22,64,0,0
96906,-100,4,2,15,64,0,0
97031,-100,4,2,33,64,0,0
97156,-100,4,2,15,64,0,0
97281,-100,4,2,14,64,0,0
97406,-100,4,2,10,64,0,0
97531,-100,4,2,13,64,0,0
97656,-100,4,2,13,60,0,0
97781,-100,4,2,26,64,0,0
97906,-100,4,2,13,64,0,0
98031,-100,4,2,30,64,0,0
98281,-100,4,2,14,64,0,0
98406,-100,4,2,15,64,0,0
98656,-100,4,2,12,64,0,0
98781,-100,4,2,10,64,0,0
98906,-100,4,2,12,64,0,0
99031,-100,4,2,31,64,0,0
99281,-100,4,2,22,64,0,0
99406,-100,4,2,23,64,0,0
99656,-100,4,2,15,64,0,0
99781,-100,4,2,14,64,0,0
99906,-100,4,2,10,64,0,0
100031,-100,4,2,32,64,0,0
100281,-100,4,2,14,64,0,0
100406,-100,4,2,15,64,0,0
100781,-100,4,2,22,64,0,0
100906,-100,4,2,15,64,0,0
101031,-100,4,2,34,64,0,0
101156,-100,4,2,15,64,0,0
101281,-100,4,2,14,64,0,0
101406,-100,4,2,10,64,0,0
101531,-100,4,2,13,64,0,0
101656,-100,4,2,26,64,0,0
101781,-100,4,2,13,64,0,0
101906,-100,4,2,10,64,0,0
102031,-100,4,2,30,64,0,0
102281,-100,4,2,14,64,0,0
102406,-100,4,2,15,64,0,0
102656,-100,4,2,12,64,0,0
102781,-100,4,2,10,64,0,0
102906,-100,4,2,12,64,0,0
103031,-100,4,2,31,64,0,0
103281,-100,4,2,22,64,0,0
103406,-100,4,2,23,64,0,0
103656,-100,4,2,15,64,0,0
103781,-100,4,2,14,64,0,0
103906,-100,4,2,10,64,0,0
104031,-100,4,2,32,64,0,0
104281,-100,4,2,14,64,0,0
104406,-100,4,2,15,64,0,0
104781,-100,4,2,22,64,0,0
104906,-100,4,2,15,64,0,0
105031,-100,4,2,33,64,0,0
105156,-100,4,2,15,64,0,0
105281,-100,4,2,14,64,0,0
105406,-100,4,2,10,64,0,0
105531,-100,4,2,13,64,0,0
105656,-100,4,2,13,60,0,0
105781,-100,4,2,26,64,0,0
105906,-100,4,2,13,64,0,0
106031,-100,4,2,30,64,0,0
106281,-100,4,2,14,64,0,0
106406,-100,4,2,15,64,0,0
106656,-100,4,2,12,64,0,0
106781,-100,4,2,10,64,0,0
106906,-100,4,2,12,64,0,0
107031,-100,4,2,31,64,0,0
107281,-100,4,2,22,64,0,0
107406,-100,4,2,23,64,0,0
107656,-100,4,2,15,64,0,0
107781,-100,4,2,14,64,0,0
107906,-100,4,2,10,64,0,0
108031,-100,4,2,32,64,0,0
108281,-100,4,2,14,64,0,0
108406,-100,4,2,15,64,0,0
108781,-100,4,2,22,64,0,0
108906,-100,4,2,15,64,0,0
109031,-100,4,2,35,64,0,0
109156,-100,4,2,15,64,0,0
109281,-100,4,2,14,64,0,0
109406,-100,4,2,10,64,0,0
109531,-100,4,2,13,64,0,0
109656,-100,4,2,13,60,0,0
109781,-100,4,2,26,64,0,0
109906,-100,4,2,13,64,0,0
110031,-133.333333333333,4,2,36,56,0,0
110281,-133.333333333333,4,2,29,52,0,0
117406,-133.333333333333,4,2,10,52,0,0
117781,-133.333333333333,4,2,29,52,0,0
125531,-133.333333333333,4,2,10,52,0,0
126031,-111.111111111111,4,2,10,52,0,0
126281,-111.111111111111,4,2,29,52,0,0
137531,-111.111111111111,4,2,10,52,0,0
138031,-133.333333333333,4,2,29,45,0,0
140031,-99.9999999999999,4,2,29,60,0,0
142031,-90.9090909090909,4,2,29,68,0,1
158031,-90.9090909090909,4,2,37,90,0,0
158281,-90.9090909090909,4,2,38,90,0,0
158406,-90.9090909090909,4,2,12,90,0,0
158656,-90.9090909090909,4,2,38,68,0,0
158781,-90.9090909090909,4,2,12,90,0,0
158906,-90.9090909090909,4,2,10,90,0,0
159031,-90.9090909090909,4,2,39,90,0,0
159156,-90.9090909090909,4,2,12,90,0,0
159281,-90.9090909090909,4,2,26,90,0,0
159406,-90.9090909090909,4,2,40,90,0,0
159656,-90.9090909090909,4,2,13,68,0,0
159781,-90.9090909090909,4,2,26,90,0,0
159906,-90.9090909090909,4,2,14,90,0,0
160031,-90.9090909090909,4,2,41,90,0,0
160281,-90.9090909090909,4,2,42,90,0,0
160406,-90.9090909090909,4,2,13,90,0,0
160656,-90.9090909090909,4,2,15,68,0,0
161031,-90.9090909090909,4,2,43,90,0,0
161156,-90.9090909090909,4,2,15,90,0,0
161281,-90.9090909090909,4,2,14,90,0,0
161406,-90.9090909090909,4,2,10,90,0,0
161531,-90.9090909090909,4,2,13,90,0,0
161656,-90.9090909090909,4,2,12,90,0,0
161781,-90.9090909090909,4,2,13,90,0,0
162031,-90.9090909090909,4,2,37,90,0,0
162281,-90.9090909090909,4,2,11,90,0,0
162406,-90.9090909090909,4,2,12,90,0,0
162656,-90.9090909090909,4,2,11,68,0,0
162781,-90.9090909090909,4,2,12,90,0,0
162906,-90.9090909090909,4,2,10,90,0,0
163031,-90.9090909090909,4,2,39,90,0,0
163156,-90.9090909090909,4,2,12,90,0,0
163281,-90.9090909090909,4,2,26,90,0,0
163406,-90.9090909090909,4,2,40,90,0,0
163656,-90.9090909090909,4,2,40,68,0,0
163781,-90.9090909090909,4,2,26,90,0,0
163906,-90.9090909090909,4,2,14,90,0,0
164031,-90.9090909090909,4,2,44,90,0,0
164281,-90.9090909090909,4,2,22,90,0,0
164406,-90.9090909090909,4,2,45,90,0,0
164656,-90.9090909090909,4,2,15,68,0,0
164781,-90.9090909090909,4,2,45,90,0,0
164906,-90.9090909090909,4,2,46,90,0,0
165031,-90.9090909090909,4,2,47,90,0,0
165281,-90.9090909090909,4,2,10,68,0,0
165531,-90.9090909090909,4,2,48,90,0,0
165656,-90.9090909090909,4,2,23,90,0,0
165781,-90.9090909090909,4,2,15,90,0,0
165906,-90.9090909090909,4,2,15,68,0,0
166031,-90.9090909090909,4,2,49,90,0,0
166156,-90.9090909090909,4,2,10,90,0,0
166281,-90.9090909090909,4,2,15,90,0,0
166406,-90.9090909090909,4,2,50,90,0,0
166656,-90.9090909090909,4,2,10,68,0,0
166781,-90.9090909090909,4,2,12,90,0,0
166906,-90.9090909090909,4,2,15,90,0,0
167031,-90.9090909090909,4,2,51,90,0,0
167281,-90.9090909090909,4,2,52,68,0,0
167406,-90.9090909090909,4,2,53,68,0,0
167656,-90.9090909090909,4,2,54,68,0,0
168031,-90.9090909090909,4,2,55,90,0,0
168156,-90.9090909090909,4,2,42,90,0,0
168281,-90.9090909090909,4,2,13,90,0,0
168406,-90.9090909090909,4,2,56,90,0,0
168656,-90.9090909090909,4,2,13,68,0,0
168781,-90.9090909090909,4,2,42,90,0,0
168906,-90.9090909090909,4,2,15,90,0,0
169031,-90.9090909090909,4,2,57,90,0,0
169281,-90.9090909090909,4,2,58,68,0,0
169406,-90.9090909090909,4,2,59,68,0,0
169656,-90.9090909090909,4,2,10,68,0,0
169781,-90.9090909090909,4,2,59,68,0,0
170031,-90.9090909090909,4,2,60,90,0,0
170156,-90.9090909090909,4,2,38,90,0,0
170281,-90.9090909090909,4,2,38,68,0,0
170406,-90.9090909090909,4,2,12,68,0,0
170531,-90.9090909090909,4,2,61,90,0,0
170656,-90.9090909090909,4,2,10,90,0,0
170781,-90.9090909090909,4,2,12,90,0,0
170906,-90.9090909090909,4,2,10,90,0,0
171031,-90.9090909090909,4,2,62,90,0,0
171281,-90.9090909090909,4,2,10,90,0,0
171531,-90.9090909090909,4,2,63,90,0,0
171781,-90.9090909090909,4,2,26,90,0,0
172031,-90.9090909090909,4,2,64,90,0,0
172156,-90.9090909090909,4,2,38,90,0,0
172281,-90.9090909090909,4,2,42,90,0,0
172406,-90.9090909090909,4,2,13,90,0,0
172531,-90.9090909090909,4,2,65,90,0,0
172656,-90.9090909090909,4,2,14,90,0,0
172781,-90.9090909090909,4,2,14,68,0,0
173031,-90.9090909090909,4,2,11,90,0,0
173156,-90.9090909090909,4,2,12,90,0,0
173281,-90.9090909090909,4,2,13,90,0,0
173406,-90.9090909090909,4,2,12,90,0,0
173531,-90.9090909090909,4,2,66,90,0,0
173656,-90.9090909090909,4,2,42,90,0,0
173781,-90.9090909090909,4,2,67,90,0,0
173906,-90.9090909090909,4,2,13,90,0,0
174031,-133.333333333333,4,2,68,60,0,0
174781,-133.333333333333,4,2,29,45,0,0
181656,-133.333333333333,4,2,10,45,0,0
182031,-133.333333333333,4,2,29,45,0,0
188031,-100,4,2,29,60,0,0
190031,-100,4,2,29,68,0,0
191281,-100,4,2,10,68,0,0
192031,-100,4,2,29,68,0,0
193281,-100,4,2,10,68,0,0
193656,-100,4,2,29,68,0,0
194031,-90.9090909090909,4,2,29,68,0,1
206031,-90.9090909090909,4,2,29,75,0,1
222656,-90.9090909090909,4,2,10,75,0,1
222781,-90.9090909090909,4,2,29,75,0,1
223656,-90.9090909090909,4,2,10,75,0,1
223781,-90.9090909090909,4,2,29,75,0,1
226656,-90.9090909090909,4,2,10,75,0,1
226781,-90.9090909090909,4,2,29,75,0,1
227656,-90.9090909090909,4,2,10,75,0,1
227781,-90.9090909090909,4,2,29,75,0,1
228656,-90.9090909090909,4,2,10,75,0,1
228781,-90.9090909090909,4,2,29,75,0,1
230656,-90.9090909090909,4,2,10,75,0,1
230781,-90.9090909090909,4,2,29,75,0,1
231656,-90.9090909090909,4,2,10,75,0,1
231781,-90.9090909090909,4,2,29,75,0,1
234656,-90.9090909090909,4,2,10,75,0,1
234781,-90.9090909090909,4,2,29,75,0,1
235656,-90.9090909090909,4,2,10,75,0,1
235781,-90.9090909090909,4,2,29,75,0,1
236656,-90.9090909090909,4,2,10,75,0,1
236781,-90.9090909090909,4,2,29,75,0,1
238031,-90.9090909090909,4,2,29,68,0,0
242031,-100,4,2,29,68,0,0

[Colours]
Combo1 : 37,226,170
Combo2 : 152,250,165
Combo3 : 252,153,148
Combo4 : 168,228,239

[HitObjects]
256,192,6031,12,10,9031,3:2:0:0:
0,198,10031,6,0,L|180:163,1,170,6|10,3:2|2:0,2:0:0:0:
258,200,10406,2,0,P|324:156|307:78,1,170,2|2,3:2|3:2,2:0:0:0:
225,48,10781,1,10,2:0:0:0:
225,48,10906,1,2,2:0:0:0:
160,159,11031,6,0,B|147:221|147:221|171:255|171:255|160:318,1,170,2|10,3:2|2:0,2:0:0:0:
11,362,11406,2,0,P|1:286|77:279,1,170,2|2,3:2|3:2,2:0:0:0:
145,347,11781,1,10,2:0:0:0:
145,347,11906,1,2,2:0:0:0:
279,302,12031,6,0,B|367:278|324:231|412:207,1,170,2|10,3:2|2:0,2:0:0:0:
512,127,12406,2,0,P|427:116|347:89,1,170,2|2,3:2|3:2,2:0:0:0:
288,26,12781,1,10,2:0:0:0:
288,26,12906,1,2,2:0:0:0:
179,72,13031,6,0,P|158:108|167:148,1,85,2|2,3:2|2:0,2:0:0:0:
317,190,13281,2,0,P|274:195|234:208,1,85,10|2,2:0|3:2,2:0:0:0:
162,280,13531,2,0,P|119:285|79:298,1,85,2|0,2:0|3:0,2:0:0:0:
0,243,13781,1,10,2:0:0:0:
0,243,13906,1,2,2:0:0:0:
39,119,14031,6,0,P|113:89|166:148,1,170,2|10,3:2|2:0,2:0:0:0:
274,47,14406,2,0,L|239:227,1,170,2|2,3:2|3:2,2:0:0:0:
180,282,14781,1,10,2:0:0:0:
180,282,14906,1,2,2:0:0:0:
283,356,15031,6,0,B|371:332|357:394|447:371,1,170,2|10,3:2|2:0,2:0:0:0:
501,272,15406,2,0,B|439:248|439:248|455:145,1,170,2|2,3:2|3:2,2:0:0:0:
377,100,15781,1,10,2:0:0:0:
377,100,15906,1,2,2:0:0:0:
254,44,16031,6,0,P|191:93|216:168,1,170,2|10,3:2|2:0,2:0:0:0:
305,200,16406,2,0,L|125:235,1,170,2|2,3:2|3:2,2:0:0:0:
76,292,16781,1,10,2:0:0:0:
76,292,16906,1,2,2:0:0:0:
159,384,17031,6,0,P|195:363|207:323,1,85,10|2,1:2|3:2,2:0:0:0:
332,272,17281,2,0,P|332:230|304:199,1,85,10|2,1:2|3:2,2:0:0:0:
133,137,17531,5,10,1:2:0:0:
133,137,17656,1,2,3:2:0:0:
45,97,17781,1,10,2:0:0:0:
138,232,17906,1,10,2:0:0:0:
204,84,18031,6,0,B|266:71|266:71|300:95|300:95|363:84,1,170,6|10,3:2|2:0,2:0:0:0:
471,110,18406,2,0,P|391:114|367:190,1,170,2|2,3:2|3:2,2:0:0:0:
420,266,18781,1,10,2:0:0:0:
420,266,18906,1,2,2:0:0:0:
321,352,19031,6,0,P|240:324|156:314,1,170,2|10,3:2|2:0,2:0:0:0:
67,384,19406,2,0,P|0:340|16:262,1,170,2|2,3:2|3:2,2:0:0:0:
106,245,19781,1,10,2:0:0:0:
106,245,19906,1,2,2:0:0:0:
16,166,20031,6,0,L|51:-14,1,170,2|10,3:2|2:0,2:0:0:0:
161,93,20406,2,0,P|232:129|291:74,1,170,2|2,3:2|3:2,2:0:0:0:
372,38,20781,1,10,2:0:0:0:
372,38,20906,1,2,2:0:0:0:
469,100,21031,6,0,L|451:190,1,85,2|2,3:2|2:0,2:0:0:0:
370,234,21281,2,0,L|352:324,1,85,10|2,2:0|3:2,2:0:0:0:
491,380,21531,2,0,P|480:339|445:317,1,85,2|0,2:0|3:0,2:0:0:0:
354,338,21781,1,10,2:0:0:0:
354,338,21906,1,2,2:0:0:0:
219,270,22031,6,0,B|195:181|257:195|234:105,1,170,2|10,3:2|2:0,2:0:0:0:
122,39,22406,2,0,B|60:62|60:62|76:165,1,170,2|2,3:2|3:2,2:0:0:0:
44,246,22781,1,10,2:0:0:0:
44,246,22906,1,2,2:0:0:0:
121,315,23031,6,0,P|198:296|243:363,1,170,2|10,3:2|2:0,2:0:0:0:
351,384,23406,2,0,L|386:204,1,170,2|2,3:2|3:2,2:0:0:0:
445,148,23781,1,10,2:0:0:0:
445,148,23906,1,2,2:0:0:0:
323,151,24031,6,0,B|233:134|271:84|180:67,1,170,2|10,3:2|2:0,2:0:0:0:
50,22,24406,2,0,B|109:-1|109:-1|91:103,1,170,2|2,3:2|3:2,2:0:0:0:
168,168,24781,1,10,2:0:0:0:
168,168,24906,1,2,2:0:0:0:
49,237,25031,6,0,P|92:242|132:255,1,85,10|2,1:2|3:2,2:0:0:0:
187,357,25281,2,0,P|230:362|270:375,1,85,10|2,1:2|3:2,2:0:0:0:
384,247,25531,5,10,1:2:0:0:
384,247,25656,1,8,3:2:0:0:
354,165,25781,1,10,2:0:0:0:
327,310,25906,1,10,2:0:0:0:
465,261,26031,5,2,2:0:0:0:
274,0,28031,6,0,L|243:156,1,159.375,2|0,2:0|2:0,2:0:0:0:
231,168,28406,2,0,P|151:162|141:63,1,191.25,2|2,2:0|2:0,2:0:0:0:
137,67,29031,1,6,2:0:0:0:
14,279,30031,6,0,B|80:262|70:308|137:290,1,127.5,2|2,3:2|2:0,2:0:0:0:
210,354,30406,1,2,2:0:0:0:
210,354,30531,2,0,B|276:370|266:324|333:342,1,127.5,0|2,3:0|2:0,2:0:0:0:
409,155,31031,6,0,P|348:158|329:215,1,127.5,2|2,3:2|2:0,2:0:0:0:
468,332,31531,2,0,L|480:269,2,63.7500000000002,0|2|2,3:0|2:0|2:0,2:0:0:0:
333,342,32031,6,0,P|272:338|253:281,1,127.5,2|2,3:2|2:0,2:0:0:0:
190,221,32406,1,2,2:0:0:0:
190,221,32531,2,0,L|214:95,1,127.5,0|0,3:0|2:0,2:0:0:0:
49,0,33031,6,0,L|73:125,1,127.5,2|0,3:2|2:0,2:0:0:0:
73,125,33531,1,4,3:2:0:0:
286,37,34031,6,0,P|346:40|365:97,1,127.5,2|2,3:2|2:0,2:0:0:0:
438,150,34406,1,2,2:0:0:0:
438,150,34531,2,0,P|373:155|312:174,1,127.5,0|2,3:0|2:0,2:0:0:0:
153,240,35031,6,0,P|218:245|278:264,1,127.5,2|2,3:2|2:0,2:0:0:0:
85,135,35531,2,0,P|117:130|147:122,2,63.7500000000002,0|2|2,3:0|2:0|2:0,2:0:0:0:
32,318,36031,6,0,P|93:333|149:363,1,127.5,2|0,3:2|2:0,2:0:0:0:
245,173,36531,2,0,P|184:176|165:233,1,127.5,0|2,3:0|2:0,2:0:0:0:
318,342,37031,6,0,L|342:216,1,127.5,2|2,3:2|2:0,2:0:0:0:
421,173,37406,1,2,3:2:0:0:
340,0,37656,1,6,2:3:0:0:
340,0,37781,1,10,2:3:0:0:
163,55,38031,6,0,P|228:61|288:79,1,127.5,2|2,3:2|2:0,2:0:0:0:
386,87,38406,1,2,2:0:0:0:
386,87,38531,1,8,2:0:0:0:
241,160,38781,2,0,P|210:151|178:147,1,63.7500000000002,2|0,2:0|2:0,2:0:0:0:
59,117,39031,6,0,P|8:149|20:208,1,127.5,2|2,3:2|2:0,2:0:0:0:
85,276,39406,2,0,L|72:338,1,63.7500000000002,2|8,2:0|2:0,2:0:0:0:
0,384,39656,1,2,2:0:0:0:
0,384,39781,1,2,2:0:0:0:
191,313,40031,6,0,B|257:296|247:342|314:324,1,127.5,2|2,3:2|2:0,2:0:0:0:
401,368,40406,1,2,2:0:0:0:
401,368,40531,2,0,L|425:243,1,127.5,8|0,2:0|2:0,2:0:0:0:
505,178,40906,1,2,2:0:0:0:
505,178,41031,6,0,P|445:189|413:139,1,127.5,2|0,3:2|2:0,2:0:0:0:
413,139,41531,1,8,2:0:0:0:
269,0,41781,2,0,L|281:62,1,63.7500000000002,2|2,2:0|2:0,2:0:0:0:
197,141,42031,6,0,P|157:95|184:42,1,127.5,2|2,3:2|2:0,2:0:0:0:
290,87,42406,1,2,2:0:0:0:
290,87,42531,1,8,2:0:0:0:
146,212,42781,2,0,P|115:203|83:199,1,63.7500000000002,2|0,2:0|2:0,2:0:0:0:
27,282,43031,6,0,P|92:288|152:306,1,127.5,2|2,3:2|2:0,2:0:0:0:
235,373,43406,1,2,2:0:0:0:
235,373,43531,2,0,P|285:340|273:280,1,127.5,8|2,2:0|2:0,2:0:0:0:
174,114,44031,6,0,P|177:174|234:193,1,127.5,2|0,3:2|2:0,2:0:0:0:
429,191,44531,2,0,P|375:163|329:203,1,127.5,8|2,2:0|2:0,2:0:0:0:
164,101,45031,6,0,L|289:77,1,127.5,2|2,3:2|2:0,2:0:0:0:
379,56,45406,1,2,2:0:0:0:
379,56,45531,1,8,2:0:0:0:
466,38,45656,2,0,L|478:100,1,63.7500000000002,2|2,2:0|2:0,2:0:0:0:
429,191,45906,1,2,2:0:0:0:
429,191,46031,6,0,B|348:212|388:255|307:277,1,153,4|2,3:2|1:2,2:0:0:0:
217,217,46406,2,0,P|180:205|142:202,1,76.5000000000001,2|8,2:0|2:0,2:0:0:0:
127,299,46656,1,2,2:0:0:0:
127,299,46781,2,0,P|165:302|201:313,1,76.5000000000001,2|2,1:2|2:0,2:0:0:0:
54,234,47031,6,0,P|38:164|107:122,1,153,2|2,3:2|1:2,2:0:0:0:
211,54,47406,1,2,2:0:0:0:
211,54,47531,2,0,P|284:76|360:79,1,153,8|2,2:0|1:2,2:0:0:0:
456,134,47906,1,2,2:0:0:0:
456,134,48031,6,0,P|471:204|412:246,1,153,2|2,3:2|1:2,2:0:0:0:
321,358,48406,1,2,2:0:0:0:
321,358,48531,2,0,B|332:301|332:301|310:270|310:270|321:213,1,153,8|2,2:0|1:2,2:0:0:0:
236,327,49031,6,0,P|165:342|123:283,2,153,2|0|10,3:2|1:0|2:0,2:0:0:0:
236,327,49781,1,2,1:2:0:0:
129,192,50031,6,0,P|57:198|35:267,1,153,2|2,3:2|1:2,2:0:0:0:
209,238,50406,2,0,L|223:163,1,76.5000000000001,2|8,2:0|2:0,2:0:0:0:
154,98,50656,1,2,2:0:0:0:
154,98,50781,2,0,L|168:23,1,76.5000000000001,2|2,1:2|2:0,2:0:0:0:
282,0,51031,6,0,P|320:61|391:49,1,153,2|2,3:2|1:2,2:0:0:0:
512,95,51406,1,2,2:0:0:0:
512,95,51531,2,0,B|456:116|456:116|470:209,1,153,8|2,2:0|1:2,2:0:0:0:
310,350,52031,6,0,P|236:327|160:324,1,153,2|2,3:2|1:2,2:0:0:0:
72,362,52406,1,2,2:0:0:0:
72,362,52531,2,0,B|37:369|37:369|3:347|4:288|38:268,1,153,8|2,2:0|1:2,2:0:0:0:
176,158,53031,6,0,P|209:94|163:38,1,153,2|0,3:2|1:0,2:0:0:0:
0,150,53531,2,0,P|37:154|72:169,1,76.5000000000001,10|2,2:0|2:0,2:0:0:0:
155,260,53781,2,0,P|192:264|227:279,1,76.5000000000001,2|2,1:2|2:0,2:0:0:0:
345,202,54031,6,0,B|366:121|309:134|330:53,1,153,4|2,3:2|1:2,2:0:0:0:
414,5,54406,1,2,2:0:0:0:
414,5,54531,2,0,P|448:19|462:53,1,76.5000000000001,10|2,2:0|2:0,2:0:0:0:
512,129,54781,2,0,P|509:166|480:190,1,76.5000000000001,2|0,1:2|2:0,2:0:0:0:
394,277,55031,6,0,P|320:254|244:251,1,153,2|2,3:2|1:2,2:0:0:0:
181,165,55406,1,2,2:0:0:0:
181,165,55531,2,0,P|117:131|61:177,1,153,8|2,2:0|1:2,2:0:0:0:
0,276,55906,1,2,2:0:0:0:
0,276,56031,6,0,B|54:293|54:293|70:328|70:328|125:348,1,153,2|2,3:2|1:2,2:0:0:0:
245,366,56406,1,2,2:0:0:0:
245,366,56531,2,0,L|273:216,1,153,8|2,2:0|1:2,2:0:0:0:
273,215,57031,5,6,3:2:0:0:
512,76,57531,6,0,P|482:98|445:93,1,76.5000000000001,10|10,2:3|2:3,2:0:0:0:
330,7,57781,2,0,P|366:2|396:24,1,76.5000000000001,6|6,2:3|2:3,2:0:0:0:
346,164,58031,6,0,P|250:168|158:194,1,191.25,2|0,3:2|3:0,2:0:0:0:
48,78,58656,1,0,3:0:0:0:
48,78,58781,2,0,L|60:140,1,63.7500000000002,10|0,2:0|2:0,2:0:0:0:
158,194,59031,6,0,P|219:155|173:61,2,191.25,0|0|10,3:0|3:0|2:0,2:0:0:0:
45,284,60031,6,0,B|133:308|90:355|179:379,1,170,14|0,3:2|2:0,2:0:0:0:
282,314,60406,2,0,L|250:147,1,170,14|0,3:2|2:0,2:0:0:0:
366,87,60781,2,0,P|388:122|382:163,1,85,14|0,3:2|2:0,2:0:0:0:
234,59,61031,5,14,3:2:0:0:
512,262,62031,6,0,B|414:288|461:341|363:367,1,187,6|10,3:2|2:0,2:0:0:0:
254,242,62406,2,0,P|322:196|355:271,1,187,2|2,3:2|3:2,2:0:0:0:
197,384,62781,2,0,L|177:293,1,93.5,10|0,2:0|2:0,2:0:0:0:
67,184,63031,6,0,L|102:0,2,187,2|8|2,3:2|2:0|3:2,2:0:0:0:
0,235,63656,1,2,3:2:0:0:
0,235,63781,1,10,2:0:0:0:
197,114,64031,6,0,B|266:105|266:105|302:135|302:135|372:129,1,187,2|10,3:2|2:0,2:0:0:0:
476,51,64406,2,0,P|404:0|331:48,1,187,2|2,3:2|3:2,2:0:0:0:
456,156,64781,2,0,P|440:198|398:216,1,93.5,10|0,2:0|2:0,2:0:0:0:
263,308,65031,6,0,P|174:279|81:275,2,187,2|8|2,3:2|2:0|3:2,2:0:0:0:
333,383,65656,1,2,3:2:0:0:
333,383,65781,1,10,2:0:0:0:
512,287,66031,6,0,P|520:199|441:160,1,187,2|10,3:2|2:0,2:0:0:0:
288,80,66406,2,0,P|199:108|106:113,1,187,2|0,3:2|3:0,2:0:0:0:
47,171,66781,1,10,2:0:0:0:
267,0,67031,6,0,P|295:34|289:80,1,93.5,2|0,3:2|2:0,2:0:0:0:
397,128,67281,2,0,P|381:170|339:187,1,93.5,10|0,2:0|2:0,2:0:0:0:
226,199,67531,1,2,3:2:0:0:
226,199,67656,1,0,3:0:0:0:
274,293,67781,2,0,L|254:384,1,93.5,10|0,2:0|2:0,2:0:0:0:
163,294,68031,6,0,B|65:268|112:215|14:189,1,187,2|10,3:2|2:0,2:0:0:0:
0,89,68406,2,0,P|39:10|127:18,1,187,2|0,3:2|3:0,2:0:0:0:
175,97,68781,1,10,2:0:0:0:
397,0,69031,6,0,L|377:91,1,93.5,10|0,1:2|3:0,2:0:0:0:
464,227,69281,2,0,L|444:318,1,93.5,8|0,1:2|3:0,2:0:0:0:
291,272,69531,5,10,1:2:0:0:
291,272,69656,1,0,3:0:0:0:
208,232,69781,1,10,2:0:0:0:
352,208,69906,1,8,2:0:0:0:
298,361,70031,6,0,B|229:352|229:352|193:382|193:382|123:376,1,187,6|10,3:2|2:0,2:0:0:0:
34,315,70406,2,0,L|-1:131,1,187,2|2,3:2|3:2,2:0:0:0:
44,50,70781,2,0,P|88:42|124:70,1,93.5,10|0,2:0|2:0,2:0:0:0:
280,162,71031,6,0,P|359:124|354:36,2,187,2|8|2,3:2|2:0|3:2,2:0:0:0:
225,84,71656,1,2,3:2:0:0:
225,84,71781,1,10,2:0:0:0:
106,230,72031,6,0,P|193:224|232:303,1,187,2|10,3:2|2:0,2:0:0:0:
319,384,72406,2,0,B|381:360|381:360|361:236,1,187,2|2,3:2|3:2,2:0:0:0:
461,180,72781,2,0,L|441:89,1,93.5,10|0,2:0|2:0,2:0:0:0:
272,20,73031,6,0,B|263:89|263:89|293:125|293:125|287:195,2,187,2|8|2,3:2|2:0|3:2,2:0:0:0:
359,60,73656,1,2,3:2:0:0:
359,60,73781,1,10,2:0:0:0:
171,173,74031,6,0,P|83:178|44:99,1,187,2|10,3:2|2:0,2:0:0:0:
147,0,74406,2,0,L|182:184,1,187,2|0,3:2|3:0,2:0:0:0:
259,235,74781,1,10,2:0:0:0:
33,225,75031,6,0,P|77:217|113:245,1,93.5,2|0,3:2|2:0,2:0:0:0:
197,328,75281,2,0,P|232:356|277:348,1,93.5,10|0,2:0|2:0,2:0:0:0:
259,235,75531,1,2,3:2:0:0:
259,235,75656,1,0,3:0:0:0:
352,282,75781,2,0,P|396:268|443:265,1,93.5,10|0,2:0|2:0,2:0:0:0:
510,138,76031,6,0,P|416:133|328:104,1,187,2|10,3:2|2:0,2:0:0:0:
241,56,76406,2,0,P|163:96|172:184,1,187,2|0,3:2|3:0,2:0:0:0:
259,235,76781,1,10,2:0:0:0:
52,327,77031,6,0,L|32:236,1,93.5,10|0,1:2|3:0,2:0:0:0:
120,91,77281,2,0,L|100:0,1,93.5,8|0,1:2|3:0,2:0:0:0:
249,141,77531,5,10,1:2:0:0:
249,141,77656,1,0,3:0:0:0:
172,184,77781,1,10,2:0:0:0:
241,56,77906,1,8,2:0:0:0:
333,181,78031,6,0,B|431:207|384:260|482:286,1,187,6|8,3:2|2:0,2:0:0:0:
325,274,78406,2,0,P|279:280|252:316,1,93.5,2|0,2:0|3:0,2:0:0:0:
182,371,78656,1,10,2:3:0:0:
104,320,78781,2,0,L|84:229,1,93.5,10|2,2:0|2:0,2:0:0:0:
0,116,79031,6,0,P|58:49|141:79,1,187,2|10,3:2|2:0,2:0:0:0:
220,45,79406,2,0,P|265:40|293:4,1,93.5,2|0,2:0|3:0,2:0:0:0:
144,100,79656,1,8,2:3:0:0:
144,100,79781,2,0,P|170:136|216:142,1,93.5,10|0,2:0|2:0,2:0:0:0:
311,0,80031,6,0,B|302:69|302:69|332:105|332:105|323:176,1,187,2|10,3:2|2:0,2:0:0:0:
465,288,80406,2,0,P|513:221|439:186,1,187,2|2,2:0|2:0,2:0:0:0:
366,276,80781,2,0,P|322:262|275:259,1,93.5,10|0,2:0|2:0,2:0:0:0:
181,379,81031,6,0,P|92:350|-1:346,2,187,2|10|2,3:2|2:0|3:2,2:0:0:0:
181,379,81781,1,10,2:0:0:0:
132,167,82031,6,0,P|64:224|92:307,1,187,6|8,3:2|2:0,2:0:0:0:
208,264,82406,2,0,L|228:173,1,93.5,2|0,2:0|3:0,2:0:0:0:
185,86,82656,1,8,2:3:0:0:
263,42,82781,2,0,P|290:78|336:82,1,93.5,10|2,2:0|2:0,2:0:0:0:
379,0,83031,6,0,L|419:182,1,187,2|10,3:2|2:0,2:0:0:0:
512,13,83406,2,0,L|492:104,1,93.5,2|0,2:0|3:0,2:0:0:0:
319,182,83656,1,8,2:3:0:0:
319,182,83781,2,0,L|354:268,1,93.5,10|0,2:0|2:0,2:0:0:0:
466,352,84031,6,0,P|377:323|284:319,1,187,2|10,3:2|2:0,2:0:0:0:
147,377,84406,2,0,P|80:318|110:235,1,187,2|8,2:0|2:3,2:0:0:0:
206,226,84781,2,0,P|170:254|125:248,1,93.5,10|2,2:0|2:0,2:0:0:0:
0,131,85031,6,0,P|93:126|181:97,1,187,2|8,3:2|2:0,2:0:0:0:
181,97,85531,5,10,2:0:0:0:
288,189,85656,1,8,2:0:0:0:
330,59,85781,1,10,2:0:0:0:
267,109,85906,1,8,2:0:0:0:
376,224,86031,6,0,B|438:200|438:200|418:76,1,187,6|8,3:2|2:0,2:0:0:0:
325,50,86406,2,0,P|282:67|266:110,1,93.5,2|0,2:0|3:0,2:0:0:0:
208,189,86656,1,10,2:3:0:0:
134,114,86781,2,0,P|89:99|42:97,1,93.5,10|2,2:0|2:0,2:0:0:0:
198,198,87031,6,0,B|171:295|240:281|214:379,1,187,2|10,3:2|2:0,2:0:0:0:
285,239,87406,2,0,P|313:274|307:319,1,93.5,2|0,2:0|3:0,2:0:0:0:
129,343,87656,1,8,2:3:0:0:
129,343,87781,2,0,P|100:307|106:262,1,93.5,10|0,2:0|2:0,2:0:0:0:
15,238,88031,6,0,L|196:198,1,187,2|10,3:2|2:0,2:0:0:0:
236,93,88406,2,0,P|148:86|108:164,1,187,2|2,2:0|2:0,2:0:0:0:
204,211,88781,2,0,L|295:231,1,93.5,10|0,2:0|2:0,2:0:0:0:
452,174,89031,6,0,B|443:104|443:104|473:68|473:68|464:0,2,187,2|8|2,3:2|2:0|3:2,2:0:0:0:
452,174,89781,1,10,2:0:0:0:
229,73,90031,6,0,P|286:6|370:34,1,187,6|8,3:2|2:0,2:0:0:0:
251,161,90406,2,0,P|205:167|170:139,1,93.5,2|0,2:0|3:0,2:0:0:0:
104,63,90656,1,10,2:3:0:0:
24,117,90781,2,0,L|44:208,1,93.5,10|2,2:0|2:0,2:0:0:0:
0,384,91031,6,0,B|64:357|64:357|80:313|80:313|146:285,1,187,2|10,3:2|2:0,2:0:0:0:
244,325,91406,2,0,P|286:308|303:265,1,93.5,2|0,2:0|3:0,2:0:0:0:
403,285,91656,1,8,2:3:0:0:
403,285,91781,2,0,P|409:239|381:204,1,93.5,10|0,2:0|2:0,2:0:0:0:
245,182,92031,6,0,L|205:0,1,187,2|10,3:2|2:0,2:0:0:0:
319,31,92406,2,0,P|347:66|340:111,1,93.5,2|0,2:0|3:0,2:0:0:0:
235,191,92656,1,10,2:3:0:0:
312,302,92781,2,0,P|357:287|404:285,1,93.5,10|2,2:0|2:0,2:0:0:0:
225,182,93031,6,0,P|88:234|141:371,1,327.25,6|0,3:2|2:0,2:0:0:0:
159,377,93531,2,0,L|88:57,1,327.25,6|0,2:0|2:0,2:0:0:0:
84,38,94031,6,0,P|168:59|250:70,1,170,6|10,3:2|2:0,2:0:0:0:
349,18,94406,2,0,P|425:41|431:121,1,170,2|2,3:2|3:2,2:0:0:0:
394,199,94781,1,10,2:0:0:0:
394,199,94906,1,2,2:0:0:0:
502,235,95031,6,0,P|421:247|335:267,1,170,2|10,3:2|2:0,2:0:0:0:
237,229,95406,2,0,P|304:274|296:354,1,170,2|2,3:2|3:2,2:0:0:0:
217,384,95781,1,10,2:0:0:0:
217,384,95906,1,2,2:0:0:0:
89,358,96031,6,0,L|57:191,1,170,2|10,3:2|2:0,2:0:0:0:
0,120,96406,2,0,B|88:96|45:49|133:25,1,170,2|2,3:2|3:2,2:0:0:0:
219,46,96781,1,10,2:0:0:0:
219,46,96906,1,2,2:0:0:0:
350,12,97031,6,0,L|334:95,1,85,2|2,3:2|2:0,2:0:0:0:
210,174,97281,2,0,L|226:257,1,85,10|2,2:0|3:2,2:0:0:0:
323,318,97531,2,0,P|363:327|399:306,1,85,2|0,2:0|3:0,2:0:0:0:
446,226,97781,1,10,2:0:0:0:
446,226,97906,1,2,2:0:0:0:
500,119,98031,6,0,B|439:138|439:138|422:176|422:176|362:198,1,170,2|10,3:2|2:0,2:0:0:0:
307,122,98406,2,0,P|264:54|185:69,1,170,2|2,3:2|3:2,2:0:0:0:
109,104,98781,1,10,2:0:0:0:
109,104,98906,1,2,2:0:0:0:
43,0,99031,6,0,B|-13:21|-13:21|5:131,1,170,2|10,3:2|2:0,2:0:0:0:
155,236,99406,2,0,P|170:156|103:102,1,170,2|2,3:2|3:2,2:0:0:0:
25,149,99781,1,10,2:0:0:0:
25,149,99906,1,2,2:0:0:0:
52,286,100031,6,0,B|140:310|97:357|185:381,1,170,2|10,3:2|2:0,2:0:0:0:
329,263,100406,2,0,B|349:226|274:172|210:247|250:315,1,170,2|2,3:2|3:2,2:0:0:0:
307,348,100781,1,10,2:0:0:0:
307,348,100906,1,2,2:0:0:0:
426,278,101031,6,0,L|410:195,1,85,10|2,1:2|3:2,2:0:0:0:
512,16,101281,2,0,P|491:52|452:64,1,85,10|2,1:2|3:2,2:0:0:0:
279,54,101531,1,10,1:2:0:0:
279,54,101656,1,2,3:2:0:0:
310,146,101781,1,10,2:0:0:0:
370,15,101906,1,10,2:0:0:0:
217,118,102031,6,0,P|141:90|138:10,1,170,6|10,3:2|2:0,2:0:0:0:
24,70,102406,2,0,L|56:237,1,170,2|2,3:2|3:2,2:0:0:0:
127,288,102781,1,10,2:0:0:0:
127,288,102906,1,2,2:0:0:0:
45,358,103031,6,0,B|107:343|107:343|141:368|141:368|204:357,1,170,2|10,3:2|2:0,2:0:0:0:
288,308,103406,2,0,P|305:229|239:184,1,170,2|2,3:2|3:2,2:0:0:0:
155,158,103781,1,10,2:0:0:0:
155,158,103906,1,2,2:0:0:0:
259,82,104031,6,0,P|343:72|425:50,1,170,2|10,3:2|2:0,2:0:0:0:
406,152,104406,2,0,P|321:161|239:183,1,170,2|2,3:2|3:2,2:0:0:0:
155,158,104781,1,10,2:0:0:0:
155,158,104906,1,2,2:0:0:0:
52,233,105031,6,0,P|43:273|64:309,1,85,2|2,3:2|2:0,2:0:0:0:
135,369,105281,2,0,P|174:356|194:320,1,85,10|2,2:0|3:2,2:0:0:0:
250,188,105531,2,0,L|266:271,1,85,2|0,2:0|3:0,2:0:0:0:
347,324,105781,1,10,2:0:0:0:
347,324,105906,1,2,2:0:0:0:
466,384,106031,6,0,L|498:218,1,170,2|10,3:2|2:0,2:0:0:0:
438,149,106406,2,0,P|357:145|330:69,1,170,2|2,3:2|3:2,2:0:0:0:
271,18,106781,1,10,2:0:0:0:
271,18,106906,1,2,2:0:0:0:
161,84,107031,6,0,B|73:108|116:155|28:179,1,170,2|10,3:2|2:0,2:0:0:0:
86,256,107406,2,0,P|167:268|252:291,1,170,2|2,3:2|3:2,2:0:0:0:
315,356,107781,1,10,2:0:0:0:
315,356,107906,1,2,2:0:0:0:
424,280,108031,6,0,P|420:199|344:172,1,170,2|10,3:2|2:0,2:0:0:0:
251,292,108406,2,0,B|265:229|265:229|240:195|240:195|251:132,1,170,2|2,3:2|3:2,2:0:0:0:
197,65,108781,1,10,2:0:0:0:
197,65,108906,1,2,2:0:0:0:
83,118,109031,6,0,P|41:106|0:101,1,85,10|2,1:2|3:2,2:0:0:0:
133,232,109281,2,0,P|174:220|216:215,1,85,10|2,1:2|3:2,2:0:0:0:
344,172,109531,1,10,1:2:0:0:
344,172,109656,1,8,3:2:0:0:
250,132,109781,1,10,2:0:0:0:
319,263,109906,1,10,2:0:0:0:
426,129,110031,6,0,L|402:4,1,127.5,6|10,3:2|2:0,2:0:0:0:
310,20,110406,2,0,L|334:145,1,127.5,2|0,3:2|3:0,2:0:0:0:
394,211,110781,1,10,2:0:0:0:
498,294,111031,6,0,P|438:283|406:334,1,127.5,2|10,3:2|2:0,2:0:0:0:
312,361,111406,2,0,P|251:358|231:302,1,127.5,2|2,3:2|3:2,2:0:0:0:
319,263,111781,1,10,2:0:0:0:
206,166,112031,6,0,P|145:184|81:190,1,127.5,2|10,3:2|2:0,2:0:0:0:
61,98,112406,2,0,P|121:79|185:73,1,127.5,2|2,3:2|3:2,2:0:0:0:
185,73,112906,1,2,2:0:0:0:
280,16,113031,6,0,P|340:18|360:74,1,127.5,2|8,3:2|2:0,2:0:0:0:
439,122,113406,2,0,P|436:182|380:201,1,127.5,0|0,3:0|3:0,2:0:0:0:
300,151,113781,1,10,2:0:0:0:
190,258,114031,6,0,B|173:324|219:314|201:381,1,127.5,2|10,3:2|2:0,2:0:0:0:
100,264,114406,2,0,P|39:266|20:322,1,127.5,2|0,3:2|3:0,2:0:0:0:
111,357,114781,1,10,2:0:0:0:
14,235,115031,6,0,L|38:110,1,127.5,2|10,3:2|2:0,2:0:0:0:
123,57,115406,2,0,P|142:113|202:115,1,127.5,2|2,3:2|3:2,2:0:0:0:
266,58,115781,1,10,2:0:0:0:
379,185,116031,6,0,P|283:191|195:226,2,191.25,2|0|10,3:2|3:0|2:0,2:0:0:0:
249,316,117031,6,0,P|192:296|190:236,1,127.5,6|10,3:2|2:0,2:0:0:0:
260,161,117406,2,0,L|272:98,1,63.7500000000002,10|0,2:3|3:0,2:0:0:0:
362,62,117656,1,6,2:3:0:0:
362,62,117781,2,0,L|350:-1,1,63.7500000000002,10|8,2:0|2:0,2:0:0:0:
490,94,118031,6,0,B|444:109|444:109|431:138|431:138|385:154,1,127.5,6|10,3:2|2:0,2:0:0:0:
361,240,118406,2,0,B|315:224|315:224|302:195|302:195|256:179,1,127.5,2|0,3:2|3:0,2:0:0:0:
178,115,118781,2,0,L|115:127,1,63.7500000000002,10|2,2:0|2:0,2:0:0:0:
15,81,119031,6,0,P|73:69|105:120,1,127.5,2|10,3:2|2:0,2:0:0:0:
51,201,119406,2,0,P|22:253|61:299,1,127.5,2|2,2:0|3:2,2:0:0:0:
141,242,119781,1,10,2:0:0:0:
230,345,120031,6,0,B|296:328|286:374|353:356,1,127.5,2|10,3:2|2:0,2:0:0:0:
424,282,120406,2,0,L|400:157,1,127.5,2|0,3:2|3:0,2:0:0:0:
399,156,120906,1,2,2:0:0:0:
474,100,121031,6,0,P|415:111|383:60,1,127.5,2|8,3:2|2:0,2:0:0:0:
224,92,121531,2,0,P|257:94|287:104,1,63.7500000000002,0|0,3:0|3:0,2:0:0:0:
304,11,121781,2,0,P|272:8|241:0,1,63.7500000000002,10|2,2:0|2:0,2:0:0:0:
131,78,122031,6,0,B|114:144|160:134|142:201,1,127.5,2|10,3:2|2:0,2:0:0:0:
69,276,122406,2,0,P|25:234|49:178,1,127.5,2|0,3:2|3:0,2:0:0:0:
140,213,122781,2,0,P|170:203|202:201,1,63.7500000000002,10|2,2:0|2:0,2:0:0:0:
301,261,123031,6,0,P|362:242|425:236,1,127.5,2|10,3:2|2:0,2:0:0:0:
498,164,123406,2,0,P|490:104|432:89,1,127.5,2|2,2:0|3:2,2:0:0:0:
359,144,123781,1,10,2:0:0:0:
247,19,124031,6,0,L|211:206,2,191.25,6|0|10,3:2|3:0|2:0,2:0:0:0:
135,137,125031,2,0,L|124:73,1,63.7500000000002,10|0,2:0|3:0,2:0:0:0:
297,171,125281,2,0,L|328:115,1,63.7500000000002,10|2,2:0|3:2,2:0:0:0:
210,206,125531,1,8,2:3:0:0:
210,206,125656,1,10,2:3:0:0:
231,112,125781,1,6,2:3:0:0:
231,112,125906,1,6,2:3:0:0:
308,184,126031,6,0,B|389:205|349:248|430:270,1,153,4|2,3:2|1:2,2:0:0:0:
353,349,126406,1,2,2:0:0:0:
353,349,126531,2,0,P|314:350|279:363,1,76.5000000000001,10|2,2:0|2:0,2:0:0:0:
196,324,126781,2,0,P|157:325|122:338,1,76.5000000000001,2|2,1:2|2:0,2:0:0:0:
26,371,127031,6,0,B|15:314|15:314|37:283|37:283|26:226,1,153,2|2,3:2|1:2,2:0:0:0:
106,155,127406,1,2,2:0:0:0:
106,155,127531,2,0,B|117:98|117:98|95:67|95:67|106:10,1,153,8|2,2:0|1:2,2:0:0:0:
208,111,127906,1,2,2:0:0:0:
208,111,128031,6,0,P|280:105|302:36,1,153,2|2,3:2|1:2,2:0:0:0:
424,0,128406,1,2,2:0:0:0:
424,0,128531,2,0,L|452:150,1,153,8|2,2:0|1:2,2:0:0:0:
322,289,129031,6,0,L|294:139,2,153,2|0|10,3:2|1:0|2:0,2:0:0:0:
322,289,129781,1,2,1:2:0:0:
157,384,130031,6,0,P|97:342|113:272,1,153,2|0,3:2|1:0,2:0:0:0:
83,195,130406,1,2,2:0:0:0:
83,195,130531,2,0,P|107:127|179:123,1,153,8|0,2:0|1:0,2:0:0:0:
358,205,131031,6,0,B|439:184|399:141|480:119,1,153,2|2,3:2|1:2,2:0:0:0:
327,37,131406,2,0,L|341:112,1,76.5000000000001,2|8,2:0|2:0,2:0:0:0:
270,227,131656,1,0,2:0:0:0:
270,227,131781,2,0,L|284:302,1,76.5000000000001,2|2,1:2|2:0,2:0:0:0:
246,384,132031,6,0,P|299:335|364:366,1,153,2|2,3:2|1:2,2:0:0:0:
466,359,132406,1,2,2:0:0:0:
466,359,132531,2,0,L|494:209,1,153,8|2,2:0|1:2,2:0:0:0:
331,65,133031,6,0,B|278:86|278:86|265:122|265:122|212:146,1,153,2|0,3:2|1:0,2:0:0:0:
94,294,133531,2,0,P|122:270|125:233,1,76.5000000000001,10|2,2:0|2:0,2:0:0:0:
0,177,133781,2,0,P|6:213|36:235,1,76.5000000000001,2|2,1:2|2:0,2:0:0:0:
178,159,134031,6,0,L|150:9,1,153,4|2,3:2|1:2,2:0:0:0:
267,152,134406,1,2,2:0:0:0:
267,152,134531,2,0,P|339:146|361:77,1,153,10|2,2:0|1:2,2:0:0:0:
498,216,135031,6,0,P|422:224|350:249,1,153,2|2,3:2|1:2,2:0:0:0:
269,220,135406,2,0,P|253:186|266:151,1,76.5000000000001,2|8,2:0|2:0,2:0:0:0:
364,266,135656,1,0,2:0:0:0:
364,266,135781,2,0,L|350:341,1,76.5000000000001,2|0,1:2|2:0,2:0:0:0:
194,384,136031,6,0,L|166:234,1,153,2|2,3:2|1:2,2:0:0:0:
28,189,136406,2,0,P|62:201|96:186,1,76.5000000000001,2|8,2:0|2:0,2:0:0:0:
144,111,136656,1,2,2:0:0:0:
144,111,136781,2,0,L|130:36,1,76.5000000000001,2|0,1:2|2:0,2:0:0:0:
129,35,137031,1,6,3:2:0:0:
364,266,137531,6,0,P|402:266|437:279,1,76.5000000000001,10|10,2:3|2:3,2:0:0:0:
459,183,137781,2,0,P|420:182|385:169,1,76.5000000000001,6|6,2:3|2:3,2:0:0:0:
274,294,138031,6,0,P|196:338|131:277,1,191.25,2|0,3:2|3:0,2:0:0:0:
0,140,138656,1,0,3:0:0:0:
0,140,138781,2,0,P|34:138|59:119,1,63.7500000000002,10|0,2:0|2:0,2:0:0:0:
161,31,139031,6,0,B|97:55|97:55|117:177,2,191.25,0|0|10,3:0|3:0|2:0,2:0:0:0:
332,196,140031,2,0,B|270:174|270:174|253:136|253:136|193:115,1,170,14|0,3:2|2:0,2:0:0:0:
340,107,140406,2,0,L|371:273,1,170,14|0,3:2|2:0,2:0:0:0:
447,384,140781,2,0,L|462:300,1,85.0000000000001,14|0,3:2|2:0,2:0:0:0:
300,384,141031,1,14,3:2:0:0:
300,384,141531,5,10,2:0:0:0:
208,347,141656,1,8,2:0:0:0:
88,289,141781,1,10,2:0:0:0:
165,252,141906,1,8,2:0:0:0:
61,384,142031,6,0,L|25:200,1,187,6|10,3:2|2:0,2:0:0:0:
101,83,142406,2,0,B|60:55|72:0|72:0|53:53|5:57,1,187,2|2,3:2|3:2,2:0:0:0:
164,155,142781,2,0,P|208:161|243:132,1,93.5,10|0,2:0|2:0,2:0:0:0:
408,124,143031,6,0,P|413:36|333:0,2,187,2|8|2,3:2|2:0|3:2,2:0:0:0:
328,165,143656,1,2,3:2:0:0:
328,165,143781,1,10,2:0:0:0:
464,276,144031,6,0,B|366:302|413:355|315:381,1,187,2|10,3:2|2:0,2:0:0:0:
207,314,144406,2,0,L|243:130,1,187,2|2,3:2|3:2,2:0:0:0:
167,69,144781,2,0,P|125:86|110:129,1,93.5,10|0,2:0|2:0,2:0:0:0:
263,222,145031,6,0,B|328:196|328:196|344:151|344:151|407:123,2,187,2|8|2,3:2|2:0|3:2,2:0:0:0:
186,192,145656,1,2,3:2:0:0:
186,192,145781,1,10,2:0:0:0:
1,358,146031,6,0,B|66:383|66:383|46:268,1,187,2|10,3:2|2:0,2:0:0:0:
0,74,146406,2,0,P|58:139|140:108,1,187,2|0,3:2|3:0,2:0:0:0:
211,67,146781,1,10,2:0:0:0:
352,0,147031,6,0,P|394:17|409:60,1,93.5,2|0,3:2|2:0,2:0:0:0:
499,53,147281,2,0,P|505:97|475:132,1,93.5,10|0,2:0|2:0,2:0:0:0:
373,151,147531,1,2,3:2:0:0:
373,151,147656,1,0,3:0:0:0:
341,238,147781,2,0,P|355:280|398:297,1,93.5,10|0,2:0|2:0,2:0:0:0:
469,215,148031,6,0,P|376:200|285:179,1,187,2|10,3:2|2:0,2:0:0:0:
158,285,148406,2,0,B|206:289|225:342|225:342|213:287|254:259,1,187,2|0,3:2|3:0,2:0:0:0:
185,199,148781,1,10,2:0:0:0:
146,33,149031,6,0,P|99:34|57:15,1,93.5,10|0,1:2|3:0,2:0:0:0:
206,108,149281,2,0,P|250:88|297:88,1,93.5,8|0,1:2|3:0,2:0:0:0:
158,285,149531,5,10,1:2:0:0:
158,285,149656,1,0,3:0:0:0:
11,333,149781,1,10,2:0:0:0:
95,219,149906,1,8,2:0:0:0:
105,364,150031,6,0,B|203:338|156:285|254:259,1,187,6|10,3:2|2:0,2:0:0:0:
326,199,150406,2,0,P|406:235|401:322,1,187,2|2,3:2|3:2,2:0:0:0:
243,250,150781,2,0,L|223:159,1,93.5,10|0,2:0|2:0,2:0:0:0:
372,45,151031,6,0,B|434:69|434:69|414:193,2,187,2|8|2,3:2|2:0|3:2,2:0:0:0:
300,100,151656,1,2,3:2:0:0:
300,100,151781,1,10,2:0:0:0:
111,32,152031,6,0,P|30:68|35:155,1,187,2|10,3:2|2:0,2:0:0:0:
41,255,152406,2,0,B|106:229|106:229|122:184|122:184|185:156,1,187,2|2,3:2|3:2,2:0:0:0:
276,269,152781,2,0,P|231:277|195:250,1,93.5,10|0,2:0|2:0,2:0:0:0:
331,195,153031,6,0,L|295:378,2,187,2|8|2,3:2|2:0|3:2,2:0:0:0:
394,135,153656,1,2,3:2:0:0:
394,135,153781,1,10,2:0:0:0:
236,0,154031,6,0,B|251:68|251:68|224:107|224:107|237:174,1,187,2|10,3:2|2:0,2:0:0:0:
172,238,154406,2,0,P|84:243|48:162,1,187,2|0,3:2|3:0,2:0:0:0:
114,111,154781,1,10,2:0:0:0:
265,271,155031,6,0,L|249:363,1,93.5,2|0,3:2|2:0,2:0:0:0:
347,384,155281,2,0,L|362:291,1,93.5,10|0,2:0|2:0,2:0:0:0:
330,200,155531,1,2,3:2:0:0:
330,200,155656,1,0,3:0:0:0:
474,117,155781,2,0,P|429:108|393:135,1,93.5,10|0,2:0|2:0,2:0:0:0:
237,175,156031,6,0,P|184:103|232:30,1,187,2|10,3:2|2:0,2:0:0:0:
343,211,156406,2,0,P|250:221|161:249,1,187,2|0,3:2|3:0,2:0:0:0:
127,322,156781,1,10,2:0:0:0:
10,92,157031,6,0,P|52:75|92:95,1,93.5,10|0,1:2|3:0,2:0:0:0:
231,30,157281,2,0,P|224:74|186:99,1,93.5,10|0,1:2|3:0,2:0:0:0:
67,251,157531,5,10,1:2:0:0:
67,251,157656,1,0,3:0:0:0:
150,239,157781,1,10,2:0:0:0:
45,334,157906,1,8,2:0:0:0:
198,369,158031,6,0,B|296:343|249:290|347:264,1,187,6|10,3:2|2:0,2:0:0:0:
371,185,158406,2,0,B|433:209|433:209|413:333,1,187,2|2,2:0|2:0,2:0:0:0:
269,367,158781,2,0,L|249:276,1,93.5,10|2,2:0|2:0,2:0:0:0:
139,150,159031,6,0,L|119:59,1,93.5,2|2,3:2|2:0,2:0:0:0:
187,0,159281,1,10,2:0:0:0:
115,46,159406,2,0,L|75:228,1,187,2|2,2:0|2:0,2:0:0:0:
158,305,159781,2,0,P|202:298|227:260,1,93.5,10|2,2:0|2:0,2:0:0:0:
353,148,160031,6,0,B|418:174|418:174|434:219|434:219|497:247,1,187,2|10,3:2|2:0,2:0:0:0:
341,53,160406,2,0,B|276:79|276:79|260:124|260:124|197:152,1,187,2|2,2:0|2:0,2:0:0:0:
269,302,160781,2,0,L|289:211,1,93.5,8|2,2:0|2:0,2:0:0:0:
190,58,161031,5,2,3:2:0:0:
190,58,161156,1,2,2:0:0:0:
108,108,161281,2,0,P|67:128|25:111,1,93.5,10|2,2:0|2:0,2:0:0:0:
23,27,161531,2,0,P|63:6|105:23,1,93.5,2|2,3:2|2:0,2:0:0:0:
188,149,161781,2,0,L|168:240,1,93.5,10|0,2:0|2:0,2:0:0:0:
93,341,162031,6,0,P|148:272|232:300,1,187,6|10,3:2|2:0,2:0:0:0:
300,384,162406,2,0,B|365:358|365:358|381:313|381:313|444:285,1,187,2|2,2:0|2:0,2:0:0:0:
488,203,162781,2,0,P|481:158|443:132,1,93.5,10|2,2:0|2:0,2:0:0:0:
479,47,163031,6,0,P|436:30|396:50,1,93.5,2|2,3:2|2:0,2:0:0:0:
327,107,163281,1,10,2:0:0:0:
247,14,163406,2,0,P|158:41|64:44,1,187,2|2,2:0|2:0,2:0:0:0:
136,155,163781,2,0,P|171:126|174:81,1,93.5,10|2,2:0|2:0,2:0:0:0:
59,37,164031,6,0,B|-3:61|-3:61|17:185,1,187,2|10,3:2|2:0,2:0:0:0:
189,238,164406,2,0,B|224:208|159:129|70:192|107:289,1,187,2|2,2:0|2:0,2:0:0:0:
159,329,164781,1,10,2:0:0:0:
159,329,164906,1,2,2:0:0:0:
300,237,165031,6,0,L|260:55,1,187,2|8,3:2|2:0,2:0:0:0:
435,347,165531,5,10,3:2:0:0:
368,289,165656,1,10,2:0:0:0:
443,263,165781,1,10,2:0:0:0:
354,370,165906,1,8,2:0:0:0:
300,237,166031,6,0,L|320:146,2,93.5,6|2|10,3:2|2:0|2:0,2:0:0:0:
212,273,166406,2,0,B|114:247|161:194|63:168,1,187,2|2,2:0|2:0,2:0:0:0:
0,225,166781,2,0,P|2:270|37:299,1,93.5,10|2,2:0|2:0,2:0:0:0:
158,188,167031,6,0,L|198:6,1,187,2|10,3:2|2:0,2:0:0:0:
289,1,167406,2,0,P|357:55|330:139,1,187,2|0,2:0|2:0,2:0:0:0:
252,173,167781,1,10,2:0:0:0:
367,384,168031,6,0,P|409:365|455:361,2,93.5,2|2|10,3:2|2:0|2:0,2:0:0:0:
279,366,168406,2,0,B|305:268|236:282|262:184,1,187,2|2,2:0|2:0,2:0:0:0:
332,119,168781,2,0,P|376:126|402:164,1,93.5,10|2,2:0|2:0,2:0:0:0:
252,173,169031,6,0,P|159:163|69:137,1,187,2|10,3:2|2:0,2:0:0:0:
234,287,169406,2,0,P|144:260|51:251,1,187,2|0,2:0|2:0,2:0:0:0:
0,183,169781,1,10,2:0:0:0:
142,34,170031,6,0,L|162:125,1,93.5,6|2,3:2|2:0,2:0:0:0:
122,208,170281,1,8,2:0:0:0:
122,208,170406,2,0,L|142:299,1,93.5,2|2,2:0|3:2,2:0:0:0:
240,373,170656,2,0,P|284:366|310:328,1,93.5,2|10,2:0|2:0,2:0:0:0:
390,260,170906,1,2,2:0:0:0:
390,260,171031,6,0,B|325:234|325:234|309:189|309:189|246:161,2,187,2|10|2,3:2|2:0|3:2,2:0:0:0:
390,260,171781,1,10,2:0:0:0:
482,22,172031,6,0,P|453:57|407:59,1,93.5,2|2,3:2|2:0,2:0:0:0:
396,153,172281,1,10,2:0:0:0:
396,153,172406,2,0,P|351:145|325:107,1,93.5,2|2,2:0|3:2,2:0:0:0:
249,0,172656,2,0,L|229:91,1,93.5,2|8,2:0|2:0,2:0:0:0:
154,186,172906,1,2,2:0:0:0:
154,186,173031,6,0,L|63:165,1,93.5,10|10,3:0|2:3,2:0:0:0:
201,259,173281,2,0,L|292:238,1,93.5,6|6,2:3|2:3,2:0:0:0:
419,306,173531,5,10,3:2:0:0:
419,306,173656,1,10,2:0:0:0:
377,384,173781,1,10,2:0:0:0:
503,307,173906,1,10,2:0:0:0:
376,224,174031,6,0,L|348:99,1,127.5,2|0,3:2|2:0,2:0:0:0:
403,30,174406,2,0,P|317:61|250:0,1,191.25,0|2,2:0|2:0,2:0:0:0:
249,0,175031,1,2,3:2:0:0:
28,212,175531,2,0,P|92:208|151:186,1,127.5,10|2,2:0|2:0,2:0:0:0:
179,327,176031,6,0,P|119:314|103:256,1,127.5,2|2,3:2|2:0,2:0:0:0:
73,120,176406,2,0,P|162:153|257:157,1,191.25,2|2,2:0|2:0,2:0:0:0:
427,101,177031,2,0,P|446:43|403:0,2,127.5,2|0|12,3:2|2:0|2:0,2:0:0:0:
427,101,177781,1,2,2:0:0:0:
450,298,178031,6,0,L|478:173,1,127.5,2|0,3:2|2:0,2:0:0:0:
412,107,178406,2,0,B|312:81|360:27|260:0,1,191.25,2|2,2:0|2:0,2:0:0:0:
260,0,179031,1,2,3:2:0:0:
161,251,179531,2,0,B|142:317|189:307|172:375,1,127.5,10|2,2:0|2:0,2:0:0:0:
272,269,180031,6,0,P|305:319|275:372,1,127.5,2|0,3:2|2:0,2:0:0:0:
175,243,180406,2,0,L|217:55,1,191.25,2|2,2:0|2:0,2:0:0:0:
52,54,181031,2,0,L|24:179,1,127.5,2|0,3:2|2:0,2:0:0:0:
92,231,181406,2,0,B|158:214|126:178|193:159,1,127.5,4|8,3:2|2:3,2:0:0:0:
276,173,181781,1,6,2:3:0:0:
369,0,182031,6,0,P|323:40|338:99,1,127.5,2|0,3:2|2:0,2:0:0:0:
423,134,182406,2,0,B|364:111|364:111|387:236,1,191.25,2|2,2:0|2:0,2:0:0:0:
388,236,183031,1,2,3:2:0:0:
145,371,183531,2,0,L|173:246,1,127.5,10|2,2:0|2:0,2:0:0:0:
0,174,184031,6,0,B|66:157|34:121|101:102,1,127.5,2|2,3:2|2:0,2:0:0:0:
195,141,184406,2,0,P|247:69|191:0,1,191.25,2|2,2:0|2:0,2:0:0:0:
121,184,185031,2,0,P|185:188|244:210,1,127.5,2|0,3:2|2:0,2:0:0:0:
413,102,185531,2,0,P|349:98|290:76,1,127.5,10|2,2:0|2:0,2:0:0:0:
309,273,186031,6,0,P|369:276|400:224,1,127.5,2|2,3:2|2:0,2:0:0:0:
257,196,186406,2,0,L|299:383,1,191.25,2|2,2:0|2:0,2:0:0:0:
95,300,187031,2,0,P|65:246|98:196,1,127.5,10|2,3:2|2:0,2:0:0:0:
269,111,187531,2,0,P|237:163|177:159,1,127.5,10|2,2:0|2:0,2:0:0:0:
0,0,188031,6,0,B|62:22|62:22|79:60|79:60|139:81,1,170,14|0,3:2|2:0,2:0:0:0:
201,4,188406,2,0,L|167:170,1,170,14|0,3:2|2:0,2:0:0:0:
30,256,188781,2,0,L|45:340,1,85,14|0,3:2|2:0,2:0:0:0:
202,384,189031,1,14,3:2:0:0:
202,384,190031,5,14,3:2:0:0:
435,283,190406,1,14,3:2:0:0:
232,132,190781,1,14,3:2:0:0:
280,269,191031,5,6,3:2:0:0:
471,103,191281,2,0,L|456:187,1,85,8|8,3:0|2:3,2:0:0:0:
368,169,191531,2,0,L|383:85,1,85,10|8,2:3|2:3,2:0:0:0:
439,17,191781,1,6,2:3:0:0:
439,17,191906,1,4,2:3:0:0:
471,103,192031,5,14,3:2:0:0:
267,254,192406,1,14,3:2:0:0:
238,2,192781,1,14,3:2:0:0:
328,123,193031,5,6,3:2:0:0:
137,11,193281,2,0,L|122:95,1,85,8|8,3:0|2:3,2:0:0:0:
86,274,193531,5,10,3:0:0:0:
20,210,193656,1,10,2:0:0:0:
170,241,193781,1,10,2:0:0:0:
103,182,193906,1,8,2:0:0:0:
0,303,194031,6,0,P|93:306|180:349,1,187,6|10,3:2|2:0,2:0:0:0:
354,317,194406,2,0,P|422:261|394:177,1,187,2|0,3:2|3:0,2:0:0:0:
328,123,194781,1,10,2:0:0:0:
131,0,195031,6,0,P|101:34|107:79,1,93.5,2|0,3:2|2:0,2:0:0:0:
25,109,195281,2,0,P|39:151|82:168,1,93.5,10|0,2:0|2:0,2:0:0:0:
173,149,195531,1,2,3:2:0:0:
173,149,195656,1,0,3:0:0:0:
188,277,195781,2,0,L|171:369,1,93.5,10|0,2:0|2:0,2:0:0:0:
272,260,196031,6,0,B|370:234|323:181|421:155,1,187,2|10,3:2|2:0,2:0:0:0:
512,101,196406,2,0,P|428:128|373:59,1,187,2|0,3:2|3:0,2:0:0:0:
309,0,196781,1,10,2:0:0:0:
153,132,197031,2,0,L|172:240,1,93.5,10|0,1:2|3:0,2:0:0:0:
285,292,197281,2,0,L|301:385,1,93.5,8|0,1:2|3:0,2:0:0:0:
114,290,197531,5,10,1:2:0:0:
114,290,197656,1,0,3:0:0:0:
167,217,197781,1,10,2:0:0:0:
153,371,197906,1,8,2:0:0:0:
22,283,198031,6,0,B|31:213|31:213|1:177|1:177|14:109,1,187,6|10,3:2|2:0,2:0:0:0:
152,64,198406,2,0,P|178:141|97:154,1,187,2|2,3:2|3:2,2:0:0:0:
13,29,198781,2,0,P|47:0|92:5,1,93.5,10|0,2:0|2:0,2:0:0:0:
206,162,199031,6,0,P|114:141|22:126,2,187,2|8|2,3:2|2:0|3:2,2:0:0:0:
272,109,199656,1,2,3:2:0:0:
272,109,199781,1,10,2:0:0:0:
449,238,200031,6,0,P|517:183|490:99,1,187,2|10,3:2|2:0,2:0:0:0:
366,193,200406,2,0,B|351:264|351:264|381:300|381:300|368:366,1,187,2|2,3:2|3:2,2:0:0:0:
205,303,200781,2,0,P|198:258|228:223,1,93.5,10|0,2:0|2:0,2:0:0:0:
293,326,201031,6,0,P|200:341|109:361,2,187,2|8|2,3:2|2:0|3:2,2:0:0:0:
383,378,201656,1,2,3:2:0:0:
383,378,201781,1,10,2:0:0:0:
512,196,202031,6,0,B|447:169|447:169|431:125|431:125|367:95,1,187,2|10,3:2|2:0,2:0:0:0:
307,16,202406,2,0,P|334:99|266:155,1,187,2|0,3:2|3:0,2:0:0:0:
188,123,202781,1,10,2:0:0:0:
30,252,203031,6,0,P|74:260|110:233,1,93.5,2|0,3:2|2:0,2:0:0:0:
174,294,203281,2,0,P|204:259|197:214,1,93.5,10|0,2:0|2:0,2:0:0:0:
92,142,203531,1,2,3:2:0:0:
92,142,203656,1,0,3:0:0:0:
170,31,203781,2,0,L|190:134,1,93.5,10|0,2:0|2:0,2:0:0:0:
350,186,204031,6,0,B|395:177|378:76|269:86|253:189,1,187,2|10,3:2|2:0,2:0:0:0:
153,212,204406,2,0,B|251:238|204:291|302:317,1,187,2|0,3:2|3:0,2:0:0:0:
373,275,204781,1,10,2:0:0:0:
114,384,205031,1,6,3:2:0:0:
159,11,205531,5,10,2:0:0:0:
216,79,205656,1,8,2:0:0:0:
128,89,205781,1,10,2:0:0:0:
245,0,205906,1,8,2:0:0:0:
290,147,206031,6,0,L|255:331,1,187,6|10,3:2|2:0,2:0:0:0:
94,251,206406,2,0,P|108:209|151:192,1,93.5,2|0,3:2|2:0,2:0:0:0:
231,214,206656,1,2,3:2:0:0:
346,316,206781,2,0,L|363:224,1,93.5,10|0,2:0|2:0,2:0:0:0:
373,76,207031,6,0,P|428:144|512:116,2,187,2|8|2,3:2|2:0|3:2,2:0:0:0:
308,17,207656,1,2,3:2:0:0:
308,17,207781,1,10,2:0:0:0:
145,147,208031,6,0,B|80:173|80:173|64:218|64:218|1:246,1,187,2|10,3:2|2:0,2:0:0:0:
138,335,208406,2,0,L|155:243,1,93.5,2|0,3:2|2:0,2:0:0:0:
230,188,208656,1,2,3:2:0:0:
87,87,208781,2,0,P|101:129|144:146,1,93.5,10|0,2:0|2:0,2:0:0:0:
324,220,209031,6,0,L|289:36,2,187,2|8|2,3:2|2:0|3:2,2:0:0:0:
402,169,209656,1,0,3:0:0:0:
402,169,209781,1,10,2:0:0:0:
508,344,210031,6,0,P|452:275|368:303,1,187,2|10,3:2|2:0,2:0:0:0:
287,336,210406,2,0,L|195:318,1,93.5,2|0,3:2|2:0,2:0:0:0:
117,359,210656,1,0,3:0:0:0:
17,234,210781,2,0,L|34:325,1,93.5,10|0,2:0|2:0,2:0:0:0:
182,223,211031,6,0,P|137:230|103:200,1,93.5,2|0,3:2|2:0,2:0:0:0:
250,165,211281,2,0,P|278:200|269:244,1,93.5,10|0,2:0|2:0,2:0:0:0:
164,134,211531,1,2,3:2:0:0:
164,134,211656,1,0,3:0:0:0:
323,86,211781,2,0,P|276:80|232:66,1,93.5,10|0,2:0|2:0,2:0:0:0:
2,83,212031,6,0,B|43:55|31:0|31:0|50:53|98:57,1,187,2|10,3:2|2:0,2:0:0:0:
86,219,212406,2,0,P|57:183|66:139,1,93.5,2|0,3:2|2:0,2:0:0:0:
118,59,212656,1,0,3:0:0:0:
250,165,212781,2,0,P|296:170|340:184,1,93.5,10|0,2:0|2:0,2:0:0:0:
482,54,213031,6,0,P|439:68|423:111,1,93.5,10|0,1:2|3:0,2:0:0:0:
332,95,213281,2,0,P|323:139|351:174,1,93.5,8|0,1:2|3:0,2:0:0:0:
503,286,213531,5,10,1:2:0:0:
503,286,213656,1,0,3:0:0:0:
381,362,213781,1,10,2:0:0:0:
426,231,213906,1,8,2:0:0:0:
297,309,214031,6,0,B|199:283|246:230|148:204,1,187,6|10,3:2|2:0,2:0:0:0:
43,313,214406,2,0,P|87:321|122:293,1,93.5,2|0,3:2|2:0,2:0:0:0:
142,196,214656,1,2,3:2:0:0:
32,101,214781,2,0,L|49:192,1,93.5,10|0,2:0|2:0,2:0:0:0:
234,187,215031,6,0,B|258:73|258:73|218:63|202:22,2,187,2|8|2,3:2|2:0|3:2,2:0:0:0:
142,196,215656,1,2,3:2:0:0:
142,196,215781,1,10,2:0:0:0:
335,384,216031,6,0,L|370:200,1,187,2|10,3:2|2:0,2:0:0:0:
416,0,216406,2,0,L|433:91,1,93.5,2|0,3:2|2:0,2:0:0:0:
461,180,216656,1,2,3:2:0:0:
288,169,216781,2,0,P|304:126|346:111,1,93.5,10|0,2:0|2:0,2:0:0:0:
319,276,217031,6,0,P|226:284|138:316,2,187,2|8|2,3:2|2:0|3:2,2:0:0:0:
390,227,217656,1,2,3:2:0:0:
390,227,217781,1,10,2:0:0:0:
238,21,218031,6,0,B|176:45|176:45|196:169,1,187,2|10,3:2|2:0,2:0:0:0:
38,247,218406,2,0,P|9:211|18:167,1,93.5,2|0,3:2|2:0,2:0:0:0:
83,114,218656,1,0,3:0:0:0:
144,236,218781,2,0,L|126:327,1,93.5,10|0,2:0|2:0,2:0:0:0:
299,384,219031,6,0,P|341:369|357:326,1,93.5,2|0,3:2|2:0,2:0:0:0:
473,260,219281,2,0,P|481:215|453:180,1,93.5,10|0,2:0|2:0,2:0:0:0:
320,105,219531,1,2,3:2:0:0:
320,105,219656,1,0,3:0:0:0:
294,254,219781,2,0,P|338:240|385:238,1,93.5,10|0,2:0|2:0,2:0:0:0:
407,68,220031,6,0,P|314:59|226:27,1,187,2|10,3:2|2:0,2:0:0:0:
136,55,220406,2,0,P|107:90|116:134,1,93.5,2|0,3:2|2:0,2:0:0:0:
184,197,220656,1,0,3:0:0:0:
34,167,220781,2,0,P|50:209|92:224,1,93.5,10|0,2:0|2:0,2:0:0:0:
257,110,221031,6,0,L|239:18,1,93.5,10|0,1:2|3:0,2:0:0:0:
389,159,221281,2,0,L|406:67,1,93.5,8|0,1:2|3:0,2:0:0:0:
285,264,221531,5,10,1:2:0:0:
285,264,221656,1,0,3:0:0:0:
358,316,221781,1,10,2:0:0:0:
306,183,221906,1,8,2:0:0:0:
199,284,222031,6,0,B|134:310|134:310|118:355|118:355|55:383,1,187,6|8,3:2|2:0,2:0:0:0:
0,251,222406,2,0,P|14:208|57:192,1,93.5,2|0,2:0|3:0,2:0:0:0:
133,219,222656,1,10,2:3:0:0:
198,161,222781,2,0,P|205:116|175:82,1,93.5,10|2,2:0|2:0,2:0:0:0:
59,47,223031,6,0,P|151:38|239:6,1,187,2|10,3:2|2:0,2:0:0:0:
323,31,223406,2,0,P|352:65|345:109,1,93.5,2|0,2:0|3:0,2:0:0:0:
432,141,223656,1,8,2:3:0:0:
432,141,223781,2,0,P|417:183|375:200,1,93.5,10|0,2:0|2:0,2:0:0:0:
337,288,224031,6,0,P|323:201|237:182,1,187,2|10,3:2|2:0,2:0:0:0:
65,170,224406,2,0,B|106:142|94:87|94:87|113:140|161:144,1,187,2|2,2:0|2:0,2:0:0:0:
88,257,224781,2,0,P|43:265|8:237,1,93.5,10|0,2:0|2:0,2:0:0:0:
176,137,225031,6,0,L|211:321,2,187,2|10|2,3:2|2:0|3:2,2:0:0:0:
176,137,225781,1,10,2:0:0:0:
401,34,226031,6,0,B|466:9|466:9|446:124,1,187,6|8,3:2|2:0,2:0:0:0:
305,188,226406,2,0,L|322:280,1,93.5,2|0,2:0|3:0,2:0:0:0:
392,337,226656,1,8,2:3:0:0:
470,305,226781,2,0,P|498:269|489:225,1,93.5,10|2,2:0|2:0,2:0:0:0:
354,115,227031,6,0,B|256:141|303:194|205:220,1,187,2|10,3:2|2:0,2:0:0:0:
157,359,227406,2,0,P|128:323|137:279,1,93.5,2|0,2:0|3:0,2:0:0:0:
57,252,227656,1,8,2:3:0:0:
57,252,227781,2,0,P|73:209|116:195,1,93.5,10|0,2:0|2:0,2:0:0:0:
217,44,228031,6,0,B|208:-1|107:15|117:124|220:140,1,187,2|10,3:2|2:0,2:0:0:0:
266,190,228406,2,0,L|358:173,1,93.5,2|2,2:0|3:2,2:0:0:0:
442,149,228656,1,8,2:3:0:0:
500,217,228781,2,0,P|508:261|480:296,1,93.5,10|2,2:0|2:0,2:0:0:0:
312,363,229031,6,0,L|277:179,1,187,2|8,3:2|2:0,2:0:0:0:
277,179,229531,5,10,2:0:0:0:
362,63,229656,1,8,2:0:0:0:
223,43,229781,1,10,2:0:0:0:
285,96,229906,1,8,2:0:0:0:
158,174,230031,6,0,B|93:148|93:148|77:103|77:103|14:75,1,187,6|8,3:2|2:0,2:0:0:0:
141,262,230406,2,0,P|184:271|220:243,1,93.5,2|0,2:0|3:0,2:0:0:0:
277,179,230656,1,10,2:3:0:0:
347,232,230781,2,0,L|364:324,1,93.5,10|2,2:0|2:0,2:0:0:0:
500,192,231031,6,0,P|416:219|360:151,1,187,2|10,3:2|2:0,2:0:0:0:
356,29,231406,2,0,P|390:0|434:6,1,93.5,2|0,2:0|3:0,2:0:0:0:
293,92,231656,1,8,2:3:0:0:
293,92,231781,2,0,P|248:99|214:69,1,93.5,10|0,2:0|2:0,2:0:0:0:
90,0,232031,6,0,B|99:69|99:69|69:105|69:105|76:174,1,187,2|10,3:2|2:0,2:0:0:0:
240,230,232406,2,0,P|205:200|161:207,1,93.5,2|0,2:0|3:0,2:0:0:0:
91,261,232656,1,2,2:0:0:0:
127,338,232781,2,0,P|161:367|205:360,1,93.5,10|0,2:0|2:0,2:0:0:0:
329,270,233031,6,0,P|419:245|512:241,2,187,2|8|2,3:2|2:0|3:2,2:0:0:0:
329,270,233781,1,10,2:0:0:0:
358,72,234031,6,0,P|426:127|398:211,1,187,6|8,3:2|2:0,2:0:0:0:
329,270,234406,2,0,P|285:254|239:246,1,93.5,2|0,2:0|3:0,2:0:0:0:
162,288,234656,1,10,2:3:0:0:
88,242,234781,2,0,P|58:276|65:320,1,93.5,10|2,2:0|2:0,2:0:0:0:
165,199,235031,6,0,B|191:101|122:115|148:17,1,187,2|10,3:2|2:0,2:0:0:0:
67,152,235406,2,0,P|37:117|44:73,1,93.5,2|0,2:0|3:0,2:0:0:0:
246,58,235656,1,8,2:3:0:0:
246,58,235781,2,0,P|275:92|268:136,1,93.5,10|0,2:0|2:0,2:0:0:0:
155,183,236031,6,0,P|248:186|335:223,1,187,2|10,3:2|2:0,2:0:0:0:
431,201,236406,2,0,P|460:166|453:122,1,93.5,2|0,2:0|3:0,2:0:0:0:
388,68,236656,1,10,2:3:0:0:
325,123,236781,2,0,L|342:215,1,93.5,10|2,2:0|2:0,2:0:0:0:
263,384,237031,6,0,P|220:367|206:324,1,93.5,14|0,2:0|3:0,2:0:0:0:
39,318,237281,2,0,P|31:273|61:239,1,93.5,8|0,2:0|3:0,2:0:0:0:
158,137,237531,5,10,2:0:0:0:
213,227,237656,1,8,2:0:0:0:
70,155,237781,1,8,2:0:0:0:
182,51,237906,1,8,2:0:0:0:
325,123,238031,1,6,3:2:0:0:
256,192,238156,12,10,241281,2:0:0:0:
450,70,241531,5,2,3:2:0:0:
450,70,241781,1,10,2:0:0:0:
341,218,242031,6,0,L|376:398,2,170,6|8|0,3:2|2:0|3:0,2:0:0:0:
341,218,242781,1,10,2:0:0:0:
195,95,243031,2,0,B|105:71|149:24|59:0,2,170,2|8|0,3:2|2:0|3:0,2:0:0:0:
195,95,243781,1,10,2:0:0:0:
31,238,244031,6,0,P|55:314|134:318,1,170,2|8,3:2|2:0,2:0:0:0:
323,205,244531,2,0,P|244:187|201:255,1,170,2|8,3:2|2:0,2:0:0:0:
392,384,245031,2,0,L|424:217,1,170,2|8,3:2|2:0,2:0:0:0:
291,69,245531,5,8,3:2:0:0:
378,125,245656,1,8,2:0:0:0:
257,174,245781,1,8,2:0:0:0:
170,118,245906,1,8,2:0:0:0:
232,0,246031,6,0,L|264:166,1,170,4|10,3:2|2:0,2:0:0:0:
196,239,246406,1,2,2:0:0:0:
116,197,246531,2,0,P|36:200|12:277,1,170,2|10,3:2|2:0,2:0:0:0:
77,335,246906,1,2,2:0:0:0:
156,384,247031,6,0,B|245:360|201:313|291:288,1,170,2|10,3:2|2:0,2:0:0:0:
376,317,247406,1,0,2:0:0:0:
445,262,247531,2,0,L|428:170,1,85,2|0,3:2|2:0,2:0:0:0:
360,125,247781,1,10,2:0:0:0:
148,30,248031,6,0,L|115:196,1,170,2|8,3:2|2:0,2:0:0:0:
333,352,248531,2,0,L|300:185,1,170,2|8,3:2|2:0,2:0:0:0:
128,35,249031,2,0,L|95:201,1,170,2|8,3:2|2:0,2:0:0:0:
341,41,249531,5,2,3:2:0:0:
341,41,249781,1,10,2:0:0:0:
342,254,250031,6,0,B|387:257|402:306|402:306|393:255|429:230,2,170,6|8|0,3:2|2:0|3:0,2:0:0:0:
342,254,250781,1,10,2:0:0:0:
166,134,251031,2,0,P|81:133|0:106,2,170,2|8|0,3:2|2:0|3:0,2:0:0:0:
166,134,251781,1,10,2:0:0:0:
248,384,252031,6,0,B|272:295|210:309|233:219,1,170,2|8,3:2|2:0,2:0:0:0:
422,150,252531,2,0,P|418:229|341:253,1,170,2|8,3:2|2:0,2:0:0:0:
87,88,253031,5,10,3:2:0:0:
240,300,253281,1,10,3:2:0:0:
241,39,253531,1,10,3:2:0:0:
85,249,253781,1,10,3:2:0:0:
335,171,254031,1,6,3:2:0:0:
