osu file format v14

[General]
AudioFilename: audio.mp3
AudioLeadIn: 0
PreviewTime: 58592
Countdown: 1
SampleSet: Soft
StackLeniency: 0.7
Mode: 3
LetterboxInBreaks: 0
SpecialStyle: 0
WidescreenStoryboard: 1

[Editor]
DistanceSpacing: 0.8
BeatDivisor: 4
GridSize: 4
TimelineZoom: 2.1

[Metadata]
Title:Friends Shitai
TitleUnicode:ふ・れ・ん・ず・し・た・い
Artist:Mahiro
ArtistUnicode:まひろ
Creator:Vampir
Version:4K Easy Nanoda
Source:
Tags:kemono friends gakkou gurashi school live lude garalulu reba arpia jakads r_e_m_u_r_i_n_g
BeatmapID:1278529
BeatmapSetID:597590

[Difficulty]
HPDrainRate:9
CircleSize:4
OverallDifficulty:9
ApproachRate:5
SliderMultiplier:1.4
SliderTickRate:1

[Events]
//Background and Video events
0,0,"b.png",0,0
//Break Periods
//Storyboard Layer 0 (Background)
//Storyboard Layer 1 (Fail)
//Storyboard Layer 2 (Pass)
//Storyboard Layer 3 (Foreground)
//Storyboard Sound Samples

[TimingPoints]
1596,374.976563964752,4,2,0,30,1,0

[HitObjects]
64,192,1596,5,0,0:0:0:0:
192,192,1689,1,0,0:0:0:0:
320,192,1783,1,0,0:0:0:0:
448,192,1877,1,0,0:0:0:0:
320,192,1970,1,0,0:0:0:0:
192,192,1970,1,0,0:0:0:0:
448,192,2345,1,0,0:0:0:0:
320,192,2439,1,0,0:0:0:0:
192,192,2533,1,0,0:0:0:0:
64,192,2627,1,0,0:0:0:0:
320,192,2720,1,0,0:0:0:0:
448,192,2720,1,0,0:0:0:0:
64,192,3095,1,0,0:0:0:0:
320,192,3189,1,0,0:0:0:0:
192,192,3283,1,0,0:0:0:0:
448,192,3377,1,0,0:0:0:0:
192,192,3470,1,0,0:0:0:0:
64,192,3470,1,0,0:0:0:0:
448,192,3845,1,0,0:0:0:0:
192,192,3939,1,0,0:0:0:0:
320,192,4033,1,0,0:0:0:0:
64,192,4127,1,0,0:0:0:0:
320,192,4220,1,0,0:0:0:0:
448,192,4220,1,0,0:0:0:0:
64,192,4595,1,0,0:0:0:0:
320,192,4595,1,0,0:0:0:0:
192,192,4689,1,0,0:0:0:0:
320,192,4783,1,0,0:0:0:0:
448,192,4877,1,0,0:0:0:0:
64,192,4970,1,0,0:0:0:0:
192,192,4970,1,0,0:0:0:0:
192,192,5345,1,0,0:0:0:0:
448,192,5345,1,0,0:0:0:0:
320,192,5439,1,0,0:0:0:0:
192,192,5533,1,0,0:0:0:0:
64,192,5626,1,0,0:0:0:0:
320,192,5720,1,0,0:0:0:0:
448,192,5720,1,0,0:0:0:0:
192,192,6095,1,0,0:0:0:0:
320,192,6095,1,0,0:0:0:0:
64,192,6189,1,0,0:0:0:0:
448,192,6283,1,0,0:0:0:0:
192,192,6376,1,0,0:0:0:0:
320,192,6470,1,0,0:0:0:0:
448,192,6470,1,0,0:0:0:0:
320,192,6845,1,0,0:0:0:0:
448,192,6845,1,0,0:0:0:0:
192,192,6939,1,0,0:0:0:0:
448,192,7033,1,0,0:0:0:0:
64,192,7126,1,0,0:0:0:0:
192,192,7220,1,0,0:0:0:0:
320,192,7220,1,0,0:0:0:0:
64,192,7970,1,0,0:0:0:0:
192,192,7970,1,0,0:0:0:0:
192,192,8345,1,0,0:0:0:0:
320,192,8345,1,0,0:0:0:0:
192,192,8720,1,0,0:0:0:0:
320,192,8720,1,0,0:0:0:0:
448,192,8720,1,0,0:0:0:0:
64,192,9095,1,0,0:0:0:0:
192,192,9095,1,0,0:0:0:0:
320,192,9283,1,0,0:0:0:0:
448,192,9283,1,0,0:0:0:0:
320,192,9470,1,0,0:0:0:0:
448,192,9470,1,0,0:0:0:0:
192,192,9657,128,0,10032:0:0:0:0:
64,192,9657,128,0,10032:0:0:0:0:
320,192,10032,1,0,0:0:0:0:
448,192,10032,1,0,0:0:0:0:
192,192,10220,1,0,0:0:0:0:
320,192,10220,1,0,0:0:0:0:
64,192,10407,1,0,0:0:0:0:
192,192,10407,1,0,0:0:0:0:
192,192,10782,1,0,0:0:0:0:
320,192,10782,1,0,0:0:0:0:
320,192,10970,1,0,0:0:0:0:
448,192,10970,1,0,0:0:0:0:
64,192,11157,1,0,0:0:0:0:
320,192,11157,1,0,0:0:0:0:
448,192,11532,1,0,0:0:0:0:
320,192,11532,1,0,0:0:0:0:
320,192,11720,1,0,0:0:0:0:
192,192,11720,1,0,0:0:0:0:
192,192,11907,1,0,0:0:0:0:
64,192,11907,1,0,0:0:0:0:
192,192,12095,1,0,0:0:0:0:
320,192,12095,1,0,0:0:0:0:
192,192,12470,1,0,0:0:0:0:
448,192,12470,1,0,0:0:0:0:
64,192,12845,1,0,0:0:0:0:
320,192,12845,1,0,0:0:0:0:
192,192,13220,1,0,0:0:0:0:
320,192,13220,1,0,0:0:0:0:
192,192,13595,1,0,0:0:0:0:
320,192,13595,1,0,0:0:0:0:
448,192,13782,1,0,0:0:0:0:
192,192,13782,1,0,0:0:0:0:
320,192,13970,1,0,0:0:0:0:
64,192,13970,1,0,0:0:0:0:
192,192,14157,1,0,0:0:0:0:
448,192,14157,1,0,0:0:0:0:
320,192,14345,1,0,0:0:0:0:
448,192,14345,1,0,0:0:0:0:
64,192,14532,1,0,0:0:0:0:
192,192,14532,1,0,0:0:0:0:
320,192,14532,1,0,0:0:0:0:
192,192,14720,1,0,0:0:0:0:
320,192,14720,1,0,0:0:0:0:
448,192,14720,1,0,0:0:0:0:
64,192,15095,1,0,0:0:0:0:
320,192,15095,1,0,0:0:0:0:
192,192,15282,1,0,0:0:0:0:
448,192,15282,1,0,0:0:0:0:
320,192,15470,1,0,0:0:0:0:
64,192,15470,1,0,0:0:0:0:
192,192,15657,128,0,16032:0:0:0:0:
320,192,15657,128,0,16032:0:0:0:0:
64,192,16032,1,0,0:0:0:0:
448,192,16032,1,0,0:0:0:0:
64,192,16220,1,0,0:0:0:0:
192,192,16220,1,0,0:0:0:0:
192,192,16407,1,0,0:0:0:0:
320,192,16407,1,0,0:0:0:0:
64,192,16782,1,0,0:0:0:0:
192,192,16782,1,0,0:0:0:0:
192,192,16970,1,0,0:0:0:0:
320,192,16970,1,0,0:0:0:0:
320,192,17157,1,0,0:0:0:0:
448,192,17157,1,0,0:0:0:0:
192,192,17532,1,0,0:0:0:0:
448,192,17532,1,0,0:0:0:0:
64,192,17719,1,0,0:0:0:0:
320,192,17719,1,0,0:0:0:0:
64,192,17907,1,0,0:0:0:0:
320,192,17907,1,0,0:0:0:0:
192,192,18094,1,0,0:0:0:0:
448,192,18094,1,0,0:0:0:0:
64,192,18469,1,0,0:0:0:0:
192,192,18469,1,0,0:0:0:0:
320,192,18844,1,0,0:0:0:0:
448,192,18844,1,0,0:0:0:0:
192,192,19219,1,0,0:0:0:0:
320,192,19219,1,0,0:0:0:0:
64,192,19594,1,0,0:0:0:0:
192,192,19594,1,0,0:0:0:0:
448,192,19969,1,0,0:0:0:0:
320,192,19969,1,0,0:0:0:0:
320,192,20344,1,0,0:0:0:0:
192,192,20344,1,0,0:0:0:0:
64,192,20719,1,0,0:0:0:0:
320,192,20719,1,0,0:0:0:0:
64,192,21094,1,0,0:0:0:0:
320,192,21094,1,0,0:0:0:0:
448,192,21094,1,0,0:0:0:0:
192,192,21282,1,0,0:0:0:0:
320,192,21469,1,0,0:0:0:0:
448,192,21657,128,0,22032:0:0:0:0:
64,192,21657,1,0,0:0:0:0:
192,192,22032,1,0,0:0:0:0:
320,192,22219,1,0,0:0:0:0:
192,192,22407,1,0,0:0:0:0:
64,192,22594,128,0,22969:0:0:0:0:
320,192,22594,128,0,22969:0:0:0:0:
192,192,22969,128,0,23344:0:0:0:0:
448,192,22969,128,0,23344:0:0:0:0:
320,192,23344,128,0,24094:0:0:0:0:
64,192,23344,128,0,24094:0:0:0:0:
192,192,24094,1,0,0:0:0:0:
448,192,24094,1,0,0:0:0:0:
64,192,24282,1,0,0:0:0:0:
192,192,24469,1,0,0:0:0:0:
320,192,24657,128,0,25032:0:0:0:0:
448,192,24657,1,0,0:0:0:0:
192,192,25032,1,0,0:0:0:0:
448,192,25219,1,0,0:0:0:0:
320,192,25407,1,0,0:0:0:0:
64,192,25594,128,0,27000:0:0:0:0:
192,192,25594,128,0,27000:0:0:0:0:
320,192,26344,128,0,27000:0:0:0:0:
448,192,26344,128,0,27000:0:0:0:0:
64,192,27094,1,0,0:0:0:0:
320,192,27094,1,0,0:0:0:0:
192,192,27281,1,0,0:0:0:0:
448,192,27469,1,0,0:0:0:0:
320,192,27656,128,0,28031:0:0:0:0:
64,192,27656,1,0,0:0:0:0:
192,192,28031,1,0,0:0:0:0:
448,192,28219,1,0,0:0:0:0:
192,192,28406,1,0,0:0:0:0:
64,192,28594,128,0,28969:0:0:0:0:
320,192,28594,128,0,28969:0:0:0:0:
192,192,28969,128,0,29344:0:0:0:0:
448,192,28969,128,0,29344:0:0:0:0:
320,192,29344,128,0,30094:0:0:0:0:
64,192,29344,128,0,30094:0:0:0:0:
192,192,30094,1,0,0:0:0:0:
448,192,30094,1,0,0:0:0:0:
448,192,30281,1,0,0:0:0:0:
320,192,30469,1,0,0:0:0:0:
192,192,30656,128,0,31031:0:0:0:0:
448,192,30656,1,0,0:0:0:0:
64,192,31031,1,0,0:0:0:0:
448,192,31219,1,0,0:0:0:0:
320,192,31406,1,0,0:0:0:0:
64,192,31594,128,0,31969:0:0:0:0:
320,192,31594,128,0,31969:0:0:0:0:
448,192,31594,128,0,33094:0:0:0:0:
192,192,31969,128,0,33094:0:0:0:0:
64,192,32344,128,0,33094:0:0:0:0:
320,192,32344,128,0,33094:0:0:0:0:
192,192,33281,1,0,0:0:0:0:
320,192,33469,1,0,0:0:0:0:
192,192,33656,1,0,0:0:0:0:
448,192,33843,128,0,34031:0:0:0:0:
64,192,34125,128,0,34312:0:0:0:0:
320,192,34406,128,0,34593:0:0:0:0:
192,192,34781,1,0,0:0:0:0:
448,192,34968,1,0,0:0:0:0:
320,192,35156,1,0,0:0:0:0:
192,192,35343,128,0,35531:0:0:0:0:
320,192,35625,128,0,35812:0:0:0:0:
192,192,35906,1,0,0:0:0:0:
64,192,36093,1,0,0:0:0:0:
320,192,36281,1,0,0:0:0:0:
192,192,36468,1,0,0:0:0:0:
448,192,36656,128,0,37218:0:0:0:0:
64,192,37593,1,0,0:0:0:0:
192,192,37593,1,0,0:0:0:0:
320,192,37781,1,0,0:0:0:0:
448,192,37781,1,0,0:0:0:0:
192,192,37968,1,0,0:0:0:0:
320,192,37968,1,0,0:0:0:0:
320,192,38156,1,0,0:0:0:0:
448,192,38156,1,0,0:0:0:0:
64,192,39093,1,0,0:0:0:0:
448,192,39093,1,0,0:0:0:0:
192,192,39281,1,0,0:0:0:0:
320,192,39468,1,0,0:0:0:0:
192,192,39656,1,0,0:0:0:0:
448,192,39843,128,0,40031:0:0:0:0:
64,192,40124,1,0,0:0:0:0:
192,192,40406,1,0,0:0:0:0:
192,192,40781,1,0,0:0:0:0:
64,192,40781,1,0,0:0:0:0:
320,192,40874,1,0,0:0:0:0:
448,192,40874,1,0,0:0:0:0:
192,192,40968,1,0,0:0:0:0:
64,192,40968,1,0,0:0:0:0:
448,192,41156,1,0,0:0:0:0:
192,192,41156,1,0,0:0:0:0:
320,192,41249,1,0,0:0:0:0:
64,192,41249,1,0,0:0:0:0:
192,192,41343,128,0,41624:0:0:0:0:
448,192,41343,128,0,41624:0:0:0:0:
320,192,41624,128,0,41812:0:0:0:0:
64,192,41905,1,0,0:0:0:0:
192,192,42093,1,0,0:0:0:0:
320,192,42280,1,0,0:0:0:0:
192,192,42468,1,0,0:0:0:0:
320,192,42655,128,0,43218:0:0:0:0:
64,192,43593,128,0,43780:0:0:0:0:
192,192,43593,128,0,43780:0:0:0:0:
192,192,43968,128,0,44155:0:0:0:0:
320,192,43968,128,0,44155:0:0:0:0:
320,192,44343,128,0,44530:0:0:0:0:
448,192,44343,128,0,44530:0:0:0:0:
192,192,44530,1,0,0:0:0:0:
320,192,44718,1,0,0:0:0:0:
448,192,44905,1,0,0:0:0:0:
320,192,45093,128,0,45655:0:0:0:0:
64,192,45093,128,0,45655:0:0:0:0:
192,192,45655,1,0,0:0:0:0:
448,192,45843,128,0,46218:0:0:0:0:
320,192,46218,1,0,0:0:0:0:
64,192,46218,1,0,0:0:0:0:
192,192,46405,1,0,0:0:0:0:
320,192,46593,128,0,46968:0:0:0:0:
64,192,46968,1,0,0:0:0:0:
320,192,47155,1,0,0:0:0:0:
448,192,47343,128,0,47718:0:0:0:0:
192,192,47718,1,0,0:0:0:0:
320,192,48093,128,0,48655:0:0:0:0:
192,192,48655,1,0,0:0:0:0:
192,192,48843,1,0,0:0:0:0:
448,192,49030,1,0,0:0:0:0:
192,192,49218,1,0,0:0:0:0:
320,192,49218,1,0,0:0:0:0:
320,192,49405,1,0,0:0:0:0:
64,192,49593,128,0,49967:0:0:0:0:
320,192,49967,1,0,0:0:0:0:
192,192,50155,1,0,0:0:0:0:
320,192,50342,1,0,0:0:0:0:
448,192,50717,128,0,50811:0:0:0:0:
320,192,50717,128,0,50811:0:0:0:0:
192,192,50717,128,0,50811:0:0:0:0:
64,192,50717,128,0,50811:0:0:0:0:
64,192,51092,1,0,0:0:0:0:
192,192,51092,1,0,0:0:0:0:
320,192,51092,1,0,0:0:0:0:
448,192,51280,1,0,0:0:0:0:
320,192,51467,1,0,0:0:0:0:
192,192,51655,1,0,0:0:0:0:
64,192,51842,1,0,0:0:0:0:
320,192,51842,1,0,0:0:0:0:
64,192,52217,1,0,0:0:0:0:
320,192,52217,1,0,0:0:0:0:
448,192,52217,1,0,0:0:0:0:
192,192,52405,1,0,0:0:0:0:
320,192,52592,1,0,0:0:0:0:
192,192,52780,1,0,0:0:0:0:
320,192,52967,1,0,0:0:0:0:
448,192,52967,1,0,0:0:0:0:
192,192,53155,1,0,0:0:0:0:
64,192,53342,128,0,53717:0:0:0:0:
448,192,53342,128,0,53717:0:0:0:0:
192,192,53717,1,0,0:0:0:0:
320,192,53905,1,0,0:0:0:0:
64,192,54092,1,0,0:0:0:0:
192,192,54092,1,0,0:0:0:0:
320,192,54186,1,0,0:0:0:0:
448,192,54280,1,0,0:0:0:0:
320,192,54373,1,0,0:0:0:0:
192,192,54467,1,0,0:0:0:0:
64,192,54467,1,0,0:0:0:0:
320,192,54842,1,0,0:0:0:0:
192,192,54842,1,0,0:0:0:0:
64,192,54936,1,0,0:0:0:0:
192,192,55030,1,0,0:0:0:0:
320,192,55123,1,0,0:0:0:0:
192,192,55217,1,0,0:0:0:0:
448,192,55217,1,0,0:0:0:0:
448,192,55592,1,0,0:0:0:0:
320,192,55592,1,0,0:0:0:0:
192,192,55686,1,0,0:0:0:0:
64,192,55780,1,0,0:0:0:0:
192,192,55873,1,0,0:0:0:0:
320,192,55967,1,0,0:0:0:0:
448,192,55967,1,0,0:0:0:0:
64,192,56342,1,0,0:0:0:0:
448,192,56342,1,0,0:0:0:0:
192,192,56436,1,0,0:0:0:0:
320,192,56530,1,0,0:0:0:0:
192,192,56623,1,0,0:0:0:0:
64,192,56717,1,0,0:0:0:0:
448,192,56717,1,0,0:0:0:0:
64,192,57467,1,0,0:0:0:0:
192,192,57467,1,0,0:0:0:0:
192,192,57842,1,0,0:0:0:0:
320,192,57842,1,0,0:0:0:0:
192,192,58217,1,0,0:0:0:0:
320,192,58217,1,0,0:0:0:0:
448,192,58217,1,0,0:0:0:0:
64,192,58217,1,0,0:0:0:0:
64,192,58592,1,0,0:0:0:0:
320,192,58592,1,0,0:0:0:0:
448,192,58592,1,0,0:0:0:0:
192,192,58686,1,0,0:0:0:0:
320,192,58779,1,0,0:0:0:0:
448,192,58873,1,0,0:0:0:0:
192,192,58967,1,0,0:0:0:0:
320,192,59061,1,0,0:0:0:0:
64,192,59154,1,0,0:0:0:0:
448,192,59248,1,0,0:0:0:0:
320,192,59342,1,0,0:0:0:0:
192,192,59436,1,0,0:0:0:0:
64,192,59529,1,0,0:0:0:0:
320,192,59623,1,0,0:0:0:0:
192,192,59717,1,0,0:0:0:0:
320,192,59811,1,0,0:0:0:0:
64,192,59904,1,0,0:0:0:0:
192,192,59998,1,0,0:0:0:0:
448,192,60092,1,0,0:0:0:0:
320,192,60186,1,0,0:0:0:0:
192,192,60279,1,0,0:0:0:0:
64,192,60373,1,0,0:0:0:0:
192,192,60467,1,0,0:0:0:0:
320,192,60561,1,0,0:0:0:0:
192,192,60654,1,0,0:0:0:0:
320,192,60748,1,0,0:0:0:0:
448,192,60842,1,0,0:0:0:0:
320,192,60936,1,0,0:0:0:0:
64,192,61029,1,0,0:0:0:0:
192,192,61123,1,0,0:0:0:0:
320,192,61217,1,0,0:0:0:0:
64,192,61311,1,0,0:0:0:0:
192,192,61404,1,0,0:0:0:0:
448,192,61498,1,0,0:0:0:0:
320,192,61592,1,0,0:0:0:0:
192,192,61685,1,0,0:0:0:0:
64,192,61779,1,0,0:0:0:0:
192,192,61873,1,0,0:0:0:0:
320,192,61967,1,0,0:0:0:0:
64,192,62060,1,0,0:0:0:0:
192,192,62154,1,0,0:0:0:0:
448,192,62248,1,0,0:0:0:0:
320,192,62342,1,0,0:0:0:0:
64,192,62435,1,0,0:0:0:0:
192,192,62529,1,0,0:0:0:0:
320,192,62623,1,0,0:0:0:0:
448,192,62717,1,0,0:0:0:0:
64,192,62810,1,0,0:0:0:0:
192,192,62904,1,0,0:0:0:0:
448,192,62998,1,0,0:0:0:0:
320,192,63092,1,0,0:0:0:0:
192,192,63185,1,0,0:0:0:0:
64,192,63279,1,0,0:0:0:0:
192,192,63373,1,0,0:0:0:0:
448,192,63467,1,0,0:0:0:0:
320,192,63560,1,0,0:0:0:0:
192,192,63654,1,0,0:0:0:0:
320,192,63748,1,0,0:0:0:0:
192,192,63842,1,0,0:0:0:0:
64,192,63935,1,0,0:0:0:0:
192,192,64029,1,0,0:0:0:0:
448,192,64029,1,0,0:0:0:0:
192,192,64217,128,0,64592:0:0:0:0:
320,192,64217,128,0,64592:0:0:0:0:
64,192,64592,1,0,0:0:0:0:
448,192,64592,1,0,0:0:0:0:
192,192,64779,1,0,0:0:0:0:
320,192,64967,1,0,0:0:0:0:
448,192,65154,128,0,65529:0:0:0:0:
64,192,65154,1,0,0:0:0:0:
192,192,65529,1,0,0:0:0:0:
320,192,65716,1,0,0:0:0:0:
192,192,65904,1,0,0:0:0:0:
64,192,66091,1,0,0:0:0:0:
448,192,66091,1,0,0:0:0:0:
320,192,66279,1,0,0:0:0:0:
192,192,66466,1,0,0:0:0:0:
64,192,66654,1,0,0:0:0:0:
448,192,66841,128,0,67404:0:0:0:0:
192,192,66841,1,0,0:0:0:0:
320,192,67404,1,0,0:0:0:0:
64,192,67404,1,0,0:0:0:0:
320,192,67591,1,0,0:0:0:0:
192,192,67779,1,0,0:0:0:0:
64,192,67966,1,0,0:0:0:0:
192,192,68154,128,0,68529:0:0:0:0:
448,192,68154,1,0,0:0:0:0:
320,192,68529,1,0,0:0:0:0:
448,192,68716,1,0,0:0:0:0:
192,192,68904,128,0,69654:0:0:0:0:
64,192,68904,128,0,69654:0:0:0:0:
448,192,69279,128,0,69654:0:0:0:0:
320,192,69654,1,0,0:0:0:0:
448,192,69841,128,0,70216:0:0:0:0:
64,192,69841,1,0,0:0:0:0:
192,192,69841,1,0,0:0:0:0:
192,192,70029,1,0,0:0:0:0:
320,192,70029,1,0,0:0:0:0:
64,192,70216,1,0,0:0:0:0:
320,192,70216,1,0,0:0:0:0:
64,192,70591,1,0,0:0:0:0:
320,192,70591,1,0,0:0:0:0:
192,192,70779,1,0,0:0:0:0:
320,192,70966,1,0,0:0:0:0:
448,192,71154,128,0,71529:0:0:0:0:
64,192,71154,1,0,0:0:0:0:
192,192,71529,1,0,0:0:0:0:
448,192,71716,1,0,0:0:0:0:
320,192,71904,1,0,0:0:0:0:
64,192,72091,1,0,0:0:0:0:
448,192,72091,1,0,0:0:0:0:
320,192,72279,1,0,0:0:0:0:
192,192,72466,1,0,0:0:0:0:
64,192,72654,1,0,0:0:0:0:
448,192,72841,128,0,73404:0:0:0:0:
192,192,72841,1,0,0:0:0:0:
192,192,73404,1,0,0:0:0:0:
320,192,73591,1,0,0:0:0:0:
448,192,73591,1,0,0:0:0:0:
192,192,73778,1,0,0:0:0:0:
64,192,73966,1,0,0:0:0:0:
192,192,74153,128,0,74528:0:0:0:0:
448,192,74153,1,0,0:0:0:0:
448,192,74528,1,0,0:0:0:0:
320,192,74716,1,0,0:0:0:0:
64,192,74903,1,0,0:0:0:0:
320,192,75091,1,0,0:0:0:0:
448,192,75091,1,0,0:0:0:0:
64,192,75278,1,0,0:0:0:0:
192,192,75278,1,0,0:0:0:0:
320,192,75466,1,0,0:0:0:0:
448,192,75466,1,0,0:0:0:0:
192,192,75653,1,0,0:0:0:0:
320,192,75653,1,0,0:0:0:0:
192,192,76028,1,0,0:0:0:0:
320,192,76028,1,0,0:0:0:0:
448,192,76028,1,0,0:0:0:0:
64,192,76216,1,0,0:0:0:0:
192,192,76216,1,0,0:0:0:0:
320,192,76216,1,0,0:0:0:0:
64,192,76591,1,0,0:0:0:0:
320,192,76591,1,0,0:0:0:0:
448,192,76591,1,0,0:0:0:0:
192,192,76685,1,0,0:0:0:0:
448,192,76778,1,0,0:0:0:0:
320,192,76872,1,0,0:0:0:0:
64,192,76966,1,0,0:0:0:0:
320,192,77060,1,0,0:0:0:0:
192,192,77153,1,0,0:0:0:0:
448,192,77247,1,0,0:0:0:0:
320,192,77341,1,0,0:0:0:0:
64,192,77435,1,0,0:0:0:0:
448,192,77528,1,0,0:0:0:0:
192,192,77622,1,0,0:0:0:0:
320,192,77716,1,0,0:0:0:0:
64,192,77809,1,0,0:0:0:0:
192,192,77903,1,0,0:0:0:0:
448,192,77997,1,0,0:0:0:0:
320,192,78091,1,0,0:0:0:0:
192,192,78184,1,0,0:0:0:0:
64,192,78278,1,0,0:0:0:0:
320,192,78372,1,0,0:0:0:0:
448,192,78466,1,0,0:0:0:0:
192,192,78559,1,0,0:0:0:0:
320,192,78653,1,0,0:0:0:0:
64,192,78747,1,0,0:0:0:0:
192,192,78841,1,0,0:0:0:0:
448,192,78934,1,0,0:0:0:0:
192,192,79028,1,0,0:0:0:0:
64,192,79122,1,0,0:0:0:0:
320,192,79216,1,0,0:0:0:0:
192,192,79309,1,0,0:0:0:0:
448,192,79403,1,0,0:0:0:0:
320,192,79497,1,0,0:0:0:0:
192,192,79591,1,0,0:0:0:0:
448,192,79684,1,0,0:0:0:0:
64,192,79778,1,0,0:0:0:0:
192,192,79872,1,0,0:0:0:0:
448,192,79966,1,0,0:0:0:0:
192,192,80059,1,0,0:0:0:0:
448,192,80153,1,0,0:0:0:0:
320,192,80247,1,0,0:0:0:0:
448,192,80341,1,0,0:0:0:0:
320,192,80434,1,0,0:0:0:0:
64,192,80528,1,0,0:0:0:0:
192,192,80622,1,0,0:0:0:0:
320,192,80716,1,0,0:0:0:0:
448,192,80809,1,0,0:0:0:0:
320,192,80903,1,0,0:0:0:0:
64,192,80997,1,0,0:0:0:0:
320,192,81091,1,0,0:0:0:0:
192,192,81184,1,0,0:0:0:0:
448,192,81278,1,0,0:0:0:0:
64,192,81372,1,0,0:0:0:0:
320,192,81466,1,0,0:0:0:0:
192,192,81559,1,0,0:0:0:0:
448,192,81653,1,0,0:0:0:0:
320,192,81747,1,0,0:0:0:0:
192,192,81840,1,0,0:0:0:0:
64,192,81934,1,0,0:0:0:0:
192,192,82028,1,0,0:0:0:0:
448,192,82122,1,0,0:0:0:0:
320,192,82215,1,0,0:0:0:0:
192,192,82309,1,0,0:0:0:0:
320,192,82403,1,0,0:0:0:0:
64,192,82497,1,0,0:0:0:0:
192,192,82590,1,0,0:0:0:0:
320,192,82590,1,0,0:0:0:0:
448,192,82590,1,0,0:0:0:0:
64,192,82778,1,0,0:0:0:0:
192,192,82965,1,0,0:0:0:0:
448,192,83153,128,0,83528:0:0:0:0:
192,192,83528,1,0,0:0:0:0:
320,192,83715,1,0,0:0:0:0:
192,192,83903,1,0,0:0:0:0:
64,192,84090,128,0,84465:0:0:0:0:
