osu file format v14

[General]
AudioFilename: Scramble Nine.mp3
AudioLeadIn: 0
PreviewTime: 8000
Countdown: 1
SampleSet: Normal
StackLeniency: 0.7
Mode: 1
LetterboxInBreaks: 0
WidescreenStoryboard: 0

[Editor]
Bookmarks: 8000,16000,24000,32000,40000,48000,56000
DistanceSpacing: 0.5
BeatDivisor: 4
GridSize: 32
TimelineZoom: 1.7

[Metadata]
Title:Scramble Nine
TitleUnicode:Scramble Nine
Artist:Magway
ArtistUnicode:Magway
Creator:_Gezo_
Version:Oni
Source:
Tags:stepmania hopscotch mix
BeatmapID:889953
BeatmapSetID:410038

[Difficulty]
HPDrainRate:8.5
CircleSize:2
OverallDifficulty:5
ApproachRate:10
SliderMultiplier:1.4
SliderTickRate:1

[Events]
//Background and Video events
0,0,"scramble- bg.png",0,0
//Break Periods
//Storyboard Layer 0 (Background)
//Storyboard Layer 1 (Fail)
//Storyboard Layer 2 (Pass)
//Storyboard Layer 3 (Foreground)
//Storyboard Sound Samples

[TimingPoints]
0,500,4,1,0,100,1,0
56000,-100,4,1,0,100,0,1
88000,-100,4,1,0,100,0,0

[HitObjects]
256,192,8000,5,0,0:0:0:0:
256,192,8375,1,0,0:0:0:0:
256,192,8500,1,8,0:0:0:0:
256,192,8750,1,0,0:0:0:0:
256,192,9000,1,8,0:0:0:0:
256,192,9500,1,8,0:0:0:0:
256,192,10000,1,0,0:0:0:0:
256,192,10375,1,8,0:0:0:0:
256,192,10500,1,0,0:0:0:0:
256,192,10750,1,8,0:0:0:0:
256,192,11000,1,0,0:0:0:0:
256,192,11500,1,0,0:0:0:0:
256,192,12000,1,0,0:0:0:0:
256,192,12375,1,0,0:0:0:0:
256,192,12500,1,8,0:0:0:0:
256,192,12750,1,0,0:0:0:0:
256,192,13000,1,8,0:0:0:0:
256,192,13500,1,8,0:0:0:0:
256,192,14000,1,0,0:0:0:0:
256,192,14375,1,8,0:0:0:0:
256,192,14500,1,0,0:0:0:0:
256,192,14750,1,8,0:0:0:0:
256,192,15000,1,0,0:0:0:0:
256,192,15500,1,0,0:0:0:0:
256,192,16000,1,0,0:0:0:0:
256,192,16375,1,0,0:0:0:0:
256,192,16750,1,0,0:0:0:0:
256,192,17000,1,8,0:0:0:0:
256,192,17500,1,8,0:0:0:0:
256,192,18000,1,0,0:0:0:0:
256,192,18375,1,8,0:0:0:0:
256,192,18750,1,8,0:0:0:0:
256,192,19000,1,0,0:0:0:0:
256,192,19500,1,0,0:0:0:0:
256,192,20000,1,0,0:0:0:0:
256,192,20375,1,0,0:0:0:0:
256,192,20750,1,0,0:0:0:0:
256,192,21000,1,8,0:0:0:0:
256,192,21500,1,8,0:0:0:0:
256,192,22000,1,0,0:0:0:0:
256,192,22375,1,8,0:0:0:0:
256,192,22750,1,8,0:0:0:0:
256,192,23000,1,0,0:0:0:0:
256,192,23500,1,8,0:0:0:0:
256,192,24000,1,0,0:0:0:0:
256,192,24250,1,0,0:0:0:0:
256,192,24625,1,0,0:0:0:0:
256,192,25000,1,0,0:0:0:0:
256,192,25250,1,0,0:0:0:0:
256,192,25625,1,0,0:0:0:0:
256,192,26000,1,0,0:0:0:0:
256,192,26250,1,0,0:0:0:0:
256,192,26625,1,0,0:0:0:0:
256,192,27000,1,0,0:0:0:0:
256,192,27500,1,0,0:0:0:0:
256,192,28000,1,0,0:0:0:0:
256,192,28250,1,0,0:0:0:0:
256,192,28625,1,0,0:0:0:0:
256,192,29000,1,0,0:0:0:0:
256,192,29250,1,0,0:0:0:0:
256,192,29625,1,0,0:0:0:0:
256,192,30000,1,0,0:0:0:0:
256,192,30250,1,0,0:0:0:0:
256,192,30625,1,0,0:0:0:0:
256,192,31000,1,0,0:0:0:0:
256,192,31500,1,0,0:0:0:0:
256,192,32000,1,0,0:0:0:0:
256,192,32375,1,8,0:0:0:0:
256,192,32500,1,0,0:0:0:0:
256,192,32750,1,8,0:0:0:0:
256,192,33000,1,0,0:0:0:0:
256,192,33250,1,0,0:0:0:0:
256,192,33500,1,8,0:0:0:0:
256,192,34000,1,0,0:0:0:0:
256,192,34375,1,0,0:0:0:0:
256,192,34500,1,8,0:0:0:0:
256,192,35000,1,0,0:0:0:0:
256,192,35250,1,0,0:0:0:0:
256,192,35500,1,8,0:0:0:0:
256,192,36000,1,0,0:0:0:0:
256,192,36375,1,0,0:0:0:0:
256,192,36500,1,8,0:0:0:0:
256,192,36750,1,0,0:0:0:0:
256,192,37000,1,0,0:0:0:0:
256,192,37250,1,0,0:0:0:0:
256,192,37375,1,0,0:0:0:0:
256,192,37500,1,8,0:0:0:0:
256,192,38000,1,0,0:0:0:0:
256,192,38375,1,0,0:0:0:0:
256,192,38500,1,8,0:0:0:0:
256,192,39000,1,0,0:0:0:0:
256,192,39250,1,0,0:0:0:0:
256,192,39500,1,8,0:0:0:0:
256,192,40000,1,0,0:0:0:0:
256,192,40375,1,0,0:0:0:0:
256,192,40750,1,0,0:0:0:0:
256,192,41000,1,8,0:0:0:0:
256,192,41500,1,8,0:0:0:0:
256,192,42000,1,0,0:0:0:0:
256,192,42375,1,8,0:0:0:0:
256,192,42750,1,8,0:0:0:0:
256,192,43000,1,0,0:0:0:0:
256,192,43500,1,0,0:0:0:0:
256,192,44000,1,0,0:0:0:0:
256,192,44375,1,0,0:0:0:0:
256,192,44750,1,0,0:0:0:0:
256,192,45000,1,8,0:0:0:0:
256,192,45500,1,8,0:0:0:0:
256,192,46000,1,0,0:0:0:0:
256,192,46375,1,8,0:0:0:0:
256,192,46750,1,8,0:0:0:0:
256,192,47000,1,0,0:0:0:0:
256,192,47500,1,0,0:0:0:0:
256,192,48000,1,0,0:0:0:0:
256,192,48500,1,8,0:0:0:0:
256,192,49250,1,0,0:0:0:0:
256,192,49500,1,8,0:0:0:0:
256,192,50000,1,0,0:0:0:0:
256,192,50500,1,8,0:0:0:0:
256,192,51250,1,8,0:0:0:0:
256,192,51500,1,8,0:0:0:0:
256,192,52000,1,0,0:0:0:0:
256,192,52500,1,8,0:0:0:0:
256,192,53250,1,0,0:0:0:0:
256,192,53500,1,8,0:0:0:0:
256,192,54000,1,0,0:0:0:0:
256,192,54375,1,0,0:0:0:0:
256,192,54750,1,0,0:0:0:0:
256,192,55250,1,0,0:0:0:0:
256,192,55500,1,12,0:0:0:0:
256,192,56000,1,0,0:0:0:0:
256,192,56375,1,0,0:0:0:0:
256,192,56500,1,8,0:0:0:0:
256,192,56750,1,0,0:0:0:0:
256,192,57000,1,0,0:0:0:0:
256,192,57250,1,0,0:0:0:0:
256,192,57375,1,0,0:0:0:0:
256,192,57500,1,8,0:0:0:0:
256,192,57750,1,8,0:0:0:0:
256,192,58000,1,0,0:0:0:0:
256,192,58375,1,0,0:0:0:0:
256,192,58500,1,8,0:0:0:0:
256,192,58750,1,0,0:0:0:0:
256,192,59000,1,0,0:0:0:0:
256,192,59250,1,0,0:0:0:0:
256,192,59375,1,0,0:0:0:0:
256,192,59500,1,8,0:0:0:0:
256,192,60000,1,0,0:0:0:0:
256,192,60375,1,0,0:0:0:0:
256,192,60500,1,8,0:0:0:0:
256,192,60750,1,0,0:0:0:0:
256,192,61000,1,0,0:0:0:0:
256,192,61250,1,8,0:0:0:0:
256,192,61375,1,8,0:0:0:0:
256,192,61500,1,8,0:0:0:0:
256,192,61750,1,8,0:0:0:0:
256,192,62000,1,0,0:0:0:0:
256,192,62375,1,0,0:0:0:0:
256,192,62500,1,8,0:0:0:0:
256,192,62750,1,0,0:0:0:0:
256,192,63000,1,0,0:0:0:0:
256,192,63250,1,0,0:0:0:0:
256,192,63500,1,8,0:0:0:0:
256,192,63750,1,8,0:0:0:0:
256,192,64000,1,0,0:0:0:0:
256,192,64375,1,0,0:0:0:0:
256,192,64500,1,8,0:0:0:0:
256,192,64750,1,0,0:0:0:0:
256,192,65000,1,8,0:0:0:0:
256,192,65250,1,0,0:0:0:0:
256,192,65375,1,0,0:0:0:0:
256,192,65500,1,8,0:0:0:0:
256,192,65750,1,8,0:0:0:0:
256,192,66000,1,0,0:0:0:0:
256,192,66375,1,0,0:0:0:0:
256,192,66500,1,8,0:0:0:0:
256,192,66750,1,0,0:0:0:0:
256,192,67000,1,0,0:0:0:0:
256,192,67250,1,0,0:0:0:0:
256,192,67375,1,0,0:0:0:0:
256,192,67500,1,8,0:0:0:0:
256,192,68000,1,0,0:0:0:0:
256,192,68375,1,0,0:0:0:0:
256,192,68500,1,8,0:0:0:0:
256,192,68750,1,0,0:0:0:0:
256,192,69000,1,0,0:0:0:0:
256,192,69250,1,0,0:0:0:0:
256,192,69375,1,8,0:0:0:0:
256,192,69500,1,8,0:0:0:0:
256,192,69750,1,8,0:0:0:0:
256,192,70000,1,0,0:0:0:0:
256,192,70375,1,0,0:0:0:0:
256,192,70500,1,8,0:0:0:0:
256,192,70750,1,0,0:0:0:0:
256,192,71000,1,0,0:0:0:0:
256,192,71250,1,0,0:0:0:0:
256,192,71500,1,8,0:0:0:0:
256,192,71750,1,8,0:0:0:0:
256,192,72000,1,0,0:0:0:0:
256,192,72375,1,0,0:0:0:0:
256,192,72500,1,8,0:0:0:0:
256,192,72750,1,0,0:0:0:0:
256,192,73000,1,0,0:0:0:0:
256,192,73375,1,0,0:0:0:0:
256,192,73500,1,8,0:0:0:0:
256,192,73750,1,0,0:0:0:0:
256,192,74000,1,0,0:0:0:0:
256,192,74375,1,0,0:0:0:0:
256,192,74500,1,8,0:0:0:0:
256,192,74750,1,8,0:0:0:0:
256,192,74875,1,8,0:0:0:0:
256,192,75000,1,0,0:0:0:0:
256,192,75250,1,0,0:0:0:0:
256,192,75500,1,8,0:0:0:0:
256,192,76000,1,0,0:0:0:0:
256,192,76375,1,0,0:0:0:0:
256,192,76500,1,8,0:0:0:0:
256,192,76750,1,0,0:0:0:0:
256,192,77000,1,0,0:0:0:0:
256,192,77375,1,0,0:0:0:0:
256,192,77500,1,8,0:0:0:0:
256,192,77750,1,0,0:0:0:0:
256,192,78000,1,0,0:0:0:0:
256,192,78375,1,0,0:0:0:0:
256,192,78500,1,8,0:0:0:0:
256,192,78750,1,8,0:0:0:0:
256,192,78875,1,8,0:0:0:0:
256,192,79000,1,0,0:0:0:0:
256,192,79250,1,0,0:0:0:0:
256,192,79500,1,8,0:0:0:0:
256,192,80000,1,0,0:0:0:0:
256,192,80375,1,8,0:0:0:0:
256,192,80500,1,0,0:0:0:0:
256,192,80750,1,8,0:0:0:0:
256,192,81000,1,0,0:0:0:0:
256,192,81500,1,8,0:0:0:0:
256,192,82000,1,0,0:0:0:0:
256,192,82375,1,8,0:0:0:0:
256,192,82500,1,0,0:0:0:0:
256,192,82750,1,8,0:0:0:0:
256,192,83000,1,0,0:0:0:0:
256,192,83500,1,8,0:0:0:0:
256,192,84000,1,0,0:0:0:0:
256,192,84375,1,0,0:0:0:0:
256,192,84500,1,0,0:0:0:0:
256,192,84750,1,0,0:0:0:0:
256,192,85000,1,8,0:0:0:0:
256,192,85500,1,8,0:0:0:0:
256,192,86000,1,0,0:0:0:0:
256,192,86375,1,0,0:0:0:0:
256,192,86500,1,0,0:0:0:0:
256,192,86750,1,0,0:0:0:0:
256,192,87000,1,8,0:0:0:0:
256,192,87500,1,8,0:0:0:0:
