osu file format v14

[General]
AudioFilename: #2.mp3
AudioLeadIn: 0
PreviewTime: 60198
Countdown: 0
SampleSet: Soft
StackLeniency: 0.7
Mode: 0
LetterboxInBreaks: 0
WidescreenStoryboard: 0

[Editor]
Bookmarks: 50198
DistanceSpacing: 1
BeatDivisor: 4
GridSize: 4
TimelineZoom: 1

[Metadata]
Title:BEAUTIFUL SENTENCE (TV size)
TitleUnicode:BEAUTIFUL≒SENTENCE (TV size)
Artist:Magus Two
ArtistUnicode:メイガス・トゥー
Creator:FaiVillager
Version:Easy
Source:Trinity Seven
Tags:ts8zs Trinity Seven ED1 浅見リリス asami lilith 原由実 hara yumi 神無月アリン kannazuki arin 内田彩 uchida aya トリニティセブン 7人の魔書使い
BeatmapID:532170
BeatmapSetID:228546

[Difficulty]
HPDrainRate:2
CircleSize:3
OverallDifficulty:2
ApproachRate:3.5
SliderMultiplier:0.8
SliderTickRate:1

[Events]
//Background and Video events
Video,-801,"#1.flv"
0,0,"2.jpg",0,0
//Break Periods
//Storyboard Layer 0 (Background)
//Storyboard Layer 1 (Fail)
//Storyboard Layer 2 (Pass)
//Storyboard Layer 3 (Foreground)
//Storyboard Sound Samples

[TimingPoints]
206,400,4,2,1,60,1,0
22606,-100,4,2,1,50,0,0
61006,-100,4,2,1,70,0,1
89406,-100,4,2,1,70,0,0

[Colours]
Combo1 : 253,167,121
Combo2 : 188,248,252
Combo3 : 255,185,196

[HitObjects]
352,232,1806,6,0,L|508:268,1,160,8|0,0:0|0:0,0:0:0:0:
376,360,3406,2,0,L|220:324,1,160,8|0,0:0|0:0,0:0:0:0:
151,175,5006,6,0,P|173:102|248:84,1,160,8|0,0:0|0:0,0:0:0:0:
360,196,6607,2,0,P|338:269|264:288,1,160,8|0,0:0|0:0,0:0:0:0:
256,192,8206,12,2,9806,0:0:0:0:
160,36,11406,6,0,B|160:160|160:160|160:184|168:200,1,160,8|0,0:0|0:0,0:0:0:0:
208,348,13006,6,0,P|240:292|328:264,1,160,8|0,0:0|0:0,0:0:0:0:
460,352,14606,1,8,0:0:0:0:
460,192,15406,1,8,0:0:0:0:
348,80,16206,6,0,B|281:80|281:80|272:92|261:80|261:80|184:80,1,160,8|0,0:0|0:0,0:0:0:0:
76,188,17806,2,0,B|144:188|144:188|154:176|163:188|163:188|231:188,1,160,8|0,0:0|0:0,0:0:0:0:
392,192,19406,1,0,0:0:0:0:
256,276,20206,1,0,0:0:0:0:
256,192,21006,12,0,22606,0:0:0:0:
176,228,24206,6,8,P|256:248|336:228,2,160,8|0|8,0:0|0:0|0:0,0:0:0:0:
256,96,26606,1,0,0:0:0:0:
416,104,27406,2,0,B|448:180|448:180|412:260,1,160,8|0,0:0|0:0,0:0:0:0:
296,356,29006,6,0,L|128:356,1,160,8|0,0:0|0:0,0:0:0:0:
48,224,30606,1,8,0:0:0:0:
208,224,31406,1,0,0:0:0:0:
312,104,32206,6,0,B|232:104|232:104|160:60,2,160,0|0|0,0:0|0:0|0:0,0:0:0:0:
456,172,34606,1,0,0:0:0:0:
308,216,35406,6,0,B|228:216|228:216|156:260,2,160,0|0|0,0:0|0:0|0:0,0:0:0:0:
456,172,37806,1,0,0:0:0:0:
300,140,38606,5,8,0:0:0:0:
404,28,39406,1,0,0:0:0:0:
244,28,40206,2,0,P|192:76|180:168,1,160
184,300,41806,5,0,0:0:0:0:
256,156,42606,1,0,0:0:0:0:
316,304,43406,2,0,L|480:304,1,160,8|0,0:0|0:0,0:0:0:0:
380,168,45006,6,0,L|220:168,2,160,8|0|8,0:0|0:0|0:0,0:0:0:0:
244,84,47406,1,0,0:0:0:0:
392,28,48206,6,0,B|476:28|476:28|360:112|432:236,1,320
236,332,51406,6,0,B|114:261|30:377|30:377|30:293,1,320
44,80,54606,6,0,P|120:56|196:84,1,160,8|0,0:0|0:0,0:0:0:0:
280,216,56206,2,0,P|204:240|128:212,1,160,8|0,0:0|0:0,0:0:0:0:
256,192,57806,12,0,59406,0:0:0:0:
256,192,61006,6,0,L|256:120,2,60,8|0|0,0:0|0:0|0:0,0:0:0:0:
376,352,62606,2,0,L|376:228,1,120,8|0,0:0|0:0,0:0:0:0:
340,104,63806,5,0,0:0:0:0:
272,64,64206,2,0,P|192:64|120:96,1,160,8|0,0:0|0:0,0:0:0:0:
40,236,65806,2,0,P|120:236|192:204,1,160,8|0,0:0|0:0,0:0:0:0:
344,156,67406,6,0,L|420:156,2,60,8|0|8,0:0|0:0|0:0,0:0:0:0:
304,352,69006,2,0,L|176:352,1,120,8|0,0:0|0:0,0:0:0:0:
92,276,70206,1,0,0:0:0:0:
28,224,70606,6,0,P|4:160|36:72,1,160,8|0,0:0|0:0,0:0:0:0:
192,48,72206,2,0,L|352:48,1,160,8|0,0:0|0:0,0:0:0:0:
500,112,73806,6,8,L|500:176,2,60
312,40,75406,2,8,L|188:40,1,120
120,136,76606,1,0,0:0:0:0:
92,212,77006,6,0,L|260:212,1,160,8|0,0:0|0:0,0:0:0:0:
412,212,78606,2,0,P|384:268|296:316,1,160,8|0,0:0|0:0,0:0:0:0:
172,224,80206,6,0,L|172:152,2,60,8|8|8,0:0|0:0|0:0,0:0:0:0:
28,360,81806,2,0,L|28:228,1,120
28,120,83006,1,8,0:0:0:0:
48,44,83406,6,0,P|124:28|204:44,1,160,8|0,0:0|0:0,0:0:0:0:
268,92,84606,1,8,0:0:0:0:
320,156,85006,2,0,L|320:320,2,160,8|0|0,0:0|0:0|0:0,0:0:0:0:
256,192,86806,12,0,89406,0:0:0:0:
