osu file format v14

[General]
AudioFilename: audio.mp3
AudioLeadIn: 0
PreviewTime: 60198
Countdown: 0
SampleSet: Soft
StackLeniency: 0.7
Mode: 0
LetterboxInBreaks: 0
WidescreenStoryboard: 1

[Editor]
Bookmarks: 22606,43406,61006,73806
DistanceSpacing: 0.9
BeatDivisor: 4
GridSize: 4
TimelineZoom: 3.899998

[Metadata]
Title:BEAUTIFUL SENTENCE (TV Size)
TitleUnicode:BEAUTIFUL≒SENTENCE (TV Size)
Artist:Magus Two
ArtistUnicode:Magus Two
Creator:Sephira
Version:Mikatori's Insane
Source:Trinity Seven
Tags:-mikan mikan pentori meiikyuu japanese anime ending トリニティセブン
BeatmapID:2529678
BeatmapSetID:1202012

[Difficulty]
HPDrainRate:5
CircleSize:4
OverallDifficulty:8
ApproachRate:9
SliderMultiplier:2.19999990463257
SliderTickRate:2

[Events]
//Background and Video events
0,0,"trinity-seven-kannazuki-arin-trinity-series-wallpaper.jpg",0,0
//Break Periods
//Storyboard Layer 0 (Background)
//Storyboard Layer 1 (Fail)
//Storyboard Layer 2 (Pass)
//Storyboard Layer 3 (Foreground)
//Storyboard Layer 4 (Overlay)
//Storyboard Sound Samples

[TimingPoints]
215,400,4,2,1,60,1,0
215,-100,4,2,1,60,0,0
2015,-142.857142857143,4,2,1,60,0,0
4815,-100,4,2,1,60,0,0
5015,-142.857142857143,4,2,1,60,0,0
8615,-100,4,2,1,60,0,0
9815,400,4,2,1,60,1,0
9815,-100,4,2,1,80,0,0
11015,-142.857142857143,4,2,1,80,0,0
22615,-125,4,2,1,70,0,0
35415,-111.111111111111,4,2,1,70,0,0
47415,-83.3333333333333,4,2,1,70,0,0
48215,-100,4,2,1,70,0,0
60615,-66.6666666666667,4,2,1,70,0,0
61015,-83.3333333333333,4,2,1,80,0,1
73815,-83.3333333333333,4,2,1,80,0,1
85415,-100,4,2,1,80,0,1
86615,-312.5,4,2,1,70,0,0

[Colours]
Combo1 : 253,167,121
Combo2 : 188,248,252
Combo3 : 255,185,196

[HitObjects]
54,98,215,5,2,0:0:0:0:
127,65,415,1,2,0:0:0:0:
161,135,615,1,2,0:0:0:0:
90,169,815,1,0,0:0:0:0:
226,45,1015,5,2,0:0:0:0:
226,45,1115,1,0,0:0:0:0:
226,45,1215,1,2,0:0:0:0:
302,63,1415,1,2,0:0:0:0:
380,79,1615,2,0,L|387:54,4,13.7499994039536,0|0|0|0|0,0:0|0:0|0:0|0:0|0:0,0:0:0:0:
329,168,1815,5,2,0:0:0:0:
317,178,1915,1,0,0:0:0:0:
305,187,2015,2,0,L|320:244,1,38.4999971561433,2|0,0:0|0:0,0:0:0:0:
406,299,2215,2,0,L|391:242,3,38.4999971561433,2|0|0|0,0:0|0:0|0:0|0:0,0:0:0:0:
315,310,2615,6,0,L|266:324,1,38.4999971561433,2|0,0:0|0:0,0:0:0:0:
410,186,2815,2,0,L|447:175,1,38.4999971561433,2|0,0:0|0:0,0:0:0:0:
247,129,3015,1,10,0:1:0:0:
247,129,3115,1,0,0:0:0:0:
247,129,3215,2,0,L|209:139,1,38.4999971561433,0|0,0:0|0:0,0:0:0:0:
43,281,3415,5,2,0:0:0:0:
116,314,3615,1,2,0:0:0:0:
151,243,3815,1,10,0:1:0:0:
79,210,4015,1,0,0:0:0:0:
222,335,4215,5,2,0:0:0:0:
222,335,4315,1,0,0:0:0:0:
222,335,4415,1,2,0:0:0:0:
298,317,4615,1,10,0:1:0:0:
376,301,4815,2,0,L|383:326,4,13.7499994039536,0|0|0|0|0,0:0|0:0|0:0|0:0|0:0,0:0:0:0:
314,224,5015,5,2,0:0:0:0:
371,171,5215,1,2,0:0:0:0:
371,171,5315,1,0,0:0:0:0:
371,171,5415,2,0,L|360:117,1,38.4999971561433,10|0,0:1|0:0,0:0:0:0:
436,16,5615,2,0,L|447:70,1,38.4999971561433,0|0,0:0|0:0,0:0:0:0:
503,115,5815,5,2,0:0:0:0:
475,189,6015,1,2,0:0:0:0:
487,198,6215,2,0,L|546:190,1,38.4999971561433,10|0,0:1|0:0,0:0:0:0:
414,295,6415,2,0,L|355:303,1,38.4999971561433,0|0,0:0|0:0,0:0:0:0:
498,376,6615,6,0,L|489:317,3,38.4999971561433,2|0|2|0,0:0|0:0|0:0|0:0,0:0:0:0:
408,256,7015,2,0,L|413:294,1,38.4999971561433,10|0,0:1|0:0,0:0:0:0:
487,198,7215,2,0,L|481:159,1,38.4999971561433,0|0,0:0|0:0,0:0:0:0:
328,73,7415,5,2,0:0:0:0:
377,10,7615,1,2,0:0:0:0:
443,53,7815,1,10,0:1:0:0:
397,118,8015,1,0,0:0:0:0:
284,1,8215,5,2,0:0:0:0:
284,1,8315,1,0,0:0:0:0:
284,1,8415,1,2,0:0:0:0:
193,111,8615,5,10,0:0:0:0:
209,138,8715,1,8,0:0:0:0:
200,175,8815,1,8,0:0:0:0:
214,204,8915,2,0,B|121:213|150:152|43:164,1,164.999992847443,8|0,0:0|0:0,0:0:0:0:
31,250,9315,6,0,B|48:287|48:287|57:234,1,82.4999964237214,2|0,0:0|0:0,0:0:0:0:
193,111,9565,2,0,B|210:74|210:74|219:127,1,82.4999964237214,2|0,0:0|0:0,0:0:0:0:
58,162,9815,6,0,B|147:154|121:213|214:204,1,164.999992847443,12|0,0:1|0:0,0:0:0:0:
278,240,10215,2,0,B|286:268|286:268|272:308,1,54.9999976158142,10|0,0:0|0:0,0:0:0:0:
169,373,10415,2,0,B|161:345|161:345|175:305,1,54.9999976158142,2|0,0:0|0:0,0:0:0:0:
268,384,10615,5,10,0:1:0:0:
337,345,10815,1,0,0:0:0:0:
410,376,11015,2,0,L|469:370,1,38.4999971561433,10|0,0:0|0:0,0:0:0:0:
278,240,11215,1,2,0:0:0:0:
278,240,11315,1,0,0:0:0:0:
278,240,11415,2,0,L|232:244,1,38.4999971561433,10|0,0:1|0:0,0:0:0:0:
362,158,11615,5,0,0:0:0:0:
357,76,11815,1,10,0:0:0:0:
380,80,11915,1,0,0:0:0:0:
400,84,12015,1,2,0:0:0:0:
390,0,12215,1,10,0:1:0:0:
474,105,12415,5,0,0:0:0:0:
283,63,12615,2,0,L|237:56,1,38.4999971561433,10|0,0:0|0:0,0:0:0:0:
356,196,12815,2,0,L|361:157,1,38.4999971561433,2|0,0:0|0:0,0:0:0:0:
390,0,13015,5,10,0:1:0:0:
474,105,13215,1,0,0:0:0:0:
474,105,13315,1,0,0:0:0:0:
474,105,13415,2,0,L|512:110,1,38.4999971561433,10|0,0:0|0:0,0:0:0:0:
356,196,13615,2,0,L|361:157,1,38.4999971561433,2|0,0:0|0:0,0:0:0:0:
440,285,13815,6,0,L|432:331,3,38.4999971561433,10|0|0|0,0:1|0:0|0:0|0:0,0:0:0:0:
363,362,14215,1,10,0:0:0:0:
340,367,14315,1,0,0:0:0:0:
317,363,14415,1,2,0:0:0:0:
297,350,14515,1,0,0:0:0:0:
285,329,14615,2,0,L|293:271,1,38.4999971561433,10|0,0:1|0:0,0:0:0:0:
212,204,14815,5,0,0:0:0:0:
196,206,14915,1,0,0:0:0:0:
180,209,15015,2,0,L|174:247,1,38.4999971561433,10|0,0:0|0:0,0:0:0:0:
39,371,15215,1,2,0:0:0:0:
60,296,15415,1,10,0:1:0:0:
124,361,15615,1,0,0:0:0:0:
124,361,15715,1,0,0:0:0:0:
124,361,15815,2,0,L|176:358,1,38.4999971561433,10|0,0:0|0:0,0:0:0:0:
60,296,16015,2,0,L|21:298,1,38.4999971561433,2|0,0:0|0:0,0:0:0:0:
180,209,16215,5,10,0:1:0:0:
124,156,16415,1,0,0:0:0:0:
124,156,16515,1,0,0:0:0:0:
124,156,16615,2,0,L|119:94,1,38.4999971561433,10|0,0:0|0:0,0:0:0:0:
197,25,16815,2,0,L|200:81,1,38.4999971561433,2|0,0:0|0:0,0:0:0:0:
268,103,17015,1,10,0:1:0:0:
111,39,17215,5,0,0:0:0:0:
111,39,17315,1,0,0:0:0:0:
111,39,17415,2,0,L|66:47,1,38.4999971561433,10|0,0:0|0:0,0:0:0:0:
213,137,17615,2,0,L|250:130,1,38.4999971561433,2|0,0:0|0:0,0:0:0:0:
173,247,17815,5,10,0:1:0:0:
103,214,18015,1,0,0:0:0:0:
103,214,18115,1,0,0:0:0:0:
103,214,18215,2,0,L|95:269,1,38.4999971561433,10|0,0:0|0:0,0:0:0:0:
203,357,18415,2,0,L|208:318,1,38.4999971561433,2|0,0:0|0:0,0:0:0:0:
273,278,18615,5,10,0:1:0:0:
344,324,18815,1,0,0:0:0:0:
344,324,18915,1,0,0:0:0:0:
344,324,19015,2,0,L|402:317,1,38.4999971561433,10|0,0:0|0:0,0:0:0:0:
483,237,19215,2,0,L|444:241,1,38.4999971561433,2|0,0:0|0:0,0:0:0:0:
360,157,19415,5,10,0:1:0:0:
424,108,19615,1,0,0:0:0:0:
424,108,19715,1,0,0:0:0:0:
424,108,19815,2,0,L|416:52,1,38.4999971561433,10|0,0:0|0:0,0:0:0:0:
306,14,20015,2,0,L|311:52,1,38.4999971561433,2|0,0:0|0:0,0:0:0:0:
262,113,20215,5,10,0:1:0:0:
195,80,20415,1,0,0:0:0:0:
195,80,20515,1,0,0:0:0:0:
195,80,20615,2,0,L|132:97,1,38.4999971561433,10|0,0:0|0:0,0:0:0:0:
22,199,20815,5,2,0:0:0:0:
30,201,20915,1,0,0:0:0:0:
37,203,21015,2,0,L|33:175,2,25.6666647707622,8|0|2,0:1|0:0|0:0,0:0:0:0:
87,265,21215,2,0,L|79:307,1,38.4999971561433,2|2,0:0|0:0,0:0:0:0:
144,200,21415,2,0,L|138:150,1,38.4999971561433,8|8,0:0|0:0,0:0:0:0:
205,286,21615,2,0,L|199:336,1,38.4999971561433,8|8,0:0|0:0,0:0:0:0:
270,211,21815,5,8,0:1:0:0:
289,208,21915,1,2,0:0:0:0:
308,206,22015,1,12,0:1:0:0:
327,204,22115,2,0,L|388:193,1,38.4999971561433,0|0,0:0|0:0,0:0:0:0:
472,108,22315,1,0,0:0:0:0:
461,100,22415,2,0,L|402:112,1,38.4999971561433,12|0,0:1|0:0,0:0:0:0:
326,11,22615,6,0,P|272:-1|249:70,1,131.999994277954,14|0,0:1|0:0,0:0:0:0:
252,75,23015,2,0,L|121:55,1,131.999994277954,10|0,0:0|0:0,0:0:0:0:
60,6,23415,1,10,0:1:0:0:
0,208,23615,5,0,0:0:0:0:
0,208,23715,1,2,0:0:0:0:
0,208,23815,2,0,P|30:192|59:198,1,43.9999980926514,8|0,0:0|0:0,0:0:0:0:
106,147,24015,2,0,P|134:164|144:193,1,43.9999980926514,2|0,0:0|0:0,0:0:0:0:
211,254,24215,5,10,0:1:0:0:
209,271,24315,2,0,B|198:336|198:336|212:374,1,87.9999961853028,2|2,0:0|0:0,0:0:0:0:
298,328,24615,2,0,L|351:319,1,43.9999980926514,8|0,0:0|0:0,0:0:0:0:
452,212,24815,5,2,0:0:0:0:
454,224,24915,1,0,0:0:0:0:
456,236,25015,2,0,B|395:228|395:228|390:223|390:223|327:216,1,131.999994277954,10|2,0:1|0:0,0:0:0:0:
267,101,25415,2,0,P|310:127|347:119,1,87.9999961853028,8|2,0:0|0:0,0:0:0:0:
462,27,25715,5,0,0:0:0:0:
445,21,25815,2,0,L|465:152,1,131.999994277954,10|0,0:1|0:0,0:0:0:0:
474,166,26215,2,0,B|435:156|409:179|418:186|388:221|339:204,1,131.999994277954,10|0,0:0|0:0,0:0:0:0:
283,263,26615,6,0,P|266:287|267:311,1,43.9999980926514,10|2,0:1|0:1,0:0:0:0:
338,334,26815,2,0,P|355:310|354:286,1,43.9999980926514,0|2,0:0|0:0,0:0:0:0:
275,147,27015,1,8,0:0:0:0:
122,176,27215,2,0,L|129:132,1,43.9999980926514,2|2,0:0|0:0,0:0:0:0:
28,142,27415,5,10,0:1:0:0:
175,261,27615,1,2,0:0:0:0:
19,301,27815,2,0,L|26:257,1,43.9999980926514,10|2,0:0|0:0,0:0:0:0:
95,362,28015,2,0,L|102:318,1,43.9999980926514,2|2,0:0|0:0,0:0:0:0:
246,344,28215,6,0,B|345:329|345:329|378:349,1,131.999994277954,10|0,0:1|0:0,0:0:0:0:
455,294,28615,2,0,B|481:330|481:330|470:378,1,87.9999961853028,8|2,0:0|0:0,0:0:0:0:
360,189,28915,5,0,0:0:0:0:
368,204,29015,2,0,P|438:209|474:147,1,131.999994277954,10|0,0:1|0:0,0:0:0:0:
488,171,29415,2,0,B|476:131|501:106|508:115|529:82|508:37,1,131.999994277954,10|0,0:0|0:0,0:0:0:0:
443,8,29815,5,10,0:1:0:0:
309,100,30015,1,0,0:0:0:0:
197,31,30215,2,0,P|171:74|179:111,1,87.9999961853028,8|2,0:0|0:0,0:0:0:0:
220,212,30515,5,2,0:0:0:0:
202,209,30615,2,0,L|158:202,1,43.9999980926514,10|0,0:1|0:1,0:0:0:0:
312,189,30815,2,0,L|356:196,1,43.9999980926514,2|0,0:0|0:0,0:0:0:0:
449,214,31015,1,10,0:0:0:0:
344,350,31215,5,2,0:0:0:0:
347,337,31315,1,2,0:0:0:0:
350,324,31415,2,0,L|219:344,1,131.999994277954,10|2,0:1|0:0,0:0:0:0:
151,384,31815,1,8,0:0:0:0:
202,209,32015,1,2,0:0:0:0:
0,267,32215,6,0,P|21:209|81:218,1,131.999994277954,10|0,0:1|0:0,0:0:0:0:
92,232,32615,2,0,B|76:124|76:124|107:142,1,131.999994277954,10|0,0:0|0:0,0:0:0:0:
160,70,33015,5,10,0:1:0:0:
173,81,33115,2,0,P|189:111|183:140,2,43.9999980926514,0|0|2,0:0|0:0|0:0,0:0:0:0:
96,135,33415,2,0,L|2:120,1,87.9999961853028,8|2,0:0|0:0,0:0:0:0:
67,20,33715,5,2,0:0:0:0:
57,10,33815,2,0,L|63:42,2,29.3333320617676,8|2|2,0:1|0:0|0:0,0:0:0:0:
160,70,34015,2,0,L|153:24,1,43.9999980926514,2|2,0:0|0:0,0:0:0:0:
277,0,34215,5,8,0:0:0:0:
305,11,34315,1,2,0:0:0:0:
323,36,34415,1,2,0:0:0:0:
322,66,34515,1,2,0:0:0:0:
303,90,34615,2,0,L|347:97,1,43.9999980926514,10|0,0:1|0:0,0:0:0:0:
465,26,34815,2,0,L|436:60,1,43.9999980926514,2|0,0:0|0:0,0:0:0:0:
439,198,35015,2,0,L|423:156,2,43.9999980926514,8|10|8,0:1|0:1|0:1,0:0:0:0:
414,354,35415,6,0,B|362:360|344:331|353:320|315:291|263:316,1,148.499989030838,12|0,0:1|0:0,0:0:0:0:
284,329,35815,2,0,L|185:313,1,98.9999926872256,10|2,0:0|0:0,0:0:0:0:
94,344,36115,5,2,0:0:0:0:
74,338,36215,2,0,P|59:318|58:293,1,49.4999963436128,10|0,0:1|0:0,0:0:0:0:
1,219,36415,2,0,P|10:196|31:182,1,49.4999963436128,2|2,0:0|0:0,0:0:0:0:
120,212,36615,1,10,0:0:0:0:
49,53,36815,5,2,0:0:0:0:
49,53,36915,1,0,0:0:0:0:
49,53,37015,2,0,P|101:104|172:86,1,148.499989030838,10|2,0:1|0:0,0:0:0:0:
249,137,37415,2,0,P|264:117|265:92,2,49.4999963436128,10|2|2,0:0|0:0|0:0,0:0:0:0:
372,0,37815,5,10,0:1:0:0:
388,10,37915,2,0,P|417:58|408:99,1,98.9999926872256,2|0,0:0|0:0,0:0:0:0:
497,129,38215,2,0,L|504:177,1,49.4999963436128,10|0,0:0|0:0,0:0:0:0:
323,276,38415,5,2,0:0:0:0:
323,276,38515,1,2,0:0:0:0:
323,276,38615,2,0,P|347:211|414:221,1,148.499989030838,10|2,0:1|0:0,0:0:0:0:
466,300,39015,2,0,P|446:315|421:316,1,49.4999963436128,10|0,0:0|0:0,0:0:0:0:
355,382,39215,2,0,P|335:367|310:366,1,49.4999963436128,0|2,0:0|0:0,0:0:0:0:
232,314,39415,5,10,0:1:0:0:
51,248,39615,2,0,L|99:241,1,49.4999963436128,2|0,0:0|0:0,0:0:0:0:
193,225,39815,2,0,B|201:156|201:156|206:149|206:149|218:57,1,148.499989030838,10|0,0:0|0:0,0:0:0:0:
155,10,40215,5,10,0:1:0:0:
299,116,40415,1,2,0:0:0:0:
417,53,40615,2,0,L|410:101,1,49.4999963436128,10|0,0:0|0:0,0:0:0:0:
457,183,40815,2,0,L|450:231,1,49.4999963436128,2|2,0:0|0:0,0:0:0:0:
483,320,41015,5,10,0:1:0:0:
314,232,41215,1,2,0:0:0:0:
314,232,41315,1,2,0:0:0:0:
314,232,41415,2,0,P|343:280|334:321,1,98.9999926872256,10|0,0:0|0:0,0:0:0:0:
236,354,41715,5,2,0:0:0:0:
240,368,41815,2,0,L|82:342,1,148.499989030838,10|2,0:1|0:0,0:0:0:0:
17,367,42215,1,8,0:0:0:0:
70,119,42415,6,0,P|84:137|86:162,1,49.4999963436128,0|2,0:0|0:0,0:0:0:0:
42,247,42615,2,0,P|94:196|165:214,1,148.499989030838,10|2,0:1|0:0,0:0:0:0:
227,164,43015,1,8,0:0:0:0:
367,243,43215,2,0,L|360:195,1,49.4999963436128,0|2,0:0|0:0,0:0:0:0:
456,121,43415,6,0,P|398:121|362:87,1,98.9999926872256,10|0,0:1|0:0,0:0:0:0:
310,41,43715,1,2,0:0:0:0:
319,29,43815,2,0,L|250:39,1,49.4999963436128,10|0,0:0|0:0,0:0:0:0:
92,116,44015,5,2,0:0:0:0:
92,116,44115,1,0,0:0:0:0:
92,116,44215,2,0,B|172:110|150:172|231:163,1,148.499989030838,10|2,0:1|0:0,0:0:0:0:
300,213,44615,2,0,L|293:262,1,49.4999963436128,8|2,0:0|0:0,0:0:0:0:
93,343,44815,2,0,P|92:326|97:333,1,49.4999963436128,2|0,0:0|0:0,0:0:0:0:
159,381,45015,1,10,0:1:0:0:
127,253,45215,5,2,0:0:0:0:
105,225,45315,1,2,0:0:0:0:
73,210,45415,1,10,0:0:0:0:
38,206,45515,1,0,0:0:0:0:
4,214,45615,2,0,L|11:265,1,49.4999963436128,2|0,0:0|0:3,0:0:0:0:
159,133,45815,2,0,L|109:139,1,49.4999963436128,10|0,0:1|0:0,0:0:0:0:
0,80,46015,2,0,L|61:72,1,49.4999963436128,2|0,0:0|0:3,0:0:0:0:
93,8,46215,1,10,0:0:0:0:
93,8,46315,1,0,0:0:0:0:
93,8,46415,1,2,0:0:0:0:
0,181,46615,6,0,L|5:217,2,32.9999975624085,8|2|2,0:1|0:0|0:0,0:0:0:0:
68,309,46815,2,0,L|60:357,1,49.4999963436128,2|2,0:0|0:0,0:0:0:0:
55,298,47015,6,0,L|0:309,1,49.4999963436128,8|8,0:0|0:0,0:0:0:0:
105,225,47215,2,0,L|134:221,3,16.4999987812043,8|2|2|8,0:0|0:0|0:0|0:0,0:0:0:0:
242,321,47415,6,0,P|246:359|235:389,1,65.9999951248171,8|2,0:1|0:0,0:0:0:0:
157,373,47615,2,0,P|153:335|165:307,1,65.9999951248171,2|2,0:0|0:0,0:0:0:0:
292,262,47815,1,8,0:1:0:0:
325,285,47915,1,8,0:1:0:0:
363,294,48015,1,8,0:1:0:0:
402,293,48115,1,8,0:1:0:0:
441,276,48215,6,0,L|450:208,1,54.9999976158142,14|0,0:1|0:0,0:0:0:0:
382,179,48415,1,0,0:0:0:0:
374,173,48515,2,0,L|383:105,1,54.9999976158142,2|8,0:0|0:1,0:0:0:0:
455,95,48715,1,0,0:0:0:0:
466,91,48815,2,0,L|475:23,1,54.9999976158142,2|0,0:0|0:0,0:0:0:0:
406,0,49015,1,8,0:1:0:0:
406,0,49215,6,0,L|341:11,1,54.9999976158142,2|0,0:0|0:0,0:0:0:0:
267,0,49415,2,0,L|280:68,2,54.9999976158142,8|2|2,0:0|0:0|0:0,0:0:0:0:
165,139,49815,6,0,L|105:132,1,54.9999976158142,10|0,0:1|0:0,0:0:0:0:
1,204,50015,1,0,0:0:0:0:
1,204,50115,2,0,L|37:155,1,54.9999976158142,2|8,0:0|0:1,0:0:0:0:
26,31,50315,1,0,0:0:0:0:
26,31,50415,2,0,L|49:86,1,54.9999976158142,2|0,0:0|0:0,0:0:0:0:
165,139,50615,6,0,B|225:136|199:96|284:95,1,109.999995231628,8|2,0:1|0:0,0:0:0:0:
277,104,50915,1,0,0:0:0:0:
286,115,51015,2,0,L|277:179,1,54.9999976158142,8|0,0:0|0:0,0:0:0:0:
384,283,51215,5,0,0:0:0:0:
384,283,51315,1,0,0:0:0:0:
384,283,51415,2,0,L|446:274,1,54.9999976158142,10|0,0:1|0:0,0:0:0:0:
317,332,51615,1,0,0:0:0:0:
317,332,51715,2,0,L|293:390,1,54.9999976158142,2|8,0:0|0:1,0:0:0:0:
303,254,51915,1,0,0:0:0:0:
303,254,52015,2,0,L|264:204,1,54.9999976158142,2|0,0:0|0:0,0:0:0:0:
218,155,52215,1,8,0:1:0:0:
218,155,52415,6,0,L|229:80,1,54.9999976158142,2|0,0:0|0:0,0:0:0:0:
148,21,52615,2,0,L|140:75,2,54.9999976158142,8|0|0,0:0|0:0|0:0,0:0:0:0:
0,161,53015,6,0,B|61:154|49:206|119:203,1,109.999995231628,10|0,0:1|0:0,0:0:0:0:
165,251,53315,2,0,B|199:222|199:222|183:139,1,109.999995231628,2|0,0:0|0:0,0:0:0:0:
245,67,53615,2,0,B|259:91|259:91|255:131,1,54.9999976158142,2|0,0:0|0:0,0:0:0:0:
186,157,53815,5,10,0:1:0:0:
324,207,54015,1,2,0:0:0:0:
242,338,54215,6,0,L|297:348,1,54.9999976158142,10|0,0:0|0:0,0:0:0:0:
434,259,54414,2,0,L|379:268,1,54.9999976158142,2|0,0:0|0:0,0:0:0:0:
324,207,54615,6,0,L|346:133,1,54.9999976158142,10|0,0:1|0:0,0:0:0:0:
252,126,54815,1,0,0:0:0:0:
260,119,54915,2,0,L|244:66,1,54.9999976158142,2|8,0:0|0:1,0:0:0:0:
352,59,55115,1,0,0:0:0:0:
344,52,55215,2,0,L|359:0,1,54.9999976158142,2|0,0:0|0:0,0:0:0:0:
282,0,55415,1,8,0:1:0:0:
428,122,55615,5,2,0:0:0:0:
428,122,55715,1,0,0:0:0:0:
428,122,55815,2,0,L|491:114,2,54.9999976158142,8|0|0,0:0|0:0|0:0,0:0:0:0:
219,256,56215,6,0,L|156:250,1,54.9999976158142,10|0,0:1|0:0,0:0:0:0:
60,333,56415,1,0,0:0:0:0:
60,333,56515,2,0,L|96:281,1,54.9999976158142,2|8,0:0|0:1,0:0:0:0:
74,160,56715,1,0,0:0:0:0:
74,160,56815,2,0,L|100:217,1,54.9999976158142,2|0,0:0|0:0,0:0:0:0:
219,256,57015,6,0,B|278:253|260:211|338:212,1,109.999995231628,8|2,0:1|0:0,0:0:0:0:
385,259,57315,1,0,0:0:0:0:
397,271,57415,2,0,L|386:385,1,109.999995231628,8|0,0:0|0:0,0:0:0:0:
479,374,57715,5,0,0:0:0:0:
485,357,57815,2,0,L|549:345,2,54.9999976158142,10|2|0,0:1|0:0|0:0,0:0:0:0:
397,271,58115,2,0,L|333:283,1,54.9999976158142,2|8,0:0|0:1,0:0:0:0:
458,167,58315,2,0,L|512:156,1,54.9999976158142,2|0,0:0|0:0,0:0:0:0:
351,22,58515,6,0,P|346:58|352:88,1,54.9999976158142,2|8,0:0|0:1,0:0:0:0:
430,83,58715,2,0,P|435:47|429:17,1,54.9999976158142,2|0,0:0|0:0,0:0:0:0:
260,119,58915,5,2,0:0:0:0:
253,131,59015,2,0,B|168:143|200:203|94:201,1,164.999992847443,10|0,0:0|0:1,0:0:0:0:
50,145,59415,6,0,L|60:73,1,54.9999976158142,8|0,0:1|0:0,0:0:0:0:
193,289,59615,2,0,L|183:361,1,54.9999976158142,0|0,0:0|0:0,0:0:0:0:
300,199,59815,5,8,0:1:0:0:
267,178,59915,1,0,0:0:0:0:
228,176,60015,1,0,0:0:0:0:
190,185,60115,1,0,0:0:0:0:
162,211,60215,2,0,L|96:198,1,54.9999976158142,10|0,0:1|0:0,0:0:0:0:
0,57,60415,2,0,L|66:70,1,54.9999976158142
126,9,60615,6,0,P|135:-4|123:4,7,41.2499997854233,10|8|8|8|8|8|8|8,0:0|0:0|0:0|0:1|0:1|0:1|0:1|0:1,0:0:0:0:
200,73,61015,6,0,B|245:78|266:48|257:43|289:19|327:32,1,131.999990249634,14|0,0:1|0:0,0:0:0:0:
395,85,61315,1,2,0:0:0:0:
391,101,61415,2,0,P|423:103|451:88,1,65.9999951248171,8|0,0:0|0:0,0:0:0:0:
354,284,61615,6,0,P|365:221|320:177,2,131.999990249634,2|8|0,0:0|0:1|0:0,0:0:0:0:
455,377,62115,1,0,0:0:0:0:
439,382,62215,2,0,P|443:343|448:316,1,65.9999951248171,10|0,0:0|0:0,0:0:0:0:
257,268,62415,2,0,P|253:300|248:333,1,65.9999951248171,2|0,0:0|0:0,0:0:0:0:
171,162,62615,6,0,L|33:181,1,131.999990249634,10|0,0:1|0:0,0:0:0:0:
159,8,62915,1,2,0:0:0:0:
143,1,63015,2,0,P|127:29|129:61,1,65.9999951248171,8|0,0:0|0:0,0:0:0:0:
261,93,63215,2,0,B|322:100|322:100|330:104|330:104|411:114,2,131.999990249634,2|8|0,0:0|0:1|0:0,0:0:0:0:
52,270,63815,6,0,B|36:300|36:300|46:335,1,65.9999951248171,10|0,0:0|0:0,0:0:0:0:
125,342,64015,2,0,B|141:312|141:312|131:277,1,65.9999951248171,2|0,0:0|0:0,0:0:0:0:
40,180,64215,6,0,P|72:182|100:167,1,65.9999951248171,10|2,0:1|0:0,0:0:0:0:
182,40,64415,1,0,0:0:0:0:
182,40,64515,2,0,P|164:66|163:98,1,65.9999951248171,2|8,0:0|0:0,0:0:0:0:
232,232,64715,2,0,P|217:203|190:186,1,65.9999951248171,2|0,0:0|0:0,0:0:0:0:
124,340,64915,5,0,0:0:0:0:
140,338,65015,2,0,L|287:317,1,131.999990249634,10|2,0:1|0:0,0:0:0:0:
341,383,65315,2,0,P|374:378|407:374,1,65.9999951248171,2|8,0:0|0:0,0:0:0:0:
232,232,65515,2,0,P|264:228|297:223,1,65.9999951248171,2|0,0:0|0:0,0:0:0:0:
452,259,65715,5,0,0:0:0:0:
436,264,65815,2,0,P|390:219|401:156,1,131.999990249634,10|2,0:1|0:0,0:0:0:0:
475,100,66115,2,0,P|471:68|466:35,1,65.9999951248171,2|8,0:0|0:0,0:0:0:0:
367,0,66315,2,0,P|371:32|376:65,1,65.9999951248171,2|0,0:0|0:0,0:0:0:0:
254,133,66515,6,0,B|182:127|202:182|130:181,1,131.999990249634,2|2,0:0|0:0,0:0:0:0:
72,109,66815,1,8,0:0:0:0:
33,115,66915,1,8,0:0:0:0:
6,143,67015,1,10,0:1:0:0:
0,182,67115,1,8,0:1:0:0:
18,216,67215,1,10,0:1:0:0:
141,309,67415,6,0,B|124:212|124:212|136:180,1,131.999990249634,10|0,0:1|0:0,0:0:0:0:
223,238,67715,1,2,0:0:0:0:
220,221,67815,2,0,P|252:225|285:230,1,65.9999951248171,8|0,0:0|0:0,0:0:0:0:
406,382,68015,6,0,B|361:387|340:357|349:352|317:328|279:341,2,131.999990249634,2|8|2,0:0|0:1|0:0,0:0:0:0:
465,305,68515,1,0,0:0:0:0:
479,297,68615,2,0,P|496:269|497:237,1,65.9999951248171,10|0,0:0|0:0,0:0:0:0:
380,180,68815,2,0,P|397:207|398:239,1,65.9999951248171,2|0,0:0|0:0,0:0:0:0:
178,265,69015,6,0,P|222:219|284:229,1,131.999990249634,10|0,0:1|0:0,0:0:0:0:
293,136,69315,1,2,0:0:0:0:
290,119,69415,2,0,P|286:87|281:54,1,65.9999951248171,8|0,0:0|0:0,0:0:0:0:
57,94,69615,2,0,B|154:111|154:111|186:99,2,131.999990249634,2|8|0,0:0|0:1|0:0,0:0:0:0:
67,363,70215,6,0,P|35:367|2:372,1,65.9999951248171,10|0,0:0|0:0,0:0:0:0:
19,280,70415,2,0,P|51:276|84:271,1,65.9999951248171,2|0,0:0|0:0,0:0:0:0:
168,221,70615,6,0,P|185:248|186:280,1,65.9999951248171,10|2,0:1|0:0,0:0:0:0:
284,269,70815,1,0,0:0:0:0:
284,269,70915,2,0,P|312:252|327:223,1,65.9999951248171,2|8,0:0|0:0,0:0:0:0:
403,361,71115,2,0,P|370:362|341:346,1,65.9999951248171,2|0,0:0|0:0,0:0:0:0:
442,266,71315,5,0,0:0:0:0:
432,252,71415,2,0,B|420:212|445:187|452:196|473:163|452:118,1,131.999990249634,10|2,0:1|0:0,0:0:0:0:
358,75,71715,2,0,P|362:107|367:140,1,65.9999951248171,2|8,0:0|0:0,0:0:0:0:
503,0,71915,2,0,P|507:32|512:65,1,65.9999951248171,2|0,0:0|0:0,0:0:0:0:
326,223,72115,5,0,0:0:0:0:
309,220,72215,2,0,B|247:212|247:212|239:208|239:208|178:201,1,131.999990249634,10|2,0:1|0:0,0:0:0:0:
85,220,72515,2,0,B|77:190|77:190|93:160,1,65.9999951248171,2|8,0:0|0:0,0:0:0:0:
163,94,72715,2,0,B|171:63|171:63|155:33,1,65.9999951248171,2|0,0:0|0:0,0:0:0:0:
31,65,72915,5,2,0:0:0:0:
24,81,73015,2,0,L|72:71,2,43.9999967498781,8|2|2,0:1|0:0|0:0,0:0:0:0:
93,159,73215,5,2,0:0:0:0:
90,185,73315,1,2,0:0:0:0:
86,211,73415,1,8,0:0:0:0:
83,238,73515,1,8,0:1:0:0:
79,264,73615,2,0,P|111:259|144:254,1,65.9999951248171,10|8,0:1|0:1,0:0:0:0:
335,365,73815,6,0,P|268:373|217:320,1,131.999990249634,14|0,0:1|0:0,0:0:0:0:
265,265,74115,1,2,0:0:0:0:
281,265,74215,2,0,P|301:224|293:191,1,65.9999951248171,8|0,0:0|0:0,0:0:0:0:
204,96,74415,6,0,B|136:100|166:163|65:159,1,131.999990249634,2|8,0:0|0:1,0:0:0:0:
18,103,74715,1,0,0:0:0:0:
15,87,74815,2,0,P|60:64|87:72,1,65.9999951248171,0|0,0:0|0:0,0:0:0:0:
214,177,75015,5,10,0:0:0:0:
235,202,75115,1,0,0:0:0:0:
267,209,75215,1,2,0:0:0:0:
298,205,75315,1,0,0:0:0:0:
325,186,75415,2,0,B|332:119|332:119|334:118|334:118|342:43,1,131.999990249634,10|0,0:1|0:0,0:0:0:0:
424,22,75715,1,2,0:0:0:0:
441,39,75815,2,0,L|433:118,1,65.9999951248171,8|0,0:0|0:0,0:0:0:0:
512,227,76015,6,0,P|441:231|406:307,1,131.999990249634,2|8,0:0|0:1,0:0:0:0:
417,354,76315,1,0,0:0:0:0:
396,369,76415,2,0,P|344:361|309:359,1,65.9999951248171,0|0,0:0|0:0,0:0:0:0:
201,282,76615,6,0,P|186:239|193:201,1,65.9999951248171,10|0,0:0|0:0,0:0:0:0:
269,202,76815,2,0,P|284:245|277:283,1,65.9999951248171,2|0,0:0|0:0,0:0:0:0:
105,155,77015,5,10,0:1:0:0:
105,155,77115,2,0,P|48:166|27:171,1,65.9999951248171,2|0,0:0|0:0,0:0:0:0:
171,76,77315,2,0,P|228:65|249:60,1,65.9999951248171,2|8,0:0|0:0,0:0:0:0:
106,14,77515,2,0,P|73:20|41:26,1,65.9999951248171,2|0,0:0|0:0,0:0:0:0:
187,219,77715,5,0,0:0:0:0:
187,219,77815,2,0,P|207:177|202:142,2,65.9999951248171,10|2|0,0:1|0:0|0:0,0:0:0:0:
246,273,78115,2,0,P|221:294|190:303,1,65.9999951248171,2|8,0:0|0:0,0:0:0:0:
136,365,78315,2,0,P|177:385|213:380,1,65.9999951248171,2|0,0:0|0:0,0:0:0:0:
187,219,78515,5,0,0:0:0:0:
179,209,78615,2,0,B|111:215|135:262|48:258,1,131.999990249634,10|2,0:1|0:0,0:0:0:0:
0,167,78915,1,0,0:0:0:0:
13,158,79015,2,0,L|83:169,2,65.9999951248171,10|2|0,0:0|0:0|0:0,0:0:0:0:
160,97,79315,6,0,P|172:42|164:14,1,65.9999951248171,2|8,0:0|0:1,0:0:0:0:
84,21,79515,1,2,0:0:0:0:
84,21,79615,2,0,P|72:76|80:104,1,65.9999951248171,8|8,0:0|0:0,0:0:0:0:
179,209,79815,1,10,0:1:0:0:
211,203,79915,1,8,0:1:0:0:
243,198,80015,1,10,0:1:0:0:
486,374,80215,6,0,B|409:361|462:310|327:306,1,131.999990249634,10|0,0:1|0:0,0:0:0:0:
299,308,80515,1,0,0:0:0:0:
284,318,80615,2,0,L|293:384,1,65.9999951248171,8|0,0:0|0:0,0:0:0:0:
60,258,80815,6,0,P|116:306|192:262,1,131.999990249634,2|8,0:0|0:1,0:0:0:0:
215,231,81115,1,0,0:0:0:0:
230,221,81215,2,0,L|221:155,1,65.9999951248171,0|0,0:0|0:0,0:0:0:0:
370,33,81415,6,0,B|376:70|376:70|363:103,1,65.9999951248171,10|0,0:0|0:0,0:0:0:0:
288,90,81615,2,0,B|282:53|282:53|295:20,1,65.9999951248171,2|0,0:0|0:0,0:0:0:0:
486,181,81815,6,0,P|425:191|337:197,1,131.999990249634,10|0,0:1|0:0,0:0:0:0:
274,224,82115,1,2,2:0:0:0:
280,239,82215,2,0,P|204:230|178:232,1,65.9999951248171,8|0,2:0|0:0,0:0:0:0:
20,357,82415,6,0,P|109:365|130:284,1,131.999990249634,2|8,2:0|0:1,0:0:0:0:
95,266,82715,1,0,0:0:0:0:
79,266,82815,2,0,P|68:224|83:192,1,65.9999951248171,0|0,2:0|0:0,0:0:0:0:
160,97,83015,6,0,P|171:55|156:23,1,65.9999951248171,10|0,0:0|0:0,0:0:0:0:
87,31,83215,2,0,P|76:73|91:105,1,65.9999951248171,2|0,0:0|0:0,0:0:0:0:
205,195,83415,6,0,B|274:184|248:140|324:136,1,131.999990249634,10|0,0:1|0:0,0:0:0:0:
432,70,83715,1,0,0:0:0:0:
412,49,83815,2,0,L|399:190,1,131.999990249634,10|0,0:0|0:0,0:0:0:0:
501,300,84115,5,0,0:0:0:0:
486,280,84215,2,0,B|411:263|411:263|364:281|381:327,1,131.999990249634,10|0,0:1|0:0,0:0:0:0:
285,370,84515,1,0,0:0:0:0:
302,353,84615,2,0,L|287:292,4,32.9999975624085,10|0|0|0|0,0:0|0:0|0:0|0:0|0:0,0:0:0:0:
138,269,84915,5,0,0:0:0:0:
138,269,85015,2,0,L|78:264,3,43.9999967498781,8|2|2|2,0:1|0:0|0:0|0:0,0:0:0:0:
205,195,85315,1,0,0:0:0:0:
219,203,85415,2,0,L|209:132,1,54.9999976158142,10|2,0:0|0:0,0:0:0:0:
298,62,85615,2,0,L|306:102,2,36.6666650772095,2|0|0,0:0|0:0|0:0,0:0:0:0:
220,18,85815,2,0,L|166:33,1,54.9999976158142,8|2,0:1|0:0,0:0:0:0:
109,106,86015,1,2,0:0:0:0:
103,104,86115,1,2,0:0:0:0:
97,101,86215,2,0,P|104:81|106:97,1,54.9999976158142,8|0,0:0|0:0,0:0:0:0:
219,203,86415,5,2,0:0:0:0:
219,203,86615,2,0,B|138:190|12:259|22:351|28:393|90:402|164:404|156:274|85:198,1,492.799978637696,14|0,0:1|0:0,0:0:0:0:
