osu file format v14

[General]
AudioFilename: audio.mp3
AudioLeadIn: 0
PreviewTime: 60198
Countdown: 0
SampleSet: Soft
StackLeniency: 0.7
Mode: 0
LetterboxInBreaks: 0
WidescreenStoryboard: 1

[Editor]
Bookmarks: 9806,22606,35406,48206,61006,81406,86606
DistanceSpacing: 0.9
BeatDivisor: 4
GridSize: 4
TimelineZoom: 3.899998

[Metadata]
Title:BEAUTIFUL SENTENCE (TV Size)
TitleUnicode:BEAUTIFUL≒SENTENCE (TV Size)
Artist:Magus Two
ArtistUnicode:Magus Two
Creator:Sephira
Version:Expert
Source:Trinity Seven
Tags:-mikan mikan pentori meiikyuu japanese anime ending トリニティセブン
BeatmapID:2548982
BeatmapSetID:1202012

[Difficulty]
HPDrainRate:5
CircleSize:4
OverallDifficulty:8.4
ApproachRate:9.2
SliderMultiplier:2.59999990463257
SliderTickRate:1

[Events]
//Background and Video events
0,0,"51667-edit.jpg",0,0
//Break Periods
//Storyboard Layer 0 (Background)
//Storyboard Layer 1 (Fail)
//Storyboard Layer 2 (Pass)
//Storyboard Layer 3 (Foreground)
//Storyboard Layer 4 (Overlay)
//Storyboard Sound Samples

[TimingPoints]
215,400,4,2,1,60,1,0
215,-100,4,2,1,60,0,0
1815,-125,4,2,1,60,0,0
3015,-100,4,2,1,60,0,0
3415,-125,4,2,1,60,0,0
5015,-111.111111111111,4,2,1,60,0,0
7815,-90.9090909090909,4,2,1,60,0,0
8615,-100,4,2,1,60,0,0
9015,-125,4,2,1,60,0,0
9265,-71.4285714285714,4,2,1,60,0,0
9815,400,4,2,1,60,1,0
9815,-83.3333333333333,4,2,1,80,0,0
22615,-111.111111111111,4,2,1,70,0,0
28315,-100,4,2,1,70,0,0
29015,-125,4,2,1,70,0,0
35415,-100,4,2,1,70,0,0
41815,-80,4,2,1,70,0,0
41915,-100,4,2,1,70,0,0
43415,-100,4,2,1,70,0,0
44615,-80,4,2,1,70,0,0
44715,-100,4,2,1,70,0,0
45015,-83.3333333333333,4,2,1,70,0,0
48215,-100,4,2,1,70,0,0
49215,-100,4,2,1,70,0,0
49815,-100,4,2,1,70,0,0
50815,-100,4,2,1,70,0,0
51415,-100,4,2,1,70,0,0
52415,-100,4,2,1,70,0,0
53015,-100,4,2,1,70,0,0
53815,-100,4,2,1,70,0,0
54615,-100,4,2,1,70,0,0
55615,-100,4,2,1,70,0,0
56215,-100,4,2,1,70,0,0
57215,-100,4,2,1,70,0,0
57815,-71.4285714285714,4,2,1,70,0,0
60915,-100,4,2,1,70,0,0
61015,-76.9230769230769,4,2,1,80,0,1
69615,-76.9230769230769,4,2,1,80,0,1
70015,-76.9230769230769,4,2,1,80,0,1
73815,-76.9230769230769,4,2,1,80,0,1
86615,-476.190476190476,4,2,1,70,0,0

[Colours]
Combo1 : 253,167,121
Combo2 : 188,248,252
Combo3 : 255,185,196

[HitObjects]
3,89,1815,6,0,L|10:153,1,51.9999980926514,2|0,0:0|0:0,0:0:0:0:
25,213,2015,1,2,0:0:0:0:
35,225,2215,2,0,L|38:159,1,51.9999980926514,2|0,0:0|0:0,0:0:0:0:
84,53,2415,1,0,0:0:0:0:
89,67,2615,2,0,L|100:150,1,51.9999980926514,2|0,0:0|0:0,0:0:0:0:
126,255,2815,1,2,0:0:0:0:
132,273,3015,2,0,B|205:279|205:279|251:301|251:301|327:306,1,194.999992847443,10|0,0:1|0:0,0:0:0:0:
429,159,3415,5,2,0:0:0:0:
432,173,3515,1,0,0:0:0:0:
435,189,3615,2,0,L|447:280,1,51.9999980926514,2|0,0:0|0:0,0:0:0:0:
404,357,3815,1,10,0:1:0:0:
404,357,3915,1,0,0:0:0:0:
404,357,4015,2,0,P|473:344|486:358,1,51.9999980926514,0|0,0:0|0:0,0:0:0:0:
344,236,4215,2,0,P|307:299|243:287,1,103.999996185303,2|2,0:0|0:0,0:0:0:0:
218,359,4515,1,0,0:0:0:0:
218,359,4615,2,0,B|147:338|147:338|84:361,1,103.999996185303,10|0,0:1|0:0,0:0:0:0:
20,151,5015,6,0,L|31:243,1,58.4999960689546,2|0,0:0|0:0,0:0:0:0:
99,273,5215,2,0,L|108:178,1,58.4999960689546,2|0,0:0|0:0,0:0:0:0:
128,142,5415,2,0,P|170:105|230:113,1,116.999992137909,10|0,0:1|0:0,0:0:0:0:
212,297,5715,1,0,0:0:0:0:
198,289,5815,2,0,L|191:155,1,116.999992137909,2|2,0:0|0:0,0:0:0:0:
223,37,6115,1,0,0:0:0:0:
233,53,6215,2,0,L|225:129,2,58.4999960689546,10|0|0,0:1|0:0|0:0,0:0:0:0:
457,123,6615,5,2,0:0:0:0:
406,106,6715,1,0,0:0:0:0:
379,123,6815,1,2,0:0:0:0:
358,108,6915,1,0,0:0:0:0:
343,114,7015,2,0,L|336:257,1,116.999992137909,10|0,0:1|0:0,0:0:0:0:
401,334,7315,1,0,0:0:0:0:
401,334,7415,6,0,P|426:302|470:303,1,58.4999960689546,2|0,0:0|0:0,0:0:0:0:
328,374,7615,2,0,P|317:328|341:293,1,58.4999960689546,2|0,0:0|0:0,0:0:0:0:
337,230,7815,2,0,P|282:280|219:255,1,142.999999118805,10|0,0:1|0:0,0:0:0:0:
124,76,8115,1,0,0:0:0:0:
135,83,8215,6,0,L|129:201,1,71.4999995594025,2|0,0:0|0:0,0:0:0:0:
105,345,8415,2,0,L|101:273,1,71.4999995594025,2|0,0:0|0:0,0:0:0:0:
95,71,8615,1,10,0:0:0:0:
96,88,8715,1,8,0:0:0:0:
98,104,8815,2,0,L|109:202,1,64.9999976158143,8|8,0:0|0:0,0:0:0:0:
267,334,9015,6,0,P|221:353|178:329,1,103.999996185303,2|0,0:0|0:0,0:0:0:0:
255,262,9315,6,0,P|278:325|377:300,1,181.999987770081,2|0,0:0|0:0,0:0:0:0:
369,337,9565,6,0,P|286:349|234:262,1,181.999987770081,2|0,0:0|0:0,0:0:0:0:
211,12,9815,6,0,B|226:118|226:118|191:200,1,155.999989517212,12|0,0:1|0:0,0:0:0:0:
62,124,10115,1,0,0:0:0:0:
71,111,10215,2,0,L|186:91,1,77.9999947586062,10|0,0:0|0:0,0:0:0:0:
206,163,10415,2,0,L|129:176,1,77.9999947586062,2|0,0:0|0:0,0:0:0:0:
12,288,10615,1,10,0:1:0:0:
43,289,10715,1,0,0:0:0:0:
70,303,10815,2,0,P|87:340|78:398,1,77.9999947586062,0|0,0:0|0:0,0:0:0:0:
206,163,11015,1,10,0:0:0:0:
177,176,11115,1,0,0:0:0:0:
158,199,11215,2,0,P|156:239|187:289,1,77.9999947586062,2|0,0:0|0:0,0:0:0:0:
253,327,11415,6,0,B|328:323|328:323|337:329|337:329|419:325,1,155.999989517212,10|0,0:1|0:0,0:0:0:0:
405,166,11715,1,0,0:0:0:0:
418,170,11815,2,0,L|429:272,1,77.9999947586062,10|0,0:0|0:0,0:0:0:0:
505,260,12015,2,0,L|496:182,1,77.9999947586062,2|0,0:0|0:0,0:0:0:0:
421,88,12215,2,0,P|339:113|345:211,1,155.999989517212,10|0,0:1|0:0,0:0:0:0:
330,373,12515,1,0,0:0:0:0:
345,353,12615,2,0,L|356:243,1,77.9999947586062,10|0,0:0|0:0,0:0:0:0:
197,285,12815,2,0,L|285:300,1,77.9999947586062,2|0,0:0|0:0,0:0:0:0:
209,368,13015,6,0,B|100:381|100:381|51:363,1,155.999989517212,10|0,0:1|0:0,0:0:0:0:
106,292,13315,1,0,0:0:0:0:
106,292,13415,2,0,L|92:123,1,155.999989517212,10|2,0:0|0:0,0:0:0:0:
161,13,13715,1,0,0:0:0:0:
178,14,13815,2,0,P|207:56|192:103,1,77.9999947586062,10|0,0:1|0:0,0:0:0:0:
93,136,14015,2,0,P|110:88|157:73,1,77.9999947586062,0|0,0:0|0:0,0:0:0:0:
242,142,14215,2,0,P|192:154|153:124,1,77.9999947586062,10|0,0:0|0:0,0:0:0:0:
203,8,14415,2,0,P|215:57|184:96,1,77.9999947586062,2|0,0:0|0:0,0:0:0:0:
73,217,14615,6,0,B|129:218|129:218|172:235|172:235|227:234,1,155.999989517212,10|0,0:1|0:0,0:0:0:0:
184,342,14915,1,0,0:0:0:0:
203,333,15015,1,10,0:0:0:0:
238,347,15115,1,0,0:0:0:0:
287,332,15215,2,0,L|408:340,1,77.9999947586062,2|0,0:0|0:0,0:0:0:0:
446,273,15415,6,0,L|252:257,1,155.999989517212,10|0,0:1|0:0,0:0:0:0:
383,114,15715,1,0,0:0:0:0:
456,183,15815,1,10,0:0:0:0:
458,172,15915,1,0,0:0:0:0:
460,162,16015,2,0,L|466:76,1,77.9999947586062,2|0,0:0|0:0,0:0:0:0:
344,14,16215,6,0,B|232:-4|232:-4|171:32,1,155.999989517212,10|0,0:1|0:0,0:0:0:0:
247,76,16515,1,0,0:0:0:0:
247,76,16615,2,0,L|253:173,1,77.9999947586062,10|0,0:0|0:0,0:0:0:0:
76,187,16815,1,2,0:0:0:0:
115,160,16915,1,0,0:0:0:0:
160,181,17015,6,0,B|182:218|182:218|172:358,1,155.999989517212,10|0,0:1|0:0,0:0:0:0:
101,349,17315,1,0,0:0:0:0:
91,339,17415,2,0,L|99:256,1,77.9999947586062,10|0,0:0|0:0,0:0:0:0:
155,103,17615,2,0,L|163:241,1,77.9999947586062,2|0,0:0|0:0,0:0:0:0:
298,343,17815,5,10,0:1:0:0:
344,344,17915,1,0,0:0:0:0:
381,313,18015,2,0,P|396:263|375:220,1,77.9999947586062,0|0,0:0|0:0,0:0:0:0:
279,136,18215,1,10,0:0:0:0:
273,146,18315,1,0,0:0:0:0:
267,156,18415,2,0,L|276:284,1,77.9999947586062,2|0,0:0|0:0,0:0:0:0:
354,151,18615,6,0,L|363:37,1,77.9999947586062,10|0,0:1|0:0,0:0:0:0:
512,133,18815,2,0,L|425:120,1,77.9999947586062,0|0,0:0|0:0,0:0:0:0:
189,63,19015,2,0,L|266:51,1,77.9999947586062,10|0,0:0|0:0,0:0:0:0:
512,60,19215,2,0,L|425:47,1,77.9999947586062,2|0,0:0|0:0,0:0:0:0:
267,156,19415,6,0,P|177:207|131:169,1,155.999989517212,10|0,0:1|0:0,0:0:0:0:
18,315,19715,1,0,0:0:0:0:
35,306,19815,1,10,0:0:0:0:
76,322,19915,1,0,0:0:0:0:
128,297,20015,2,0,L|220:289,1,77.9999947586062,2|0,0:0|0:0,0:0:0:0:
400,384,20215,2,0,P|355:326|267:344,1,155.999989517212,10|0,0:1|0:0,0:0:0:0:
325,232,20515,1,0,0:0:0:0:
339,221,20615,2,0,B|387:223|402:266|402:266|428:246|471:250,1,155.999989517212,10|2,0:0|0:0,0:0:0:0:
423,89,21015,5,8,0:1:0:0:
412,86,21081,1,2,0:0:0:0:
401,83,21148,1,2,0:0:0:0:
390,81,21215,2,0,L|380:162,1,77.9999947586062,2|2,0:0|0:0,0:0:0:0:
287,113,21415,2,0,L|279:35,1,77.9999947586062,8|8,0:0|0:0,0:0:0:0:
112,80,21615,1,8,0:0:0:0:
112,80,21715,1,8,0:0:0:0:
112,80,21815,6,0,L|261:66,1,77.9999947586062,8|2,0:1|0:0,0:0:0:0:
198,147,22015,2,0,L|120:154,1,77.9999947586062,12|0,0:1|0:0,0:0:0:0:
30,139,22215,2,0,L|22:61,2,77.9999947586062,0|0|12,0:0|0:0|0:1,0:0:0:0:
20,318,22615,6,0,B|26:287|26:287|59:238|115:237|166:274,1,175.499988206864,14|0,0:1|0:0,0:0:0:0:
120,344,23015,2,0,L|304:359,1,175.499988206864,10|0,0:0|0:0,0:0:0:0:
396,209,23415,1,10,0:1:0:0:
408,217,23515,2,0,L|416:314,1,58.4999960689546,0|0,0:0|0:0,0:0:0:0:
323,236,23715,2,0,P|328:168|403:139,1,116.999992137909,2|0,0:0|0:0,0:0:0:0:
483,335,24015,2,0,L|494:230,1,58.4999960689546,2|0,0:0|0:0,0:0:0:0:
312,360,24215,5,10,0:1:0:0:
294,358,24315,2,0,L|137:345,1,116.999992137909,2|2,0:0|0:0,0:0:0:0:
74,234,24615,1,8,0:0:0:0:
79,221,24715,1,0,0:0:0:0:
69,187,24815,1,2,0:0:0:0:
83,137,24915,1,0,0:0:0:0:
55,83,25015,6,0,B|178:97|178:97|270:71,1,175.499988206864,10|2,0:1|0:0,0:0:0:0:
308,248,25415,1,8,0:0:0:0:
310,237,25515,1,0,0:0:0:0:
311,227,25615,1,2,0:0:0:0:
313,217,25715,1,0,0:0:0:0:
314,142,25815,6,0,L|335:330,1,175.499988206864,10|0,0:1|0:0,0:0:0:0:
348,315,26215,2,0,L|328:140,1,175.499988206864,10|0,0:0|0:0,0:0:0:0:
424,7,26615,1,10,0:1:0:0:
430,14,26715,2,0,L|422:110,1,58.4999960689546,2|0,0:1|0:0,0:0:0:0:
168,37,26915,1,2,0:0:0:0:
179,27,27015,2,0,B|277:12|252:41|277:68|350:47,1,175.499988206864,8|2,0:0|0:0,0:0:0:0:
221,203,27415,5,10,0:1:0:0:
218,189,27515,1,2,0:0:0:0:
216,175,27615,2,0,L|207:101,1,58.4999960689546,2|2,0:0|0:0,0:0:0:0:
40,129,27815,1,10,0:0:0:0:
49,139,27915,1,2,0:0:0:0:
35,178,28015,1,2,0:0:0:0:
58,233,28115,1,2,0:0:0:0:
29,304,28215,6,0,P|40:350|149:336,1,175.499988206864,10|0,0:1|0:0,0:0:0:0:
264,366,28615,1,8,0:0:0:0:
245,353,28715,2,0,P|266:291|323:341,1,129.999995231629,0|0,0:0|0:0,0:0:0:0:
390,369,29015,6,0,B|392:312|392:312|383:261|383:261|391:173,1,155.999994277954,10|0,0:1|0:0,0:0:0:0:
459,212,29415,2,0,B|454:258|454:258|463:309|463:309|461:366,1,155.999994277954,10|0,0:0|0:0,0:0:0:0:
419,139,29815,1,10,0:1:0:0:
419,139,29915,2,0,L|426:74,1,51.9999980926514,2|0,0:1|0:0,0:0:0:0:
369,27,30115,2,0,P|283:14|257:48,1,103.999996185303,2|0,0:0|0:0,0:0:0:0:
187,102,30415,1,2,0:0:0:0:
199,105,30515,1,2,0:0:0:0:
211,106,30615,6,0,L|291:116,1,51.9999980926514,10|0,0:1|0:1,0:0:0:0:
236,243,30815,2,0,L|222:155,1,51.9999980926514,2|0,0:0|0:0,0:0:0:0:
102,169,31015,2,0,L|182:179,1,51.9999980926514,10|2,0:0|0:0,0:0:0:0:
127,306,31215,2,0,L|113:218,1,51.9999980926514,2|2,0:0|0:0,0:0:0:0:
211,316,31415,2,0,B|233:340|230:382|230:382|257:358|325:364,1,155.999994277954,10|2,0:1|0:0,0:0:0:0:
364,263,31815,1,8,0:0:0:0:
382,264,31915,1,0,0:0:0:0:
399,270,32015,1,2,0:0:0:0:
414,280,32115,1,0,0:0:0:0:
417,186,32215,6,0,P|364:236|263:229,1,155.999994277954,10|0,0:1|0:0,0:0:0:0:
289,254,32615,2,0,P|365:252|422:201,1,155.999994277954,10|0,0:0|0:0,0:0:0:0:
382,70,33015,1,10,0:1:0:0:
382,70,33115,2,0,P|430:108|447:107,1,51.9999980926514,0|0,0:0|0:0,0:0:0:0:
312,110,33315,2,0,L|178:124,1,103.999996185303,2|0,0:0|0:0,0:0:0:0:
57,103,33615,2,0,L|55:172,1,51.9999980926514,2|2,0:0|0:0,0:0:0:0:
84,254,33815,5,8,0:1:0:0:
95,257,33881,1,2,0:0:0:0:
106,260,33948,1,2,0:0:0:0:
116,264,34015,2,0,L|126:192,1,51.9999980926514,2|2,0:0|0:0,0:0:0:0:
31,353,34215,2,0,P|54:339|79:334,1,51.9999980926514,8|2,0:0|0:0,0:0:0:0:
159,339,34415,2,0,P|215:377|221:394,1,51.9999980926514,2|2,0:0|0:0,0:0:0:0:
301,337,34615,5,10,0:1:0:0:
297,321,34715,1,0,0:0:0:0:
335,314,34815,5,2,0:0:0:0:
339,284,34915,1,0,0:0:0:0:
323,235,35015,5,8,0:1:0:0:
337,181,35115,1,10,0:1:0:0:
310,112,35215,1,8,0:1:0:0:
55,190,35415,6,0,P|132:237|194:188,2,129.999995231629,12|2|10,0:1|0:0|0:0,0:0:0:0:
128,100,35915,1,2,0:0:0:0:
128,100,36015,2,0,P|130:148|121:181,1,64.9999976158143,2|2,0:0|0:0,0:0:0:0:
22,328,36215,2,0,B|92:353|76:297|162:321,1,129.999995231629,10|2,0:1|0:0,0:0:0:0:
288,236,36515,2,0,B|218:261|234:205|148:229,1,129.999995231629,2|0,0:0|0:0,0:0:0:0:
268,153,36815,2,0,L|368:164,1,64.9999976158143,2|0,0:0|0:0,0:0:0:0:
450,52,37015,6,0,L|466:218,1,129.999995231629,10|2,0:1|0:0,0:0:0:0:
386,286,37315,1,2,0:0:0:0:
386,286,37415,2,0,L|388:206,2,64.9999976158143,10|2|2,0:0|0:0|0:0,0:0:0:0:
489,380,37815,1,10,0:1:0:0:
494,368,37915,2,0,L|334:379,1,129.999995231629,2|0,0:0|0:0,0:0:0:0:
261,316,38215,1,10,0:0:0:0:
252,306,38315,1,0,0:0:0:0:
192,297,38415,1,2,0:0:0:0:
137,328,38515,1,2,0:0:0:0:
44,246,38615,6,0,P|116:256|147:204,1,129.999995231629,10|0,0:1|0:0,0:0:0:0:
131,94,38915,1,2,0:0:0:0:
58,140,39015,2,0,L|227:129,1,129.999995231629,10|0,0:0|0:0,0:0:0:0:
198,139,39415,2,0,L|301:146,2,64.9999976158143,10|0|2,0:1|0:0|0:0,0:0:0:0:
239,0,39715,1,0,0:0:0:0:
239,0,39815,2,0,L|250:73,1,64.9999976158143,10|0,0:0|0:0,0:0:0:0:
333,193,40015,2,0,L|346:91,1,64.9999976158143,2|0,0:0|0:0,0:0:0:0:
485,56,40215,5,10,0:1:0:0:
454,137,40315,2,0,P|464:248|469:296,2,129.999995231629,0|0|0,0:0|0:0|0:0,0:0:0:0:
379,317,40815,2,0,P|394:228|411:209,1,64.9999976158143,2|2,0:0|0:0,0:0:0:0:
428,375,41015,2,0,P|324:350|268:379,1,129.999995231629,10|2,0:1|0:0,0:0:0:0:
155,165,41315,1,2,0:0:0:0:
163,238,41415,1,10,0:0:0:0:
177,314,41515,1,0,0:0:0:0:
177,314,41615,2,0,L|268:307,1,64.9999976158143,0|2,0:0|0:0,0:0:0:0:
42,382,41815,6,0,L|48:199,1,162.499994039536,10|2,0:1|0:0,0:0:0:0:
148,100,42115,2,0,L|158:197,1,64.9999976158143,2|8,0:0|0:0,0:0:0:0:
58,86,42315,1,2,0:0:0:0:
58,86,42415,2,0,P|101:26|125:23,1,64.9999976158143,0|2,0:0|0:0,0:0:0:0:
221,55,42615,2,0,B|306:66|246:10|391:28,1,129.999995231629,10|2,0:1|0:0,0:0:0:0:
420,125,42915,2,0,P|361:96|323:98,1,64.9999976158143,2|8,0:0|0:0,0:0:0:0:
279,210,43115,1,2,0:0:0:0:
279,210,43215,2,0,P|352:186|388:196,1,64.9999976158143,0|2,0:0|0:0,0:0:0:0:
432,339,43415,6,0,P|369:278|289:299,1,129.999995231629,10|0,0:1|0:0,0:0:0:0:
208,374,43715,2,0,P|277:362|377:365,1,129.999995231629,2|0,0:0|0:0,0:0:0:0:
256,289,44015,2,0,P|216:297|177:307,1,64.9999976158143,2|0,0:0|0:0,0:0:0:0:
104,352,44215,2,0,P|23:332|25:267,1,129.999995231629,10|0,0:1|0:0,0:0:0:0:
71,57,44515,1,2,0:0:0:0:
86,58,44615,2,0,B|93:122|93:122|90:151|90:151|99:258,1,162.499994039536,8|2,0:0|0:0,0:0:0:0:
95,219,45015,6,0,L|206:225,1,77.9999947586062,10|0,0:1|0:0,0:0:0:0:
302,141,45215,2,0,L|177:145,1,77.9999947586062,0|2,0:0|0:0,0:0:0:0:
253,375,45415,2,0,L|267:193,1,155.999989517212,10|2,0:0|0:0,0:0:0:0:
279,44,45715,1,0,0:3:0:0:
301,140,45815,2,0,P|370:167|432:116,2,155.999989517212,10|2|10,0:1|0:0|0:0,0:0:0:0:
203,0,46415,1,2,0:0:0:0:
90,128,46615,5,8,0:1:0:0:
101,131,46681,1,2,0:0:0:0:
112,134,46748,1,2,0:0:0:0:
122,137,46815,2,0,L|144:278,1,77.9999947586062,2|2,0:0|0:0,0:0:0:0:
16,313,47015,2,0,P|56:280|98:283,1,77.9999947586062,8|8,0:0|0:0,0:0:0:0:
126,366,47215,2,0,L|101:363,4,25.9999982528687,8|2|2|8|2,0:0|0:0|0:0|0:0|0:0,0:0:0:0:
170,292,47415,5,8,0:1:0:0:
221,242,47515,1,2,0:0:0:0:
292,235,47615,1,2,0:0:0:0:
352,273,47715,1,2,0:0:0:0:
375,340,47815,5,8,0:1:0:0:
348,313,47915,1,8,0:1:0:0:
339,276,48015,1,8,0:1:0:0:
350,239,48115,1,8,0:1:0:0:
381,213,48215,6,0,B|474:219|474:219|512:175,1,129.999995231629,14|0,0:1|0:0,0:0:0:0:
426,137,48515,2,0,L|241:128,2,129.999995231629,2|0|0,0:0|0:0|0:0,0:0:0:0:
448,65,49015,2,0,L|348:57,1,64.9999976158143,8|0,0:1|0:0,0:0:0:0:
144,79,49215,1,2,0:0:0:0:
147,110,49315,1,0,0:0:0:0:
152,142,49415,1,8,0:0:0:0:
156,172,49515,1,2,0:0:0:0:
160,204,49615,1,2,0:0:0:0:
30,346,49815,6,0,P|21:281|79:238,1,129.999995231629,10|0,0:1|0:0,0:0:0:0:
218,333,50115,2,0,P|154:311|49:313,2,129.999995231629,2|0|0,0:0|0:0|0:0,0:0:0:0:
276,249,50615,2,0,P|324:319|449:286,1,194.999992847443,8|0,0:1|0:0,0:0:0:0:
391,119,51015,1,8,0:0:0:0:
388,133,51115,1,0,0:0:0:0:
385,148,51215,1,0,0:0:0:0:
382,163,51315,1,0,0:0:0:0:
364,241,51415,6,0,L|355:86,1,129.999995231629,10|0,0:1|0:0,0:0:0:0:
280,45,51715,2,0,L|270:180,2,129.999995231629,2|0|0,0:0|0:0|0:0,0:0:0:0:
35,70,52215,2,0,P|85:125|155:89,1,129.999995231629,8|2,0:1|0:0,0:0:0:0:
140,23,52515,1,0,0:0:0:0:
150,19,52615,2,0,L|161:187,1,129.999995231629,8|0,0:0|0:0,0:0:0:0:
111,339,53015,6,0,P|56:317|45:294,1,64.9999976158143,10|0,0:1|0:0,0:0:0:0:
114,254,53215,1,0,0:0:0:0:
121,263,53315,2,0,B|193:278|158:229|255:245,1,129.999995231629,2|0,0:0|0:0,0:0:0:0:
301,374,53615,2,0,P|319:285|323:268,1,64.9999976158143,2|0,0:0|0:0,0:0:0:0:
360,171,53815,2,0,P|378:260|382:277,1,64.9999976158143,10|0,0:1|0:0,0:0:0:0:
462,359,54015,2,0,P|456:327|449:295,1,64.9999976158143,2|0,0:0|0:0,0:0:0:0:
364,158,54215,2,0,P|382:247|386:264,1,64.9999976158143,10|0,0:0|0:0,0:0:0:0:
291,384,54415,2,0,P|309:295|313:278,1,64.9999976158143,2|0,0:0|0:0,0:0:0:0:
252,118,54615,6,0,B|217:187|276:182|243:246,1,129.999995231629,10|0,0:1|0:0,0:0:0:0:
154,354,54915,2,0,L|165:194,2,129.999995231629,2|0|0,0:0|0:0|0:0,0:0:0:0:
15,205,55415,1,8,0:1:0:0:
27,216,55515,2,0,L|34:295,2,64.9999976158143,0|2|0,0:0|0:0|0:0,0:0:0:0:
13,107,55815,1,8,0:0:0:0:
11,94,55915,1,0,0:0:0:0:
9,84,56015,1,0,0:0:0:0:
114,17,56215,6,0,P|199:30|215:87,1,129.999995231629,10|0,0:1|0:0,0:0:0:0:
142,212,56515,2,0,P|146:139|144:62,1,129.999995231629,2|0,0:0|0:0,0:0:0:0:
279,54,56815,2,0,L|179:67,1,64.9999976158143,2|0,0:0|0:0,0:0:0:0:
268,136,57015,2,0,L|444:148,1,129.999995231629,8|2,0:1|0:0,0:0:0:0:
411,284,57315,1,0,0:0:0:0:
421,279,57415,2,0,L|426:204,1,64.9999976158143,8|0,0:0|0:0,0:0:0:0:
494,309,57615,2,0,L|499:234,1,64.9999976158143,0|0,0:0|0:0,0:0:0:0:
376,383,57815,5,10,0:1:0:0:
315,333,57915,1,2,0:0:0:0:
245,367,58015,1,0,0:0:0:0:
245,367,58115,2,0,P|162:344|142:345,1,90.9999938850405,2|8,0:0|0:1,0:0:0:0:
0,303,58315,2,0,P|45:297|86:280,1,90.9999938850405,2|0,0:0|0:0,0:0:0:0:
220,175,58515,2,0,P|152:277|126:290,1,90.9999938850405,2|8,0:0|0:0,0:0:0:0:
68,368,58715,2,0,P|112:232|131:208,1,90.9999938850405,2|0,0:0|0:0,0:0:0:0:
122,85,58915,2,0,P|147:199|186:264,1,181.999987770081,2|0,0:0|0:0,0:0:0:0:
332,348,59215,2,0,P|214:392|208:399,1,90.9999938850405,0|0,0:0|0:1,0:0:0:0:
279,234,59415,5,8,0:1:0:0:
343,272,59515,1,0,0:0:0:0:
407,233,59615,1,0,0:0:0:0:
403,158,59715,1,0,0:0:0:0:
335,126,59815,1,8,0:1:0:0:
272,158,59915,1,0,0:0:0:0:
204,124,60015,2,0,L|189:13,1,90.9999938850405,0|0,0:0|0:0,0:0:0:0:
96,261,60215,2,0,L|116:116,1,90.9999938850405,10|0,0:1|0:0,0:0:0:0:
294,239,60415,6,0,L|153:249,1,90.9999938850405,0|0,0:0|0:0,0:0:0:0:
0,95,60615,2,0,L|90:88,1,90.9999938850405,10|0,0:0|0:0,0:0:0:0:
337,48,60815,1,0,0:0:0:0:
337,48,60865,1,0,0:0:0:0:
337,48,60915,2,0,L|333:110,1,32.4999988079071,0|0,0:0|0:0,0:0:0:0:
389,317,61015,6,0,B|436:240|348:232|418:119,1,168.999986064912,14|0,0:1|0:0,0:0:0:0:
231,180,61315,2,0,B|278:257|190:265|260:378,1,168.999986064912,2|0,0:0|0:0,0:0:0:0:
475,251,61615,2,0,B|363:231|363:231|303:269,1,168.999986064912,2|8,0:0|0:1,0:0:0:0:
54,230,61915,2,0,P|98:303|106:336,1,84.4999930324558,0|0,0:0|0:0,0:0:0:0:
187,110,62115,1,0,0:0:0:0:
187,110,62215,2,0,P|143:183|135:216,1,84.4999930324558,10|0,0:0|0:0,0:0:0:0:
11,57,62415,2,0,P|103:63|140:57,1,84.4999930324558,2|0,0:0|0:0,0:0:0:0:
358,43,62615,6,0,P|251:38|151:15,1,168.999986064912,10|0,0:1|0:0,0:0:0:0:
274,273,62915,2,0,P|339:188|415:119,1,168.999986064912,2|0,0:0|0:0,0:0:0:0:
108,96,63215,2,0,P|139:198|152:300,1,168.999986064912,2|8,0:0|0:1,0:0:0:0:
420,384,63615,2,0,P|335:350|300:361,1,84.4999930324558,0|0,0:0|0:0,0:0:0:0:
355,272,63815,2,0,P|436:294|492:356,1,168.999986064912,10|2,0:0|0:0,0:0:0:0:
112,339,64215,5,10,0:1:0:0:
112,339,64315,2,0,P|191:335|216:307,1,84.4999930324558,2|0,0:0|0:0,0:0:0:0:
270,233,64515,2,0,P|277:326|306:354,1,84.4999930324558,2|8,0:0|0:0,0:0:0:0:
438,266,64715,2,0,P|329:284|302:303,1,84.4999930324558,2|0,0:0|0:0,0:0:0:0:
335,173,64915,1,0,0:0:0:0:
335,173,65015,2,0,P|435:166|463:102,1,168.999986064912,10|2,0:1|0:0,0:0:0:0:
340,24,65315,2,0,P|372:98|400:124,1,84.4999930324558,2|8,0:0|0:0,0:0:0:0:
173,99,65515,2,0,P|294:82|318:87,1,84.4999930324558,2|0,0:0|0:0,0:0:0:0:
160,10,65715,1,0,0:0:0:0:
160,10,65815,6,0,P|93:37|129:170,1,168.999986064912,10|2,0:1|0:0,0:0:0:0:
127,296,66115,2,0,P|146:204|161:156,1,84.4999930324558,2|8,0:0|0:0,0:0:0:0:
14,291,66315,2,0,P|59:365|66:382,1,84.4999930324558,2|0,0:0|0:0,0:0:0:0:
203,375,66515,2,0,B|304:393|243:329|379:349,1,168.999986064912,2|2,0:0|0:0,0:0:0:0:
437,262,66815,1,8,0:0:0:0:
437,262,66915,2,0,P|461:181|488:146,1,84.4999930324558,8|10,0:0|0:1,0:0:0:0:
340,105,67115,5,8,0:1:0:0:
294,125,67215,5,10,0:1:0:0:
271,115,67315,5,8,0:1:0:0:
259,124,67415,6,0,P|171:105|45:106,1,168.999986064912,10|0,0:1|0:0,0:0:0:0:
187,373,67715,2,0,P|253:311|324:208,1,168.999986064912,2|0,0:0|0:0,0:0:0:0:
18,167,68015,2,0,P|31:255|77:373,1,168.999986064912,2|8,0:0|0:1,0:0:0:0:
395,133,68415,1,2,0:0:0:0:
438,158,68515,1,0,0:0:0:0:
443,208,68615,2,0,B|430:253|430:253|386:294,1,84.4999930324558,10|0,0:0|0:0,0:0:0:0:
269,195,68815,2,0,P|354:201|421:187,1,84.4999930324558,2|0,0:0|0:0,0:0:0:0:
310,360,69015,6,0,P|327:242|376:175,1,168.999986064912,10|0,0:1|0:0,0:0:0:0:
394,42,69315,2,0,P|389:125|352:201,1,168.999986064912,2|0,0:0|0:0,0:0:0:0:
293,354,69615,2,0,P|322:238|377:176,1,168.999986064912,2|8,0:0|0:1,0:0:0:0:
86,28,70015,1,0,0:0:0:0:
96,41,70115,1,0,0:0:0:0:
103,57,70215,2,0,P|111:114|79:170,1,84.4999930324558,10|0,0:0|0:0,0:0:0:0:
53,283,70415,2,0,P|95:243|159:237,1,84.4999930324558,2|0,0:0|0:0,0:0:0:0:
286,184,70615,5,10,0:1:0:0:
274,192,70715,2,0,P|217:180|176:130,1,84.4999930324558,2|0,0:0|0:0,0:0:0:0:
115,53,70915,2,0,P|123:110|91:166,1,84.4999930324558,2|8,0:0|0:0,0:0:0:0:
193,341,71115,2,0,P|185:284|217:228,2,84.4999930324558,2|0|0,0:0|0:0|0:0,0:0:0:0:
422,204,71415,6,0,B|415:273|415:273|429:298|429:298|423:369,1,168.999986064912,10|2,0:1|0:0,0:0:0:0:
328,298,71715,2,0,L|344:179,1,84.4999930324558,2|8,0:0|0:0,0:0:0:0:
410,39,71915,2,0,L|425:143,1,84.4999930324558,2|0,0:0|0:0,0:0:0:0:
238,95,72115,1,0,0:0:0:0:
248,104,72215,6,0,L|361:107,1,84.4999930324558,10|0,0:1|0:0,0:0:0:0:
198,30,72415,1,2,0:0:0:0:
198,30,72515,2,0,B|89:29|141:91|39:84,2,168.999986064912,2|2|2,0:0|0:0|0:0,0:0:0:0:
332,106,73015,5,8,0:1:0:0:
335,117,73081,1,2,0:0:0:0:
338,128,73148,1,2,0:0:0:0:
342,138,73215,2,0,L|454:117,1,84.4999930324558,2|0,0:0|0:0,0:0:0:0:
437,215,73415,5,8,0:0:0:0:
454,261,73515,5,8,0:1:0:0:
438,287,73615,5,10,0:1:0:0:
451,305,73715,5,8,0:1:0:0:
447,316,73815,6,0,B|346:304|388:374|271:347,1,168.999986064912,14|0,0:1|0:0,0:0:0:0:
127,384,74115,2,0,B|220:395|186:326|303:353,1,168.999986064912,2|0,0:0|0:0,0:0:0:0:
449,327,74415,2,0,B|349:307|386:380|271:345,1,168.999986064912,2|8,0:0|0:1,0:0:0:0:
71,134,74815,1,0,0:0:0:0:
75,147,74915,1,0,0:0:0:0:
78,161,75015,2,0,L|88:268,1,84.4999930324558,10|0,0:0|0:0,0:0:0:0:
258,183,75215,2,0,L|127:195,1,84.4999930324558,2|0,0:0|0:0,0:0:0:0:
162,85,75415,6,0,B|278:73|278:73|342:119,1,168.999986064912,10|0,0:1|0:0,0:0:0:0:
462,49,75715,2,0,L|326:35,1,84.4999930324558,2|8,0:0|0:0,0:0:0:0:
392,182,75915,1,0,0:0:0:0:
443,127,76015,2,0,B|493:152|472:222|472:222|449:334,2,168.999986064912,2|8|0,0:0|0:1|0:0,0:0:0:0:
348,278,76515,1,0,0:0:0:0:
348,278,76615,2,0,P|282:209|224:211,2,84.4999930324558,10|0|2,0:0|0:0|0:0,0:0:0:0:
40,358,77015,6,0,P|92:321|149:324,1,84.4999930324558,10|2,0:1|0:0,0:0:0:0:
126,231,77215,1,0,0:0:0:0:
126,231,77315,2,0,P|208:257|237:251,1,84.4999930324558,2|8,0:0|0:0,0:0:0:0:
234,338,77515,2,0,P|254:228|305:214,1,168.999986064912,2|0,0:0|0:0,0:0:0:0:
400,29,77815,1,10,0:1:0:0:
402,40,77915,2,0,L|412:178,1,84.4999930324558,2|0,0:0|0:0,0:0:0:0:
449,291,78115,2,0,L|455:206,1,84.4999930324558,2|8,0:0|0:0,0:0:0:0:
504,28,78315,2,0,L|494:166,1,84.4999930324558,2|0,0:0|0:0,0:0:0:0:
469,307,78515,5,0,0:0:0:0:
469,307,78615,2,0,L|475:222,1,84.4999930324558,10|0,0:1|0:0,0:0:0:0:
270,249,78815,2,0,L|399:267,1,84.4999930324558,2|0,0:0|0:0,0:0:0:0:
262,353,79015,1,10,0:0:0:0:
262,353,79115,2,0,B|136:371|136:371|79:341,1,168.999986064912,2|2,0:0|0:0,0:0:0:0:
153,198,79415,1,8,0:1:0:0:
153,198,79515,2,0,L|160:328,1,84.4999930324558,2|8,0:0|0:0,0:0:0:0:
32,211,79715,5,8,0:0:0:0:
64,161,79815,5,10,0:1:0:0:
35,127,79915,5,8,0:1:0:0:
54,105,80015,5,10,0:1:0:0:
41,91,80115,5,8,0:1:0:0:
46,85,80215,6,0,B|131:117|83:37|225:39|192:131|295:82,1,253.499979097367,10|0,0:1|0:0,0:0:0:0:
309,157,80615,2,0,P|198:159|171:142,1,84.4999930324558,8|0,0:0|0:0,0:0:0:0:
354,228,80815,2,0,P|396:148|397:117,1,84.4999930324558,2|0,0:0|0:0,0:0:0:0:
247,276,81015,2,0,P|345:257|382:332,1,168.999986064912,8|0,0:1|0:0,0:0:0:0:
306,376,81315,1,0,0:0:0:0:
316,378,81415,2,0,L|435:387,1,84.4999930324558,10|0,0:0|0:0,0:0:0:0:
161,378,81615,2,0,L|42:387,1,84.4999930324558,2|0,0:0|0:0,0:0:0:0:
193,61,81815,6,0,B|273:118|188:147|296:222,1,168.999986064912,10|0,0:1|0:0,0:0:0:0:
28,220,82115,2,0,B|28:121|101:174|100:43,1,168.999986064912,2|0,2:0|0:0,0:0:0:0:
230,281,82415,2,0,B|149:336|150:246|43:322,2,168.999986064912,2|8|0,2:0|0:1|2:0,0:0:0:0:
282,376,82915,1,0,0:0:0:0:
282,376,83015,2,0,P|351:341|388:359,1,84.4999930324558,10|0,0:0|0:0,0:0:0:0:
466,236,83215,2,0,P|373:257|351:240,1,84.4999930324558,2|0,0:0|0:0,0:0:0:0:
284,18,83415,6,0,B|306:97|306:97|284:182|284:182|306:298,1,253.499979097367,10|0,0:1|0:0,0:0:0:0:
310,271,83815,2,0,B|294:188|294:188|316:103|316:103|294:24,1,253.499979097367,10|0,0:0|0:0,0:0:0:0:
37,64,84215,2,0,B|19:138|102:176|155:138|155:138|165:184|210:195,1,253.499979097367,10|0,0:1|0:0,0:0:0:0:
168,348,84615,2,0,L|173:246,1,84.4999930324558,10|0,0:0|0:0,0:0:0:0:
108,76,84815,2,0,L|115:210,1,84.4999930324558,0|0,0:0|0:0,0:0:0:0:
257,365,85015,6,0,L|266:294,2,56.3333286883039,10|2|2,0:1|0:0|0:0,0:0:0:0:
276,368,85215,2,0,L|267:267,1,84.4999930324558,2|2,0:0|0:0,0:0:0:0:
361,294,85415,2,0,L|372:377,1,84.4999930324558,10|2,0:2|0:0,0:0:0:0:
384,307,85615,2,0,L|380:371,2,56.3333286883039,2|2|2,0:1|0:0|0:0,0:0:0:0:
423,347,85815,6,0,L|426:248,1,84.4999930324558,10|2,0:1|0:0,0:0:0:0:
432,48,86015,2,0,L|426:151,1,84.4999930324558,2|0,0:0|0:0,0:0:0:0:
355,204,86215,2,0,B|231:194|310:265|161:236,1,168.999986064912,10|2,0:0|0:0,0:0:0:0:
143,121,86615,6,0,B|139:-141|-87:364|114:187,1,382.19997431717,14|0,0:1|0:0,0:0:0:0:
