osu file format v14

[General]
AudioFilename: 08. La viuda de O`Brian.mp3
AudioLeadIn: 0
PreviewTime: 137918
Countdown: 0
SampleSet: Normal
StackLeniency: 0.7
Mode: 0
LetterboxInBreaks: 1
WidescreenStoryboard: 1

[Editor]
Bookmarks: 51194
DistanceSpacing: 1.2
BeatDivisor: 2
GridSize: 8
TimelineZoom: 2.399999

[Metadata]
Title:La viuda de O'Brian
TitleUnicode:La viuda de O'Brian
Artist:Mago de Oz
ArtistUnicode:Mägo de Oz
Creator:Xanandra
Version:La Relajada
Source:
Tags:CSLM Gero Ilussia
BeatmapID:1263358
BeatmapSetID:597619

[Difficulty]
HPDrainRate:1
CircleSize:2
OverallDifficulty:2
ApproachRate:3
SliderMultiplier:0.9
SliderTickRate:1

[Events]
//Background and Video events
0,0,"red_hair_by_zsuzsu12-d4m7who.jpg",0,0
//Break Periods
//Storyboard Layer 0 (Background)
//Storyboard Layer 1 (Fail)
//Storyboard Layer 2 (Pass)
//Storyboard Layer 3 (Foreground)
//Storyboard Sound Samples

[TimingPoints]
160,344.827586206897,4,2,1,25,1,0
1392,344.827586206897,4,2,1,50,1,0
1506,344.827586206897,4,2,1,50,1,0
3607,344.827586206897,4,2,1,50,1,0
4296,344.827586206897,4,2,1,50,1,0
100847,-100,4,1,3,50,0,0
110502,-100,4,1,1,35,0,0
111882,-100,4,1,2,50,0,0
116020,-100,4,1,3,50,0,0
117399,-100,4,1,2,50,0,0
121537,-100,4,1,3,50,0,0
124296,-100,4,1,2,50,0,1
124382,-100,4,1,2,50,0,0
138089,-100,4,1,2,50,0,1
149037,-100,4,1,2,50,0,0
149123,-100,4,1,2,50,0,1
162916,-100,4,1,2,50,0,0

[Colours]
Combo1 : 215,215,215
Combo2 : 255,0,0
Combo3 : 192,192,192
Combo4 : 255,100,100

[HitObjects]
436,41,27744,5,4,0:0:0:0:
500,206,28433,1,4,0:0:0:0:
350,306,29123,2,0,P|230:286|157:309,1,180,4|4,0:0|0:0,0:0:0:0:
37,185,30502,5,4,0:0:0:0:
131,31,31192,1,4,0:0:0:0:
295,105,31882,2,0,P|335:199|334:287,1,180,4|4,0:0|0:0,0:0:0:0:
188,379,33261,5,4,0:0:0:0:
35,283,33951,1,4,0:0:0:0:
148,144,34640,2,0,P|237:118|315:55,1,180,4|4,0:0|0:0,0:0:0:0:
381,229,36020,5,4,0:0:0:0:
270,371,36709,1,4,0:0:0:0:
97,318,37399,2,0,P|46:326|-7:314,2,90,0|4|4,0:0|0:0|0:0,0:0:0:0:
109,138,38778,5,4,0:0:0:0:
269,55,39468,1,4,0:0:0:0:
436,120,40158,2,0,P|490:97|519:63,2,90,0|4|4,0:0|0:0|0:0,0:0:0:0:
304,242,41537,6,0,P|221:212|163:144,1,180,14|2,0:0|0:0,0:0:0:0:
341,114,42916,2,0,P|424:144|482:212,1,180,10|2,0:0|0:0,0:0:0:0:
331,311,44296,6,0,L|151:350,1,180,10|2,0:0|0:0,0:0:0:0:
88,181,45675,2,0,L|268:142,1,180,10|2,0:0|0:0,0:0:0:0:
438,193,47054,6,0,P|434:89|379:23,1,180,10|2,0:0|0:0,0:0:0:0:
309,192,48433,2,0,P|313:296|368:362,1,180,10|2,0:0|0:0,0:0:0:0:
183,304,49813,6,0,L|-6:335,1,180,10|2,0:0|0:0,0:0:0:0:
82,170,51192,2,0,L|271:139,1,180,10|2,0:0|0:0,0:0:0:0:
422,63,52571,6,0,L|437:251,1,180,10|2,0:0|0:0,0:0:0:0:
277,327,53951,2,0,P|180:292|132:220,1,180,10|2,0:0|0:0,0:0:0:0:
178,55,55330,6,0,L|294:25,1,90,2|12,0:0|0:0,0:0:0:0:
353,50,56020,2,0,P|437:151|435:244,1,180,2|2,0:0|0:0,0:0:0:0:
371,250,57054,1,12,0:0:0:0:
403,334,57399,1,2,0:0:0:0:
222,335,58089,6,0,L|112:353,1,90,2|12,0:0|0:0,0:0:0:0:
70,284,58778,2,0,P|57:201|-9:122,1,180,2|2,0:0|0:0,0:0:0:0:
16,38,59813,1,14,0:0:0:0:
93,83,60158,1,2,0:0:0:0:
238,188,60847,6,0,P|272:157|299:106,1,90,2|12,0:0|0:0,0:0:0:0:
381,94,61537,2,0,P|470:182|483:268,1,180,2|2,0:0|0:0,0:0:0:0:
509,317,62571,1,14,0:0:0:0:
437,371,62916,1,2,0:0:0:0:
257,380,63606,5,2,0:0:0:0:
81,341,64296,1,2,0:0:0:0:
153,177,64985,2,0,P|121:141|64:124,2,90,2|14|8,0:0|0:0|0:0,0:0:0:0:
267,316,66364,5,6,0:0:0:0:
356,324,66709,2,0,P|432:280|475:202,2,180,12|12|14,0:0|0:0|0:0,0:0:0:0:
307,151,68778,1,12,0:0:0:0:
261,74,69123,5,2,0:0:0:0:
173,95,69468,2,0,P|80:73|-3:18,2,180,12|12|14,0:0|0:0|0:0,0:0:0:0:
129,270,71537,1,12,0:0:0:0:
185,340,71882,5,2,0:0:0:0:
259,290,72227,2,0,P|384:325|422:359,2,180,12|12|14,0:0|0:0|0:0,0:0:0:0:
211,117,74296,1,12,0:0:0:0:
274,54,74640,5,2,0:0:0:0:
356,91,74985,2,0,P|419:164|513:197,1,180,12|12,0:0|0:0,0:0:0:0:
411,354,76364,2,0,L|359:279,1,90,14|8,0:0|0:0,0:0:0:0:
285,229,77054,1,8,0:0:0:0:
194,230,77399,5,2,0:0:0:0:
27,293,78089,1,2,0:0:0:0:
56,116,78778,1,2,0:0:0:0:
28,31,79123,1,10,0:0:0:0:
116,48,79468,1,12,0:0:0:0:
291,8,80158,6,0,P|370:62|464:87,1,180,8|2,0:0|0:0,0:0:0:0:
455,266,81537,1,2,0:0:0:0:
366,249,81882,2,0,P|287:195|193:170,1,180,12|8,0:0|0:0,0:0:0:0:
118,189,82916,6,0,P|51:258|10:346,1,180,2|2,0:0|0:0,0:0:0:0:
188,376,84296,1,2,0:0:0:0:
234,299,84640,2,0,L|445:301,1,180,12|8,0:0|0:0,0:0:0:0:
503,291,85675,1,2,0:0:0:0:
508,202,86020,6,0,P|457:83|318:12,1,270,8|2,0:0|0:0,0:0:0:0:
279,82,87399,2,0,P|158:34|8:73,1,270,12|2,0:0|0:0,0:0:0:0:
1,149,88778,6,0,P|81:251|230:293,1,270,12|2,0:0|0:0,0:0:0:0:
227,380,90158,2,0,L|427:362,1,180,8|8,0:0|0:0,0:0:0:0:
470,302,91192,5,6,0:0:0:0:
400,245,91537,1,12,0:0:0:0:
510,103,92227,1,8,0:0:0:0:
331,78,92916,1,12,0:0:0:0:
164,147,93606,6,0,P|121:119|93:76,2,90,8|2|12,0:0|0:0|0:0,0:0:0:0:
107,319,94985,1,8,0:0:0:0:
281,364,95675,1,12,0:0:0:0:
408,237,96364,6,0,P|462:246|507:274,2,90,8|2|12,0:0|0:0|0:0,0:0:0:0:
263,129,97744,1,8,0:0:0:0:
225,304,98433,1,12,0:0:0:0:
83,192,99123,6,0,P|28:205|-6:228,2,90,8|2|12,0:0|0:0|0:0,0:0:0:0:
218,73,100502,1,8,0:0:0:0:
292,23,100847,5,12,0:0:0:0:
494,172,102227,5,12,0:0:0:0:
273,283,103606,5,12,0:0:0:0:
508,371,104985,5,8,0:0:0:0:
480,248,105675,1,8,0:0:0:0:
381,326,106364,5,12,0:0:0:0:
88,234,107744,5,8,0:0:0:0:
293,89,109123,5,12,0:0:0:0:
88,234,111537,5,8,0:0:0:0:
166,279,111882,6,0,P|203:315|220:368,2,90,4|8|4,0:0|0:0|0:0,0:0:0:0:
130,103,113261,2,0,P|80:89|25:101,2,90,4|8|4,0:0|0:0|0:0,0:0:0:0:
294,176,114640,2,0,P|344:164|385:126,2,90,4|8|4,0:0|0:0|0:0,0:0:0:0:
126,110,116020,6,0,L|142:293,1,180,4|4,0:0|0:0,0:0:0:0:
301,372,117399,6,0,P|350:357|380:328,2,90,4|8|4,0:0|0:0|0:0,0:0:0:0:
136,297,118778,2,0,P|87:312|57:341,2,90,4|8|4,0:0|0:0|0:0,0:0:0:0:
199,128,120158,2,0,P|210:79|200:38,2,90,4|8|4,0:0|0:0|0:0,0:0:0:0:
273,292,121537,6,0,P|361:319|437:369,2,180
484,94,124296,5,8,0:3:0:0:
316,29,124985,1,8,0:3:0:0:
163,126,125675,5,8,0:3:0:0:
187,305,126364,2,0,P|148:340|91:353,2,90,8|8|8,0:3|0:0|0:3,0:0:0:0:
364,335,127744,5,8,0:3:0:0:
475,195,128433,1,8,0:3:0:0:
327,92,129123,2,0,P|332:47|356:3,2,90,8|8|8,0:3|0:0|0:3,0:0:0:0:
217,235,130502,5,8,0:3:0:0:
74,126,131192,1,8,0:3:0:0:
76,307,131882,2,0,P|47:340|2:364,2,90,8|8|8,0:3|0:0|0:3,0:0:0:0:
245,369,133261,5,8,0:3:0:0:
400,279,133951,2,0,P|389:222|365:185,1,90,8|8,0:3|0:0,0:0:0:0:
317,124,134640,2,0,P|266:96|222:91,1,90,8|8,0:3|0:0,0:0:0:0:
145,97,135330,5,8,0:3:0:0:
76,264,136020,1,8,0:3:0:0:
235,347,136709,5,8,0:3:0:0:
325,347,137054,2,0,P|399:300|438:220,1,180,8|8,0:0|0:0,0:0:0:0:
427,112,138089,6,0,P|391:85|346:76,1,90,8|8,0:3|0:0,0:0:0:0:
322,182,138778,2,0,P|278:173|241:146,1,90,8|8,0:3|0:0,0:0:0:0:
211,45,139468,2,0,P|118:71|51:154,1,180,8|8,0:3|0:3,0:0:0:0:
132,344,140847,6,0,L|111:241,1,90,8|8,0:3|0:0,0:0:0:0:
202,187,141537,2,0,L|224:290,1,90,8|8,0:3|0:0,0:0:0:0:
320,328,142227,2,0,P|399:265|411:170,1,180,8|8,0:3|0:3,0:0:0:0:
213,93,143606,6,0,L|116:103,1,90,8|8,0:3|0:0,0:0:0:0:
75,203,144296,2,0,L|172:193,1,90,8|8,0:3|0:0,0:0:0:0:
278,206,144985,2,0,P|352:246|400:339,1,180,8|8,0:3|0:3,0:0:0:0:
452,117,146364,6,0,L|335:126,1,90,8|8,0:3|0:0,0:0:0:0:
286,42,147054,2,0,L|170:51,1,90,8|8,0:3|0:0,0:0:0:0:
104,114,147744,2,0,P|66:195|73:302,1,180,8|8,0:3|0:3,0:0:0:0:
284,238,149123,6,0,P|378:252|468:317,1,180,8|8,0:3|0:3,0:0:0:0:
444,79,150502,2,0,P|400:70|361:45,1,90,8|8,0:3|0:0,0:0:0:0:
265,98,151192,2,0,P|227:74|182:64,1,90,8|8,0:3|0:0,0:0:0:0:
98,136,151882,6,0,P|103:237|76:320,1,180,8|8,0:3|0:3,0:0:0:0:
290,250,153261,2,0,L|389:282,1,90,8|8,0:3|0:0,0:0:0:0:
389,168,153951,2,0,L|290:136,1,90,8|8,0:3|0:0,0:0:0:0:
237,51,154640,6,0,P|184:119|65:159,1,180,8|8,0:3|0:3,0:0:0:0:
238,327,156020,2,0,L|351:306,1,90,8|8,0:3|0:0,0:0:0:0:
334,200,156709,2,0,L|446:179,1,90,8|8,0:3|0:0,0:0:0:0:
456,77,157399,6,0,P|365:84|276:58,1,180,8|8,0:3|0:3,0:0:0:0:
89,177,158778,2,0,P|153:170|200:147,1,90,8|8,0:3|0:0,0:0:0:0:
268,228,159468,2,0,P|312:214|358:211,1,90,8|8,0:3|0:0,0:0:0:0:
424,301,160158,6,0,P|337:330|245:334,1,180,8|8,0:3|0:3,0:0:0:0:
105,163,161537,2,0,L|111:52,1,90,8|8,0:3|0:0,0:0:0:0:
219,47,162227,2,0,L|212:158,1,90,8|8,0:3|0:0,0:0:0:0:
252,244,162916,5,2,0:0:0:0:
430,112,163606,1,0,0:0:0:0:
219,47,164296,1,0,0:0:0:0:
234,269,164985,2,0,P|183:283|125:279,2,90,0|8|2,0:0|0:0|0:0,0:0:0:0:
449,326,166364,6,0,P|465:243|431:138,2,180
353,271,168089,1,8,0:0:0:0:
273,347,168433,6,0,L|89:331,1,180,2|0,0:0|0:0,0:0:0:0:
49,114,169813,2,0,L|234:130,1,180,0|2,0:0|0:0,0:0:0:0:
312,53,170847,1,8,0:0:0:0:
406,113,171192,6,0,P|400:209|436:311,1,180,2|2,0:0|0:0,0:0:0:0:
222,366,172571,2,0,P|196:339|133:321,2,90,0|8|0,0:0|0:0|0:0,0:0:0:0:
264,266,173606,1,0,0:0:0:0:
187,189,173951,6,0,P|222:125|340:85,1,180,2|2,0:0|0:0,0:0:0:0:
406,288,175330,2,0,L|299:279,1,90,0|8,0:0|0:0,0:0:0:0:
220,338,176020,2,0,L|112:329,1,90,0|8,0:0|0:0,0:0:0:0:
48,261,176709,6,0,P|68:174|145:101,1,180,2|2,0:0|0:0,0:0:0:0:
325,19,178089,2,0,L|519:29,1,180,2|2,0:0|0:0,0:0:0:0:
418,226,179468,6,0,L|224:216,1,180,2|2,0:0|0:0,0:0:0:0:
37,141,180847,2,0,P|27:224|71:325,1,180,2|2,0:0|0:0,0:0:0:0:
274,346,182227,6,0,L|468:356,1,180,2|2,0:0|0:0,0:0:0:0:
508,146,183606,2,0,P|493:85|374:13,1,180,2|2,0:0|0:0,0:0:0:0:
362,116,184640,1,8,0:3:0:0:
272,58,184985,6,0,L|89:63,1,180,2|2,0:0|0:0,0:0:0:0:
34,271,186364,2,0,L|217:266,1,180,2|2,0:0|0:0,0:0:0:0:
303,204,187399,1,2,0:0:0:0:
380,279,187744,6,0,P|444:217|466:131,1,180,2|2,0:0|0:0,0:0:0:0:
271,35,189123,2,0,P|208:98|186:184,1,180,2|2,0:0|0:0,0:0:0:0:
