osu file format v14

[General]
AudioFilename: 08. La viuda de O`Brian.mp3
AudioLeadIn: 0
PreviewTime: 137918
Countdown: 0
SampleSet: Soft
StackLeniency: 0.3
Mode: 0
LetterboxInBreaks: 1
WidescreenStoryboard: 0

[Editor]
Bookmarks: 27744,55330,80158,100847,124296,149123,168433,190502
DistanceSpacing: 1.5
BeatDivisor: 3
GridSize: 4
TimelineZoom: 2.1

[Metadata]
Title:La viuda de O'Brian
TitleUnicode:La viuda de O'Brian
Artist:Mago de Oz
ArtistUnicode:Mägo de Oz
Creator:Xanandra
Version:La Intensa de Xanero
Source:
Tags:CSLM Gero Ilussia
BeatmapID:1263353
BeatmapSetID:597619

[Difficulty]
HPDrainRate:7
CircleSize:4
OverallDifficulty:8
ApproachRate:9
SliderMultiplier:1.6
SliderTickRate:1

[Events]
//Background and Video events
0,0,"red_hair_by_zsuzsu12-d4m7who.jpg",0,0
//Break Periods
//Storyboard Layer 0 (Background)
//Storyboard Layer 1 (Fail)
//Storyboard Layer 2 (Pass)
//Storyboard Layer 3 (Foreground)
//Storyboard Sound Samples

[TimingPoints]
160,344.827586206897,4,2,1,25,1,0
1392,344.827586206897,4,2,1,50,1,0
1506,344.827586206897,4,2,1,50,1,0
3607,344.827586206897,4,2,1,50,1,0
4296,344.827586206897,4,2,1,50,1,0
100847,-100,4,1,3,50,0,0
110502,-100,4,1,3,35,0,0
111882,-100,4,1,2,50,0,0
116020,-100,4,1,3,50,0,0
117399,-100,4,1,2,50,0,0
121537,-100,4,1,3,50,0,0
122916,-200,4,1,3,50,0,0
124296,-80,4,1,2,50,0,1
124382,-80,4,1,2,50,0,0
138089,-83.3333333333333,4,1,2,50,0,1
149037,-83.3333333333333,4,1,2,50,0,0
149123,-83.3333333333333,4,1,2,50,0,1
162916,-80,4,1,2,50,0,0
189813,-149.253731343284,4,1,0,50,0,0
189834,-149.253731343284,4,1,0,10,0,0
190502,-149.253731343284,4,1,0,30,0,0

[Colours]
Combo1 : 215,215,215
Combo2 : 255,0,0
Combo3 : 192,192,192
Combo4 : 255,100,100

[HitObjects]
206,36,27744,6,0,P|256:20|306:36,1,106.666666666667,4|0,1:0|0:0,0:0:0:0:
256,120,28089,1,8,0:0:0:0:
32,242,28433,6,0,P|16:192|32:142,1,106.666666666667,4|0,0:0|0:0,0:0:0:0:
116,192,28778,1,8,0:0:0:0:
306,348,29123,6,0,P|256:364|206:348,1,106.666666666667,4|0,0:0|0:0,0:0:0:0:
256,264,29468,1,8,0:0:0:0:
480,142,29813,6,0,P|496:192|480:242,1,106.666666666667,4|0,0:0|0:0,0:0:0:0:
396,192,30158,1,8,0:0:0:0:
112,140,30502,6,0,B|100:192|100:192|112:244,1,106.666666666667,4|0,0:0|0:0,0:0:0:0:
192,192,30847,2,0,B|204:140|204:140|192:88,1,106.666666666667,8|0,0:0|0:0,0:0:0:0:
112,32,31192,1,4,0:0:0:0:
400,244,31422,1,0,0:0:0:0:
400,244,31537,1,8,0:0:0:0:
400,244,31882,6,0,B|412:192|412:192|400:140,1,106.666666666667,4|0,0:0|0:0,0:0:0:0:
320,192,32227,2,0,B|308:244|308:244|320:296,1,106.666666666667,8|0,0:0|0:0,0:0:0:0:
400,352,32571,1,4,0:0:0:0:
112,140,32801,1,0,0:0:0:0:
112,140,32916,1,8,0:0:0:0:
112,140,33261,6,0,P|96:90|112:40,1,106.666666666667,4|0,0:0|0:0,0:0:0:0:
212,188,33606,2,0,P|228:238|212:288,1,106.666666666667,8|0,0:0|0:0,0:0:0:0:
132,238,33951,2,0,L|200:90,1,160,4|8,0:0|0:0,0:0:0:0:
400,244,34525,1,0,0:0:0:0:
400,244,34640,6,0,P|416:294|400:344,1,106.666666666667,4|0,0:0|0:0,0:0:0:0:
300,196,34985,2,0,P|284:146|300:96,1,106.666666666667,8|0,0:0|0:0,0:0:0:0:
380,146,35330,2,0,L|312:294,1,160,4|8,0:0|0:0,0:0:0:0:
112,140,35905,1,0,0:0:0:0:
112,140,36020,6,0,P|96:90|112:40,1,106.666666666667,4|0,0:0|0:0,0:0:0:0:
193,90,36364,1,8,0:0:0:0:
306,368,36709,6,0,P|256:384|206:368,1,106.666666666667,4|0,0:0|0:0,0:0:0:0:
256,287,37054,1,8,0:0:0:0:
399,39,37399,6,0,P|416:89|400:140,1,106.666666666667,4|0,0:0|0:0,0:0:0:0:
336,208,37744,2,0,B|379:198|399:163|399:163|419:198|462:208,1,160,8|8,0:0|0:0,0:0:0:0:
113,345,38433,6,0,P|96:295|112:244,1,106.666666666667,4|0,0:0|0:0,0:0:0:0:
176,176,38778,2,0,B|133:186|113:221|113:221|93:186|50:176,1,160,4|8,0:0|0:0,0:0:0:0:
256,24,39353,5,0,0:0:0:0:
256,24,39468,1,4,0:0:0:0:
401,192,39698,1,0,0:0:0:0:
401,192,39813,1,8,0:0:0:0:
256,360,40043,1,0,0:0:0:0:
256,360,40158,1,4,0:0:0:0:
111,192,40387,1,0,0:0:0:0:
111,192,40502,6,0,B|159:169|159:169|207:192,1,106.666666666667,8|0,0:0|0:0,0:0:0:0:
305,192,40847,2,0,B|353:169|353:169|401:192,1,106.666666666667,4|0,0:0|0:0,0:0:0:0:
464,116,41192,1,4,0:0:0:0:
304,339,41537,6,0,P|256:359|208:339,1,106.666666666667,4|0,1:0|0:0,0:0:0:0:
352,232,41882,2,0,P|400:212|448:232,1,106.666666666667,8|0,0:0|0:0,0:0:0:0:
377,309,42227,2,0,L|280:264,1,106.666666666667,4|0,0:0|0:0,0:0:0:0:
216,192,42571,5,8,0:0:0:0:
84,52,42801,1,0,0:0:0:0:
84,52,42916,2,0,B|112:20|152:20|152:20|184:20,1,106.666666666667,4|0,0:0|0:0,0:0:0:0:
300,112,43261,2,0,B|280:132|256:142|256:142|232:132|212:112,1,106.666666666667,8|0,0:0|0:0,0:0:0:0:
330,20,43606,2,0,B|360:20|360:20|400:20|428:52,1,106.666666666667,4|0,0:0|0:0,0:0:0:0:
496,120,43951,1,8,0:0:0:0:
400,244,44123,2,0,L|388:264,2,20,4|4|4,0:0|0:0|0:0,0:0:0:0:
356,252,44296,6,0,L|460:284,1,106.666666666667,4|0,0:0|0:0,0:0:0:0:
308,336,44640,2,0,L|204:304,1,106.666666666667,12|0,0:0|0:0,0:0:0:0:
116,344,44985,1,4,0:0:0:0:
0,192,45215,1,0,0:0:0:0:
0,192,45330,2,0,P|-16:142|0:92,1,106.666666666667,8|0,0:0|0:0,0:0:0:0:
84,40,45675,6,0,P|100:90|84:140,1,106.666666666667,4|0,0:0|0:0,0:0:0:0:
0,192,46020,1,8,0:0:0:0:
180,88,46250,1,0,0:0:0:0:
180,88,46364,2,0,B|232:88|232:88|270:126,1,106.666666666667,4|8,0:0|0:0,0:0:0:0:
270,257,46709,2,0,B|232:296|232:296|180:296,1,106.666666666667,8|0,0:0|0:0,0:0:0:0:
84,192,47054,5,4,0:0:0:0:
256,16,47284,1,0,0:0:0:0:
256,16,47399,1,8,0:0:0:0:
428,192,47629,1,0,0:0:0:0:
428,192,47744,1,4,0:0:0:0:
256,368,47974,1,0,0:0:0:0:
256,368,48089,1,8,0:0:0:0:
84,192,48318,1,0,0:0:0:0:
84,192,48433,6,0,B|68:160|84:128|84:128|84:88,1,106.666666666667,4|0,0:0|0:0,0:0:0:0:
232,188,48778,2,0,B|248:220|232:252|232:252|232:292,1,106.666666666667,8|0,0:0|0:0,0:0:0:0:
156,164,49123,2,0,L|248:110,1,106.666666666667,4|0,0:0|0:0,0:0:0:0:
428,192,49468,2,0,L|335:245,1,106.666666666667,8|0,0:0|0:0,0:0:0:0:
256,368,49813,5,4,1:0:0:0:
92,264,50043,1,0,0:0:0:0:
92,264,50158,2,0,B|72:244|48:234|48:234|24:244|4:264,1,106.666666666667,8|0,0:0|0:0,0:0:0:0:
112,172,50502,2,0,B|132:192|156:202|156:202|180:192|200:172,1,106.666666666667,4|0,0:0|0:0,0:0:0:0:
156,88,50847,1,8,0:0:0:0:
356,296,51077,1,0,0:0:0:0:
400,212,51192,6,0,B|380:192|356:182|356:182|332:192|312:212,1,106.666666666667,4|0,1:0|0:0,0:0:0:0:
420,120,51537,2,0,B|440:140|464:150|464:150|488:140|508:120,1,106.666666666667,8|0,0:0|0:0,0:0:0:0:
464,36,51882,1,8,0:0:0:0:
192,144,52227,2,0,P|172:192|192:240,1,106.666666666667,8|0,0:0|0:0,0:0:0:0:
256,312,52571,5,4,1:0:0:0:
96,192,52801,1,0,0:0:0:0:
96,192,52916,2,0,B|60:192|60:192|24:192|-4:224,1,106.666666666667,8|0,0:0|0:0,0:0:0:0:
159,342,53261,2,0,B|195:342|195:342|231:342|256:312,1,106.666666666667,4|0,0:0|0:0,0:0:0:0:
321,239,53606,2,0,L|339:248,2,20,12|4|4,0:0|0:0|0:0,0:0:0:0:
372,264,53778,1,0,0:0:0:0:
496,192,53951,5,4,1:0:0:0:
348,72,54181,1,0,0:0:0:0:
431,19,54296,2,0,P|448:69|432:120,1,106.666666666667,8|0,0:0|0:0,0:0:0:0:
264,216,54640,2,0,P|248:165|264:115,1,106.666666666667,4|8,0:0|0:0,0:0:0:0:
347,167,54985,1,8,0:0:0:0:
172,280,55330,6,0,L|148:397,1,106.666666666667,2|0,0:0|0:0,0:0:0:0:
150,384,55675,1,12,0:0:0:0:
3,235,56020,2,0,L|27:118,1,106.666666666667,2|0,0:0|0:0,0:0:0:0:
25,131,56365,1,12,0:0:0:0:
252,2,56594,5,0,0:0:0:0:
252,2,56709,1,2,0:0:0:0:
411,19,56939,1,0,0:0:0:0:
411,19,57054,1,12,0:0:0:0:
493,155,57284,1,0,0:0:0:0:
493,155,57399,1,2,0:0:0:0:
412,293,57629,1,0,0:0:0:0:
412,293,57744,1,14,0:0:0:0:
186,147,58089,6,0,L|66:142,1,106.666666666667,2|0,0:0|0:0,0:0:0:0:
79,143,58433,1,12,0:0:0:0:
26,344,58778,2,0,L|146:349,1,106.666666666667,2|0,0:0|0:0,0:0:0:0:
133,348,59122,1,12,0:0:0:0:
395,322,59353,5,0,0:0:0:0:
395,322,59468,1,2,0:0:0:0:
476,184,59698,1,0,0:0:0:0:
476,184,59813,1,14,0:0:0:0:
406,39,60043,1,0,0:0:0:0:
406,39,60158,1,2,0:0:0:0:
246,35,60387,1,0,0:0:0:0:
246,35,60502,2,0,P|186:51|125:32,1,106.666666666667,12|8,0:0|0:0,0:0:0:0:
89,101,60847,6,0,P|116:155|170:189,1,106.666666666667,2|0,0:0|0:0,0:0:0:0:
152,182,61192,1,12,0:0:0:0:
391,203,61537,2,0,P|449:182|490:132,1,106.666666666667,2|0,0:0|0:0,0:0:0:0:
479,150,61882,1,12,0:0:0:0:
322,349,62112,5,0,0:0:0:0:
322,349,62227,1,2,0:0:0:0:
165,384,62457,1,0,0:0:0:0:
165,384,62572,1,14,0:0:0:0:
34,291,62802,1,0,0:0:0:0:
34,291,62917,1,2,0:0:0:0:
159,192,63146,1,0,0:0:0:0:
159,192,63261,2,0,P|137:105|112:76,1,106.666666666667,12|0,0:0|0:0,0:0:0:0:
181,28,63606,6,0,P|280:13|314:22,1,106.666666666667,2|0,0:0|0:0,0:0:0:0:
284,15,63951,1,4,0:0:0:0:
446,192,64296,2,0,P|461:291|451:324,1,106.666666666667,2|0,0:0|0:0,0:0:0:0:
460,295,64641,1,12,0:0:0:0:
229,333,64985,6,0,L|97:356,1,106.666666666667,2|0,0:0|0:0,0:0:0:0:
52,312,65330,2,0,P|28:235|48:195,1,106.666666666667,14|0,0:0|0:0,0:0:0:0:
90,155,65675,2,0,P|169:142|205:168,1,106.666666666667,8|8,0:0|0:0,0:0:0:0:
189,152,66020,1,12,0:0:0:0:
435,364,66250,5,8,0:0:0:0:
435,364,66364,2,0,L|447:258,1,106.666666666667,6|0,0:0|0:0,0:0:0:0:
446,258,66709,1,12,0:0:0:0:
485,48,66939,2,0,P|386:96|338:90,1,160
249,32,67399,2,0,P|169:50|137:76,1,106.666666666667,12|0,0:0|0:0,0:0:0:0:
78,144,67744,2,0,P|68:193|29:236,1,106.666666666667,2|0,0:0|0:0,0:0:0:0:
54,339,68089,2,0,P|118:355|171:350,1,106.666666666667,14|0,0:0|0:0,0:0:0:0:
260,383,68433,2,0,L|239:278,1,106.666666666667,2|0,0:0|0:0,0:0:0:0:
346,274,68778,2,0,L|367:169,1,106.666666666667,12|0,0:0|0:0,0:0:0:0:
408,70,69123,6,0,P|479:46|530:61,1,106.666666666667,2|0,0:0|0:0,0:0:0:0:
508,51,69468,1,12,0:0:0:0:
238,9,69698,2,0,P|154:7|80:56,1,160
57,148,70158,2,0,P|35:229|-7:260,1,106.666666666667,12|0,0:0|0:0,0:0:0:0:
64,340,70502,2,0,P|121:347|191:382,1,106.666666666667,2|0,0:0|0:0,0:0:0:0:
252,301,70847,2,0,P|309:285|393:291,1,106.666666666667,14|0,0:0|0:0,0:0:0:0:
448,338,71192,2,0,L|467:190,1,106.666666666667,2|0,0:0|0:0,0:0:0:0:
382,158,71537,2,0,L|363:10,1,106.666666666667,12|8,0:0|0:0,0:0:0:0:
269,10,71882,6,0,P|217:57|163:69,1,106.666666666667,2|0,0:0|0:0,0:0:0:0:
183,67,72227,1,12,0:0:0:0:
44,278,72456,2,0,P|81:352|171:386,1,160
255,377,72916,2,0,P|291:352|360:341,1,106.666666666667,12|0,0:0|0:0,0:0:0:0:
452,300,73261,2,0,P|477:243|479:173,1,106.666666666667,2|0,0:0|0:0,0:0:0:0:
460,93,73606,2,0,P|423:42|363:6,1,106.666666666667,14|0,0:0|0:0,0:0:0:0:
300,80,73951,2,0,L|163:59,1,106.666666666667,2|0,0:0|0:0,0:0:0:0:
116,137,74296,6,0,L|39:148,2,53.3333333333333,12|0|0,0:0|0:0|0:0,0:0:0:0:
180,222,74640,2,0,P|172:290|135:336,1,106.666666666667,2|0,0:0|0:0,0:0:0:0:
151,320,74985,1,12,0:0:0:0:
281,27,75330,2,0,L|411:13,1,106.666666666667,2|0,0:0|0:0,0:0:0:0:
462,92,75675,2,0,P|468:188|508:251,1,160,12|2,0:0|0:0,0:0:0:0:
322,362,76250,5,0,0:0:0:0:
322,362,76364,1,14,0:0:0:0:
70,329,76594,1,0,0:0:0:0:
70,329,76709,1,8,0:0:0:0:
201,178,76939,5,8,0:0:0:0:
201,178,77054,2,0,L|318:194,1,106.666666666667,8|2,0:0|0:0,0:0:0:0:
306,192,77399,1,2,0:0:0:0:
433,137,77629,1,0,0:0:0:0:
276,45,77859,2,0,L|159:29,1,106.666666666667,0|2,0:0|0:0,0:0:0:0:
10,141,78318,1,0,0:0:0:0:
150,310,78548,2,0,L|267:326,1,106.666666666667,0|2,0:0|0:0,0:0:0:0:
437,376,79008,5,2,0:0:0:0:
437,376,79123,1,10,0:0:0:0:
467,127,79468,1,12,0:0:0:0:
380,364,79813,5,2,0:0:0:0:
380,364,80158,6,0,B|357:316|357:316|380:268,1,106.666666666667,4|0,0:0|0:0,0:0:0:0:
463,316,80502,1,8,0:0:0:0:
256,366,80732,1,0,0:0:0:0:
256,366,80847,2,0,P|240:316|256:266,1,106.666666666667,4|0,0:0|0:0,0:0:0:0:
430,192,81192,2,0,P|380:208|330:192,1,106.666666666667,8|8,0:0|0:0,0:0:0:0:
256,18,81537,2,0,P|272:68|256:118,1,106.666666666667,4|0,0:0|0:0,0:0:0:0:
82,192,81882,2,0,P|132:176|182:192,1,106.666666666667,8|0,0:0|0:0,0:0:0:0:
380,364,82227,5,4,0:0:0:0:
256,192,82456,1,0,0:0:0:0:
256,192,82571,1,8,0:0:0:0:
132,20,82801,1,8,0:0:0:0:
132,20,82916,6,0,B|155:68|155:68|132:116,1,106.666666666667,4|0,0:0|0:0,0:0:0:0:
49,68,83261,1,8,0:0:0:0:
256,18,83491,1,0,0:0:0:0:
256,18,83606,2,0,P|272:68|256:118,1,106.666666666667,4|0,0:0|0:0,0:0:0:0:
82,192,83951,2,0,P|132:176|182:192,1,106.666666666667,8|8,0:0|0:0,0:0:0:0:
256,366,84296,2,0,P|240:316|256:266,1,106.666666666667,4|0,0:0|0:0,0:0:0:0:
430,192,84640,2,0,P|380:208|330:192,1,106.666666666667,8|0,0:0|0:0,0:0:0:0:
132,20,84985,5,4,0:0:0:0:
256,192,85215,1,0,0:0:0:0:
256,192,85330,1,8,0:0:0:0:
380,364,85560,1,8,0:0:0:0:
380,364,85675,6,0,B|408:364|408:364|448:364|474:327,1,106.666666666667,4|0,0:0|0:0,0:0:0:0:
396,268,86020,2,0,B|368:268|368:268|328:268|301:304,1,106.666666666667,8|0,0:0|0:0,0:0:0:0:
132,364,86364,2,0,B|104:364|104:364|64:364|37:327,1,106.666666666667,4|0,0:0|0:0,0:0:0:0:
116,268,86709,2,0,B|144:268|144:268|184:268|210:304,1,106.666666666667,8|8,0:0|0:0,0:0:0:0:
380,364,87054,5,4,0:0:0:0:
256,192,87284,1,0,0:0:0:0:
208,108,87399,2,0,B|240:108|256:89|256:89|272:108|304:108,1,106.666666666667,8|0,0:0|0:0,0:0:0:0:
388,156,87744,2,0,B|388:124|369:108|369:108|388:92|388:60,1,106.666666666667,4|0,0:0|0:0,0:0:0:0:
472,108,88089,1,8,0:0:0:0:
256,192,88318,1,8,0:0:0:0:
256,192,88433,6,0,P|208:212|160:192,1,106.666666666667,4|0,0:0|0:0,0:0:0:0:
332,260,88778,2,0,P|380:240|428:260,1,106.666666666667,8|0,0:0|0:0,0:0:0:0:
256,328,89123,2,0,P|208:348|160:328,1,106.666666666667,4|0,0:0|0:0,0:0:0:0:
84,259,89468,1,8,0:0:0:0:
256,92,89698,1,8,0:0:0:0:
256,92,89813,6,0,B|308:92|308:92|346:53,1,106.666666666667,4|8,0:0|0:0,0:0:0:0:
472,108,90158,2,0,B|420:108|420:108|381:146,1,106.666666666667,8|8,0:0|0:0,0:0:0:0:
256,292,90502,2,0,B|308:292|308:292|346:330,1,106.666666666667,8|8,0:0|0:0,0:0:0:0:
472,276,90847,2,0,B|420:276|420:276|381:237,1,106.666666666667,8|8,0:0|0:0,0:0:0:0:
256,192,91192,5,4,0:0:0:0:
76,124,91422,1,0,0:0:0:0:
76,124,91537,2,0,P|56:76|76:28,1,106.666666666667,8|0,0:0|0:0,0:0:0:0:
204,144,91882,2,0,P|224:192|204:240,1,106.666666666667,4|0,0:0|0:0,0:0:0:0:
75,355,92227,2,0,P|55:307|75:259,1,106.666666666667,8|8,0:0|0:0,0:0:0:0:
152,192,92571,5,4,0:0:0:0:
256,353,92801,1,0,0:0:0:0:
256,353,92916,1,8,0:0:0:0:
360,192,93146,1,0,0:0:0:0:
436,248,93261,2,0,B|408:288|364:288|364:288|343:288,1,106.666666666667,4|0,0:0|0:0,0:0:0:0:
343,96,93606,2,0,B|364:96|364:96|408:96|436:136,1,106.666666666667,8|8,0:0|0:0,0:0:0:0:
360,192,93951,5,4,0:0:0:0:
256,31,94181,1,0,0:0:0:0:
256,31,94296,1,8,0:0:0:0:
152,192,94525,1,0,0:0:0:0:
76,136,94640,2,0,B|104:96|148:96|148:96|168:96,1,106.666666666667,4|0,0:0|0:0,0:0:0:0:
168,288,94985,2,0,B|148:288|148:288|104:288|76:248,1,106.666666666667,8|8,0:0|0:0,0:0:0:0:
152,192,95330,6,0,L|91:340,1,160,4|8,0:0|0:0,0:0:0:0:
360,192,95905,1,0,0:0:0:0:
360,192,96020,2,0,L|420:43,1,160,4|8,0:0|0:0,0:0:0:0:
152,192,96594,1,8,0:0:0:0:
152,192,96709,6,0,L|192:290,1,106.666666666667,4|0,0:0|0:0,0:0:0:0:
360,192,97054,2,0,L|319:93,1,106.666666666667,8|0,0:0|0:0,0:0:0:0:
171,240,97399,6,0,L|270:281,1,106.666666666667,4|0,0:0|0:0,0:0:0:0:
341,144,97744,2,0,L|242:103,1,106.666666666667,8|8,0:0|0:0,0:0:0:0:
219,259,98089,6,0,L|318:218,1,106.666666666667,4|0,0:0|0:0,0:0:0:0:
293,125,98433,2,0,L|194:166,1,106.666666666667,8|0,0:0|0:0,0:0:0:0:
219,259,98778,5,4,0:0:0:0:
256,56,99008,1,0,0:0:0:0:
256,56,99123,1,8,0:0:0:0:
293,259,99353,1,8,0:0:0:0:
293,259,99468,6,0,P|341:279|389:259,1,106.666666666667,4|0,0:0|0:0,0:0:0:0:
219,125,99813,2,0,P|171:105|123:125,1,106.666666666667,8|0,0:0|0:0,0:0:0:0:
123,259,100158,6,0,P|171:279|219:259,1,106.666666666667,4|0,0:0|0:0,0:0:0:0:
388,124,100502,2,0,P|340:105|293:125,1,106.666666666667,8|8,0:0|0:0,0:0:0:0:
256,192,100847,5,4,1:0:0:0:
256,192,101077,1,12,0:0:0:0:
112,331,101364,1,0,0:0:0:0:
83,287,101451,1,0,0:0:0:0:
52,245,101537,2,0,L|6:234,3,40,0|0|0|0,0:0|0:0|0:0|0:0,0:0:0:0:
122,167,101882,2,0,L|106:117,3,40,0|0|0|0,0:0|0:0|0:0|0:0,0:0:0:0:
188,59,102227,5,12,0:0:0:0:
188,59,102457,1,12,0:0:0:0:
386,33,102744,1,0,0:0:0:0:
414,76,102831,1,0,0:0:0:0:
449,113,102917,2,0,L|509:90,3,40,0|0|0|0,0:0|0:0|0:0|0:0,0:0:0:0:
394,189,103262,2,0,L|403:243,3,40,0|0|0|0,0:0|0:0|0:0|0:0,0:0:0:0:
341,293,103606,5,12,0:0:0:0:
341,293,103836,1,12,0:0:0:0:
229,127,104123,1,0,0:0:0:0:
197,86,104210,1,0,0:0:0:0:
168,43,104296,2,0,L|113:27,3,40,0|0|0|0,0:0|0:0|0:0|0:0,0:0:0:0:
86,121,104641,2,0,L|40:132,3,40,0|0|0|0,0:0|0:0|0:0|0:0,0:0:0:0:
0,208,104985,6,0,B|0:260|29:325,1,106.666666666667,8|0,0:0|0:0,0:0:0:0:
171,374,105445,1,0,0:0:0:0:
169,213,105675,2,0,B|169:160|139:95,1,106.666666666667,8|0,0:0|0:0,0:0:0:0:
270,8,106135,1,0,0:0:0:0:
402,97,106364,5,12,0:0:0:0:
402,97,106594,1,4,0:0:0:0:
263,242,106882,1,0,0:0:0:0:
216,264,106968,1,0,0:0:0:0:
169,287,107054,2,0,L|112:273,3,40,0|0|0|0,0:0|0:0|0:0|0:0,0:0:0:0:
68,207,107399,2,0,L|11:221,3,40,0|0|0|0,0:0|0:0|0:0|0:0,0:0:0:0:
5,138,107744,5,12,0:0:0:0:
5,138,107974,1,4,0:0:0:0:
179,40,108261,1,0,0:0:0:0:
227,60,108348,1,0,0:0:0:0:
276,76,108434,2,0,L|316:51,3,40,0|0|0|0,0:0|0:0|0:0|0:0,0:0:0:0:
342,142,108779,2,0,L|362:190,3,40,0|0|0|0,0:0|0:0|0:0|0:0,0:0:0:0:
424,223,109123,6,0,P|452:230|494:220,1,53.3333333333333,8|0,0:0|0:0,0:0:0:0:
360,311,109353,2,0,P|367:338|397:370,1,53.3333333333333,0|0,0:0|0:0,0:0:0:0:
257,290,109583,2,0,P|236:310|224:352,1,53.3333333333333,0|0,0:0|0:0,0:0:0:0:
234,170,109813,6,0,P|262:163|304:173,1,53.3333333333333,0|0,0:0|0:0,0:0:0:0:
170,82,110043,2,0,P|177:54|207:22,1,53.3333333333333,0|0,0:0|0:0,0:0:0:0:
67,103,110273,2,0,P|46:82|34:40,1,53.3333333333333,0|0,0:0|0:0,0:0:0:0:
28,208,110502,6,0,L|-1:241,4,26.6666666666667
66,301,110847,2,0,L|91:339,4,26.6666666666667,0|0|0|0|0,0:0|0:0|0:0|0:0|0:0,0:0:0:0:
166,340,111192,2,0,L|146:376,4,26.6666666666667,0|0|0|0|0,0:0|0:0|0:0|0:0|0:0,0:0:0:0:
244,286,111537,2,0,L|275:272,4,26.6666666666667,8|0|0|0|0,0:0|0:0|0:0|0:0|0:0,0:0:0:0:
374,355,111882,6,0,L|384:231,1,106.666666666667,4|4,0:0|0:0,0:0:0:0:
321,195,112227,2,0,P|336:166|367:144,1,53.3333333333333,8|4,0:0|0:0,0:0:0:0:
424,121,112456,1,0,0:0:0:0:
253,115,112571,6,0,P|193:107|138:74,1,106.666666666667,4|4,0:0|0:0,0:0:0:0:
72,94,112916,2,0,P|46:124|36:149,1,53.3333333333333,8|0,0:0|0:0,0:0:0:0:
27,215,113146,1,0,0:0:0:0:
115,363,113261,6,0,P|134:290|123:232,1,106.666666666667,4|4,0:0|0:0,0:0:0:0:
196,211,113606,2,0,P|222:215|256:228,1,53.3333333333333,8|4,0:0|0:0,0:0:0:0:
315,267,113836,1,0,0:0:0:0:
296,44,113951,6,0,P|227:67|188:109,1,106.666666666667,4|4,0:0|0:0,0:0:0:0:
134,132,114296,2,0,P|97:147|58:143,1,53.3333333333333,8|0,0:0|0:0,0:0:0:0:
4,143,114525,1,0,0:0:0:0:
146,271,114640,6,0,P|192:317|211:370,1,106.666666666667,4|4,0:0|0:0,0:0:0:0:
286,371,114985,2,0,P|320:348|337:319,1,53.3333333333333,8|4,0:0|0:0,0:0:0:0:
366,267,115215,1,0,0:0:0:0:
485,338,115330,6,0,L|462:220,1,106.666666666667,4|4,0:0|0:0,0:0:0:0:
420,165,115675,2,0,P|363:158|352:164,1,53.3333333333333,8|0,0:0|0:0,0:0:0:0:
295,188,115905,1,0,0:0:0:0:
216,57,116020,6,0,P|162:26|92:22,1,106.666666666667,4|0,0:0|0:0,0:0:0:0:
8,135,116479,1,0,0:0:0:0:
117,252,116709,2,0,P|171:283|241:287,1,106.666666666667,4|4,0:0|0:0,0:0:0:0:
348,378,117169,1,4,0:0:0:0:
450,255,117399,6,0,P|466:196|500:155,1,106.666666666667,4|4,0:0|0:0,0:0:0:0:
486,80,117744,2,0,P|450:42|433:30,1,53.3333333333333,8|4,0:0|0:0,0:0:0:0:
374,12,117974,1,0,0:0:0:0:
228,90,118089,6,0,P|174:75|133:33,1,106.666666666667,4|4,0:0|0:0,0:0:0:0:
61,63,118433,2,0,P|44:104|42:136,1,53.3333333333333,8|0,0:0|0:0,0:0:0:0:
52,192,118663,1,0,0:0:0:0:
232,219,118778,6,0,P|223:283|197:330,1,106.666666666667,4|4,0:0|0:0,0:0:0:0:
258,379,119123,2,0,P|293:361|309:346,1,53.3333333333333,8|4,0:0|0:0,0:0:0:0:
383,363,119353,1,0,0:0:0:0:
462,179,119468,6,0,P|402:132|387:95,1,106.666666666667,4|4,0:0|0:0,0:0:0:0:
314,77,119813,2,0,P|277:90|241:86,1,53.3333333333333,8|0,0:0|0:0,0:0:0:0:
182,85,120043,1,0,0:0:0:0:
58,211,120158,6,0,P|36:279|4:323,1,106.666666666667,4|4,0:0|0:0,0:0:0:0:
64,372,120502,2,0,P|93:362|139:366,1,53.3333333333333,8|4,0:0|0:0,0:0:0:0:
164,297,120732,1,0,0:0:0:0:
337,150,120847,6,0,P|384:184|460:182,1,106.666666666667,4|4,0:0|0:0,0:0:0:0:
466,267,121192,2,0,P|438:300|412:316,1,53.3333333333333,8|0,0:0|0:0,0:0:0:0:
347,329,121422,1,0,0:0:0:0:
154,264,121537,6,0,P|136:272|120:288,1,26.6666666666667
92,256,121652,2,0,P|80:200|96:144,1,106.666666666667,4|4,0:0|0:0,0:0:0:0:
340,88,122227,2,0,P|352:83|363:75,1,26.6666666666667
402,95,122342,2,0,P|414:146|402:198,1,106.666666666667,4|4,0:0|0:0,0:0:0:0:
216,280,122916,6,2,P|255:192|296:279,1,240
208,112,124296,6,0,P|256:100|304:112,1,100,4|0,0:0|0:0,0:0:0:0:
163,192,124640,2,0,P|115:204|67:192,1,100,8|0,0:0|0:0,0:0:0:0:
114,91,124985,2,0,L|256:233,1,200,4|8,0:0|0:0,0:0:0:0:
334,311,125502,5,8,0:0:0:0:
412,232,125675,1,4,0:0:0:0:
178,311,125847,1,0,0:0:0:0:
100,232,126020,1,8,0:0:0:0:
256,384,126192,1,0,0:0:0:0:
184,226,126364,2,0,P|167:180|184:134,1,100,4|0,0:0|0:0,0:0:0:0:
328,134,126709,2,0,P|345:180|328:226,1,100,8|8,0:0|0:0,0:0:0:0:
108,56,127054,6,0,B|142:21|142:21|193:21,1,100,4|0,0:0|0:0,0:0:0:0:
404,56,127399,2,0,B|369:21|369:21|318:21,1,100,8|0,0:0|0:0,0:0:0:0:
184,134,127744,2,0,B|208:180|256:200|256:200|304:180|328:134,1,200,4|8,0:0|0:0,0:0:0:0:
256,44,128261,2,0,L|256:244,1,200,8|0,0:0|0:0,0:0:0:0:
188,332,128778,5,8,0:0:0:0:
256,124,128951,1,0,0:0:0:0:
324,332,129123,5,4,0:0:0:0:
256,84,129296,1,0,0:0:0:0:
188,292,129468,5,8,0:0:0:0:
256,44,129640,1,8,0:0:0:0:
324,292,129813,6,0,B|370:311|370:311|416:292,1,100,4|0,0:0|0:0,0:0:0:0:
416,92,130158,2,0,B|370:73|370:73|324:92,1,100,8|0,0:0|0:0,0:0:0:0:
370,192,130502,2,0,L|454:10,1,200,4|8,0:0|0:0,0:0:0:0:
256,84,131020,1,8,0:0:0:0:
256,84,131192,5,4,0:0:0:0:
370,192,131364,1,0,0:0:0:0:
256,118,131537,5,8,0:0:0:0:
324,268,131709,1,0,0:0:0:0:
256,158,131882,5,4,0:0:0:0:
278,344,132054,1,0,0:0:0:0:
256,192,132227,5,8,0:0:0:0:
234,40,132399,1,8,0:0:0:0:
424,124,132571,6,0,P|451:192|424:260,2,150,8|8|8,0:0|0:0|0:0,0:0:0:0:
88,124,133261,2,0,P|61:192|88:260,2,150,8|8|8,0:0|0:0|0:0,0:0:0:0:
188,32,133951,5,8,0:0:0:0:
256,192,134296,1,8,0:0:0:0:
324,32,134640,1,8,0:0:0:0:
324,32,134813,5,8,0:0:0:0:
324,32,134899,1,8,0:0:0:0:
324,32,134985,1,8,0:0:0:0:
256,192,135158,1,8,0:0:0:0:
188,32,135330,6,0,P|256:5|324:32,1,150,4|2,0:0|0:2,0:0:0:0:
363,71,135675,1,8,0:0:0:0:
448,192,135847,1,8,0:0:0:0:
324,352,136020,2,0,P|256:379|188:352,1,150,0|2,0:0|0:2,0:0:0:0:
149,313,136364,1,8,0:0:0:0:
64,192,136537,1,8,0:0:0:0:
188,32,136709,5,4,0:0:0:0:
256,360,137054,1,4,0:0:0:0:
324,32,137399,1,4,0:0:0:0:
256,128,137571,1,8,0:0:0:0:
256,128,137658,1,8,0:0:0:0:
256,128,137744,1,8,0:0:0:0:
188,32,137916,1,8,0:0:0:0:
212,236,138089,6,0,P|256:252|300:236,1,95.9999970703126,2|4,0:0|0:0,0:0:0:0:
256,128,138433,1,8,0:0:0:0:
168,316,138606,2,0,P|256:349|344:316,1,191.999994140625,4|4,0:0|0:0,0:0:0:0:
425,234,139123,1,8,0:0:0:0:
506,315,139296,1,4,0:0:0:0:
425,150,139468,6,0,B|402:192|402:192|425:234,1,95.9999970703126,2|4,0:0|0:0,0:0:0:0:
321,110,139813,2,0,B|344:68|344:68|321:26,1,95.9999970703126,8|4,0:0|0:0,0:0:0:0:
425,150,140158,5,2,0:2:0:0:
256,68,140330,1,2,0:2:0:0:
440,132,140502,1,10,0:0:0:0:
241,86,140675,1,2,0:2:0:0:
455,114,140847,5,2,0:0:0:0:
380,192,141020,1,4,0:0:0:0:
455,270,141192,1,8,0:0:0:0:
380,192,141364,2,0,B|336:173|336:173|292:192,1,95.9999970703126,4|2,0:0|0:0,0:0:0:0:
132,228,141709,2,0,B|176:247|176:247|220:228,1,95.9999970703126,4|8,0:0|0:0,0:0:0:0:
36,192,142054,1,4,0:0:0:0:
132,328,142227,6,0,P|176:344|220:328,1,95.9999970703126,2|4,0:0|0:0,0:0:0:0:
220,56,142571,2,0,P|176:40|132:56,1,95.9999970703126,8|4,0:0|0:0,0:0:0:0:
36,192,142916,5,2,0:2:0:0:
132,328,143089,1,2,0:2:0:0:
51,174,143261,1,8,0:0:0:0:
117,346,143433,1,2,0:2:0:0:
66,156,143606,6,0,B|47:112|47:112|66:68,1,95.9999970703126,2|4,0:0|0:0,0:0:0:0:
147,222,143951,2,0,B|166:266|166:266|147:310,1,95.9999970703126,8|4,0:0|0:0,0:0:0:0:
39,266,144296,2,0,L|164:120,1,191.999994140625,2|8,0:0|0:0,0:0:0:0:
256,192,144813,1,0,0:0:0:0:
348,120,144985,6,0,P|364:76|348:32,1,95.9999970703126,2|4,0:0|0:0,0:0:0:0:
164,31,145330,2,0,P|148:75|164:119,1,95.9999970703126,8|4,0:0|0:0,0:0:0:0:
348,264,145675,5,2,0:2:0:0:
256,76,145847,1,2,0:2:0:0:
164,264,146020,1,8,0:0:0:0:
256,42,146192,1,2,0:2:0:0:
348,298,146364,6,0,B|256:325|256:325|164:298,1,191.999994140625,4|8,0:2|0:0,0:0:0:0:
28,192,146882,1,4,0:0:0:0:
164,86,147054,2,0,B|256:59|256:59|348:86,1,191.999994140625,4|8,0:2|0:0,0:0:0:0:
484,192,147571,1,4,0:0:0:0:
256,324,147744,5,4,0:2:0:0:
198,175,147916,2,0,L|164:86,1,95.9999970703126,4|8,0:0|0:0,0:0:0:0:
313,175,148261,2,0,L|348:86,1,95.9999970703126,4|2,0:0|0:0,0:0:0:0:
484,192,148606,5,8,0:0:0:0:
484,192,148692,1,8,0:0:0:0:
484,192,148778,1,8,0:0:0:0:
256,42,148951,1,8,0:0:0:0:
28,192,149123,6,0,L|42:295,1,95.9999970703126,8|6,0:3|0:0,0:0:0:0:
209,381,149468,1,8,0:0:0:0:
198,204,149640,2,0,P|287:215|406:181,1,191.999994140625,6|6,0:0|0:0,0:0:0:0:
458,0,150158,2,0,P|468:52|461:98,1,95.9999970703126,8|6,0:0|0:0,0:0:0:0:
385,329,150502,5,8,0:3:0:0:
161,244,150675,2,0,P|143:150|148:34,1,191.999994140625,6|6,0:0|0:0,0:0:0:0:
334,23,151192,1,8,0:3:0:0:
334,23,151364,1,6,0:0:0:0:
401,232,151537,1,8,0:0:0:0:
401,232,151709,1,14,0:0:0:0:
212,339,151882,6,0,P|159:301|104:292,1,95.9999970703126,8|6,0:3|0:0,0:0:0:0:
32,134,152227,1,8,0:0:0:0:
195,17,152399,2,0,L|405:21,1,191.999994140625,6|6,0:0|0:0,0:0:0:0:
486,188,152916,2,0,P|466:246|434:282,1,95.9999970703126,8|6,0:0|0:0,0:0:0:0:
272,379,153261,5,8,0:3:0:0:
101,275,153433,2,0,P|67:179|-19:110,1,191.999994140625,6|6,0:0|0:0,0:0:0:0:
248,20,153951,1,8,0:3:0:0:
248,20,154123,1,6,0:0:0:0:
176,202,154296,1,8,0:0:0:0:
176,202,154468,1,14,0:0:0:0:
349,342,154640,6,0,P|403:354|450:379,1,95.9999970703126,8|6,0:3|0:0,0:0:0:0:
473,181,154985,1,8,0:0:0:0:
272,140,155158,2,0,P|164:194|108:261,1,191.999994140625,6|6,0:0|0:0,0:0:0:0:
14,83,155675,2,0,P|14:149|31:196,1,95.9999970703126,8|6,0:0|0:0,0:0:0:0:
154,352,156020,5,8,0:3:0:0:
293,194,156192,2,0,P|293:77|262:-6,1,191.999994140625,6|6,0:0|0:0,0:0:0:0:
124,142,156709,1,8,0:3:0:0:
124,142,156882,1,6,0:0:0:0:
237,357,157054,1,8,0:0:0:0:
237,357,157227,1,14,0:0:0:0:
383,184,157399,6,0,P|455:211|484:210,1,95.9999970703126,8|6,0:3|0:0,0:0:0:0:
275,83,157744,2,0,P|203:56|174:57,1,95.9999970703126,8|6,0:0|0:0,0:0:0:0:
25,193,158089,5,8,0:3:0:0:
25,193,158261,1,4,0:0:0:0:
157,363,158433,1,10,0:0:0:0:
157,363,158606,1,14,0:0:0:0:
304,127,158778,6,0,L|341:29,1,95.9999970703126,8|6,0:3|0:0,0:0:0:0:
151,197,159123,2,0,L|188:295,1,95.9999970703126,8|6,0:0|0:0,0:0:0:0:
439,354,159468,5,8,0:3:0:0:
439,354,159640,1,6,0:0:0:0:
497,111,159813,1,8,0:0:0:0:
497,111,159985,1,14,0:0:0:0:
186,43,160158,6,0,P|139:11|83:-3,1,95.9999970703126,8|6,0:3|0:0,0:0:0:0:
155,287,160502,2,0,P|202:319|258:333,1,95.9999970703126,8|6,0:0|0:0,0:0:0:0:
454,214,160847,5,8,0:3:0:0:
454,214,161020,1,4,0:0:0:0:
297,11,161192,1,10,0:0:0:0:
297,11,161364,1,14,0:0:0:0:
77,122,161537,5,8,0:3:0:0:
134,332,161709,2,0,P|234:337|321:385,1,191.999994140625,6|6,0:0|0:0,0:0:0:0:
375,143,162227,2,0,P|375:217|355:269,1,95.9999970703126,8|6,0:3|0:0,0:0:0:0:
384,255,162485,1,0,0:0:0:0:
398,274,162571,2,0,L|524:269,1,95.9999970703126,8|14,0:0|0:0,0:0:0:0:
245,63,162916,6,0,P|140:115|82:182,1,200,2|8,0:0|0:0,0:0:0:0:
168,356,163433,1,6,0:0:0:0:
365,203,163606,2,0,P|341:145|306:107,1,100,0|6,0:0|0:0,0:0:0:0:
175,65,163951,2,0,P|113:78|70:106,1,100,8|6,0:0|0:0,0:0:0:0:
123,324,164296,6,0,L|131:213,1,100,0|6,0:0|0:0,0:0:0:0:
222,370,164640,2,0,L|230:259,1,100,8|6,0:0|0:0,0:0:0:0:
447,133,164985,2,0,L|439:244,1,100,0|6,0:0|0:0,0:0:0:0:
348,87,165329,2,0,L|340:198,1,100,8|6,0:0|0:0,0:0:0:0:
246,353,165675,6,0,P|135:367|45:336,1,200,2|8,0:0|0:0,0:0:0:0:
17,147,166192,1,6,0:0:0:0:
199,23,166364,2,0,P|258:45|299:89,1,100,0|6,0:0|0:0,0:0:0:0:
333,211,166709,2,0,P|321:272|285:320,1,100,8|6,0:0|0:0,0:0:0:0:
54,300,167054,6,0,L|183:291,1,100,0|6,0:0|0:0,0:0:0:0:
1,170,167399,2,0,L|130:161,1,100,8|6,0:0|0:0,0:0:0:0:
216,15,167744,1,0,0:0:0:0:
216,15,168089,1,0,0:0:0:0:
216,15,168433,6,0,B|216:103|296:103|296:192,1,200,2|8,0:0|0:0,0:0:0:0:
374,270,168951,1,4,0:0:0:0:
296,347,169123,2,0,B|271:339|256:319|256:319|241:339|216:347,1,100,2|4,0:0|0:0,0:0:0:0:
58,270,169468,2,0,B|83:278|98:298|98:298|113:278|138:270,1,100,8|4,0:0|0:0,0:0:0:0:
296,192,169813,2,0,B|271:200|256:220|256:220|241:200|216:192,1,100,2|4,0:0|0:0,0:0:0:0:
138,270,170158,5,8,0:0:0:0:
256,88,170330,1,4,0:0:0:0:
374,270,170502,5,2,0:0:0:0:
256,128,170675,1,4,0:0:0:0:
138,310,170847,5,8,0:0:0:0:
256,168,171020,1,4,0:0:0:0:
375,310,171192,6,0,B|423:327|423:327|485:347|532:288|510:246,1,200,2|8,0:0|0:0,0:0:0:0:
376,192,171709,1,4,0:0:0:0:
510,137,171882,2,0,B|532:96|485:37|423:57|423:57|375:73,1,200,2|8,0:0|0:0,0:0:0:0:
455,192,172399,1,4,0:0:0:0:
375,310,172571,6,0,B|324:310|324:310|289:275,1,100,2|4,0:0|0:0,0:0:0:0:
289,109,172916,2,0,B|324:74|324:74|375:74,1,100,8|4,0:0|0:0,0:0:0:0:
455,192,173261,1,2,0:0:0:0:
455,192,173606,1,2,0:3:0:0:
455,192,173951,6,0,B|368:192|368:192|360:196|360:196|360:188|360:188|352:192|352:192|265:192,1,200,4|8,0:2|0:0,0:0:0:0:
186,113,174468,1,4,0:0:0:0:
108,192,174640,2,0,L|249:333,1,200,2|8,0:0|0:0,0:0:0:0:
327,254,175158,1,4,0:0:0:0:
404,331,175330,6,0,P|448:351|492:331,1,100,2|4,0:0|0:0,0:0:0:0:
492,53,175675,2,0,P|448:33|404:53,1,100,8|4,0:0|0:0,0:0:0:0:
448,252,176020,5,4,0:0:0:0:
508,192,176192,1,8,0:0:0:0:
448,132,176364,1,8,0:0:0:0:
76,364,176709,5,8,0:0:0:0:
105,353,176796,1,0,0:0:0:0:
134,342,176882,1,0,0:0:0:0:
163,331,176968,1,0,0:0:0:0:
192,320,177054,5,8,0:0:0:0:
147,302,177140,1,0,0:0:0:0:
128,256,177227,1,0,0:0:0:0:
147,210,177313,1,0,0:0:0:0:
192,192,177399,5,8,0:0:0:0:
237,210,177485,1,0,0:0:0:0:
256,256,177571,1,0,0:0:0:0:
275,302,177658,1,0,0:0:0:0:
320,320,177744,5,8,0:0:0:0:
365,302,177830,1,0,0:0:0:0:
384,256,177916,1,0,0:0:0:0:
365,210,178002,1,0,0:0:0:0:
320,192,178089,5,8,0:0:0:0:
342,181,178175,1,0,0:0:0:0:
364,170,178261,1,8,0:0:0:0:
385,158,178347,1,0,0:0:0:0:
428,136,178433,5,8,0:0:0:0:
405,125,178520,1,0,0:0:0:0:
384,114,178606,1,0,0:0:0:0:
363,102,178692,1,0,0:0:0:0:
319,80,178778,5,8,0:0:0:0:
342,69,178864,1,0,0:0:0:0:
363,58,178951,1,8,0:0:0:0:
384,46,179037,1,0,0:0:0:0:
427,24,179123,6,0,L|471:46,3,50,8|0|0|0,0:0|0:0|0:0|0:0,0:0:0:0:
496,88,179468,5,8,0:0:0:0:
480,122,179554,1,0,0:0:0:0:
465,156,179640,1,0,0:0:0:0:
450,190,179726,1,0,0:0:0:0:
435,225,179813,5,8,0:0:0:0:
476,235,179899,1,0,0:0:0:0:
505,267,179985,1,0,0:0:0:0:
512,310,180071,1,0,0:0:0:0:
493,348,180157,5,8,0:0:0:0:
456,370,180244,1,0,0:0:0:0:
413,368,180330,1,0,0:0:0:0:
379,342,180416,1,0,0:0:0:0:
364,301,180502,5,8,0:0:0:0:
350,261,180588,1,0,0:0:0:0:
316,235,180674,1,0,0:0:0:0:
273,232,180760,1,0,0:0:0:0:
236,254,180847,5,8,0:0:0:0:
217,293,180933,1,0,0:0:0:0:
224,336,181019,1,8,0:0:0:0:
252,368,181105,1,0,0:0:0:0:
292,380,181192,5,8,0:0:0:0:
298,355,181278,1,0,0:0:0:0:
305,331,181364,1,0,0:0:0:0:
311,307,181450,1,0,0:0:0:0:
350,261,181537,5,8,0:0:0:0:
357,236,181623,1,0,0:0:0:0:
364,212,181709,1,8,0:0:0:0:
370,188,181795,1,0,0:0:0:0:
408,142,181882,5,8,0:0:0:0:
415,117,181968,1,0,0:0:0:0:
422,93,182054,1,0,0:0:0:0:
428,69,182140,1,0,0:0:0:0:
466,23,182227,6,0,L|420:42,3,50,8|0|0|0,0:0|0:0|0:0|0:0,0:0:0:0:
279,85,182571,2,0,L|325:104,3,50,8|0|0|0,0:0|0:0|0:0|0:0,0:0:0:0:
466,168,182916,6,0,L|420:187,3,50,8|0|0|0,0:0|0:0|0:0|0:0,0:0:0:0:
279,230,183261,2,0,L|325:249,3,50,8|0|0|0,0:0|0:0|0:0|0:0,0:0:0:0:
396,312,183606,5,8,0:0:0:0:
361,297,183692,1,0,0:0:0:0:
326,283,183778,1,8,0:0:0:0:
292,268,183864,1,0,0:0:0:0:
257,254,183951,5,8,0:0:0:0:
279,230,184037,1,0,0:0:0:0:
288,199,184123,1,0,0:0:0:0:
280,167,184209,1,0,0:0:0:0:
257,142,184296,5,8,0:0:0:0:
234,118,184382,1,0,0:0:0:0:
226,86,184468,1,8,0:0:0:0:
234,54,184554,1,0,0:0:0:0:
256,30,184640,5,8,0:0:0:0:
351,322,184813,1,8,0:0:0:0:
102,142,184985,1,4,0:2:0:0:
102,142,185330,5,4,0:0:0:0:
409,142,185502,1,4,0:0:0:0:
161,322,185675,1,4,0:2:0:0:
161,322,186020,5,4,0:0:0:0:
256,30,186192,1,4,0:0:0:0:
351,322,186364,5,8,0:0:0:0:
256,48,186537,1,8,0:0:0:0:
161,346,186709,5,8,0:0:0:0:
256,66,186882,1,8,0:0:0:0:
351,346,187054,5,12,0:0:0:0:
256,384,187227,1,0,0:0:0:0:
161,346,187399,1,2,0:0:0:0:
256,308,187571,1,0,0:0:0:0:
351,270,187744,6,0,P|385:178|351:86,1,200,4|0,0:2|0:0,0:0:0:0:
256,48,188261,1,4,0:0:0:0:
160,86,188433,2,0,P|127:178|161:270,1,200,4|0,0:2|0:0,0:0:0:0:
256,308,188951,1,4,0:0:0:0:
351,270,189123,6,0,B|378:270|378:270|394:253,1,50,8|8,0:3|0:3,0:0:0:0:
351,114,189296,2,0,B|378:114|378:114|394:131,1,50,8|8,0:3|0:3,0:0:0:0:
351,257,189468,6,0,B|378:257|378:257|394:240,1,50,8|8,0:3|0:3,0:0:0:0:
351,127,189640,2,0,B|378:127|378:127|394:144,1,50,8|8,0:3|0:3,0:0:0:0:
304,192,189813,6,2,B|257:224|209:192|209:192|205:196|205:196|201:200|201:200|153:168|106:192,1,214.399989858399,2|2,0:0|0:3,0:0:0:0:
