osu file format v14

[General]
AudioFilename: 08. La viuda de O`Brian.mp3
AudioLeadIn: 0
PreviewTime: 137918
Countdown: 0
SampleSet: Normal
StackLeniency: 0.7
Mode: 0
LetterboxInBreaks: 1
WidescreenStoryboard: 1

[Editor]
DistanceSpacing: 1.3
BeatDivisor: 6
GridSize: 8
TimelineZoom: 3.899998

[Metadata]
Title:La viuda de O'Brian
TitleUnicode:La viuda de O'Brian
Artist:Mago de Oz
ArtistUnicode:Mägo de Oz
Creator:Xanandra
Version:La Complicada
Source:
Tags:CSLM Gero Ilussia
BeatmapID:1263355
BeatmapSetID:597619

[Difficulty]
HPDrainRate:4
CircleSize:3.5
OverallDifficulty:5
ApproachRate:7
SliderMultiplier:1.3
SliderTickRate:1

[Events]
//Background and Video events
0,0,"red_hair_by_zsuzsu12-d4m7who.jpg",0,0
//Break Periods
//Storyboard Layer 0 (Background)
//Storyboard Layer 1 (Fail)
//Storyboard Layer 2 (Pass)
//Storyboard Layer 3 (Foreground)
//Storyboard Sound Samples

[TimingPoints]
160,344.827586206897,4,2,1,25,1,0
1392,344.827586206897,4,2,1,50,1,0
1506,344.827586206897,4,2,1,50,1,0
3607,344.827586206897,4,2,1,50,1,0
4296,344.827586206897,4,2,1,50,1,0
100847,-100,4,1,3,50,0,0
110502,-100,4,1,3,35,0,0
111882,-100,4,1,2,50,0,0
116020,-100,4,1,3,50,0,0
117399,-100,4,1,2,50,0,0
121537,-100,4,1,3,50,0,0
124296,-86.9565217391304,4,1,2,50,0,1
124382,-86.9565217391304,4,1,2,50,0,0
138089,-80,4,1,2,50,0,1
149037,-80,4,1,2,50,0,0
149123,-80,4,1,2,50,0,1
162916,-86.9565217391304,4,1,2,50,0,0

[Colours]
Combo1 : 215,215,215
Combo2 : 255,0,0
Combo3 : 192,192,192
Combo4 : 255,100,100

[HitObjects]
411,295,27744,6,0,L|459:197,1,86.6666666666667,4|0,0:0|0:0,0:0:0:0:
449,218,28089,1,0,0:0:0:0:
421,91,28433,2,0,L|343:53,1,86.6666666666667,4|0,0:0|0:0,0:0:0:0:
343,53,28778,1,0,0:0:0:0:
214,33,29123,2,0,L|166:131,1,86.6666666666667,4|0,0:0|0:0,0:0:0:0:
176,110,29468,1,0,0:0:0:0:
204,237,29813,2,0,L|281:276,1,86.6666666666667,4|0,0:0|0:0,0:0:0:0:
282,274,30158,1,0,0:0:0:0:
386,197,30502,6,0,P|424:238|438:287,1,86.6666666666667,4|0,0:0|0:0,0:0:0:0:
434,267,30847,1,0,0:0:0:0:
353,368,31192,2,0,L|237:384,1,86.6666666666667,4|0,0:0|0:0,0:0:0:0:
267,380,31537,1,0,0:0:0:0:
134,383,31882,2,0,P|85:348|66:312,1,86.6666666666667,4|0,0:0|0:0,0:0:0:0:
71,326,32227,1,0,0:0:0:0:
31,203,32571,2,0,P|36:144|58:109,1,86.6666666666667,4|0,0:0|0:0,0:0:0:0:
49,120,32916,1,0,0:0:0:0:
113,7,33261,6,0,L|236:22,1,86.6666666666667,4|0,0:0|0:0,0:0:0:0:
199,17,33606,1,0,0:0:0:0:
261,132,33951,2,0,L|138:117,1,86.6666666666667,4|0,0:0|0:0,0:0:0:0:
175,122,34296,1,0,0:0:0:0:
91,222,34640,2,0,L|214:237,1,86.6666666666667,4|0,0:0|0:0,0:0:0:0:
177,232,34985,1,0,0:0:0:0:
239,347,35330,2,0,L|116:332,1,86.6666666666667,4|0,0:0|0:0,0:0:0:0:
152,337,35675,6,0,P|107:345|83:366,1,65,0|0,0:0|0:0,0:0:0:0:
15,318,36020,2,0,P|22:274|18:222,1,86.6666666666667,4|0,0:0|0:0,0:0:0:0:
19,233,36364,2,0,L|94:244,1,65,0|0,0:0|0:0,0:0:0:0:
132,167,36709,2,0,P|177:189|206:218,1,86.6666666666667,4|0,0:0|0:0,0:0:0:0:
203,215,37054,2,0,L|276:190,1,65,0|0,0:0|0:0,0:0:0:0:
339,282,37399,6,0,L|444:189,1,130,0|4,0:0|0:0,0:0:0:0:
397,72,38089,1,4,0:0:0:0:
298,157,38433,6,0,P|252:149|228:128,1,65,0|0,0:0|0:0,0:0:0:0:
153,203,38778,2,0,P|160:248|156:299,1,86.6666666666667,4|0,0:0|0:0,0:0:0:0:
157,289,39123,2,0,L|232:300,1,65,0|0,0:0|0:0,0:0:0:0:
270,227,39468,2,0,P|315:249|344:278,1,86.6666666666667,4|0,0:0|0:0,0:0:0:0:
341,274,39813,2,0,L|413:250,1,65,0|0,0:0|0:0,0:0:0:0:
468,191,40158,6,0,P|462:126|486:58,1,130,0|4,0:0|0:0,0:0:0:0:
364,9,40847,1,4,0:0:0:0:
109,64,41537,6,0,L|101:164,1,86.6666666666667,6|0,0:0|0:0,0:0:0:0:
135,197,41882,2,0,P|254:202|286:222,1,130,8|2,0:0|0:0,0:0:0:0:
299,312,42456,1,0,0:0:0:0:
342,348,42571,2,0,P|425:323|455:275,1,130,8|2,0:0|0:0,0:0:0:0:
505,193,43146,1,0,0:0:0:0:
452,172,43261,2,0,P|404:100|412:44,1,130,8|2,0:0|0:0,0:0:0:0:
304,11,43836,1,2,0:0:0:0:
304,11,43951,1,8,0:0:0:0:
158,97,44296,6,0,L|41:93,1,86.6666666666667,2|0,0:0|0:0,0:0:0:0:
29,133,44640,2,0,P|40:204|86:249,1,130,8|2,0:0|0:0,0:0:0:0:
187,216,45215,1,0,0:0:0:0:
232,250,45330,2,0,L|218:379,1,130,8|2,0:0|0:0,0:0:0:0:
104,379,45905,1,0,0:0:0:0:
60,343,46020,2,0,P|43:264|-2:219,1,130,8|2,0:0|0:0,0:0:0:0:
52,123,46594,1,10,0:0:0:0:
52,123,46709,1,8,0:0:0:0:
186,226,47054,6,0,L|298:226,1,86.6666666666667,2|0,0:0|0:0,0:0:0:0:
305,273,47399,2,0,P|424:278|456:298,1,130,8|2,0:0|0:0,0:0:0:0:
499,193,47974,1,0,0:0:0:0:
464,149,48089,2,0,P|469:92|452:16,1,130,8|2,0:0|0:0,0:0:0:0:
363,89,48663,1,0,0:0:0:0:
324,131,48778,2,0,L|181:144,1,130,8|2,0:0|0:0,0:0:0:0:
99,82,49353,1,2,0:0:0:0:
64,127,49468,6,0,L|62:195,1,65,8|0,0:0|0:0,0:0:0:0:
131,242,49813,2,0,P|138:286|134:338,1,86.6666666666667,2|0,0:0|0:0,0:0:0:0:
135,328,50158,2,0,L|210:339,1,65,8|0,0:0|0:0,0:0:0:0:
250,271,50502,2,0,P|295:293|324:322,1,86.6666666666667,2|0,0:0|0:0,0:0:0:0:
321,319,50847,2,0,L|394:294,1,65,8|0,0:0|0:0,0:0:0:0:
372,214,51192,6,0,L|430:147,1,86.6666666666667,2|0,0:0|0:0,0:0:0:0:
428,149,51537,1,8,0:0:0:0:
333,9,51882,1,2,0:0:0:0:
210,123,52227,6,0,L|213:197,1,65,8|0,0:0|0:0,0:0:0:0:
230,278,52571,2,0,P|172:293|144:318,1,86.6666666666667,2|0,0:0|0:0,0:0:0:0:
151,310,52916,2,0,L|84:285,1,65,8|0,0:0|0:0,0:0:0:0:
55,215,53261,2,0,P|56:159|39:113,1,86.6666666666667,2|0,0:0|0:0,0:0:0:0:
47,131,53606,2,0,L|120:106,1,65,8|0,0:0|0:0,0:0:0:0:
142,33,53951,6,0,L|230:41,1,86.6666666666667,2|0,0:0|0:0,0:0:0:0:
228,41,54296,1,8,0:0:0:0:
392,81,54640,1,2,0:0:0:0:
456,174,54870,1,10,0:0:0:0:
456,174,54985,1,8,0:0:0:0:
323,280,55330,6,0,L|222:264,1,86.6666666666667,2|0,0:0|0:0,0:0:0:0:
190,299,55675,1,12,0:0:0:0:
83,168,56020,2,0,L|184:184,1,86.6666666666667,2|0,0:0|0:0,0:0:0:0:
216,149,56364,1,12,0:0:0:0:
348,254,56709,2,0,L|364:153,1,86.6666666666667,2|0,0:0|0:0,0:0:0:0:
329,121,57054,1,12,0:0:0:0:
460,14,57399,2,0,L|444:115,1,86.6666666666667,2|0,0:0|0:0,0:0:0:0:
479,147,57744,1,14,0:0:0:0:
341,246,58089,6,0,P|359:286|419:331,1,86.6666666666667,2|0,0:0|0:0,0:0:0:0:
443,329,58433,1,12,0:0:0:0:
277,365,58778,2,0,L|152:337,1,86.6666666666667,2|0,0:0|0:0,0:0:0:0:
137,360,59123,1,12,0:0:0:0:
47,217,59468,2,0,L|172:245,1,86.6666666666667,2|0,0:0|0:0,0:0:0:0:
187,222,59813,1,14,0:0:0:0:
307,104,60158,2,0,P|289:64|229:19,1,86.6666666666667,2|0,0:0|0:0,0:0:0:0:
205,21,60502,1,12,0:0:0:0:
113,87,60732,5,2,0:0:0:0:
66,119,60847,2,0,L|96:226,1,86.6666666666667,2|0,0:0|0:0,0:0:0:0:
54,247,61192,1,12,0:0:0:0:
219,282,61537,2,0,L|189:175,1,86.6666666666667,2|0,0:0|0:0,0:0:0:0:
231,154,61882,1,12,0:0:0:0:
349,35,62227,2,0,P|403:67|433:115,1,86.6666666666667,2|0,0:0|0:0,0:0:0:0:
446,135,62571,1,14,0:0:0:0:
305,230,62916,2,0,P|304:293|277:343,1,86.6666666666667,2|0,0:0|0:0,0:0:0:0:
251,350,63261,6,0,L|185:369,1,65,12|0,0:0|0:0,0:0:0:0:
108,340,63606,2,0,P|54:313|21:308,1,86.6666666666667,2|0,0:0|0:0,0:0:0:0:
12,254,63951,2,0,L|33:162,1,86.6666666666667,12|0,0:0|0:0,0:0:0:0:
82,146,64296,2,0,P|111:95|119:55,1,86.6666666666667,2|0,0:0|0:0,0:0:0:0:
87,20,64640,1,12,0:0:0:0:
255,32,64985,6,0,L|364:25,1,86.6666666666667,2|0,0:0|0:0,0:0:0:0:
392,2,65330,2,0,P|428:39|452:82,1,86.6666666666667,14|0,0:0|0:0,0:0:0:0:
500,84,65675,2,0,L|490:193,1,86.6666666666667,8|8,0:0|0:0,0:0:0:0:
510,225,66020,1,12,0:0:0:0:
423,371,66364,5,6,0:0:0:0:
310,371,66594,1,0,0:0:0:0:
310,371,66709,1,12,0:0:0:0:
162,299,67054,1,2,0:0:0:0:
275,289,67284,1,0,0:0:0:0:
275,289,67399,1,12,0:0:0:0:
408,186,67744,5,2,0:0:0:0:
295,196,67974,1,0,0:0:0:0:
295,196,68089,1,14,0:0:0:0:
147,114,68433,1,2,0:0:0:0:
260,104,68663,1,0,0:0:0:0:
260,104,68778,1,12,0:0:0:0:
430,96,69123,5,2,0:0:0:0:
505,179,69353,1,0,0:0:0:0:
505,179,69468,1,12,0:0:0:0:
348,245,69813,1,2,0:0:0:0:
315,353,70043,1,0,0:0:0:0:
315,353,70158,1,12,0:0:0:0:
175,258,70502,5,2,0:0:0:0:
67,281,70732,1,0,0:0:0:0:
67,281,70847,1,14,0:0:0:0:
85,113,71192,1,2,0:0:0:0:
17,34,71422,1,0,0:0:0:0:
17,34,71537,1,12,0:0:0:0:
128,17,71767,5,8,0:0:0:0:
183,6,71882,2,0,P|222:13|283:18,1,86.6666666666667,2|0,0:0|0:0,0:0:0:0:
325,22,72227,2,0,L|288:162,1,130,12|2,0:0|0:0,0:0:0:0:
400,179,72801,1,0,0:0:0:0:
448,208,72916,2,0,L|485:348,1,130,12|2,0:0|0:0,0:0:0:0:
374,373,73491,1,0,0:0:0:0:
328,341,73606,2,0,P|256:345|188:377,1,130,14|2,0:0|0:0,0:0:0:0:
96,332,74181,1,0,0:0:0:0:
64,286,74296,2,0,L|69:212,1,65,12|0,0:0|0:0,0:0:0:0:
139,175,74640,6,0,P|122:131|93:92,1,86.6666666666667,2|0,0:0|0:0,0:0:0:0:
115,45,74985,2,0,L|262:33,1,130,12|2,0:0|0:0,0:0:0:0:
262,147,75560,1,0,0:0:0:0:
315,164,75675,2,0,P|371:218|405:291,1,130,12|2,0:0|0:0,0:0:0:0:
506,287,76250,5,0,0:0:0:0:
506,287,76364,1,14,0:0:0:0:
506,175,76594,1,0,0:0:0:0:
506,175,76709,1,8,0:0:0:0:
495,63,76939,1,8,0:0:0:0:
495,63,77054,1,8,0:0:0:0:
389,24,77284,1,2,0:0:0:0:
342,56,77399,6,0,L|256:64,1,86.6666666666667,2|0,0:0|0:0,0:0:0:0:
236,118,77744,2,0,P|203:141|184:171,1,65,8|0,0:0|0:0,0:0:0:0:
255,213,78089,2,0,L|271:304,1,86.6666666666667,2|0,0:0|0:0,0:0:0:0:
227,336,78433,2,0,P|184:318|156:316,1,65,8|0,0:0|0:0,0:0:0:0:
93,272,78778,2,0,L|138:184,1,86.6666666666667,2|2,0:0|0:0,0:0:0:0:
189,198,79123,2,0,P|218:135|223:62,1,130,10|12,0:0|0:0,0:0:0:0:
322,214,79813,1,2,0:0:0:0:
316,45,80158,6,0,L|480:27,1,130,8|8,0:0|0:0,0:0:0:0:
448,143,80732,1,0,0:0:0:0:
407,183,80847,2,0,L|243:201,1,130,2|8,0:0|0:0,0:0:0:0:
232,300,81422,1,0,0:0:0:0:
252,353,81537,2,0,L|416:335,1,130,2|12,0:0|0:0,0:0:0:0:
503,221,82227,1,2,0:0:0:0:
503,221,82571,1,8,0:0:0:0:
338,181,82916,6,0,P|284:214|246:267,1,130,2|8,0:0|0:0,0:0:0:0:
147,322,83491,1,0,0:0:0:0:
117,275,83606,2,0,P|90:217|88:152,1,130,2|8,0:0|0:0,0:0:0:0:
154,61,84181,1,0,0:0:0:0:
210,67,84296,2,0,P|266:37|331:30,1,130,2|12,0:0|0:0,0:0:0:0:
453,147,84985,2,0,L|442:255,1,86.6666666666667,2|0,0:0|0:0,0:0:0:0:
483,275,85330,1,8,0:0:0:0:
428,374,85560,5,0,0:0:0:0:
371,377,85675,2,0,P|322:343|286:258,1,130,2|8,0:0|0:0,0:0:0:0:
195,221,86250,1,0,0:0:0:0:
140,235,86364,2,0,P|73:268|43:314,1,130,2|8,0:0|0:0,0:0:0:0:
3,207,86939,1,0,0:0:0:0:
36,162,87054,2,0,L|29:27,1,130,2|12,0:0|0:0,0:0:0:0:
139,7,87629,1,0,0:0:0:0:
186,38,87744,2,0,L|193:173,1,130,2|8,0:0|0:0,0:0:0:0:
288,308,88433,6,0,P|360:322|435:366,1,130,2|12,0:0|0:0,0:0:0:0:
430,179,89123,2,0,P|407:109|407:22,1,130,2|8,0:0|0:0,0:0:0:0:
269,158,89813,2,0,P|237:195|185:225,1,86.6666666666667,2|2,0:0|0:0,0:0:0:0:
149,215,90158,1,8,0:0:0:0:
37,203,90387,1,2,0:0:0:0:
66,251,90502,2,0,L|49:363,1,86.6666666666667,8|8,0:0|0:0,0:0:0:0:
97,373,90847,1,8,0:0:0:0:
188,307,91077,5,8,0:0:0:0:
235,338,91192,2,0,P|298:331|368:291,1,130,6|12,0:0|0:0,0:0:0:0:
434,219,91767,1,0,0:0:0:0:
396,178,91882,2,0,L|400:39,1,130,2|8,0:0|0:0,0:0:0:0:
294,8,92456,1,0,0:0:0:0:
259,53,92571,2,0,P|189:81|132:85,1,130,2|12,0:0|0:0,0:0:0:0:
27,217,93261,1,2,0:0:0:0:
27,217,93606,1,8,0:0:0:0:
192,253,93951,6,0,P|234:204|248:135,1,130,2|12,0:0|0:0,0:0:0:0:
354,179,94525,1,0,0:0:0:0:
376,230,94640,2,0,P|430:266|500:273,1,130,2|8,0:0|0:0,0:0:0:0:
447,378,95215,1,0,0:0:0:0:
395,356,95330,2,0,L|255:364,1,130,2|12,0:0|0:0,0:0:0:0:
105,308,96020,1,2,0:0:0:0:
105,308,96364,1,8,0:0:0:0:
201,170,96709,6,0,P|162:99|97:72,1,130,2|12,0:0|0:0,0:0:0:0:
214,13,97284,1,0,0:0:0:0:
260,45,97399,2,0,L|392:21,1,130,2|8,0:0|0:0,0:0:0:0:
475,94,97974,1,0,0:0:0:0:
473,151,98089,2,0,P|455:215|396:271,1,130,2|12,0:0|0:0,0:0:0:0:
311,213,98663,1,0,0:0:0:0:
307,270,98778,2,0,P|253:317|175:326,1,130,2|8,0:0|0:0,0:0:0:0:
36,275,99468,5,2,0:0:0:0:
28,106,99813,1,12,0:0:0:0:
162,3,100158,1,2,0:0:0:0:
326,39,100502,1,8,0:0:0:0:
401,190,100847,5,12,0:0:0:0:
401,190,101077,1,0,0:0:0:0:
305,293,101364,2,0,P|207:247|160:157,1,195
223,16,102227,5,12,0:0:0:0:
223,16,102457,1,0,0:0:0:0:
314,122,102744,2,0,L|522:111,1,195
486,279,103606,5,12,0:0:0:0:
486,279,103836,1,0,0:0:0:0:
359,218,104123,2,0,P|261:264|214:354,1,195
149,181,104985,6,0,P|120:166|88:110,1,86.6666666666667,8|0,0:0|0:0,0:0:0:0:
39,222,105445,2,0,L|7:303,1,86.6666666666667,0|8,0:0|0:0,0:0:0:0:
86,382,105905,2,0,L|119:302,1,86.6666666666667
231,313,106364,5,12,0:0:0:0:
231,313,106594,1,0,0:0:0:0:
148,199,106881,2,0,P|194:101|284:54,1,195
433,29,107744,5,12,0:0:0:0:
433,29,107974,1,0,0:0:0:0:
418,168,108261,2,0,L|385:375,1,195
228,302,109123,6,0,P|173:306|129:299,1,97.5,8|0,0:0|0:0,0:0:0:0:
106,265,109468,2,0,L|132:174,1,65,0|0,0:0|0:0,0:0:0:0:
184,142,109813,2,0,P|239:138|283:145,1,97.5,0|0,0:0|0:0,0:0:0:0:
310,112,110158,2,0,L|336:21,1,65,0|0,0:0|0:0,0:0:0:0:
401,6,110502,6,0,L|420:37,3,21.6666666666667
464,91,110847,2,0,L|453:128,3,21.6666666666667
389,161,111192,2,0,L|408:192,3,21.6666666666667
452,246,111537,2,0,L|441:283,3,21.6666666666667
398,337,111882,5,4,0:0:0:0:
229,338,112227,1,8,0:0:0:0:
106,306,112456,1,0,0:0:0:0:
72,281,112571,2,0,L|64:133,1,130,4|8,0:0|0:0,0:0:0:0:
183,28,113261,5,4,0:0:0:0:
342,86,113606,1,8,0:0:0:0:
287,184,113836,1,0,0:0:0:0:
316,232,113951,2,0,L|314:386,1,130,4|8,0:0|0:0,0:0:0:0:
146,374,114640,5,4,0:0:0:0:
70,223,114985,1,8,0:0:0:0:
124,107,115215,1,0,0:0:0:0:
161,86,115330,2,0,P|243:92|303:108,1,130,4|8,0:0|0:0,0:0:0:0:
411,221,116020,6,0,L|513:190,1,86.6666666666667,4|0,0:0|0:0,0:0:0:0:
489,308,116479,2,0,L|387:339,1,86.6666666666667,0|4,0:0|0:0,0:0:0:0:
330,249,116939,2,0,L|228:280,1,86.6666666666667,4|4,0:0|0:0,0:0:0:0:
170,356,117399,5,4,0:0:0:0:
14,291,117744,1,8,0:0:0:0:
99,196,117974,1,0,0:0:0:0:
122,159,118089,2,0,P|133:92|129:19,1,130,4|8,0:0|0:0,0:0:0:0:
299,7,118778,5,4,0:0:0:0:
398,144,119123,1,8,0:0:0:0:
315,239,119353,1,0,0:0:0:0:
274,231,119468,2,0,P|217:271|182:324,1,130,4|8,0:0|0:0,0:0:0:0:
15,306,120158,5,4,0:0:0:0:
42,139,120502,1,8,0:0:0:0:
163,178,120732,1,0,0:0:0:0:
198,201,120847,2,0,L|352:194,1,130,4|8,0:0|0:0,0:0:0:0:
464,296,121537,5,0,0:0:0:0:
489,261,121652,2,0,P|508:196|498:153,1,86.6666666666667,0|4,0:0|0:0,0:0:0:0:
407,41,122227,1,0,0:0:0:0:
382,76,122341,2,0,P|363:141|373:184,1,86.6666666666667,0|4,0:0|0:0,0:0:0:0:
301,315,122916,5,0,0:0:0:0:
301,315,123261,1,0,0:0:0:0:
301,315,123606,1,0,0:0:0:0:
301,315,123951,1,0,0:0:0:0:
131,223,124296,6,0,L|107:57,1,149.500002851486,8|8,0:3|0:0,0:0:0:0:
295,14,124985,2,0,L|319:180,1,149.500002851486,8|8,0:3|0:0,0:0:0:0:
400,212,125502,1,0,0:0:0:0:
256,342,125847,2,0,P|211:311|194:286,1,74.7500014257431,0|8,0:0|0:0,0:0:0:0:
139,219,126192,2,0,P|129:165|134:135,1,74.7500014257431,0|8,0:0|0:3,0:0:0:0:
186,64,126537,2,0,P|217:19|242:1,1,74.7500014257431,0|8,0:0|0:0,0:0:0:0:
364,150,127054,6,0,L|517:134,1,149.500002851486,8|8,0:3|0:0,0:0:0:0:
412,300,127744,2,0,L|259:316,1,149.500002851486,8|8,0:3|0:0,0:0:0:0:
188,376,128261,1,0,0:0:0:0:
50,239,128606,2,0,L|27:154,1,74.7500014257431,0|8,0:0|0:0,0:0:0:0:
127,151,128951,2,0,L|104:66,1,74.7500014257431,0|8,0:0|0:3,0:0:0:0:
185,19,129296,2,0,L|270:-4,1,74.7500014257431,0|8,0:0|0:0,0:0:0:0:
345,41,129640,1,8,0:0:0:0:
303,128,129813,6,0,P|366:207|438:234,1,149.500002851486,8|8,0:3|0:0,0:0:0:0:
266,359,130502,2,0,P|203:280|131:253,1,149.500002851486,8|8,0:3|0:0,0:0:0:0:
64,270,131020,1,0,0:0:0:0:
144,93,131364,2,0,L|260:74,1,74.7500014257431,0|8,0:0|0:0,0:0:0:0:
241,175,131709,2,0,L|357:156,1,74.7500014257431,0|8,0:0|0:3,0:0:0:0:
413,162,132054,2,0,P|460:203|469:230,1,74.7500014257431,0|8,0:0|0:0,0:0:0:0:
472,310,132399,1,0,0:0:0:0:
376,312,132571,6,0,P|329:328|281:379,2,112.125002138615,8|0|0,0:3|0:0|0:0,0:0:0:0:
404,218,133261,2,0,P|366:185|298:169,2,112.125002138615,8|0|0,0:3|0:0|0:0,0:0:0:0:
499,193,133951,2,0,P|511:129|485:42,1,149.500002851486,8|8,0:3|0:0,0:0:0:0:
297,23,134640,2,0,L|201:34,1,74.7500014257431,8|0,0:3|0:0,0:0:0:0:
196,125,134985,2,0,L|100:136,1,74.7500014257431,8|0,0:0|0:0,0:0:0:0:
66,213,135330,6,0,P|85:268|146:314,2,112.125002138615,8|0|0,0:3|0:0|0:0,0:0:0:0:
57,115,136020,2,0,P|38:60|-23:14,2,112.125002138615,8|0|0,0:3|0:0|0:0,0:0:0:0:
147,152,136709,2,0,P|223:138|284:77,1,149.500002851486,8|8,0:3|0:0,0:0:0:0:
416,226,137399,2,0,L|454:320,1,74.7500014257431,8|0,0:3|0:0,0:0:0:0:
363,350,137744,2,0,L|325:256,1,74.7500014257431,8|8,0:0|0:0,0:0:0:0:
292,190,138089,5,8,0:3:0:0:
292,190,138261,1,6,0:0:0:0:
151,31,138606,1,6,0:0:0:0:
54,218,138951,1,6,0:0:0:0:
192,377,139296,1,6,0:0:0:0:
192,377,139468,1,8,0:3:0:0:
192,377,139640,1,6,0:0:0:0:
357,244,139985,2,0,L|477:255,1,81.25,6|8,0:0|0:3,0:0:0:0:
432,145,140330,2,0,L|512:152,2,81.25,6|0|14,0:0|0:0|0:0,0:0:0:0:
359,67,140847,5,8,0:3:0:0:
359,67,141020,1,6,0:0:0:0:
149,41,141364,1,6,0:0:0:0:
314,171,141709,1,6,0:0:0:0:
104,145,142054,1,0,0:0:0:0:
64,243,142227,1,8,0:3:0:0:
17,338,142399,1,6,0:0:0:0:
228,335,142744,2,0,L|332:365,1,81.25,6|8,0:0|0:3,0:0:0:0:
379,281,143089,2,0,L|275:251,2,81.25,6|8|14,0:0|0:0|0:0,0:0:0:0:
440,367,143606,5,8,0:3:0:0:
440,367,143778,1,6,0:0:0:0:
416,156,144123,1,6,0:0:0:0:
215,89,144468,1,6,0:0:0:0:
68,241,144813,1,6,0:0:0:0:
68,241,144985,1,8,0:3:0:0:
68,241,145158,1,6,0:0:0:0:
241,361,145502,2,0,L|356:351,1,81.25,6|8,0:0|0:3,0:0:0:0:
326,248,145847,2,0,L|441:238,2,81.25,6|8|14,0:0|0:0|0:0,0:0:0:0:
258,166,146364,6,0,P|212:94|129:54,1,162.5,8|8,0:3|0:0,0:0:0:0:
58,118,146882,1,6,0:0:0:0:
14,22,147054,1,8,0:3:0:0:
27,232,147399,2,0,L|3:322,1,81.25,8|6,0:0|0:0,0:0:0:0:
85,380,147744,1,8,0:3:0:0:
85,380,147916,1,6,0:0:0:0:
291,333,148261,1,6,0:0:0:0:
175,156,148606,1,6,0:0:0:0:
252,85,148778,2,0,L|346:96,1,81.25,8|14,0:0|0:0,0:0:0:0:
428,49,149123,5,8,0:3:0:0:
442,153,149296,2,0,P|451:240|506:316,1,162.5,6|6,0:0|0:0,0:0:0:0:
391,342,149813,2,0,P|300:326|218:334,1,162.5,8|8,0:3|0:0,0:0:0:0:
30,262,150502,1,8,0:3:0:0:
30,262,150675,1,6,0:0:0:0:
151,89,151020,1,6,0:0:0:0:
151,89,151192,1,8,0:3:0:0:
249,127,151364,1,6,0:0:0:0:
249,127,151537,1,8,0:0:0:0:
249,127,151709,1,14,0:0:0:0:
328,56,151882,5,8,0:3:0:0:
328,56,152054,2,0,P|400:61|523:102,1,162.5,6|6,0:0|0:0,0:0:0:0:
505,189,152571,2,0,P|436:231|387:296,1,162.5,8|8,0:3|0:0,0:0:0:0:
178,332,153261,1,8,0:3:0:0:
178,332,153433,1,6,0:0:0:0:
51,163,153778,1,6,0:0:0:0:
51,163,153951,1,8,0:3:0:0:
89,64,154123,1,6,0:0:0:0:
89,64,154296,1,8,0:0:0:0:
89,64,154468,1,14,0:0:0:0:
194,71,154640,5,8,0:3:0:0:
194,71,154813,2,0,P|297:47|356:12,1,162.5,6|6,0:0|0:0,0:0:0:0:
424,90,155330,2,0,P|423:175|382:257,1,162.5,8|8,0:3|0:0,0:0:0:0:
181,217,156020,1,8,0:3:0:0:
181,217,156192,1,6,0:0:0:0:
331,365,156537,1,6,0:0:0:0:
331,365,156709,1,8,0:3:0:0:
434,341,156882,1,6,0:0:0:0:
434,341,157054,1,8,0:0:0:0:
434,341,157227,1,14,0:0:0:0:
457,237,157399,6,0,P|453:101|476:46,1,162.5,8|8,0:3|0:0,0:0:0:0:
388,0,157916,1,6,0:0:0:0:
311,83,158089,1,8,0:3:0:0:
311,83,158261,1,4,0:0:0:0:
212,45,158433,1,10,0:0:0:0:
212,45,158606,1,14,0:0:0:0:
135,116,158778,5,8,0:3:0:0:
156,219,158951,2,0,P|152:314|120:379,1,162.5,6|6,0:0|0:0,0:0:0:0:
17,367,159468,1,8,0:3:0:0:
17,367,159640,1,6,0:0:0:0:
4,261,159813,1,8,0:0:0:0:
4,261,159985,1,14,0:0:0:0:
96,209,160158,5,8,0:3:0:0:
162,290,160330,2,0,P|232:292|361:340,1,162.5,6|6,0:0|0:0,0:0:0:0:
418,278,160847,1,8,0:3:0:0:
418,278,161020,1,4,0:0:0:0:
401,173,161192,1,10,0:0:0:0:
401,173,161364,1,14,0:0:0:0:
312,115,161537,5,8,0:3:0:0:
222,170,161709,2,0,P|148:104|125:37,1,162.5,6|6,0:0|0:0,0:0:0:0:
29,4,162227,1,8,0:3:0:0:
39,109,162399,2,0,L|20:207,1,81.25,6|8,0:0|0:0,0:0:0:0:
58,288,162744,1,14,0:0:0:0:
153,272,162916,6,0,P|234:319|272:394,1,149.500002851486,2|8,0:0|0:0,0:0:0:0:
360,373,163433,1,6,0:0:0:0:
402,285,163606,1,0,0:0:0:0:
499,116,163951,1,8,0:0:0:0:
306,140,164296,1,0,0:0:0:0:
253,58,164468,1,6,0:0:0:0:
159,85,164640,2,0,P|67:91|-8:62,1,149.500002851486,8|0,0:0|0:0,0:0:0:0:
20,268,165330,1,8,0:0:0:0:
196,349,165675,6,0,P|247:276|258:212,1,149.500002851486,2|8,0:0|0:0,0:0:0:0:
263,120,166192,1,6,0:0:0:0:
359,117,166364,1,0,0:0:0:0:
461,282,166709,1,8,0:0:0:0:
288,372,167054,1,0,0:0:0:0:
114,302,167399,1,8,0:0:0:0:
94,206,167571,1,6,0:0:0:0:
130,115,167744,1,0,0:0:0:0:
130,115,168089,1,0,0:0:0:0:
285,8,168433,6,0,L|455:23,1,149.500002851486,2|8,0:0|0:0,0:0:0:0:
496,96,168951,1,6,0:0:0:0:
422,159,169123,1,0,0:0:0:0:
504,335,169468,1,8,0:0:0:0:
310,353,169813,1,0,0:0:0:0:
262,268,169985,1,6,0:0:0:0:
164,276,170158,2,0,P|80:232|40:165,1,149.500002851486,8|2,0:0|0:0,0:0:0:0:
153,24,170847,5,8,0:0:0:0:
249,8,171020,1,6,0:0:0:0:
283,98,171192,2,0,P|292:171|364:245,1,149.500002851486,2|8,0:0|0:0,0:0:0:0:
394,308,171709,1,6,0:0:0:0:
303,343,171882,2,0,L|134:357,1,149.500002851486,2|8,0:0|0:0,0:0:0:0:
12,222,172571,5,0,0:0:0:0:
99,62,172916,1,8,0:0:0:0:
196,59,173089,1,6,0:0:0:0:
272,118,173261,1,0,0:0:0:0:
272,118,173606,1,0,0:0:0:0:
327,304,173951,6,0,L|486:280,1,149.500002851486,2|8,0:0|0:0,0:0:0:0:
499,187,174468,1,6,0:0:0:0:
411,144,174640,2,0,P|382:75|377:0,1,149.500002851486,2|8,0:0|0:0,0:0:0:0:
183,19,175330,5,0,0:0:0:0:
87,165,175675,1,8,0:0:0:0:
127,253,175847,1,6,0:0:0:0:
221,275,176020,1,0,0:0:0:0:
314,248,176192,2,0,L|420:272,1,74.7500014257431,12|8,0:0|0:0,0:0:0:0:
264,113,176709,6,0,P|195:170|97:183,1,149.500002851486,2|2,0:0|0:0,0:0:0:0:
47,220,177227,1,4,0:0:0:0:
111,293,177399,2,0,L|93:373,1,74.7500014257431,2|4,0:0|0:0,0:0:0:0:
191,357,177744,2,0,L|209:277,1,74.7500014257431,2|4,0:0|0:0,0:0:0:0:
296,244,178089,5,2,0:0:0:0:
296,244,178261,1,4,0:0:0:0:
264,152,178433,1,2,0:0:0:0:
264,152,178606,1,4,0:0:0:0:
321,74,178778,2,0,L|418:68,1,74.7500014257431,2|4,0:0|0:0,0:0:0:0:
398,166,179123,2,0,L|495:160,1,74.7500014257431,2|4,0:0|0:0,0:0:0:0:
506,252,179468,6,0,P|391:297|365:329,1,149.500002851486,2|2,0:0|0:0,0:0:0:0:
301,377,179985,1,4,0:0:0:0:
225,315,180158,2,0,L|112:322,1,74.7500014257431,2|4,0:0|0:0,0:0:0:0:
99,236,180502,2,0,L|212:229,1,74.7500014257431,2|4,0:0|0:0,0:0:0:0:
236,156,180847,5,2,0:0:0:0:
236,156,181020,1,4,0:0:0:0:
184,73,181192,1,2,0:0:0:0:
184,73,181364,1,4,0:0:0:0:
267,22,181537,2,0,L|362:28,1,74.7500014257431,2|4,0:0|0:0,0:0:0:0:
361,122,181882,2,0,L|456:116,1,74.7500014257431,2|4,0:0|0:0,0:0:0:0:
509,180,182227,6,0,P|490:274|433:339,1,149.500002851486,2|2,0:0|0:0,0:0:0:0:
381,375,182744,1,4,0:0:0:0:
303,316,182916,2,0,L|198:328,1,74.7500014257431,2|4,0:0|0:0,0:0:0:0:
208,229,183261,2,0,L|103:241,1,74.7500014257431,2|4,0:0|0:0,0:0:0:0:
69,164,183606,5,2,0:0:0:0:
69,164,183778,1,4,0:0:0:0:
74,66,183951,1,2,0:0:0:0:
74,66,184123,1,4,0:0:0:0:
170,64,184296,2,0,P|295:64|363:52,1,149.500002851486,2|8,0:0|0:3,0:0:0:0:
416,75,184813,5,12,0:3:0:0:
399,170,184985,1,2,0:0:0:0:
291,332,185330,5,0,0:0:0:0:
231,255,185502,1,4,0:0:0:0:
146,302,185675,2,0,P|82:345|2:366,1,149.500002851486,2|0,0:0|0:0,0:0:0:0:
17,170,186364,2,0,L|115:184,1,74.7500014257431,2|4,0:0|0:0,0:0:0:0:
126,89,186709,2,0,L|224:103,1,74.7500014257431,2|4,0:0|0:0,0:0:0:0:
254,181,187054,1,2,0:0:0:0:
333,125,187227,6,0,L|347:27,1,74.7500014257431,12|2,0:3|0:0,0:0:0:0:
429,4,187571,1,4,0:0:0:0:
480,86,187744,2,0,P|487:175|516:247,1,149.500002851486,2|0,0:0|0:0,0:0:0:0:
459,315,188261,1,4,0:0:0:0:
369,277,188433,2,0,L|183:291,1,149.500002851486,2|8,0:0|0:3,0:0:0:0:
74,157,189123,5,2,0:0:0:0:
170,165,189296,1,6,0:0:0:0:
267,174,189468,1,0,0:0:0:0:
363,183,189640,1,6,0:0:0:0:
460,192,189813,1,2,0:0:0:0:
