osu file format v14

[General]
AudioFilename: La Cantata del Diablo.mp3
AudioLeadIn: 0
PreviewTime: 303670
Countdown: 1
SampleSet: Soft
StackLeniency: 0.4
Mode: 0
LetterboxInBreaks: 1
WidescreenStoryboard: 1

[Editor]
Bookmarks: 10062,85224,170841,235315,432237,514858,627093,810225
DistanceSpacing: 1.1
BeatDivisor: 4
GridSize: 4
TimelineZoom: 1.364

[Metadata]
Title:La Cantata del Diablo
TitleUnicode:La Cantata del Diablo
Artist:Mago de Oz
ArtistUnicode:Mägo de Oz
Creator:Atsuro
Version:Good diff
Source:
Tags:Luna- Xanandra Gero HappyRocket88 Missit Me Dominus
BeatmapID:1383432
BeatmapSetID:652438

[Difficulty]
HPDrainRate:5
CircleSize:4
OverallDifficulty:8
ApproachRate:9.2
SliderMultiplier:2
SliderTickRate:1

[Events]
//Background and Video events
0,0,"negro.png",0,0
//Break Periods
2,10262,84656
2,235408,433571
2,495280,505818
2,510823,809655
//Storyboard Layer 0 (Background)
//Storyboard Layer 1 (Fail)
//Storyboard Layer 2 (Pass)
//Storyboard Layer 3 (Foreground)
//Storyboard Sound Samples

[TimingPoints]
130,952.380952380952,4,2,1,50,1,0
130,-50,4,2,1,50,0,0
5844,1052.63157894737,4,2,1,50,1,0
5844,-50,4,2,1,50,0,0
6896,1081.08108108108,4,2,1,50,1,0
6896,-50,4,2,1,50,0,0
10062,352.63003232442,3,2,1,50,1,0
52403,352.941176470588,3,2,1,50,1,0
52403,-181.818181818182,3,2,1,50,0,0
85224,337.078651685393,4,2,1,50,1,0
85226,-125,4,2,2,50,0,0
95336,-100,4,2,2,50,0,0
106797,-125,4,2,2,50,0,0
109156,-100,4,2,2,50,0,0
109493,-125,4,2,2,50,0,0
111516,-100,4,2,2,50,0,0
112190,-125,4,2,2,50,0,0
114549,-100,4,2,2,50,0,0
114886,-125,4,2,2,50,0,0
119943,-100,4,2,2,50,0,0
120280,-125,4,2,2,50,0,0
122302,-100,4,2,2,50,0,0
122976,-125,4,2,2,50,0,0
125336,-100,4,2,2,50,0,0
125673,-125,4,2,2,50,0,0
130729,-100,4,2,2,50,0,0
131066,-125,4,2,2,50,0,0
136122,-100,4,2,2,50,0,0
136459,-125,4,2,2,50,0,0
141516,-100,4,2,2,50,0,0
141853,-125,4,2,2,50,0,0
146909,-100,4,2,2,50,0,0
147246,-125,4,2,2,50,0,0
149943,-111.111111111111,4,2,2,50,0,0
152302,-90.9090909090909,4,2,2,50,0,0
152639,-111.111111111111,4,2,2,50,0,0
157695,-90.9090909090909,4,2,2,50,0,0
158032,-111.111111111111,4,2,2,50,0,0
160055,-100,4,2,2,50,0,0
160392,-90.9090909090909,4,2,2,50,0,0
160729,-142.857142857143,4,2,2,50,0,0
161066,-83.3333333333333,4,2,2,60,0,0
170841,402.684563758389,4,2,2,50,1,0
171646,-66.6666666666667,4,2,2,50,0,0
172451,-50,4,2,2,50,0,0
173257,-100,4,2,2,50,0,0
174867,-66.6666666666667,4,2,2,50,0,0
175941,-71.4285714285714,4,2,2,50,0,0
176210,-76.9230769230769,4,2,2,35,0,0
176478,-83.3333333333333,4,2,2,35,0,0
176747,-90.9090909090909,4,2,2,35,0,0
177015,-100,4,2,2,35,0,0
177283,-100,4,2,2,50,0,0
178089,-66.6666666666667,4,2,2,50,0,0
178894,-50,4,2,2,50,0,0
179700,-100,4,2,2,50,0,0
181310,-66.6666666666667,4,2,2,50,0,0
185337,-133.333333333333,4,2,2,50,0,0
193391,-100,4,2,2,50,0,0
193794,-76.9230769230769,4,2,2,50,0,0
194196,-90.9090909090909,4,2,2,50,0,0
194599,-66.6666666666667,4,2,2,50,0,0
195002,-133.333333333333,4,2,2,50,0,0
199834,-100,4,2,2,50,0,0
207887,428.571428571429,4,2,1,50,1,0
207887,428.571428571429,4,2,1,50,1,0
207887,-133.333333333333,4,2,2,50,0,0
221601,-133.333333333333,4,2,1,50,0,0
228458,-100,4,2,2,50,0,0
233601,-100,4,2,1,50,0,0
235315,402.684563758389,4,2,1,50,1,0
235315,402.684563758389,4,2,1,50,1,0
300549,402.684563758389,4,2,1,100,1,0
327932,402.684563758389,4,2,1,50,1,0
361757,402.684563758389,4,2,1,50,1,0
386723,402.684563758389,4,2,1,100,1,0
422159,234.375,3,2,1,50,1,0
432237,476.190476190476,4,2,1,50,1,0
434141,297.029702970297,4,2,1,50,1,0
434141,-250,4,2,1,50,0,0
434438,422.535211267606,4,2,1,50,1,0
434438,-250,4,2,1,50,0,0
436128,375,4,2,1,50,1,0
436128,-250,4,2,1,50,0,0
436503,422.535211267606,4,2,1,50,1,0
436503,-250,4,2,1,50,0,0
438193,375,4,2,1,50,1,0
438193,-250,4,2,1,50,0,0
438568,606.060606060606,4,2,1,50,1,0
438568,-188.679245283019,4,2,1,50,0,0
440992,447.761194029851,4,2,1,50,1,0
440992,-200,4,2,1,50,0,0
441439,303.030303030303,4,2,1,50,1,0
441742,225.563909774436,4,2,1,50,1,0
441742,-333.333333333333,4,2,1,50,0,0
441967,177.514792899408,4,2,1,50,1,0
442144,166.666666666667,4,2,1,50,1,0
442144,-333.333333333333,4,2,1,50,0,0
442310,127.659574468085,4,2,1,50,1,0
442437,103.448275862069,4,2,1,50,1,0
442437,-400,4,2,1,50,0,0
442540,136.363636363636,4,2,1,50,1,0
442676,130.434782608696,4,2,1,50,1,0
442676,-400,4,2,1,50,0,0
442806,120,4,2,1,50,1,0
442926,136.363636363636,4,2,1,50,1,0
442926,-370.37037037037,4,2,1,50,0,0
443062,120,4,2,1,50,1,0
443182,150,4,2,1,50,1,0
443182,-357.142857142857,4,2,1,50,0,0
443332,193.548387096774,4,2,1,50,1,0
443525,139.53488372093,4,2,1,50,1,0
443525,-370.37037037037,4,2,1,50,0,0
443664,166.204986149584,4,2,1,50,1,0
443664,-333.333333333333,4,2,1,50,0,0
444661,206.896551724138,4,2,1,50,1,0
444867,275.229357798165,4,2,1,50,1,0
444867,-285.714285714286,4,2,1,50,0,0
445142,250,4,2,1,50,1,0
445392,300,4,2,1,50,1,0
445392,-270.27027027027,4,2,1,50,0,0
445992,357.142857142857,4,2,1,50,1,0
445992,-250,4,2,1,50,0,0
446349,327.868852459016,4,2,1,50,1,0
446676,392.156862745098,4,2,1,50,1,0
446676,-250,4,2,1,50,0,0
447068,425.531914893617,4,2,1,50,1,0
447493,458.015267175573,4,2,1,50,1,0
447493,-250,4,2,1,50,0,0
447951,545.454545454546,4,2,1,50,1,0
448496,662.983425414365,4,2,1,50,1,0
449158,461.538461538462,4,2,1,50,1,0
449158,-142.857142857143,4,2,1,50,0,0
493465,-111.111111111111,4,2,1,50,0,0
506388,352.941176470588,3,2,1,50,1,0
699093,441.826215022091,4,2,1,50,1,0
713231,433.212996389892,4,2,1,50,1,0
716263,495.867768595041,4,2,1,50,1,0
716758,402.684563758389,4,2,1,50,1,0
758637,303.030303030303,4,2,1,50,1,0
761061,312.5,4,2,1,50,1,0
762311,298.507462686567,4,2,1,50,1,0
763505,309.278350515464,4,2,1,50,1,0
764742,304.568527918782,4,2,1,50,1,0
765960,307.692307692308,4,2,1,50,1,0
767190,303.030303030303,4,2,1,50,1,0
768402,306.356905795251,4,2,1,50,1,0
797812,306.122448979592,4,2,1,50,1,0
806995,403.768506056528,4,2,1,50,1,0
810225,402.684563758389,4,2,1,50,1,0
810225,-83.3333333333333,4,2,1,50,0,0
835996,-76.9230769230769,4,2,1,50,0,0
881097,-71.4285714285714,4,2,1,50,0,0
887540,-66.6666666666667,4,2,1,50,0,0
893983,-62.5,4,2,1,50,0,0
897204,-58.8235294117647,4,2,1,50,0,0
900426,-166.666666666667,4,2,1,50,0,0
905258,-111.111111111111,4,2,1,50,0,0
906869,428.571428571429,4,2,1,50,1,0
913726,430.10752688172,4,2,1,50,1,0
920607,427.807486631016,4,2,1,50,1,0
927451,-83.3333333333333,4,2,1,50,0,0
934296,-71.4285714285714,4,2,1,50,0,0
941141,428.877769835597,4,2,1,50,1,0
941141,-76.9230769230769,4,2,1,50,0,0
949718,425.531914893617,4,2,1,50,1,0
949718,-76.9230769230769,4,2,1,50,0,0
953122,434.153400868307,4,2,1,50,1,0
953122,-71.4285714285714,4,2,1,50,0,0
954865,284.36018957346,3,2,1,50,1,0
954865,-83.3333333333333,3,2,1,50,0,0
959130,-71.4285714285714,3,2,1,50,0,0
959986,218.978102189781,3,2,1,50,1,0
959986,-133.333333333333,3,2,1,50,0,0
960642,260.869565217391,3,2,1,50,1,0
960642,-133.333333333333,3,2,1,50,0,0
961424,243.90243902439,3,2,1,50,1,0
961424,-133.333333333333,3,2,1,50,0,0
962399,493.827160493827,4,2,1,50,1,0
966349,441.176470588235,4,2,1,50,1,0
968099,461.538461538462,4,2,1,50,1,0
969945,-200,4,2,1,50,0,0
971791,459.770114942529,4,2,1,50,1,0
971791,-200,4,2,1,50,0,0
977308,461.006530925855,4,2,1,50,1,0
977308,-200,4,2,1,50,0,0
986528,464.756003098373,4,2,1,50,1,0
986528,-153.846153846154,4,2,1,50,0,0
992105,419.58041958042,4,2,1,50,1,0
992105,-200,4,2,1,50,0,0
992524,500,4,2,1,50,1,0
992524,-181.818181818182,4,2,1,50,0,0
993024,413.793103448276,4,2,1,50,1,0
993437,500,4,2,1,50,1,0
993437,-83.3333333333333,4,2,1,60,0,0
993937,425.531914893617,4,2,1,65,1,0
993937,-62.5,4,2,2,70,0,1
994788,401.33779264214,4,2,2,70,1,1
994788,-62.5,4,2,2,70,0,1
995590,401.33779264214,4,2,2,70,1,1
995590,-62.5,4,2,2,70,0,1
1006828,404.312668463612,4,2,2,70,1,1
1006828,-58.8235294117647,4,2,2,70,0,1
1013297,400,4,2,2,70,1,0
1013297,-58.8235294117647,4,2,2,70,0,1
1019697,404.312668463612,4,2,2,50,1,0
1019697,-55.5555555555556,4,2,2,70,0,1
1027778,409.556313993174,4,2,2,70,1,1
1027778,-55.5555555555556,4,2,2,70,0,1
1029313,-55.5555555555556,4,2,2,70,0,0
1029416,398.274145370063,4,2,2,70,1,1
1029416,-55.5555555555556,4,2,1,70,0,1
1030909,-55.5555555555556,4,2,1,70,0,0
1031009,-55.5555555555556,4,2,1,70,0,1
1032502,-55.5555555555556,4,2,1,70,0,0
1032602,-52.6315789473684,4,2,1,70,0,1
1033996,-52.6315789473684,4,2,1,70,0,0
1034016,413.793103448276,4,2,2,70,1,1
1035871,277.777777777778,4,2,2,70,1,0
1035871,-200,4,2,2,70,0,0
1036148,284.36018957346,4,2,2,65,1,0
1036432,196.72131147541,4,2,2,65,1,0
1036628,272.727272727273,4,2,2,65,1,0
1036628,-142.857142857143,4,2,2,65,0,0
1036900,230.769230769231,4,2,2,65,1,0
1037012,187.5,4,2,2,65,1,0
1037199,206.896551724138,4,2,2,65,1,0
1037405,327.868852459016,4,2,2,65,1,0
1037405,-142.857142857143,4,2,2,65,0,0
1037732,292.682926829268,4,2,2,65,1,0
1038024,226.415094339623,4,2,2,65,1,0
1038250,288.461538461538,4,2,2,65,1,0
1038250,-133.333333333333,4,2,2,65,0,0
1038538,95.2380952380952,4,2,2,65,1,0
1038633,196.72131147541,4,2,2,65,1,0
1038829,222.222222222222,4,2,2,65,1,0
1039051,199.335548172757,4,2,2,65,1,0
1039848,215.05376344086,4,2,2,65,1,0
1039848,-142.857142857143,4,2,2,65,0,0
1040708,408.163265306122,4,2,2,65,1,0
1041116,-200,4,2,2,50,0,0
1041524,393.44262295082,4,2,2,70,1,0
1041524,-55.5555555555556,4,2,2,70,0,1
1044671,409.556313993174,4,2,2,70,1,1
1044671,-55.5555555555556,4,2,2,70,0,1
1047947,402.010050251256,4,2,2,70,1,1
1047947,-55.5555555555556,4,2,2,70,0,1
1052771,397.350993377483,4,2,2,65,1,0
1055155,402.684563758389,4,2,2,65,1,1
1055981,401.33779264214,4,2,2,65,1,0
1055981,-200,4,2,2,65,0,1
1057587,-100,4,2,2,65,0,1
1058389,431.654676258993,4,2,1,70,1,0
1060115,-76.9230769230769,4,2,1,60,0,0
1067022,-100,4,2,2,65,0,0
1067885,422.535211267606,4,2,2,65,1,0
1068730,402.684563758389,4,2,2,65,1,0
1069535,365.853658536585,4,2,2,65,1,0
1070266,333.333333333333,4,2,2,65,1,0
1070932,307.692307692308,4,2,2,65,1,0
1071547,289.855072463768,4,2,2,65,1,0
1072126,258.620689655172,4,2,2,65,1,0
1072126,-111.111111111111,4,2,2,65,0,0
1072643,210.526315789474,4,2,2,65,1,0
1072643,-125,4,2,2,65,0,0
1073064,169.014084507042,4,2,2,65,1,0
1073064,-142.857142857143,4,2,2,65,0,0
1073402,120,4,2,2,65,1,0
1073402,-166.666666666667,4,2,2,65,0,0
1073642,80,4,2,2,65,1,0
1073642,-200,4,2,2,65,0,0
1073802,952.380952380952,4,2,1,50,1,0
1074754,461.538461538462,4,2,1,80,1,0
1080292,144.578313253012,4,2,1,60,1,0
1080436,307.692307692308,4,2,1,60,1,0
1080743,329.67032967033,4,2,1,60,1,0
1081072,341.880341880342,4,2,1,60,1,0
1082439,845.070422535211,4,2,1,50,1,0
1083284,593.178447849728,4,2,1,50,1,0
1083284,-333.333333333333,4,2,1,80,0,0
1083432,-333.333333333333,4,2,1,5,0,0
1088641,575.539568345324,4,2,1,50,1,0
1094396,552.995391705069,4,2,1,50,1,0
1101031,564.705882352941,4,2,1,50,1,0
1112325,556.844547563805,4,2,1,50,1,0
1121234,571.428571428571,4,2,1,50,1,0
1130376,582.52427184466,4,2,1,50,1,0
1131541,648.648648648649,4,2,1,50,1,0
1134135,600,4,2,1,50,1,0
1146135,586.510263929619,4,2,1,50,1,0
1155519,560.747663551402,4,2,1,50,1,0
1162247,576.923076923077,4,2,1,50,1,0
1171477,566.037735849057,4,2,1,50,1,0
1173741,576.923076923077,4,2,1,50,1,0
1185279,1423.48754448399,4,2,1,50,1,0
1190972,642.880102860816,4,2,1,50,1,0

[HitObjects]
144,280,133,6,0,B|116:324|116:324|72:312|36:331,2,133.333333333333
104,96,1082,1,0,0:0:0:0:
368,280,2034,2,0,B|396:324|396:324|440:312|475:331,2,133.333333333333
408,96,2987,1,0,0:0:0:0:
104,96,3939,5,0,0:0:0:0:
164,216,4256,1,0,0:0:0:0:
31,208,4574,1,0,0:0:0:0:
408,96,4891,1,0,0:0:0:0:
348,216,5209,1,0,0:0:0:0:
481,208,5526,1,0,0:0:0:0:
256,16,5844,6,0,B|248:56|248:56|264:104|264:104|256:145,2,133.333333333333
194,219,6896,2,0,P|256:240|318:218,1,133.333333333333
256,145,7571,1,0,0:0:0:0:
256,192,7977,12,0,10062,0:0:0:0:
208,152,85226,5,4,0:0:0:0:
133,233,85561,1,0,0:0:0:0:
304,152,85898,1,8,0:0:0:0:
379,233,86235,1,0,0:0:0:0:
202,131,86572,5,4,0:3:0:0:
138,253,86909,1,0,0:0:0:0:
309,131,87246,1,8,0:0:0:0:
373,253,87583,1,0,0:0:0:0:
188,111,87920,5,4,0:3:0:0:
152,273,88257,1,0,0:0:0:0:
323,111,88594,1,8,0:0:0:0:
359,273,88931,1,0,0:0:0:0:
166,95,89268,5,4,0:3:0:0:
174,289,89606,1,0,0:0:0:0:
345,95,89943,1,8,0:0:0:0:
337,289,90280,1,4,0:0:0:0:
216,65,90617,6,0,L|164:52,2,53.3333333333333,4|0|0,0:0|0:0|0:0,0:0:0:0:
296,65,90954,2,0,L|348:52,2,53.3333333333333
190,168,91291,2,0,P|164:176|141:190,2,53.3333333333333,8|0|0,0:0|0:0|0:0,0:0:0:0:
322,168,91628,2,0,P|348:176|371:190,2,53.3333333333333
160,281,91965,6,0,B|141:300|141:300|127:322,2,53.3333333333333,4|0|0,0:3|0:0|0:0,0:0:0:0:
352,281,92302,2,0,B|371:300|371:300|384:322,2,53.3333333333333
256,328,92639,2,0,L|256:382,2,53.3333333333333,8|0|0,0:0|0:0|0:0,0:0:0:0:
256,192,92976,2,0,L|256:138,2,53.3333333333333
352,281,93317,5,4,0:3:0:0:
352,281,93426,2,0,L|403:294,1,53.3333333333333
404,168,93650,1,0,0:0:0:0:
404,168,93763,2,0,L|352:181,1,53.3333333333333
204,220,93988,1,8,0:0:0:0:
204,220,94100,2,0,L|255:233,1,53.3333333333333
256,107,94325,1,0,0:0:0:0:
256,107,94437,2,0,L|204:120,1,53.3333333333333
56,159,94662,1,4,0:3:0:0:
56,159,94774,2,0,L|107:172,1,53.3333333333333
108,46,94999,1,0,0:0:0:0:
108,46,95111,2,0,L|56:59,1,53.3333333333333,0|4,0:0|0:3,0:0:0:0:
73,242,95336,6,0,P|146:242|185:182,1,150,8|0,0:0|0:0,0:0:0:0:
143,113,95673,2,0,B|191:105|191:105|247:121|247:121|289:113,1,150,4|0,0:0|0:0,0:0:0:0:
379,66,96010,5,4,0:0:0:0:
427,155,96179,1,0,0:0:0:0:
338,203,96347,1,0,0:3:0:0:
289,113,96516,1,0,0:0:0:0:
386,292,96684,1,8,0:0:0:0:
475,244,96853,1,0,0:0:0:0:
427,155,97021,1,0,0:0:0:0:
337,202,97190,1,0,0:0:0:0:
472,345,97358,5,4,0:3:0:0:
194,337,97695,1,0,0:0:0:0:
339,100,98032,1,8,0:0:0:0:
40,224,98370,2,0,P|112:231|169:185,1,150,4|0,0:0|0:0,0:0:0:0:
86,140,98707,5,4,0:0:0:0:
167,82,98875,1,0,0:0:0:0:
257,123,99044,1,0,0:0:0:0:
266,222,99212,1,0,0:0:0:0:
437,205,99381,1,8,0:0:0:0:
428,106,99549,1,0,0:0:0:0:
338,65,99718,1,0,0:0:0:0:
257,123,99886,1,0,0:0:0:0:
356,263,100055,5,4,0:3:0:0:
418,7,100392,1,0,0:0:0:0:
164,82,100729,2,0,P|195:148|161:212,1,150,8|0,0:0|0:0,0:0:0:0:
112,278,101066,2,0,P|79:215|108:149,1,150,4|0,0:0|0:0,0:0:0:0:
162,212,101403,5,4,0:0:0:0:
247,264,101572,1,0,0:0:0:0:
299,179,101740,1,0,0:0:0:0:
384,231,101909,1,0,0:0:0:0:
214,127,102077,1,8,0:0:0:0:
299,179,102246,1,0,0:0:0:0:
351,94,102415,1,0,0:0:0:0:
436,146,102583,1,0,0:0:0:0:
266,42,102752,5,4,0:3:0:0:
247,264,103089,1,0,0:0:0:0:
65,137,103426,1,8,0:0:0:0:
400,151,103763,2,0,B|333:177|333:177|260:151,1,150,4|0,0:0|0:0,0:0:0:0:
331,79,104100,5,4,0:0:0:0:
400,151,104268,1,0,0:0:0:0:
398,250,104437,1,0,0:0:0:0:
326,319,104606,1,0,0:0:0:0:
160,146,104774,1,8,0:0:0:0:
232,77,104943,1,0,0:0:0:0:
331,79,105111,1,0,0:0:0:0:
400,151,105280,1,0,0:0:0:0:
157,252,105448,5,8,0:0:0:0:
422,347,105617,1,8,0:0:0:0:
175,333,105785,1,0,1:0:0:0:
404,266,105954,1,0,1:0:0:0:
237,277,106122,1,8,0:3:0:0:
342,322,106291,1,8,0:3:0:0:
329,209,106459,1,4,0:3:0:0:
329,209,106628,1,4,0:3:0:0:
173,333,106797,6,0,P|99:312|74:240,1,160,4|0,0:0|0:0,0:0:0:0:
121,96,107302,1,0,0:0:0:0:
156,251,107471,1,8,0:0:0:0:
4,205,107639,1,0,0:0:0:0:
156,251,107808,2,0,P|195:244|229:224,1,80
396,70,108145,6,0,L|316:59,1,80,4|0,0:3|0:0,0:0:0:0:
441,218,108482,2,0,L|361:207,1,80
486,366,108819,2,0,L|406:355,1,80,8|0,0:0|0:0,0:0:0:0:
117,287,109156,2,0,P|189:283|228:223,1,150,8|0,0:0|0:0,0:0:0:0:
296,157,109493,6,0,P|231:115|216:38,1,160,4|0,0:3|0:0,0:0:0:0:
316,59,109999,1,0,0:0:0:0:
374,224,110167,1,8,0:0:0:0:
427,112,110336,1,0,0:0:0:0:
297,158,110504,1,0,0:0:0:0:
472,242,110673,1,0,0:0:0:0:
310,351,110841,6,0,P|271:349|234:333,1,80,4|0,0:3|0:0,0:0:0:0:
38,261,111179,2,0,P|77:259|114:243,1,80
191,37,111516,2,0,P|158:102|192:166,1,150,8|0,0:0|0:0,0:0:0:0:
266,207,111853,2,0,B|336:177|336:177|403:206,1,150,8|0,0:0|0:0,0:0:0:0:
336,260,112190,6,4,B|360:181|312:181|335:102,1,160,4|0,0:3|0:3,0:3:0:0:
396,22,112695,1,0,0:0:0:0:
237,90,112864,1,8,0:0:0:0:
336,102,113032,1,0,0:0:0:0:
197,0,113201,1,0,0:0:0:0:
177,170,113370,1,0,0:0:0:0:
359,40,113538,6,0,L|279:32,1,80,4|0,0:3|0:0,0:0:0:0:
86,89,113875,2,0,L|165:81,1,80
343,164,114212,2,0,L|263:156,1,80,8|0,0:0|0:0,0:0:0:0:
74,249,114549,2,0,P|144:235|176:169,1,150,8|0,0:0|0:0,0:0:0:0:
86,89,114886,6,0,L|93:168,1,80,4|0,0:3|0:0,0:0:0:0:
271,235,115223,2,0,L|263:155,1,80
22,141,115561,2,0,P|53:165|92:168,1,80,8|0,0:0|0:0,0:0:0:0:
333,184,115898,2,0,P|303:160|263:155,1,80
173,362,116235,6,0,P|203:291|172:220,1,160,4|0,0:3|0:0,0:0:0:0:
105,293,116740,1,0,0:0:0:0:
280,368,116909,2,0,P|319:366|356:350,1,80,8|0,0:0|0:0,0:0:0:0:
311,120,117246,2,0,P|293:154|289:194,1,80,8|0,0:0|0:0,0:0:0:0:
509,270,117583,6,0,P|438:241|366:272,1,160,4|0,0:0|0:0,0:0:0:0:
439,338,118089,1,0,0:0:0:0:
387,176,118257,1,8,0:0:0:0:
366,272,118426,1,0,0:0:0:0:
221,140,118594,1,0,0:0:0:0:
322,75,118763,1,0,0:0:0:0:
284,241,118931,6,0,P|249:258|209:260,1,80,4|0,0:3|0:0,0:0:0:0:
202,64,119268,2,0,P|219:99|221:139,1,80
21,149,119606,2,0,P|57:130|97:128,1,80,8|0,0:0|0:0,0:0:0:0:
150,328,119943,2,0,B|116:262|116:262|150:195,1,150,8|0,0:0|0:0,0:0:0:0:
219,139,120280,6,0,P|290:169|362:138,1,160,4|0,0:3|0:0,0:0:0:0:
340,41,120785,1,0,0:0:0:0:
454,168,120954,1,8,0:0:0:0:
509,9,121122,1,0,0:0:0:0:
362,137,121291,1,0,0:0:0:0:
481,88,121459,1,0,0:0:0:0:
268,109,121628,6,0,L|188:101,1,80,4|0,0:3|0:0,0:0:0:0:
254,270,121965,2,0,L|333:262,1,80
193,22,122302,2,0,P|127:51|113:122,1,150,8|0,0:0|0:0,0:0:0:0:
106,200,122639,2,0,P|173:171|187:100,1,150,8|0,0:0|0:3,0:3:0:0:
40,10,122976,6,0,B|8:81|8:81|41:156,1,160,4|0,0:3|0:0,0:0:0:0:
138,274,123482,1,0,0:0:0:0:
256,136,123650,1,8,0:0:0:0:
128,146,123819,1,0,0:0:0:0:
266,264,123988,1,0,0:0:0:0:
384,126,124156,1,0,0:0:0:0:
244,7,124325,6,0,L|251:86,1,80,4|0,0:3|0:0,0:0:0:0:
391,205,124662,2,0,L|383:125,1,80
172,95,124999,2,0,L|251:87,1,80,8|0,0:0|0:0,0:0:0:0:
432,4,125336,2,0,B|376:44|376:44|383:124,1,150,8|0,0:0|0:0,0:0:0:0:
391,205,125673,5,4,0:3:0:0:
462,86,125841,1,0,0:0:0:0:
464,255,126010,1,0,0:0:0:0:
383,124,126179,1,0,0:0:0:0:
311,260,126347,2,0,P|240:316|161:323,1,160,8|0,0:0|0:0,0:0:0:0:
61,282,126853,1,0,0:0:0:0:
271,168,127021,6,0,P|290:132|298:93,1,80,4|0,0:3|0:0,0:0:0:0:
66,64,127358,1,8,0:0:0:0:
173,324,127527,1,8,0:0:0:0:
178,106,127695,1,8,0:3:0:0:
61,282,127864,1,8,0:3:0:0:
219,216,128032,1,4,0:3:0:0:
20,172,128201,1,4,0:3:0:0:
156,20,128370,6,0,P|240:43|264:129,1,160,4|0,0:0|0:0,0:0:0:0:
178,106,128875,1,0,0:0:0:0:
355,105,129044,1,8,0:0:0:0:
267,194,129212,1,0,0:0:0:0:
444,193,129381,1,0,0:0:0:0:
355,105,129549,1,0,0:0:0:0:
356,282,129718,6,0,P|390:328|412:341,1,80,4|0,0:3|0:0,0:0:0:0:
496,135,130055,2,0,P|464:158|443:192,1,80
303,339,130392,2,0,P|334:315|355:281,1,80,8|0,0:0|0:0,0:0:0:0:
233,128,130729,2,0,B|267:194|267:194|233:261,1,150,8|0,0:0|0:0,0:0:0:0:
151,333,131066,6,0,P|122:260|151:187,1,160,4|0,0:3|0:0,0:0:0:0:
233,127,131572,1,0,0:0:0:0:
41,49,131740,1,8,0:0:0:0:
151,187,131909,1,0,0:0:0:0:
172,1,132077,1,0,0:0:0:0:
56,151,132246,1,0,0:0:0:0:
233,127,132415,6,0,L|314:117,1,80,4|0,0:3|0:0,0:0:0:0:
114,248,132752,2,0,L|33:238,1,80
233,369,133089,1,8,0:0:0:0:
252,366,133173,1,0,0:0:0:0:
272,364,133257,1,0,0:0:0:0:
292,361,133341,1,0,0:0:0:0:
312,359,133426,2,0,L|352:354,3,40,8|0|0|0,0:0|0:0|0:0|0:0,0:0:0:0:
425,340,133763,6,0,P|451:266|425:192,1,160,4|0,0:3|0:0,0:0:0:0:
314,126,134268,1,0,0:0:0:0:
491,81,134437,1,8,0:0:0:0:
380,15,134606,1,0,0:0:0:0:
425,192,134774,1,0,0:0:0:0:
250,143,134943,1,0,0:0:0:0:
295,320,135111,6,0,P|341:348|378:354,1,80,4|0,0:3|0:0,0:0:0:0:
496,158,135448,2,0,P|457:168|424:191,1,80
179,176,135785,2,0,P|217:165|250:142,1,80,8|0,0:0|0:0,0:0:0:0:
30,15,136122,2,0,L|44:182,1,150,8|0,0:0|0:0,0:0:0:0:
0,247,136459,6,0,P|77:263|139:312,1,160,4|0,0:3|0:0,0:0:0:0:
34,356,136965,1,0,0:0:0:0:
140,191,137134,1,8,0:0:0:0:
139,312,137302,1,0,0:0:0:0:
318,125,137471,1,0,0:0:0:0:
197,124,137639,1,0,0:0:0:0:
272,317,137808,6,0,P|304:294|328:262,1,80,4|0,0:3|0:0,0:0:0:0:
258,45,138145,1,4,0:3:0:0:
256,203,138313,1,4,0:3:0:0:
468,125,138482,2,0,B|430:112|430:112|392:125,1,80,8|0,0:0|0:0,0:0:0:0:
181,203,138819,2,0,B|219:216|219:216|256:202,1,80,8|0,0:0|0:0,0:0:0:0:
83,27,139156,6,0,L|61:185,1,160,4|0,0:0|0:0,0:0:0:0:
43,321,139662,1,0,0:0:0:0:
197,203,139830,1,8,0:0:0:0:
61,185,139999,1,0,0:0:0:0:
179,339,140167,1,0,0:0:0:0:
137,131,140336,1,0,0:0:0:0:
43,321,140504,6,0,P|84:304|125:275,1,80,4|0,0:3|0:0,0:0:0:0:
49,105,140841,2,0,L|60:184,1,80
255,349,141179,2,0,L|243:269,1,80,8|0,0:0|0:0,0:0:0:0:
168,63,141516,2,0,B|135:131|135:131|168:197,1,150,8|0,0:0|0:0,0:0:0:0:
264,174,141853,6,0,P|340:153|416:174,1,160,4|0,0:3|0:0,0:0:0:0:
484,262,142358,1,0,0:0:0:0:
458,71,142527,1,8,0:0:0:0:
416,174,142695,1,0,0:3:0:0:
313,132,142864,1,0,0:3:0:0:
355,29,143032,1,0,0:3:0:0:
203,148,143201,6,0,P|134:165|101:161,1,80,4|0,0:3|0:0,0:0:0:0:
328,248,143538,2,0,P|397:265|430:261,1,80
203,348,143874,1,8,0:0:0:0:
184,351,143959,1,0,0:0:0:0:
164,353,144043,1,0,0:0:0:0:
144,356,144127,1,0,0:0:0:0:
124,358,144212,2,0,L|84:363,3,40,8|0|0|0,0:0|0:0|0:0|0:0,0:0:0:0:
16,324,144549,6,0,P|72:260|84:176,1,160,4|0,0:3|0:0,0:0:0:0:
0,92,145055,1,0,0:0:0:0:
170,92,145223,1,8,0:0:0:0:
85,7,145392,1,0,0:0:0:0:
85,188,145561,1,0,0:0:0:0:
242,98,145729,1,0,0:0:0:0:
398,188,145898,6,0,P|456:208|488:208,1,80,4|0,0:3|0:0,0:0:0:0:
318,77,146235,2,0,P|278:82|241:97,1,80
85,188,146572,2,0,P|121:203|161:208,1,80,8|0,0:0|0:0,0:0:0:0:
24,20,146909,2,0,P|112:64|116:128,1,150,8|0,0:0|0:0,0:0:0:0:
85,188,147246,6,0,P|57:261|84:334,1,160,4|0,0:3|0:0,0:0:0:0:
171,261,147752,1,0,0:0:0:0:
336,336,147920,1,8,0:0:0:0:
249,262,148089,1,0,0:0:0:0:
410,248,148257,1,0,0:0:0:0:
318,116,148426,1,0,0:0:0:0:
410,248,148594,6,0,L|489:257,1,80,4|0,0:3|0:0,0:0:0:0:
249,262,148931,1,8,0:0:0:0:
473,105,149100,1,8,0:0:0:0:
251,175,149268,1,8,0:3:0:0:
470,191,149437,1,8,0:3:0:0:
318,116,149606,1,4,0:3:0:0:
410,248,149775,1,4,0:3:0:0:
176,216,149943,6,0,P|121:220|46:347,1,179.999994506836,4|0,0:0|0:0,0:0:0:0:
157,327,150448,1,0,0:0:0:0:
325,216,150617,1,8,0:0:0:0:
344,327,150785,1,0,0:0:0:0:
500,215,150954,1,0,0:0:0:0:
481,326,151122,1,0,0:0:0:0:
367,136,151291,6,0,P|410:127|454:135,1,89.9999972534181,4|0,0:3|0:0,0:0:0:0:
273,287,151628,2,0,P|243:253|229:211,1,89.9999972534181,0|0,2:0|2:0,2:0:0:0:
451,293,151965,2,0,P|436:335|407:368,1,89.9999972534181,8|0,0:0|0:0,0:0:0:0:
114,288,152302,2,0,B|193:263|193:263|272:288,1,165.000005035401,8|0,0:0|0:0,0:0:0:0:
194,352,152639,6,0,B|163:263|219:263|194:176,1,179.999994506836,4|0,0:3|0:0,0:0:0:0:
130,91,153145,1,0,0:0:0:0:
297,162,153313,1,8,0:0:0:0:
249,43,153482,1,0,0:0:0:0:
194,176,153650,1,0,0:0:0:0:
345,43,153820,1,0,0:0:0:0:
400,176,153988,6,0,L|420:285,1,89.9999972534181,4|0,0:3|0:0,0:0:0:0:
256,377,154325,2,0,L|276:268,1,89.9999972534181
112,180,154662,1,8,0:0:0:0:
116,202,154746,1,0,0:0:0:0:
120,224,154830,1,0,0:0:0:0:
124,246,154914,1,0,0:0:0:0:
128,268,154999,2,0,L|138:322,3,44.999998626709,12|0|0|0,0:3|0:0|0:3|0:0,0:0:0:0:
63,349,155336,6,0,B|44:233|44:233|92:192,1,179.999994506836,4|0,0:0|0:0,0:0:0:0:
128,269,155841,1,0,0:0:0:0:
57,115,156010,1,8,0:0:0:0:
170,157,156179,1,0,0:0:0:0:
99,2,156347,1,0,0:0:0:0:
57,115,156516,1,0,0:0:0:0:
212,44,156684,6,0,L|321:24,1,89.9999972534181,4|0,0:3|0:3,0:3:0:0:
464,150,157021,2,0,L|355:130,1,89.9999972534181,0|0,0:3|0:3,0:3:0:0:
212,256,157358,2,0,L|321:236,1,89.9999972534181,8|0,0:0|0:3,0:3:0:0:
127,74,157695,2,0,P|152:151|126:228,1,165.000005035401,8|0,0:0|0:0,0:0:0:0:
43,255,158032,6,0,P|127:227|211:255,1,179.999994506836,4|0,0:3|0:0,0:0:0:0:
287,343,158538,1,0,0:0:0:0:
249,145,158706,1,8,0:0:0:0:
325,233,158875,1,0,0:0:0:0:
337,69,159044,1,0,0:0:0:0:
249,145,159213,1,0,0:0:0:0:
449,210,159381,2,0,L|455:120,1,89.9999972534181,4|0,0:3|0:0,0:0:0:0:
255,55,159718,2,0,L|248:144,1,89.9999972534181
380,322,160055,6,0,B|337:268|337:268|243:268,1,150,8|0,0:0|0:0,0:0:0:0:
163,301,160392,2,0,P|222:268|161:238,1,165.000005035401,4|0,0:3|0:0,0:0:0:0:
77,223,160729,6,0,B|61:275|61:275|78:323,1,104.999996795654,4|0,0:0|0:0,0:0:0:0:
162,302,161066,6,0,P|198:262|263:246,1,119.999996337891
428,320,161403,1,8,0:0:0:0:
408,137,161572,1,0,0:0:0:0:
260,324,161740,2,0,P|299:360|365:370,1,119.999996337891
408,137,162077,6,0,L|357:258,1,119.999996337891,4|0,0:3|0:0,0:0:0:0:
104,137,162415,2,0,L|155:258,1,119.999996337891
256,60,162752,2,0,B|284:148|232:148|256:236,1,179.999994506836,8|0,0:0|0:0,0:0:0:0:
333,329,163089,2,0,P|256:288|179:328,1,179.999994506836,8|0,0:0|0:0,0:0:0:0:
256,377,163426,5,4,0:3:0:0:
256,377,163763,2,0,B|276:320|276:320|256:264,1,119.999996337891
179,59,164100,1,8,0:0:0:0:
179,325,164268,1,0,0:0:0:0:
256,120,164437,2,0,B|276:64|276:64|256:7,1,119.999996337891
32,191,164774,6,0,P|88:174|145:191,1,119.999996337891,4|0,0:3|0:0,0:0:0:0:
369,263,165111,2,0,P|312:280|255:263,1,119.999996337891
464,37,165448,1,8,0:0:0:0:
466,66,165532,1,0,0:0:0:0:
469,96,165616,1,0,0:0:0:0:
472,126,165700,1,0,0:0:0:0:
475,156,165785,2,0,L|480:215,3,59.9999981689454,4|0|0|0,0:3|0:0|0:0|0:0,0:0:0:0:
386,196,166122,5,4,0:0:0:0:
386,196,166459,2,0,P|351:176|269:157,1,119.999996337891
86,321,166797,1,8,0:0:0:0:
356,322,166965,1,0,0:0:0:0:
167,158,167135,2,0,P|108:169|55:196,1,119.999996337891
217,368,167471,6,0,L|217:248,1,119.999996337891,4|0,0:3|0:0,0:0:0:0:
96,65,167808,2,0,B|120:121|120:121|176:165,1,119.999996337891
441,161,168145,2,0,P|357:161|389:209,1,179.999994506836,8|0,0:0|0:0,0:0:0:0:
384,315,168482,2,0,P|468:315|436:267,1,179.999994506836,8|0,0:0|0:0,0:0:0:0:
292,263,168819,5,4,0:3:0:0:
292,263,169156,2,0,L|172:277,1,119.999996337891
0,301,169493,1,8,0:0:0:0:
182,384,169662,1,0,0:0:0:0:
163,185,169830,2,0,L|148:65,1,119.999996337891
292,263,170167,2,0,L|306:143,1,119.999996337891,4|0,0:3|0:0,0:0:0:0:
398,369,170504,2,0,L|462:201,1,179.999994506836,0|0,0:3|0:0,0:0:0:0:
500,108,170841,6,0,L|429:106,1,50,8|0,0:0|0:0,0:0:0:0:
332,105,171042,1,0,0:0:0:0:
332,105,171143,1,0,0:0:0:0:
332,105,171243,1,0,0:0:0:0:
500,108,171445,1,0,0:0:0:0:
260,214,171646,6,0,L|366:211,1,75.0000028610231,8|0,0:0|0:0,0:0:0:0:
512,209,171847,1,0,0:0:0:0:
512,209,171948,1,0,0:0:0:0:
512,209,172048,1,0,0:0:0:0:
260,214,172250,1,0,0:0:0:0:
507,323,172451,6,0,L|365:319,1,100,8|0,0:0|0:0,0:0:0:0:
171,317,172652,1,0,0:0:0:0:
171,317,172753,1,0,0:0:0:0:
171,317,172853,1,0,0:0:0:0:
507,323,173055,1,0,0:0:0:0:
254,202,173257,1,0,1:0:0:0:
218,197,173357,1,0,1:0:0:0:
183,204,173458,1,8,0:3:0:0:
152,223,173559,1,8,0:3:0:0:
123,245,173659,1,4,0:3:0:0:
87,250,173759,1,4,0:3:0:0:
51,243,173860,1,4,0:3:0:0:
23,224,173961,1,4,0:3:0:0:
4,195,174062,6,0,L|9:145,1,50,8|0,0:0|0:0,0:0:0:0:
27,34,174263,1,0,0:0:0:0:
27,34,174364,1,0,0:0:0:0:
27,34,174465,1,0,0:0:0:0:
4,195,174666,1,0,0:0:0:0:
142,17,174867,6,0,L|133:91,1,75.0000028610231,8|0,0:0|0:0,0:0:0:0:
107,258,175068,1,0,0:0:0:0:
107,258,175169,1,0,0:0:0:0:
107,258,175270,1,0,0:0:0:0:
142,17,175471,1,0,0:0:0:0:
401,98,175673,6,0,L|248:107,1,150.000005722046,4|0,0:0|0:0,0:0:0:0:
251,126,175941,2,0,L|390:134,1,139.999995727539,4|0,0:0|0:0,0:0:0:0:
390,154,176210,2,0,L|250:162,1,129.999994049073,4|0,0:0|0:0,0:0:0:0:
260,181,176478,2,0,L|399:189,1,119.999996337891,4|0,0:0|0:0,0:0:0:0:
379,208,176747,2,0,L|269:214,1,110.000003356934,4|0,0:0|0:0,0:0:0:0:
269,234,177015,2,0,L|368:239,1,100,4|0,0:0|0:0,0:0:0:0:
241,269,177283,6,0,L|191:271,1,50,8|0,0:0|0:0,0:0:0:0:
64,280,177485,1,0,0:0:0:0:
64,280,177585,1,0,0:0:0:0:
64,280,177686,1,0,0:0:0:0:
241,269,177887,1,0,0:0:0:0:
31,186,178089,6,0,L|105:182,1,75.0000028610231,8|0,0:0|0:0,0:0:0:0:
296,169,178291,1,0,0:0:0:0:
296,169,178391,1,0,0:0:0:0:
296,169,178492,1,0,0:0:0:0:
31,186,178693,1,0,0:0:0:0:
359,67,178894,6,0,L|259:71,1,100,8|0,0:0|0:0,0:0:0:0:
5,89,179096,1,0,0:0:0:0:
5,89,179196,1,0,0:0:0:0:
5,89,179297,1,0,0:0:0:0:
359,67,179498,1,0,0:0:0:0:
170,80,179700,5,0,1:0:0:0:
173,129,179800,1,0,1:0:0:0:
176,179,179901,1,8,0:3:0:0:
179,229,180002,1,8,0:3:0:0:
218,238,180102,1,4,0:3:0:0:
216,262,180202,1,4,0:3:0:0:
214,287,180303,1,4,0:3:0:0:
213,312,180404,1,4,0:3:0:0:
183,356,180505,6,0,L|233:351,1,50,8|0,0:0|0:0,0:0:0:0:
374,338,180706,1,0,0:0:0:0:
374,338,180807,1,0,0:0:0:0:
374,338,180908,1,0,0:0:0:0:
183,356,181109,1,0,0:0:0:0:
420,233,181310,6,0,L|345:240,1,75.0000028610231,8|0,0:0|0:0,0:0:0:0:
133,260,181511,1,0,0:0:0:0:
133,260,181612,1,0,0:0:0:0:
133,260,181713,1,0,0:0:0:0:
420,233,181914,1,0,0:0:0:0:
40,269,182116,1,12,0:0:0:0:
40,269,184733,5,4,0:3:0:0:
420,233,184935,1,4,0:3:0:0:
442,247,185337,6,0,B|372:229|371:288|300:274,1,150.000005722046,4|0,0:0|0:0,0:0:0:0:
215,147,186143,2,0,P|284:134|317:196,1,150.000005722046,8|0,0:0|0:0,0:0:0:0:
120,191,186747,1,0,0:0:0:0:
120,191,186948,2,0,B|109:142|109:142|125:99|125:99|115:29,1,150.000005722046,4|0,0:3|0:0,0:0:0:0:
37,297,187753,2,0,P|114:288|186:285,1,150.000005722046,8|0,0:0|0:0,0:0:0:0:
442,247,188559,6,0,L|445:193,2,37.5000014305115,4|0|0,0:0|0:0|0:0,0:0:0:0:
273,233,189062,1,0,0:0:0:0:
243,229,189162,1,0,0:0:0:0:
214,233,189263,1,0,0:0:0:0:
187,245,189364,1,8,0:0:0:0:
164,265,189464,1,0,0:0:0:0:
139,282,189565,1,0,0:0:0:0:
110,286,189665,1,0,0:0:0:0:
80,282,189766,1,0,0:0:0:0:
53,269,189867,1,0,0:0:0:0:
30,250,189967,1,0,0:0:0:0:
17,222,190069,1,0,0:0:0:0:
14,191,190169,6,0,L|56:190,2,37.5000014305115,4|0|0,0:3|0:0|0:0,0:0:0:0:
130,79,190673,1,0,0:0:0:0:
130,97,190773,1,4,0:3:0:0:
130,115,190874,1,4,0:3:0:0:
156,131,190974,1,8,0:0:0:0:
185,136,191075,1,0,0:0:0:0:
214,129,191176,1,4,0:0:0:0:
242,117,191277,1,0,0:0:0:0:
268,102,191377,1,0,0:0:0:0:
297,97,191478,1,0,0:0:0:0:
326,104,191579,1,0,0:0:0:0:
353,114,191679,1,0,0:0:0:0:
375,133,191780,6,0,L|372:181,2,37.5000014305115,4|0|0,0:0|0:0|0:0,0:0:0:0:
470,272,192283,1,0,0:0:0:0:
440,273,192383,1,0,0:0:0:0:
410,274,192484,1,0,0:0:0:0:
380,276,192585,1,8,0:0:0:0:
350,277,192685,1,0,0:0:0:0:
320,278,192786,1,0,0:0:0:0:
314,308,192887,1,0,0:0:0:0:
284,307,192987,1,0,0:0:0:0:
254,306,193088,1,0,0:0:0:0:
224,304,193189,1,0,0:0:0:0:
194,303,193289,1,0,0:0:0:0:
164,300,193391,6,0,P|125:243|171:190,1,150,4|0,0:0|0:0,0:0:0:0:
229,127,193794,6,0,B|121:83|138:160|41:127,1,194.999991073609,4|0,0:0|0:0,0:0:0:0:
88,57,194196,6,0,P|163:38|256:58,1,165.000005035401,4|0,0:0|0:0,0:0:0:0:
317,98,194599,6,0,B|327:148|307:191|307:191|333:223|333:223|315:263|324:310,1,225.000008583069,4|0,0:0|0:0,0:0:0:0:
412,276,195002,6,0,L|458:278,2,37.5000014305115,4|0|0,0:0|0:0|0:0,0:0:0:0:
247,239,195505,1,0,0:0:0:0:
218,236,195605,1,4,0:3:0:0:
191,223,195706,1,0,0:0:0:0:
171,201,195807,1,8,0:0:0:0:
151,178,195908,1,0,0:0:0:0:
131,156,196009,1,0,0:0:0:0:
104,143,196110,1,0,0:0:0:0:
74,141,196210,1,0,0:0:0:0:
46,153,196310,1,0,0:0:0:0:
27,176,196410,1,0,0:0:0:0:
21,204,196511,1,0,0:0:0:0:
28,234,196612,6,0,L|72:233,2,37.5000014305115,4|0|0,0:3|0:0|0:0,0:0:0:0:
144,356,197116,1,0,0:0:0:0:
144,338,197216,1,4,0:3:0:0:
144,320,197317,1,4,0:3:0:0:
170,304,197417,1,8,0:0:0:0:
199,299,197518,1,0,0:0:0:0:
228,306,197619,1,4,0:0:0:0:
256,318,197720,1,0,0:0:0:0:
282,333,197820,1,0,0:0:0:0:
311,338,197921,1,0,0:0:0:0:
340,331,198022,1,0,0:0:0:0:
367,321,198122,1,0,0:0:0:0:
389,302,198223,6,0,L|386:254,2,37.5000014305115,4|0|0,0:0|0:0|0:0,0:0:0:0:
473,156,198726,5,0,0:0:0:0:
443,155,198826,1,4,0:3:0:0:
413,154,198927,1,0,0:0:0:0:
383,152,199028,1,8,0:0:0:0:
353,151,199128,1,0,0:0:0:0:
323,150,199229,1,0,0:0:0:0:
317,120,199330,1,0,0:0:0:0:
287,121,199430,1,0,0:0:0:0:
257,122,199531,1,0,0:0:0:0:
227,124,199632,1,8,0:0:0:0:
197,125,199732,1,8,0:0:0:0:
167,128,199834,6,0,L|171:241,1,100,4|8,0:0|0:0,0:0:0:0:
179,357,200236,1,8,0:3:0:0:
31,282,200438,2,0,B|42:280|74:269|74:269|109:289|109:289|165:252|237:275,1,200,8|8,0:3|0:3,0:0:0:0:
419,317,201042,1,4,0:3:0:0:
167,128,201445,5,8,0:0:0:0:
168,177,201545,1,8,0:0:0:0:
170,227,201646,1,8,0:0:0:0:
499,291,202049,2,0,P|450:238|376:244,1,150,8|0,0:0|0:0,0:0:0:0:
327,298,202451,2,0,P|332:225|334:134,1,150,8|0,0:0|0:0,0:0:0:0:
334,72,202854,1,8,0:0:0:0:
89,122,203055,5,8,0:0:0:0:
90,171,203155,1,8,0:0:0:0:
92,221,203256,1,8,0:0:0:0:
81,222,204062,6,0,B|125:233|162:203|162:203|224:230|224:230|260:192|320:206,1,250,8|0,0:0|0:0,0:0:0:0:
389,155,204666,5,8,0:0:0:0:
402,202,204766,1,8,0:0:0:0:
389,249,204867,1,8,0:0:0:0:
389,249,206075,5,8,0:0:0:0:
402,202,206176,1,8,0:0:0:0:
389,155,206276,1,8,0:0:0:0:
277,200,206478,1,4,0:3:0:0:
502,201,206679,1,4,0:3:0:0:
368,48,206881,6,0,B|296:16|300:81|211:42,1,150,8|0,0:3|0:0,0:0:0:0:
143,27,207283,1,4,0:3:0:0:
333,119,207485,1,4,0:3:0:0:
23,162,207887,6,0,B|93:189|149:109|149:109|131:214|159:256|159:256|194:165|300:188,1,450.000017166138,4|0,0:0|0:0,0:0:0:0:
61,88,209601,5,8,0:3:0:0:
242,263,209922,1,8,0:3:0:0:
304,19,210244,1,4,0:3:0:0:
206,132,210458,1,4,0:3:0:0:
450,96,210779,1,8,0:0:0:0:
446,125,210887,1,8,0:0:0:0:
304,209,211101,1,4,0:3:0:0:
503,314,211315,6,0,B|436:275|350:314|350:314|421:272|446:208|446:208|372:238|297:206,1,450.000017166138,4|0,0:0|0:0,0:0:0:0:
187,303,213029,6,8,L|192:373,2,50.0000019073487,8|8|8,0:3|0:3|0:3,0:3:0:0:
57,226,213458,2,4,L|62:156,2,50.0000019073487,4|4|4,0:3|0:3|0:3,0:3:0:0:
177,187,213887,1,4,0:3:0:0:
174,137,214029,1,4,0:3:0:0:
170,87,214172,1,4,0:3:0:0:
284,36,214315,2,0,L|278:113,1,75.0000028610231,8|4,0:0|0:3,0:0:0:0:
480,192,214744,6,0,B|408:160|412:225|323:186,1,150,4|0,0:0|0:0,0:0:0:0:
64,192,215601,1,4,0:3:0:0:
64,192,215922,1,4,0:3:0:0:
64,192,216244,1,4,0:3:0:0:
198,324,217315,5,4,0:3:0:0:
198,324,217636,1,4,0:3:0:0:
198,324,217958,1,4,0:3:0:0:
198,60,219029,5,4,0:3:0:0:
198,60,219350,1,4,0:3:0:0:
198,60,219672,1,4,0:3:0:0:
332,191,220744,5,4,0:3:0:0:
332,191,221065,1,4,0:3:0:0:
332,191,221387,1,4,0:3:0:0:
137,202,221601,5,8,0:0:0:0:
174,199,221708,1,8,0:0:0:0:
211,196,221815,1,8,0:0:0:0:
249,194,221922,2,0,L|249:154,1,37.5000014305115,8|0,0:0|0:0,0:0:0:0:
326,78,222137,2,0,L|326:118,1,37.5000014305115,8|0,0:0|0:0,0:0:0:0:
408,188,222351,2,0,L|408:148,1,37.5000014305115,8|0,0:0|0:0,0:0:0:0:
502,95,222565,2,0,L|502:135,1,37.5000014305115,8|0,0:0|0:0,0:0:0:0:
498,272,222779,1,8,0:0:0:0:
461,269,222886,1,8,0:0:0:0:
424,266,222993,1,8,0:0:0:0:
386,264,223101,1,8,0:0:0:0:
170,328,223315,5,8,0:0:0:0:
207,325,223422,1,8,0:0:0:0:
244,322,223529,1,8,0:0:0:0:
282,320,223637,2,0,P|292:301|297:283,1,37.5000014305115,8|0,0:0|0:0,0:0:0:0:
203,214,223851,2,0,P|214:232|227:245,1,37.5000014305115,8|0,0:0|0:0,0:0:0:0:
334,198,224065,2,0,P|312:198|294:203,1,37.5000014305115,8|0,0:0|0:0,0:0:0:0:
282,320,224279,2,0,P|292:301|297:283,1,37.5000014305115,8|0,0:0|0:0,0:0:0:0:
241,118,224494,1,8,0:0:0:0:
243,141,224601,1,8,0:0:0:0:
448,64,225029,5,8,0:0:0:0:
411,67,225136,1,8,0:0:0:0:
374,70,225243,1,8,0:0:0:0:
336,72,225350,2,0,L|336:112,1,37.5000014305115,8|0,0:0|0:0,0:0:0:0:
242,33,225565,2,0,L|242:73,1,37.5000014305115,8|0,0:0|0:0,0:0:0:0:
150,88,225779,2,0,L|150:128,1,37.5000014305115,8|0,0:0|0:0,0:0:0:0:
59,44,225993,2,0,L|59:84,1,37.5000014305115,8|0,0:0|0:0,0:0:0:0:
69,211,226207,1,8,0:0:0:0:
106,214,226314,1,8,0:0:0:0:
143,217,226421,1,8,0:0:0:0:
181,219,226529,1,8,0:0:0:0:
425,353,226744,5,8,0:0:0:0:
388,350,226851,1,8,0:0:0:0:
351,347,226958,1,8,0:0:0:0:
313,345,227066,2,0,P|303:326|298:308,1,37.5000014305115,8|0,0:0|0:0,0:0:0:0:
392,239,227280,2,0,P|381:257|368:270,1,37.5000014305115,8|0,0:0|0:0,0:0:0:0:
261,223,227494,2,0,P|283:223|301:228,1,37.5000014305115,8|0,0:0|0:0,0:0:0:0:
313,345,227708,2,0,P|303:326|298:308,1,37.5000014305115,8|0,0:0|0:0,0:0:0:0:
354,143,227923,1,8,0:0:0:0:
352,166,228030,1,8,0:0:0:0:
176,298,228458,6,0,L|174:361,2,50,4|0|0,0:0|0:0|0:0,0:0:0:0:
55,269,228779,2,0,L|53:206,2,50,0|8|0,0:0|0:0|0:0,0:0:0:0:
181,202,229101,2,0,L|183:139,1,50
106,55,229315,2,0,P|77:51|42:53,2,50,4|0|0,0:3|0:0|0:0,0:0:0:0:
237,23,229637,2,0,P|261:23|286:19,2,50,0|8|0,0:0|0:0|0:0,0:0:0:0:
182,152,229958,2,0,P|211:156|246:154,1,50
343,174,230172,6,0,L|345:237,2,50,4|0|0,0:3|0:0|0:0,0:0:0:0:
464,145,230493,2,0,L|466:82,2,50,0|8|0,0:0|0:0|0:0,0:0:0:0:
463,272,230815,2,0,L|461:335,1,50
337,334,231029,2,0,P|308:338|273:336,2,50,4|0|0,0:3|0:0|0:0,0:0:0:0:
247,242,231351,2,0,P|218:238|183:240,2,50,0|8|0,0:0|0:0|0:0,0:0:0:0:
168,342,231672,2,0,P|139:346|104:344,1,50
41,246,231887,6,0,L|43:183,2,50,4|0|0,0:3|0:0|0:0,0:0:0:0:
142,171,232208,2,0,L|140:108,2,50,0|8|0,0:0|0:0|0:0,0:0:0:0:
247,242,232529,2,0,L|310:240,1,50
438,237,232744,2,0,P|442:266|440:301,2,50,4|0|0,0:3|0:0|0:0,0:0:0:0:
362,142,233065,2,0,P|358:113|360:78,2,50,0|8|0,0:0|0:0|0:0,0:0:0:0:
491,115,233387,2,0,P|462:111|427:113,1,50
268,153,233601,5,8,0:0:0:0:
269,103,233708,1,8,0:0:0:0:
271,53,233815,1,8,0:0:0:0:
272,3,233922,1,8,0:0:0:0:
140,121,234137,1,8,0:0:0:0:
372,212,234351,1,8,0:0:0:0:
128,302,234565,1,8,0:0:0:0:
403,351,234779,5,8,0:0:0:0:
353,350,234886,1,8,0:0:0:0:
303,348,234993,1,8,0:0:0:0:
253,347,235101,2,0,L|190:344,1,50,8|0,0:0|0:0,0:0:0:0:
100,268,434141,6,0,L|44:264,1,40
95,343,434438,2,0,P|136:334|138:204,1,200
412,268,436128,6,0,L|468:264,1,40
417,343,436503,2,0,P|376:334|374:204,1,200
256,4,438193,6,0,L|256:48,1,40
406,93,438568,2,0,B|357:76|313:109|313:109|256:149|199:109|199:109|155:76|107:93,1,318.000000485229
256,12,440992,6,0,L|256:120,1,100
412,216,441742,6,0,P|386:200|357:193,1,59.9999981689454
304,304,442144,6,0,P|332:296|358:281,1,59.9999981689454
284,224,442437,2,0,P|255:216|229:201,1,50
152,244,442676,6,0,P|144:215|144:185,1,50
68,139,442926,2,0,P|89:117|115:103,1,54.0000013183594
116,13,443182,2,0,P|144:20|170:35,1,56.0000006835938
326,98,443525,6,0,L|266:103,1,54.0000013183594
389,173,443830,2,0,L|449:178,1,59.9999981689454
326,248,444162,2,0,L|266:253,1,59.9999981689454
389,323,444495,2,0,L|449:328,1,59.9999981689454
266,253,444867,6,0,P|224:269|201:288,1,69.9999978637696
43,321,445392,2,0,P|77:309|107:286,1,74.0000018066407
107,97,445992,2,0,P|75:73|37:60,1,80
192,192,446676,6,0,B|232:204|232:180|272:192,1,80
441,336,447493,2,0,B|401:348|401:324|361:336,1,80
363,336,448496,5,0,0:0:0:0:
363,336,449158,6,0,P|392:288|400:264,1,69.9999978637696
496,220,449619,2,0,P|467:172|459:148,1,69.9999978637696
363,104,450081,1,0,0:0:0:0:
461,46,450311,1,0,0:0:0:0:
386,180,450542,1,0,0:0:0:0:
386,180,451004,6,0,P|342:195|318:219,1,69.9999978637696
391,267,451465,1,0,0:0:0:0:
282,326,451696,2,0,L|123:311,1,139.999995727539
69,240,452388,2,0,P|113:225|137:201,1,69.9999978637696
41,66,452850,6,0,L|54:135,1,69.9999978637696
130,209,453311,2,0,L|142:140,1,69.9999978637696
256,28,453773,1,0,0:0:0:0:
256,28,454234,1,0,0:0:0:0:
382,209,454696,6,0,L|369:140,1,69.9999978637696
470,66,455158,2,0,L|458:135,1,69.9999978637696
424,304,455619,1,0,0:0:0:0:
382,209,455850,1,0,0:0:0:0:
278,197,456081,2,0,L|209:210,1,69.9999978637696
294,100,456542,6,0,L|156:126,1,139.999995727539
61,145,457234,1,0,0:0:0:0:
86,33,457465,2,0,L|155:46,1,69.9999978637696
155,205,457927,2,0,L|86:218,1,69.9999978637696
206,365,458388,6,0,P|267:331|307:274,1,139.999995727539
272,192,459081,1,0,0:0:0:0:
432,192,459311,1,0,0:0:0:0:
396,275,459542,1,0,0:0:0:0:
315,111,459773,2,0,P|349:103|383:111,1,69.9999978637696
281,46,460234,6,0,P|349:31|417:46,1,139.999995727539
348,183,460927,1,0,0:0:0:0:
315,111,461158,2,0,P|349:103|383:111,1,69.9999978637696
499,172,461619,2,0,P|465:180|431:172,1,69.9999978637696
281,52,462081,6,0,P|304:77|314:110,2,69.9999978637696,0|0|0,0:3|0:3|0:3,0:3:0:0:
166,16,462773,1,0,0:0:0:0:
226,119,463004,1,0,0:0:0:0:
63,76,463234,1,0,0:3:0:0:
166,16,463465,1,0,0:3:0:0:
123,179,463696,1,0,0:0:0:0:
242,297,463927,6,0,B|312:272|312:312|380:296,1,139.999995727539
348,216,464619,1,0,0:0:0:0:
208,368,464850,2,0,P|176:344|164:296,1,69.9999978637696
168,172,465311,1,0,0:0:0:0:
240,296,465542,1,0,0:0:0:0:
92,152,465773,6,0,P|106:120|135:101,1,69.9999978637696
305,172,466234,2,0,P|236:184|168:172,1,139.999995727539
264,84,466927,1,0,0:0:0:0:
392,172,467158,2,0,P|425:181|460:183,1,69.9999978637696
308,272,467619,5,0,0:0:0:0:
308,272,467850,2,0,P|239:260|170:272,1,139.999995727539
64,360,468542,2,0,P|33:342|7:319,1,69.9999978637696
0,168,469004,2,0,L|48:164,1,34.9999989318848
81,106,469234,2,0,L|116:104,1,34.9999989318848
112,24,469465,6,0,P|168:43|196:116,1,139.999995727539
147,181,470158,1,0,0:0:0:0:
365,181,470388,1,0,0:0:0:0:
316,67,470619,1,0,0:0:0:0:
221,236,470850,2,0,P|255:242|289:236,1,69.9999978637696
186,315,471311,6,0,P|255:328|324:316,1,139.999995727539
493,193,472004,1,0,0:0:0:0:
493,193,472119,1,0,0:0:0:0:
493,193,472234,2,0,P|438:195|445:254,2,104.999996795654
346,239,473158,6,0,P|280:214|227:169,1,139.999995727539
314,11,473850,1,0,0:0:0:0:
314,11,473965,1,0,0:0:0:0:
314,11,474081,1,0,0:0:0:0:
360,108,474311,1,0,0:0:0:0:
152,108,474542,1,0,0:0:0:0:
198,11,474773,1,0,0:0:0:0:
323,183,475004,6,0,P|255:171|187:182,1,139.999995727539
108,232,475696,1,0,0:0:0:0:
36,127,475927,2,0,P|70:129|104:138,1,69.9999978637696
259,77,476388,2,0,P|224:79|190:88,1,69.9999978637696
45,262,476850,6,0,P|63:194|103:138,1,139.999995727539
220,196,477542,1,0,0:0:0:0:
351,187,477773,1,0,0:0:0:0:
211,65,478004,1,0,0:0:0:0:
220,196,478235,1,0,0:0:0:0:
342,56,478465,1,0,0:0:0:0:
342,56,478581,1,0,0:0:0:0:
342,56,478696,6,0,P|373:91|468:117,1,139.999995727539
321,255,479388,1,0,0:0:0:0:
321,255,479504,1,0,0:0:0:0:
321,255,479619,2,0,P|355:247|407:196,2,104.999996795654
191,255,480542,6,0,P|156:247|104:196,2,104.999996795654
302,136,481465,2,0,P|255:131|209:136,2,93.3333304850261
186,26,482388,6,0,P|255:18|324:25,1,139.999995727539
412,105,483081,1,0,0:0:0:0:
267,196,483311,2,0,P|280:163|301:135,1,69.9999978637696
419,270,483773,2,0,P|398:241|384:209,1,69.9999978637696
162,136,484234,6,0,P|231:128|300:135,1,139.999995727539
178,218,484927,1,0,0:0:0:0:
145,59,485158,1,0,0:0:0:0:
284,217,485388,1,0,0:0:0:0:
317,58,485619,1,0,0:0:0:0:
135,142,485850,1,0,0:0:0:0:
327,141,486081,6,0,P|374:166|431:256,1,139.999995727539
425,342,486773,1,0,0:0:0:0:
302,217,487004,2,0,P|325:229|354:274,1,69.9999978637696
255,362,487465,2,0,P|254:335|278:288,1,69.9999978637696,0|0,0:3|0:3,0:3:0:0:
399,123,487927,6,0,P|360:180|301:216,1,139.999995727539
191,217,488619,1,0,0:0:0:0:
246,122,488850,1,0,0:0:0:0:
81,26,489080,1,0,0:0:0:0:
136,122,489311,1,0,0:0:0:0:
27,122,489542,1,0,0:0:0:0:
191,27,489773,6,0,P|260:19|329:26,1,139.999995727539
405,107,490465,1,0,0:0:0:0:
481,27,490696,1,0,0:0:0:0:
481,187,490927,2,0,L|481:218,2,23.3333326212565
480,236,491158,2,0,P|429:247|377:245,1,104.999996795654
343,227,491619,6,0,P|274:214|205:226,1,139.999995727539
77,305,492311,1,0,0:0:0:0:
102,201,492542,1,0,0:0:0:0:
25,127,492773,1,0,0:0:0:0:
50,23,493004,1,0,0:0:0:0:
127,97,493234,1,0,0:0:0:0:
385,97,493465,6,0,P|326:85|340:177,1,179.999994506836
426,181,494158,1,0,0:0:0:0:
319,276,494388,2,0,L|228:263,1,89.9999972534181
63,209,494850,2,0,L|154:196,1,89.9999972534181
256,192,506388,5,0,0:0:0:0:
256,192,506476,12,0,510623,0:0:0:0:
100,313,810225,6,0,L|82:238,1,59.9999981689454
65,170,810426,1,0,0:0:0:0:
94,168,810526,1,0,0:0:0:0:
123,176,810627,1,0,0:0:0:0:
147,194,810728,1,0,0:0:0:0:
164,219,810828,1,0,0:0:0:0:
181,244,810929,1,0,0:0:0:0:
205,262,811030,1,0,0:0:0:0:
234,270,811131,1,0,0:0:0:0:
264,269,811232,1,0,0:0:0:0:
294,270,811332,1,0,0:0:0:0:
323,262,811433,1,0,0:0:0:0:
347,244,811534,1,0,0:0:0:0:
364,220,811635,1,0,0:0:0:0:
380,195,811735,1,0,0:0:0:0:
405,178,811835,6,0,L|461:207,1,59.9999981689454
403,84,812037,1,0,0:0:0:0:
373,86,812137,1,0,0:0:0:0:
344,96,812238,1,0,0:0:0:0:
319,112,812339,1,0,0:0:0:0:
299,134,812439,1,0,0:0:0:0:
269,131,812539,1,0,0:0:0:0:
240,121,812640,1,0,0:0:0:0:
215,105,812741,1,0,0:0:0:0:
195,83,812841,1,0,0:0:0:0:
165,85,812942,1,0,0:0:0:0:
136,95,813043,1,0,0:0:0:0:
111,111,813144,1,0,0:0:0:0:
91,133,813244,1,0,0:0:0:0:
61,130,813345,1,0,0:0:0:0:
32,120,813446,6,0,P|11:88|3:58,1,59.9999981689454
120,7,813647,1,0,0:0:0:0:
125,36,813747,1,0,0:0:0:0:
130,65,813848,1,0,0:0:0:0:
136,95,813949,1,0,0:0:0:0:
141,124,814051,1,0,0:0:0:0:
136,153,814151,1,0,0:0:0:0:
131,182,814252,1,0,0:0:0:0:
125,212,814353,1,0,0:0:0:0:
120,241,814453,1,0,0:0:0:0:
125,270,814553,1,0,0:0:0:0:
130,299,814654,1,0,0:0:0:0:
136,329,814755,1,0,0:0:0:0:
141,358,814855,2,0,L|220:340,1,59.9999981689454
361,285,815057,6,0,L|282:267,1,59.9999981689454
265,117,815258,1,0,0:0:0:0:
265,117,815359,2,0,L|247:196,1,59.9999981689454
439,221,815560,1,0,0:0:0:0:
439,221,815661,2,0,L|360:203,1,59.9999981689454
354,26,815862,2,0,L|336:105,1,59.9999981689454
162,266,816063,1,0,0:0:0:0:
162,266,816164,2,0,L|176:208,1,59.9999981689454
419,298,816365,1,0,0:0:0:0:
419,298,816466,2,0,L|340:280,1,59.9999981689454
206,103,816667,6,0,L|264:116,1,59.9999981689454
224,22,816869,1,0,0:0:0:0:
194,19,816969,1,0,0:0:0:0:
165,28,817070,1,0,0:0:0:0:
142,47,817171,1,0,0:0:0:0:
128,73,817271,1,0,0:0:0:0:
144,98,817371,1,0,0:0:0:0:
149,128,817472,1,0,0:0:0:0:
142,157,817573,1,0,0:0:0:0:
126,182,817673,1,0,0:0:0:0:
96,179,817775,1,0,0:0:0:0:
67,188,817876,1,0,0:0:0:0:
44,207,817977,1,0,0:0:0:0:
30,233,818077,1,0,0:0:0:0:
46,258,818177,1,0,0:0:0:0:
51,288,818278,6,0,L|-8:312,1,59.9999981689454
92,380,818480,1,0,0:0:0:0:
118,365,818580,1,0,0:0:0:0:
138,343,818681,1,0,0:0:0:0:
150,316,818782,1,0,0:0:0:0:
153,286,818883,1,0,0:0:0:0:
180,274,818983,1,0,0:0:0:0:
210,271,819084,1,0,0:0:0:0:
239,277,819185,1,0,0:0:0:0:
265,293,819285,1,0,0:0:0:0:
292,305,819386,1,0,0:0:0:0:
322,308,819487,1,0,0:0:0:0:
351,302,819588,1,0,0:0:0:0:
377,286,819687,1,0,0:0:0:0:
403,302,819787,1,0,0:0:0:0:
432,308,819889,6,0,L|500:297,1,59.9999981689454
500,190,820090,1,0,0:0:0:0:
470,194,820190,1,0,0:0:0:0:
440,199,820291,1,0,0:0:0:0:
411,204,820392,1,0,0:0:0:0:
381,209,820492,1,0,0:0:0:0:
362,185,820593,1,0,0:0:0:0:
343,162,820694,1,0,0:0:0:0:
324,139,820795,1,0,0:0:0:0:
305,115,820895,1,0,0:0:0:0:
315,86,820996,1,0,0:0:0:0:
326,58,821097,1,0,0:0:0:0:
336,30,821198,1,0,0:0:0:0:
347,2,821298,6,0,L|316:84,1,59.9999981689454
268,214,821500,1,0,0:0:0:0:
510,216,821701,2,0,L|428:185,1,59.9999981689454
298,137,821903,1,0,0:0:0:0:
215,350,822104,2,0,L|236:293,1,59.9999981689454
327,59,822305,1,0,0:0:0:0:
282,55,822405,1,0,0:0:0:0:
242,74,822506,1,0,0:0:0:0:
218,111,822607,1,0,0:0:0:0:
217,156,822708,2,0,L|238:212,1,59.9999981689454
372,256,822909,2,0,L|312:256,1,59.9999981689454
67,257,823110,5,0,0:0:0:0:
43,230,823210,1,0,0:0:0:0:
52,195,823311,1,0,0:0:0:0:
86,185,823412,1,0,0:0:0:0:
114,208,823513,1,0,0:0:0:0:
139,235,823613,1,0,0:0:0:0:
175,246,823714,1,0,0:0:0:0:
211,237,823815,1,0,0:0:0:0:
237,211,823915,1,0,0:0:0:0:
274,233,824016,1,0,0:0:0:0:
310,211,824117,1,0,0:0:0:0:
346,232,824218,1,0,0:0:0:0:
382,210,824318,1,0,0:0:0:0:
408,235,824418,1,0,0:0:0:0:
444,244,824519,1,0,0:0:0:0:
480,233,824620,1,0,0:0:0:0:
505,206,824721,5,0,0:0:0:0:
478,179,824821,1,0,0:0:0:0:
469,144,824922,1,0,0:0:0:0:
479,108,825023,1,0,0:0:0:0:
505,82,825123,1,0,0:0:0:0:
495,117,825224,1,0,0:0:0:0:
469,144,825325,1,0,0:0:0:0:
433,153,825426,1,0,0:0:0:0:
397,143,825526,1,0,0:0:0:0:
356,168,825627,1,0,0:0:0:0:
315,143,825728,1,0,0:0:0:0:
274,168,825829,1,0,0:0:0:0:
233,143,825929,2,0,B|177:127|177:127|113:143|113:143|57:127,1,179.999994506836
114,65,826332,5,0,0:0:0:0:
111,102,826432,1,0,0:0:0:0:
109,139,826533,1,0,0:0:0:0:
107,177,826634,1,0,0:0:0:0:
105,214,826734,1,0,0:0:0:0:
69,224,826835,1,0,0:0:0:0:
45,252,826936,1,0,0:0:0:0:
40,288,827037,1,0,0:0:0:0:
57,321,827137,1,0,0:0:0:0:
100,310,827237,1,0,0:0:0:0:
144,299,827338,1,0,0:0:0:0:
188,310,827439,1,0,0:0:0:0:
232,322,827539,1,0,0:0:0:0:
275,310,827640,1,0,0:0:0:0:
319,299,827741,2,0,L|388:277,1,59.9999981689454
404,96,827943,6,0,L|346:114,1,59.9999981689454
108,96,828144,1,0,0:0:0:0:
108,96,828245,2,0,L|165:114,1,59.9999981689454
256,316,828446,1,0,0:0:0:0:
256,316,828547,2,0,L|256:256,1,59.9999981689454
256,20,828748,2,0,L|256:88,1,59.9999981689454
108,240,828949,1,0,0:0:0:0:
108,240,829050,2,0,L|165:221,1,59.9999981689454
404,240,829251,1,0,0:0:0:0:
404,240,829352,2,0,L|346:221,1,59.9999981689454
104,96,829553,5,0,0:0:0:0:
71,126,829653,1,0,0:0:0:0:
59,169,829754,1,0,0:0:0:0:
73,211,829855,1,0,0:0:0:0:
107,239,829955,1,0,0:0:0:0:
126,261,830057,1,0,0:0:0:0:
142,286,830157,1,0,0:0:0:0:
190,323,830258,1,0,0:0:0:0:
206,298,830358,1,0,0:0:0:0:
226,277,830460,1,0,0:0:0:0:
272,239,830559,1,0,0:0:0:0:
288,264,830659,1,0,0:0:0:0:
308,285,830761,1,0,0:0:0:0:
354,322,830861,1,0,0:0:0:0:
370,297,830961,1,0,0:0:0:0:
390,276,831063,1,0,0:0:0:0:
436,239,831163,5,0,0:0:0:0:
452,264,831263,1,0,0:0:0:0:
472,285,831365,1,0,0:0:0:0:
485,258,831465,1,0,0:0:0:0:
493,230,831567,1,0,0:0:0:0:
477,205,831666,1,0,0:0:0:0:
458,186,831768,1,0,0:0:0:0:
479,155,831868,1,0,0:0:0:0:
487,119,831969,1,0,0:0:0:0:
480,82,832070,1,0,0:0:0:0:
459,51,832170,1,0,0:0:0:0:
427,71,832271,1,0,0:0:0:0:
406,39,832372,2,0,B|324:68|324:16|229:39,1,179.999994506836
112,40,832775,5,0,0:0:0:0:
119,84,832876,1,0,0:0:0:0:
143,121,832976,1,0,0:0:0:0:
180,147,833077,1,0,0:0:0:0:
223,157,833177,1,0,0:0:0:0:
201,187,833278,1,0,0:0:0:0:
194,224,833379,1,0,0:0:0:0:
203,260,833480,1,0,0:0:0:0:
227,288,833580,2,0,L|287:281,1,59.9999981689454
355,197,833782,2,0,L|414:190,1,59.9999981689454
486,54,833983,1,0,0:0:0:0:
444,54,834084,1,0,0:0:0:0:
423,90,834185,5,0,0:0:0:0:
444,127,834285,1,0,0:0:0:0:
486,127,834386,1,0,0:0:0:0:
318,260,834587,1,0,0:0:0:0:
318,218,834688,1,0,0:0:0:0:
355,197,834788,1,0,0:0:0:0:
182,99,834990,1,0,0:0:0:0:
203,136,835090,1,0,0:0:0:0:
245,136,835191,1,0,0:0:0:0:
257,178,835291,1,0,0:0:0:0:
241,219,835392,1,0,0:0:0:0:
203,241,835493,1,0,0:0:0:0:
161,237,835594,2,0,L|95:212,1,59.9999981689454
257,346,835795,2,0,L|194:375,1,59.9999981689454
403,354,835996,5,0,0:0:0:0:
462,327,836096,1,0,0:0:0:0:
432,297,836197,1,0,0:0:0:0:
432,255,836298,1,0,0:0:0:0:
462,225,836399,1,0,0:0:0:0:
483,192,836499,1,0,0:0:0:0:
467,156,836600,1,0,0:0:0:0:
429,149,836701,1,0,0:0:0:0:
402,177,836801,1,0,0:0:0:0:
349,177,836902,1,0,0:0:0:0:
311,214,837003,1,0,0:0:0:0:
310,267,837104,1,0,0:0:0:0:
309,318,837204,5,0,0:0:0:0:
255,318,837305,1,0,0:0:0:0:
217,281,837406,1,0,0:0:0:0:
216,228,837506,1,0,0:0:0:0:
215,175,837607,1,0,0:0:0:0:
177,138,837708,1,0,0:0:0:0:
123,138,837809,1,0,0:0:0:0:
84,176,837909,1,0,0:0:0:0:
85,229,838010,1,0,0:0:0:0:
118,248,838110,1,0,0:0:0:0:
137,280,838211,1,0,0:0:0:0:
137,318,838312,1,0,0:0:0:0:
118,351,838412,2,0,B|118:367|102:367|78:367|78:343|78:319|78:299|126:299|174:299|174:391|286:391|399:331,1,389.999982147218
418,117,839218,5,0,0:0:0:0:
380,126,839318,1,0,0:0:0:0:
377,165,839418,1,0,0:0:0:0:
413,179,839519,1,0,0:0:0:0:
438,150,839620,1,0,0:0:0:0:
477,172,839721,1,0,0:0:0:0:
499,210,839822,1,0,0:0:0:0:
499,254,839922,1,0,0:0:0:0:
477,293,840023,1,0,0:0:0:0:
428,273,840124,1,0,0:0:0:0:
362,273,840225,1,0,0:0:0:0:
313,293,840326,1,0,0:0:0:0:
248,293,840426,1,0,0:0:0:0:
206,276,840527,1,0,0:0:0:0:
188,235,840627,1,0,0:0:0:0:
205,193,840728,1,0,0:0:0:0:
246,175,840829,6,0,L|324:152,1,64.9999970245363
62,340,841030,2,0,L|-16:317,1,64.9999970245363
290,336,841231,2,0,L|368:313,1,64.9999970245363
106,171,841433,2,0,L|28:148,1,64.9999970245363
176,369,841634,1,0,0:0:0:0:
216,330,841734,1,0,0:0:0:0:
231,275,841835,1,0,0:0:0:0:
215,222,841936,1,0,0:0:0:0:
173,184,842036,1,0,0:0:0:0:
189,155,842137,1,0,0:0:0:0:
173,125,842238,1,0,0:0:0:0:
188,95,842339,1,0,0:0:0:0:
148,31,842439,5,0,0:0:0:0:
178,19,842539,1,0,0:0:0:0:
210,22,842640,1,0,0:0:0:0:
260,63,842741,1,0,0:0:0:0:
290,74,842841,1,0,0:0:0:0:
322,71,842942,1,0,0:0:0:0:
373,31,843043,1,0,0:0:0:0:
403,19,843143,1,0,0:0:0:0:
435,22,843245,1,0,0:0:0:0:
406,50,843345,1,0,0:0:0:0:
396,89,843446,1,0,0:0:0:0:
408,127,843547,1,0,0:0:0:0:
438,154,843647,2,0,P|474:192|384:194,1,194.999991073609
318,135,844050,5,0,0:0:0:0:
290,174,844150,1,0,0:0:0:0:
285,222,844251,1,0,0:0:0:0:
304,267,844352,1,0,0:0:0:0:
341,297,844452,1,0,0:0:0:0:
311,340,844553,1,0,0:0:0:0:
259,348,844654,1,0,0:0:0:0:
216,317,844755,1,0,0:0:0:0:
207,264,844855,2,0,B|273:190|273:72|214:43|140:57|103:124|155:205|229:160,1,389.999982147218
420,48,845661,5,0,0:0:0:0:
368,48,845761,1,0,0:0:0:0:
342,93,845862,1,0,0:0:0:0:
368,138,845963,1,0,0:0:0:0:
420,138,846063,1,0,0:0:0:0:
446,183,846164,1,0,0:0:0:0:
420,228,846265,1,0,0:0:0:0:
368,228,846365,1,0,0:0:0:0:
341,183,846466,1,0,0:0:0:0:
298,219,846566,1,0,0:0:0:0:
243,232,846667,1,0,0:0:0:0:
189,218,846768,1,0,0:0:0:0:
146,182,846868,1,0,0:0:0:0:
122,137,846969,1,0,0:0:0:0:
70,135,847070,1,0,0:0:0:0:
42,179,847171,1,0,0:0:0:0:
67,226,847271,5,0,0:0:0:0:
68,284,847371,1,0,0:0:0:0:
32,330,847472,1,0,0:0:0:0:
77,75,847674,1,0,0:0:0:0:
41,121,847775,1,0,0:0:0:0:
42,179,847875,1,0,0:0:0:0:
301,326,848077,1,0,0:0:0:0:
252,356,848177,1,0,0:0:0:0:
194,348,848278,1,0,0:0:0:0:
164,299,848379,1,0,0:0:0:0:
172,241,848480,2,0,L|185:170,1,64.9999970245363
256,0,848681,2,0,L|256:80,1,64.9999970245363
339,240,848882,6,0,B|324:167|324:167|472:140|472:140|499:287|499:287|353:312,1,519.99997619629
121,201,849822,2,0,P|201:286|101:275,1,259.999988098145
55,250,850292,1,0,0:0:0:0:
55,250,850392,1,0,0:0:0:0:
39,198,850493,6,0,L|23:144,2,43.3333313496908
121,201,850694,2,0,L|133:242,2,43.3333313496908
171,136,850896,2,0,L|155:82,2,43.3333313496908
253,139,851097,2,0,L|265:180,2,43.3333313496908
302,70,851298,2,0,L|286:16,2,43.3333313496908
384,73,851500,1,0,0:0:0:0:
384,73,851600,2,0,P|432:149|376:240,1,194.999991073609
128,351,852104,5,0,0:0:0:0:
128,286,852204,1,0,0:0:0:0:
194,317,852305,2,0,B|247:318|300:251|265:189|213:114|77:184|129:286|129:286|48:287|17:149|131:35|249:57|300:95,1,779.999964294435
494,193,853614,1,0,0:0:0:0:
434,233,853714,6,0,L|370:221,1,64.9999970245363
311,30,853916,1,0,0:0:0:0:
311,30,854016,2,0,L|299:94,1,64.9999970245363
107,153,854218,1,0,0:0:0:0:
107,153,854318,2,0,L|171:165,1,64.9999970245363
230,357,854520,2,0,L|166:345,1,64.9999970245363
370,221,854721,1,0,0:0:0:0:
370,221,854822,2,0,L|434:233,1,64.9999970245363
211,88,855023,1,0,0:0:0:0:
211,88,855124,2,0,L|147:75,1,64.9999970245363
51,309,855325,6,0,B|140:312|179:212|94:107|-26:160|-46:277|51:309|51:309|147:350|173:250|264:269,1,606.666638895672
384,366,856399,2,0,B|293:395|229:321|226:217|332:184|332:184|437:151|434:48|371:-26|279:7,1,606.666638895672
136,162,857540,1,0,0:0:0:0:
136,162,857641,1,0,0:0:0:0:
136,162,857741,2,0,B|143:166|143:166|136:172|149:173|164:167|164:167|157:161|171:162|184:169|184:169|177:176|190:177|204:171|204:171|198:164|212:165|225:173|225:173|218:179|231:180|245:175|245:175|239:167|253:168|266:177|266:177|258:183|272:184|286:179|286:179|280:171|294:173|307:180|307:180|299:186|313:188|327:182,1,259.999988098145
482,210,858245,2,0,P|434:259|431:337,1,129.999994049073
308,285,858547,6,0,P|371:282|425:317,1,129.999994049073
296,361,858849,1,0,0:0:0:0:
296,361,858949,2,0,P|247:333|237:299,1,64.9999970245363
192,225,859151,2,0,P|191:168|216:142,1,64.9999970245363
136,31,859352,2,0,L|118:112,1,64.9999970245363
89,251,859553,2,0,L|103:187,1,64.9999970245363
258,177,859755,2,0,L|177:158,1,64.9999970245363
11,123,859956,1,0,0:0:0:0:
60,83,860056,1,0,0:0:0:0:
122,93,860157,5,0,0:0:0:0:
200,280,860359,1,0,0:0:0:0:
138,290,860460,1,0,0:0:0:0:
89,251,860560,1,0,0:0:0:0:
295,76,860761,1,0,0:0:0:0:
276,138,860861,1,0,0:0:0:0:
257,200,860963,1,0,0:0:0:0:
302,181,861063,1,0,0:0:0:0:
350,174,861164,1,0,0:0:0:0:
398,180,861265,1,0,0:0:0:0:
443,198,861365,1,0,0:0:0:0:
397,205,861466,1,0,0:0:0:0:
376,247,861567,1,0,0:0:0:0:
398,289,861668,1,0,0:0:0:0:
444,298,861768,6,0,B|332:238|332:342|220:298|220:298|116:241|69:231|35:328|22:373|100:438|174:421|236:361|213:284|109:226|109:226|-3:127|61:10|122:11|192:33|192:33|292:37|302:124|293:232|139:222|85:163|106:45|192:33|192:33|254:15|347:13|344:120|344:120|376:96|376:56|376:56|408:80|408:112|408:112|440:88|440:64|440:64|472:88|472:104|472:104|483:98|488:88,1,2014.99990776062
510,10,864990,5,0,0:0:0:0:
406,122,865191,1,0,0:0:0:0:
406,122,865292,1,0,0:0:0:0:
406,122,865392,2,0,L|323:107,1,64.9999970245363
186,154,865594,1,0,0:0:0:0:
186,154,865695,1,0,0:0:0:0:
186,154,865795,2,0,L|269:139,1,64.9999970245363
87,112,865996,2,0,L|79:69,2,43.3333313496908
50,160,866198,2,0,L|42:117,2,43.3333313496908
13,208,866399,2,0,L|5:165,2,43.3333313496908
38,282,866600,5,0,0:0:0:0:
272,241,866802,1,0,0:0:0:0:
225,216,866902,1,0,0:0:0:0:
175,234,867003,1,0,0:0:0:0:
154,282,867104,1,0,0:0:0:0:
175,330,867204,1,0,0:0:0:0:
224,348,867305,1,0,0:0:0:0:
271,324,867406,2,0,L|343:335,1,64.9999970245363
481,238,867607,2,0,L|416:247,1,64.9999970245363
262,129,867808,2,0,P|303:147|320:168,1,64.9999970245363
492,51,868010,1,0,0:0:0:0:
451,68,868110,1,0,0:0:0:0:
468,108,868211,6,0,B|418:248|418:248|248:160|248:364|76:248|76:248|0:192|-18:90|128:-19|252:129|176:217,1,909.999958343508
467,334,869822,6,0,B|387:295|387:155|467:108|467:108|323:167|323:39|175:110|175:110|235:184|179:264|106:285|46:253|16:199|32:134,1,909.999958343508
113,166,871332,1,0,0:0:0:0:
113,166,871433,6,0,B|104:229,1,64.9999970245363
197,360,871634,2,0,B|205:296,1,64.9999970245363
190,88,871835,2,0,P|214:133|230:148,1,64.9999970245363
409,63,872037,2,0,P|358:61|337:67,1,64.9999970245363
321,265,872238,2,0,P|347:221|352:200,1,64.9999970245363
125,79,872439,2,0,B|188:87,1,64.9999970245363
416,216,872641,2,0,B|352:207,1,64.9999970245363
125,336,872842,2,0,B|188:327,1,64.9999970245363
364,120,873043,5,0,0:0:0:0:
308,130,873143,1,0,0:0:0:0:
270,171,873244,1,0,0:0:0:0:
265,226,873345,1,0,0:0:0:0:
293,274,873445,1,0,0:0:0:0:
309,327,873546,1,0,0:0:0:0:
276,371,873647,1,0,0:0:0:0:
222,371,873748,1,0,0:0:0:0:
189,327,873848,5,0,0:0:0:0:
249,316,873949,1,0,0:0:0:0:
276,370,874050,1,0,0:0:0:0:
336,360,874151,1,0,0:0:0:0:
394,346,874251,1,0,0:0:0:0:
432,294,874351,1,0,0:0:0:0:
445,231,874452,1,0,0:0:0:0:
430,168,874553,1,0,0:0:0:0:
391,117,874654,6,0,L|328:104,1,64.9999970245363
172,145,874855,1,0,0:0:0:0:
203,151,874955,1,0,0:0:0:0:
235,158,875057,2,0,L|248:95,1,64.9999970245363
65,116,875258,1,0,0:0:0:0:
61,164,875358,1,0,0:0:0:0:
79,209,875459,1,0,0:0:0:0:
114,241,875560,1,0,0:0:0:0:
161,254,875661,2,0,L|224:267,1,64.9999970245363
399,211,875862,1,0,0:0:0:0:
350,203,875962,1,0,0:0:0:0:
303,211,876063,1,0,0:0:0:0:
259,233,876164,1,0,0:0:0:0:
224,267,876265,6,0,L|211:330,1,64.9999970245363
37,190,876465,1,0,0:0:0:0:
68,183,876565,1,0,0:0:0:0:
101,177,876667,2,0,L|114:240,1,64.9999970245363
210,330,876869,1,0,0:0:0:0:
259,338,876969,1,0,0:0:0:0:
306,330,877070,1,0,0:0:0:0:
350,308,877171,1,0,0:0:0:0:
385,274,877272,2,0,L|398:211,1,64.9999970245363
370,31,877473,1,0,0:0:0:0:
354,76,877573,1,0,0:0:0:0:
353,125,877674,1,0,0:0:0:0:
368,171,877775,1,0,0:0:0:0:
398,210,877876,6,0,L|461:223,1,64.9999970245363
354,76,878077,1,0,0:0:0:0:
322,82,878177,1,0,0:0:0:0:
290,89,878278,2,0,L|303:152,1,64.9999970245363
226,301,878480,1,0,0:0:0:0:
216,253,878580,1,0,0:0:0:0:
206,205,878681,1,0,0:0:0:0:
196,157,878782,1,0,0:0:0:0:
186,110,878882,2,0,L|123:123,1,64.9999970245363
130,321,879084,1,0,0:0:0:0:
178,311,879184,1,0,0:0:0:0:
226,301,879285,1,0,0:0:0:0:
274,291,879386,1,0,0:0:0:0:
321,281,879486,6,0,L|384:268,1,64.9999970245363
512,168,879688,1,0,0:0:0:0:
480,174,879788,1,0,0:0:0:0:
448,181,879889,2,0,L|461:244,1,64.9999970245363
342,360,880090,1,0,0:0:0:0:
293,358,880190,1,0,0:0:0:0:
255,330,880291,1,0,0:0:0:0:
239,284,880392,1,0,0:0:0:0:
251,238,880493,2,0,L|314:225,1,64.9999970245363
418,92,880694,1,0,0:0:0:0:
370,101,880794,1,0,0:0:0:0:
322,111,880895,1,0,0:0:0:0:
274,121,880996,1,0,0:0:0:0:
227,131,881097,6,0,L|158:145,1,69.9999978637696
37,311,881299,1,0,0:0:0:0:
71,303,881399,1,0,0:0:0:0:
106,297,881500,2,0,L|91:228,1,69.9999978637696
61,39,881701,1,0,0:0:0:0:
26,76,881801,1,0,0:0:0:0:
36,125,881902,1,0,0:0:0:0:
83,146,882003,1,0,0:0:0:0:
126,118,882104,2,0,L|140:49,1,69.9999978637696
296,19,882305,1,0,0:0:0:0:
285,70,882405,1,0,0:0:0:0:
274,121,882506,1,0,0:0:0:0:
264,173,882607,1,0,0:0:0:0:
253,224,882708,6,0,L|238:292,1,69.9999978637696
393,369,882909,1,0,0:0:0:0:
400,334,883009,1,0,0:0:0:0:
407,300,883110,2,0,L|421:231,1,69.9999978637696
421,41,883312,1,0,0:0:0:0:
393,85,883412,1,0,0:0:0:0:
383,136,883513,1,0,0:0:0:0:
393,187,883614,1,0,0:0:0:0:
421,232,883714,2,0,L|490:246,1,69.9999978637696
421,41,883916,1,0,0:0:0:0:
377,69,884016,1,0,0:0:0:0:
326,79,884117,1,0,0:0:0:0:
275,69,884218,1,0,0:0:0:0:
230,41,884318,6,0,L|161:55,1,69.9999978637696
0,145,884520,1,0,0:0:0:0:
31,159,884620,1,0,0:0:0:0:
56,183,884721,2,0,L|70:252,1,69.9999978637696
170,367,884922,1,0,0:0:0:0:
208,331,885022,1,0,0:0:0:0:
255,308,885123,1,0,0:0:0:0:
306,299,885224,1,0,0:0:0:0:
358,305,885325,2,0,L|427:319,1,69.9999978637696
305,162,885527,1,0,0:0:0:0:
261,189,885627,1,0,0:0:0:0:
227,229,885728,1,0,0:0:0:0:
209,278,885829,1,0,0:0:0:0:
208,331,885929,6,0,L|277:345,1,69.9999978637696
465,245,886131,1,0,0:0:0:0:
413,234,886231,1,0,0:0:0:0:
362,224,886332,2,0,L|293:210,1,69.9999978637696
174,48,886533,1,0,0:0:0:0:
225,58,886633,1,0,0:0:0:0:
276,68,886734,1,0,0:0:0:0:
328,79,886835,1,0,0:0:0:0:
379,89,886936,2,0,L|448:103,1,69.9999978637696
285,293,887137,1,0,0:0:0:0:
223,266,887237,1,0,0:0:0:0:
193,204,887338,1,0,0:0:0:0:
212,138,887439,1,0,0:0:0:0:
269,100,887540,6,0,P|239:78|202:71,1,75.0000028610231
0,162,887741,1,0,0:0:0:0:
36,172,887841,1,0,0:0:0:0:
72,182,887943,2,0,P|108:175|138:153,1,75.0000028610231
316,2,888144,1,0,0:0:0:0:
281,46,888244,1,0,0:0:0:0:
269,100,888345,1,0,0:0:0:0:
281,154,888446,1,0,0:0:0:0:
316,198,888547,2,0,P|345:220|382:226,1,75.0000028610231
494,100,888748,1,0,0:0:0:0:
437,100,888848,1,0,0:0:0:0:
381,100,888949,1,0,0:0:0:0:
325,100,889050,1,0,0:0:0:0:
269,100,889151,6,0,P|232:106|202:128,1,75.0000028610231
18,255,889352,1,0,0:0:0:0:
74,255,889453,1,0,0:0:0:0:
130,255,889554,2,0,P|166:248|196:226,1,75.0000028610231
133,57,889755,1,0,0:0:0:0:
107,106,889855,1,0,0:0:0:0:
112,162,889956,1,0,0:0:0:0:
145,206,890057,1,0,0:0:0:0:
196,226,890157,2,0,P|232:219|262:197,1,75.0000028610231
410,52,890359,1,0,0:0:0:0:
381,100,890459,1,0,0:0:0:0:
372,155,890560,1,0,0:0:0:0:
381,210,890661,1,0,0:0:0:0:
410,259,890761,6,0,P|380:281|343:287,1,75.0000028610231
97,291,890963,1,0,0:0:0:0:
148,267,891063,1,0,0:0:0:0:
203,259,891164,2,0,P|239:265|269:287,1,75.0000028610231
96,378,891365,1,0,0:0:0:0:
43,359,891465,1,0,0:0:0:0:
13,313,891566,1,0,0:0:0:0:
17,258,891667,1,0,0:0:0:0:
53,216,891768,2,0,P|89:209|119:187,1,75.0000028610231
189,14,891969,1,0,0:0:0:0:
138,36,892069,1,0,0:0:0:0:
105,81,892170,1,0,0:0:0:0:
99,136,892271,1,0,0:0:0:0:
120,187,892372,6,0,P|149:208|186:215,1,75.0000028610231
343,326,892573,1,0,0:0:0:0:
349,271,892674,1,0,0:0:0:0:
328,220,892775,2,0,P|298:198|261:191,1,75.0000028610231
105,81,892976,1,0,0:0:0:0:
155,105,893076,1,0,0:0:0:0:
210,114,893177,1,0,0:0:0:0:
266,105,893278,1,0,0:0:0:0:
316,81,893379,2,0,P|345:59|382:52,1,75.0000028610231
456,248,893580,1,0,0:0:0:0:
401,226,893680,1,0,0:0:0:0:
398,167,893781,1,0,0:0:0:0:
452,142,893882,1,0,0:0:0:0:
509,193,893983,6,0,P|490:227|455:247,1,80
187,196,894184,1,0,0:0:0:0:
244,180,894284,1,0,0:0:0:0:
300,196,894386,2,0,P|334:215|353:249,1,80
150,319,894587,1,0,0:0:0:0:
98,290,894687,1,0,0:0:0:0:
65,240,894788,1,0,0:0:0:0:
58,181,894889,1,0,0:0:0:0:
79,125,894990,2,0,P|98:90|132:71,1,80
363,71,895191,1,0,0:0:0:0:
307,92,895291,1,0,0:0:0:0:
247,100,895392,1,0,0:0:0:0:
188,92,895493,1,0,0:0:0:0:
132,71,895594,6,0,P|98:90|79:125,1,80
66,353,895795,1,0,0:0:0:0:
125,360,895896,1,0,0:0:0:0:
185,367,895996,2,0,P|219:348|238:313,1,80
348,99,896198,1,0,0:0:0:0:
314,148,896298,1,0,0:0:0:0:
302,206,896399,1,0,0:0:0:0:
314,265,896500,1,0,0:0:0:0:
349,314,896600,2,0,P|383:294|402:259,1,80
458,60,896802,1,0,0:0:0:0:
407,90,896902,1,0,0:0:0:0:
348,99,897003,1,0,0:0:0:0:
289,89,897104,1,0,0:0:0:0:
238,59,897204,6,0,P|201:81|182:118,1,85.0000016212464
181,313,897405,1,0,0:0:0:0:
217,292,897506,1,0,0:0:0:0:
237,255,897607,2,0,P|218:217|182:196,1,85.0000016212464
5,59,897808,1,0,0:0:0:0:
60,92,897908,1,0,0:0:0:0:
122,103,898009,1,0,0:0:0:0:
185,92,898110,1,0,0:0:0:0:
239,60,898211,2,0,P|267:28|307:17,1,85.0000016212464
452,257,898412,1,0,0:0:0:0:
407,212,898512,1,0,0:0:0:0:
391,151,898613,1,0,0:0:0:0:
407,90,898714,1,0,0:0:0:0:
451,45,898815,6,0,P|487:66|506:103,1,85.0000016212464
367,290,899016,1,0,0:0:0:0:
303,283,899116,1,0,0:0:0:0:
240,277,899218,2,0,P|203:255|184:218,1,85.0000016212464
329,29,899419,1,0,0:0:0:0:
322,92,899519,1,0,0:0:0:0:
315,155,899620,1,0,0:0:0:0:
308,219,899721,1,0,0:0:0:0:
302,282,899822,2,0,P|280:319|243:338,1,85.0000016212464
84,145,900023,1,0,0:0:0:0:
161,145,900124,1,0,0:0:0:0:
184,218,900225,1,0,0:0:0:0:
123,263,900325,1,0,0:0:0:0:
61,218,900426,5,0,0:0:0:0:
64,219,902037,6,0,B|104:184|104:136|104:136|144:184|144:224|144:224|184:184|184:152|184:152|224:184|224:208|224:208|264:184|264:168|264:168|288:168|304:184,1,449.99998626709
354,242,903647,5,0,0:0:0:0:
356,244,905258,6,0,P|408:216|421:160,1,89.9999972534181
346,169,905560,1,0,0:0:0:0:
346,169,905661,1,0,0:0:0:0:
366,319,905862,1,0,0:0:0:0:
219,257,906063,1,0,0:0:0:0:
178,241,906163,1,0,0:0:0:0:
133,235,906264,1,0,0:0:0:0:
89,241,906365,1,0,0:0:0:0:
47,257,906465,1,0,0:0:0:0:
70,273,906566,1,0,0:0:0:0:
97,274,906667,1,0,0:0:0:0:
121,260,906768,1,0,0:0:0:0:
133,235,906869,6,0,P|124:187|79:145,1,100
36,61,907190,2,0,P|83:77|142:59,1,100
236,63,907511,2,0,P|198:95|290:107,1,200
492,95,908583,6,0,B|458:133|458:133|463:181,1,100
435,268,908904,2,0,B|469:230|469:230|463:181,1,100
287,124,909226,2,0,B|363:190|363:190|461:180,1,200
46,58,910297,6,0,P|74:98|82:147,1,100
205,238,910619,2,0,P|176:197|168:148,1,100
322,54,910940,2,0,P|348:149|307:238,1,200
129,365,912011,6,0,B|169:332|169:332|216:323,1,100
383,365,912333,2,0,B|343:332|343:332|295:323,1,100
172,200,912654,2,0,P|256:179|340:199,1,175
256,16,913297,1,0,0:0:0:0:
224,72,913404,1,0,0:0:0:0:
288,72,913511,1,0,0:0:0:0:
453,197,913726,6,0,P|419:133|453:70,1,150
495,134,914156,1,0,0:0:0:0:
395,264,914371,2,0,B|298:238|298:238|201:264,1,200
31,343,915016,2,0,P|76:302|90:258,1,100
86,45,915446,6,0,P|51:108|85:172,1,150
128,108,915876,1,0,0:0:0:0:
359,41,916091,2,0,B|263:72|263:9|164:41,1,200
372,118,916736,2,0,P|416:96|436:51,1,100
258,296,917166,6,0,L|108:284,1,150
18,275,917596,1,0,0:0:0:0:
241,375,917812,2,0,P|327:338|319:243,1,200
241,120,918457,2,0,P|229:167|248:213,1,100
429,29,918887,6,0,L|279:40,1,150
189,50,919317,1,0,0:0:0:0:
213,304,919532,2,0,B|251:262|251:262|240:119,1,200
499,120,920177,2,0,L|491:219,1,100
21,219,920607,6,0,L|17:169,1,50
120,136,920820,1,0,0:0:0:0:
120,136,920927,1,0,0:0:0:0:
120,136,921034,2,0,L|116:86,1,50
219,53,921248,2,0,L|215:3,1,50
228,152,921462,1,0,0:0:0:0:
230,176,921569,1,0,0:0:0:0:
232,201,921676,2,0,L|236:250,1,50
335,166,921890,2,0,L|331:116,1,50
429,31,922104,2,0,L|433:81,1,50
448,268,922318,6,0,L|398:272,1,50
285,246,922532,1,0,0:0:0:0:
285,246,922639,1,0,0:0:0:0:
285,246,922746,2,0,L|235:250,1,50
122,224,922959,2,0,L|72:228,1,50
0,120,923173,1,0,0:0:0:0:
24,117,923280,1,0,0:0:0:0:
49,115,923387,2,0,L|98:111,1,50
224,28,923601,2,0,L|273:24,1,50
344,88,923815,2,0,L|393:84,1,50
288,208,924029,6,0,L|284:158,1,50
204,272,924243,1,0,0:0:0:0:
204,272,924350,1,0,0:0:0:0:
204,272,924457,2,0,L|200:222,1,50
120,336,924671,2,0,L|116:286,1,50
16,216,924885,1,0,0:0:0:0:
13,191,924992,1,0,0:0:0:0:
11,166,925098,2,0,L|7:116,1,50
128,68,925312,2,0,L|132:117,1,50
253,68,925526,2,0,L|249:19,1,50
364,164,925740,6,0,L|413:160,1,50
320,260,925954,1,0,0:0:0:0:
320,260,926061,1,0,0:0:0:0:
320,260,926168,2,0,L|369:256,1,50
276,356,926382,2,0,L|325:352,1,50
128,280,926596,1,0,0:0:0:0:
152,277,926703,1,0,0:0:0:0:
177,275,926810,2,0,L|226:271,1,50
216,152,927024,2,0,L|166:155,1,50
155,36,927238,2,0,L|205:33,1,50
400,76,927459,6,0,P|380:108|356:120,1,59.9999981689454
380,212,927665,1,0,0:0:0:0:
380,212,927772,1,0,0:0:0:0:
380,212,927879,2,0,P|342:210|319:195,1,59.9999981689454
252,262,928093,2,0,P|234:228|235:201,1,59.9999981689454
144,176,928307,1,0,0:0:0:0:
154,153,928414,1,0,0:0:0:0:
173,137,928521,2,0,P|190:103|189:76,1,59.9999981689454
48,108,928735,2,0,P|67:140|91:152,1,59.9999981689454
135,14,928949,2,0,P|97:15|74:30,1,59.9999981689454
16,232,929163,6,0,B|28:260|28:260|76:284,1,59.9999981689454
144,324,929377,1,0,0:0:0:0:
144,324,929484,1,0,0:0:0:0:
144,324,929590,2,0,B|156:296|156:296|204:272,1,59.9999981689454
272,232,929804,2,0,B|284:260|284:260|332:284,1,59.9999981689454
416,274,930018,1,0,0:0:0:0:
442,260,930125,1,0,0:0:0:0:
454,232,930232,2,0,B|442:204|442:204|394:180,1,59.9999981689454
365,101,930446,2,0,B|353:129|353:129|305:153,1,59.9999981689454
272,232,930660,2,0,B|260:204|260:204|212:180,1,59.9999981689454
33,118,930874,6,0,P|48:146|79:162,1,59.9999981689454
67,253,931088,1,0,0:0:0:0:
67,253,931195,1,0,0:0:0:0:
67,253,931302,2,0,P|98:254|128:235,1,59.9999981689454
200,291,931516,2,0,P|216:264|215:229,1,59.9999981689454
169,146,931729,1,0,0:0:0:0:
170,116,931836,1,0,0:0:0:0:
186,91,931943,2,0,P|207:67|241:60,1,59.9999981689454
346,19,932157,2,0,P|355:49|344:82,1,59.9999981689454
328,193,932371,2,0,P|297:185|273:159,1,59.9999981689454
33,118,932585,6,0,B|59:131|59:131|71:159,1,59.9999981689454
98,268,932799,1,0,0:0:0:0:
98,268,932906,1,0,0:0:0:0:
98,268,933013,2,0,B|110:296|110:296|136:309,1,59.9999981689454
251,309,933231,2,0,B|277:295|277:295|289:267,1,59.9999981689454
364,171,933441,1,0,0:0:0:0:
304,158,933548,1,0,0:0:0:0:
245,146,933655,1,0,0:0:0:0:
187,134,933762,1,0,0:0:0:0:
127,121,933869,1,0,0:0:0:0:
187,110,933975,1,0,0:0:0:0:
245,97,934082,1,0,0:0:0:0:
304,84,934189,1,0,0:0:0:0:
364,73,934296,6,0,L|442:59,1,69.9999978637696
512,193,934510,1,0,0:0:0:0:
477,186,934617,1,0,0:0:0:0:
443,180,934724,2,0,L|374:192,1,69.9999978637696
187,219,934938,1,0,0:0:0:0:
135,219,935044,1,0,0:0:0:0:
96,186,935151,1,0,0:0:0:0:
86,135,935258,1,0,0:0:0:0:
112,91,935366,2,0,L|180:78,1,69.9999978637696
278,186,935580,1,0,0:0:0:0:
226,186,935686,1,0,0:0:0:0:
187,219,935793,1,0,0:0:0:0:
177,270,935900,1,0,0:0:0:0:
203,314,936008,6,0,L|271:326,1,69.9999978637696
440,346,936221,1,0,0:0:0:0:
446,311,936327,1,0,0:0:0:0:
452,277,936435,2,0,L|439:208,1,69.9999978637696
398,9,936649,1,0,0:0:0:0:
448,16,936755,1,0,0:0:0:0:
478,57,936862,1,0,0:0:0:0:
468,107,936969,1,0,0:0:0:0:
424,133,937077,2,0,L|356:120,1,69.9999978637696
186,94,937291,1,0,0:0:0:0:
134,95,937397,1,0,0:0:0:0:
90,122,937504,1,0,0:0:0:0:
66,168,937611,1,0,0:0:0:0:
69,220,937719,6,0,L|81:288,1,69.9999978637696
246,226,937933,1,0,0:0:0:0:
211,232,938039,1,0,0:0:0:0:
177,238,938147,2,0,L|189:306,1,69.9999978637696
322,372,938361,1,0,0:0:0:0:
331,320,938467,1,0,0:0:0:0:
340,268,938574,1,0,0:0:0:0:
349,216,938681,1,0,0:0:0:0:
358,165,938788,2,0,L|370:97,1,69.9999978637696
279,14,939002,1,0,0:0:0:0:
261,62,939108,1,0,0:0:0:0:
272,113,939215,1,0,0:0:0:0:
308,151,939322,1,0,0:0:0:0:
357,165,939430,6,0,L|425:177,1,69.9999978637696
331,320,939644,1,0,0:0:0:0:
279,311,939751,1,0,0:0:0:0:
228,303,939858,2,0,L|160:290,1,69.9999978637696
11,227,940072,1,0,0:0:0:0:
62,231,940178,1,0,0:0:0:0:
110,210,940285,1,0,0:0:0:0:
140,169,940392,1,0,0:0:0:0:
147,117,940500,2,0,L|134:49,1,69.9999978637696
286,27,940713,1,0,0:0:0:0:
298,89,940819,1,0,0:0:0:0:
308,151,940926,1,0,0:0:0:0:
319,214,941033,1,0,0:0:0:0:
328,275,941141,6,0,P|376:244|363:168,1,129.999994049073
308,151,941462,1,0,0:0:0:0:
256,160,941569,1,0,0:0:0:0:
205,169,941676,1,0,0:0:0:0:
154,178,941783,1,0,0:0:0:0:
103,187,941890,1,0,0:0:0:0:
52,196,941998,1,0,0:0:0:0:
157,46,942213,1,0,0:0:0:0:
199,297,942427,1,0,0:0:0:0:
193,329,942534,1,0,0:0:0:0:
187,361,942641,1,0,0:0:0:0:
235,370,942749,1,0,0:0:0:0:
284,380,942856,6,0,P|347:352|382:299,1,129.999994049073
502,263,943178,1,0,0:0:0:0:
502,263,943285,2,0,P|470:254|442:238,1,64.9999970245363
380,134,943499,2,0,P|371:102|371:70,1,64.9999970245363
246,34,943714,2,0,P|247:98|230:161,1,129.999994049073
121,232,944035,1,0,0:0:0:0:
121,232,944143,2,0,L|39:223,1,64.9999970245363
167,340,944357,2,0,L|249:331,1,64.9999970245363
427,270,944572,6,0,P|358:281|311:334,1,129.999994049073
409,373,944893,1,0,0:0:0:0:
418,320,945000,1,0,0:0:0:0:
427,270,945107,1,0,0:0:0:0:
436,219,945214,1,0,0:0:0:0:
445,168,945321,1,0,0:0:0:0:
454,116,945429,1,0,0:0:0:0:
256,260,945644,1,0,0:0:0:0:
58,116,945858,1,0,0:0:0:0:
53,90,945965,1,0,0:0:0:0:
49,64,946073,1,0,0:0:0:0:
101,54,946180,1,0,0:0:0:0:
153,46,946287,6,0,P|212:72|256:120,1,129.999994049073
357,186,946609,1,0,0:0:0:0:
357,186,946716,2,0,P|327:196|298:212,1,64.9999970245363
154,186,946930,2,0,P|184:196|213:212,1,64.9999970245363
388,332,947145,1,0,0:0:0:0:
124,332,947359,1,0,0:0:0:0:
256,86,947574,1,0,0:0:0:0:
284,138,947681,1,0,0:0:0:0:
227,138,947788,1,0,0:0:0:0:
446,7,948003,6,0,B|462:71|462:71|446:134,1,129.999994049073
387,203,948324,1,0,0:0:0:0:
352,243,948431,1,0,0:0:0:0:
361,294,948538,1,0,0:0:0:0:
407,318,948646,1,0,0:0:0:0:
456,299,948753,1,0,0:0:0:0:
469,248,948860,1,0,0:0:0:0:
256,368,949075,1,0,0:0:0:0:
43,248,949289,1,0,0:0:0:0:
47,215,949396,1,0,0:0:0:0:
51,183,949504,1,0,0:0:0:0:
99,189,949611,1,0,0:0:0:0:
147,195,949718,6,0,P|216:168|252:116,1,129.999994049073
372,72,950037,1,0,0:0:0:0:
372,72,950143,2,0,P|348:94|331:121,1,64.9999970245363
496,120,950356,2,0,P|478:92|455:70,1,64.9999970245363
353,216,950569,2,0,B|416:232|416:232|480:216,1,129.999994049073
417,148,950888,1,0,0:0:0:0:
417,196,950994,1,0,0:0:0:0:
417,244,951100,1,0,0:0:0:0:
417,293,951207,1,0,0:0:0:0:
417,342,951313,1,0,0:0:0:0:
452,360,951420,5,0,0:0:0:0:
474,351,951526,1,0,0:0:0:0:
497,343,951632,1,0,0:0:0:0:
296,104,951845,1,0,0:0:0:0:
319,112,951951,1,0,0:0:0:0:
341,121,952058,1,0,0:0:0:0:
164,340,952271,1,0,0:0:0:0:
186,331,952377,1,0,0:0:0:0:
209,323,952483,1,0,0:0:0:0:
8,84,952696,1,0,0:0:0:0:
31,92,952802,1,0,0:0:0:0:
53,101,952909,1,0,0:0:0:0:
392,112,953122,6,0,P|314:141|288:196,1,139.999995727539
388,212,953447,1,0,0:0:0:0:
388,212,953556,2,0,L|462:227,1,64.9999970245363
448,4,953773,2,0,L|384:16,1,64.9999970245363
156,176,953990,2,0,P|78:147|52:92,1,139.999995727539
165,9,954315,1,0,0:0:0:0:
165,9,954424,2,0,L|150:77,1,69.9999978637696
190,263,954641,2,0,L|176:332,1,69.9999978637696
456,332,954865,6,0,B|435:249|435:249|348:218,1,179.999994506836
176,332,955149,2,0,B|259:355|259:355|330:293,1,179.999994506836
316,89,955433,2,0,B|254:149|254:149|271:240,1,179.999994506836
176,332,955718,6,0,L|139:142,1,179.999994506836
315,89,956002,2,0,P|255:145|194:89,1,179.999994506836
369,155,956286,2,0,L|335:332,1,179.999994506836
453,143,956571,6,0,P|399:76|314:88,1,179.999994506836
170,254,956855,2,0,B|256:280|256:280|341:253,1,179.999994506836
194,90,957139,2,0,P|108:77|55:145,1,179.999994506836
256,332,957424,6,0,L|256:144,1,179.999994506836
409,98,957708,2,0,B|394:204|394:204|341:253,1,179.999994506836
169,253,957992,2,0,B|117:204|117:204|101:98,1,179.999994506836
340,40,958277,6,0,B|256:74|256:74|173:39,1,179.999994506836
24,100,958561,2,0,P|60:163|163:141,1,179.999994506836
340,40,958846,2,0,P|422:21|471:90,1,179.999994506836
362,316,959130,6,0,B|307:270|307:270|377:228|373:158,1,209.999993591309
135,160,959414,2,0,B|133:229|202:271|202:271|147:317,1,209.999993591309
340,71,959699,2,0,B|299:33|299:33|256:74|213:33|213:33|171:71,1,209.999993591309
256,220,959983,5,0,0:0:0:0:
32,168,960204,2,0,L|56:84,1,75.0000028610231
80,8,960423,1,0,0:0:0:0:
256,268,960642,5,0,0:0:0:0:
480,216,960902,2,0,L|456:132,1,75.0000028610231
432,56,961163,1,0,0:0:0:0:
256,316,961424,5,0,0:0:0:0:
32,264,961667,2,0,L|56:180,1,75.0000028610231
80,104,961911,1,0,0:0:0:0:
256,364,962155,5,0,0:0:0:0:
256,20,962399,1,0,0:0:0:0:
256,192,962460,12,0,968099,0:0:0:0:
56,276,969945,6,0,P|88:240|96:152,1,125
48,92,970868,2,0,L|152:84,1,100
240,76,971791,1,0,0:0:0:0:
240,76,972250,2,0,B|292:88|292:68|340:76,1,100
499,238,973170,2,0,L|510:287,1,50
436,324,973630,6,0,P|388:288|328:288,1,100
272,332,974319,1,0,0:0:0:0:
272,332,974549,2,0,P|223:323|184:284,1,100
74,136,975469,6,0,P|117:221|74:307,1,200
9,222,976848,1,0,0:0:0:0:
142,46,977308,2,0,P|207:69|223:91,2,75
197,165,978230,2,0,P|248:158|281:132,1,75
371,45,978921,1,0,0:0:0:0:
371,45,979152,6,0,L|381:142,1,75
452,104,979613,2,0,P|411:154|414:202,1,100
451,364,980765,1,0,0:0:0:0:
451,364,980996,6,0,B|400:337|400:337|382:364|343:372,1,125
204,279,981918,2,0,B|243:288|243:288|283:270|283:270|323:282,1,125
117,354,982840,6,0,B|73:313|75:233|117:163|208:165|208:165|284:166|312:106|312:106|345:162|406:190|521:135|483:4|398:-17|346:14,1,750
382,78,986528,6,0,L|417:219,1,129.999994049073
463,348,987225,1,0,0:0:0:0:
463,348,987341,1,0,0:0:0:0:
463,348,987457,2,0,L|363:342,2,97.4999955368044
365,252,988387,2,0,B|305:252|280:305|280:305|245:369|148:369|95:263|146:199|248:159|287:259,1,454.999979171754
115,365,990246,6,0,P|87:318|85:252,2,97.4999955368044
15,220,991175,2,0,P|41:172|97:137,2,97.4999955368044
184,33,992105,6,0,B|198:70|198:70|180:116,1,75,4|0,0:1|0:0,0:0:0:0:
184,180,992524,2,0,B|170:143|170:143|185:103,1,82.5000025177003,4|0,0:1|0:0,0:0:0:0:
272,141,993024,1,8,0:0:0:0:
324,173,993127,1,8,0:0:0:0:
385,185,993230,1,8,0:0:0:0:
446,174,993334,1,8,0:0:0:0:
499,141,993437,2,8,L|515:83,1,59.9999981689454
256,83,993687,2,8,L|272:141,1,59.9999981689454
512,328,993937,6,0,B|488:292|488:292|457:270,1,80,4|0,0:0|0:0,0:0:0:0:
313,270,994149,2,0,B|283:292|283:292|259:328,1,80,8|0,0:0|0:0,0:0:0:0:
76,327,994362,1,4,0:3:0:0:
20,286,994468,1,4,0:3:0:0:
0,220,994574,1,8,0:0:0:0:
23,155,994681,1,0,0:0:0:0:
81,117,994788,2,0,L|157:143,1,80,4|0,0:3|0:0,0:0:0:0:
308,88,994988,1,8,0:0:0:0:
308,88,995089,2,0,L|232:113,1,80,4|0,0:3|0:0,0:0:0:0:
152,226,995289,1,4,0:3:0:0:
152,226,995390,2,0,P|196:213|230:183,1,80,8|0,0:0|0:0,0:0:0:0:
25,62,995590,5,4,0:3:0:0:
57,85,995690,1,4,0:3:0:0:
80,117,995790,2,0,L|59:200,1,80,8|0,0:0|0:0,0:0:0:0:
117,359,995991,1,4,0:3:0:0:
149,335,996091,1,4,0:3:0:0:
172,303,996191,2,0,L|150:220,1,80,8|0,0:0|0:0,0:0:0:0:
208,62,996393,1,4,0:3:0:0:
240,86,996493,1,4,0:3:0:0:
263,118,996593,2,0,L|241:200,1,80,8|0,0:0|0:0,0:0:0:0:
299,358,996794,1,4,0:3:0:0:
331,334,996894,1,4,0:3:0:0:
354,302,996994,2,0,L|332:219,1,80,8|0,0:0|0:0,0:0:0:0:
434,45,997195,6,0,P|458:119|432:193,1,160,4|8,0:3|0:0,0:0:0:0:
261,119,997496,1,4,0:3:0:0:
261,119,997596,2,0,B|300:108|300:108|338:118,1,80,4|0,0:3|0:0,0:0:0:0:
471,268,997797,2,0,B|432:279|432:279|393:268,1,80,8|0,0:0|0:0,0:0:0:0:
101,198,997998,2,0,B|140:187|140:187|280:226,1,160,4|8,0:3|0:0,0:0:0:0:
43,303,998299,1,4,0:3:0:0:
43,303,998399,2,0,B|23:222,1,80,4|0,0:3|0:0,0:0:0:0:
56,40,998600,2,0,B|75:117,1,80,8|0,0:0|0:0,0:0:0:0:
132,339,998800,5,4,0:3:0:0:
335,114,999001,1,12,0:0:0:0:
380,339,999202,1,4,0:3:0:0:
177,114,999403,1,12,0:0:0:0:
207,358,999603,1,4,0:3:0:0:
294,47,999804,1,12,0:0:0:0:
305,358,1000004,1,4,0:3:0:0:
218,47,1000205,1,12,0:0:0:0:
5,309,1000406,6,4,L|105:289,1,80,4|4,0:3|0:3,0:3:0:0:
197,182,1000606,2,0,P|158:172|120:181,1,80,8|0,0:0|0:0,0:0:0:0:
233,292,1000807,1,4,0:3:0:0:
292,304,1000907,1,4,0:3:0:0:
351,315,1001007,1,8,0:0:0:0:
410,303,1001108,1,4,0:3:0:0:
469,292,1001208,2,0,L|494:133,1,160,4|8,0:3|0:0,0:0:0:0:
335,41,1001509,1,4,0:3:0:0:
335,41,1001610,2,0,L|347:120,1,80,4|0,0:3|0:0,0:0:0:0:
233,292,1001810,2,0,L|220:212,1,80,8|0,0:0|0:0,0:0:0:0:
40,42,1002011,5,4,0:3:0:0:
49,80,1002111,1,4,0:3:0:0:
80,104,1002212,2,0,L|165:94,1,80,8|0,0:0|0:0,0:0:0:0:
376,104,1002412,1,4,0:3:0:0:
366,65,1002512,1,4,0:3:0:0:
335,41,1002613,2,0,L|250:51,1,80,8|0,0:0|0:0,0:0:0:0:
149,191,1002814,1,4,0:3:0:0:
158,229,1002914,1,4,0:3:0:0:
189,253,1003015,2,0,L|273:242,1,80,8|0,0:0|0:0,0:0:0:0:
485,253,1003215,1,4,0:3:0:0:
475,214,1003315,1,4,0:3:0:0:
444,190,1003416,2,0,L|359:200,1,80,8|0,0:0|0:0,0:0:0:0:
97,354,1003616,6,0,P|169:326|189:251,1,160,4|8,0:3|0:0,0:0:0:0:
109,95,1003917,1,4,0:3:0:0:
109,95,1004018,2,0,L|84:198,1,80,4|0,0:3|0:0,0:0:0:0:
286,171,1004218,2,0,L|268:94,1,80,8|0,0:0|0:0,0:0:0:0:
7,156,1004419,2,0,P|26:230|98:258,1,160,4|8,0:3|0:0,0:0:0:0:
187,33,1004720,1,4,0:3:0:0:
187,33,1004820,2,0,L|84:8,1,80,4|0,0:3|0:0,0:0:0:0:
209,190,1005021,2,0,L|286:171,1,80,8|0,0:0|0:0,0:0:0:0:
480,80,1005222,5,8,0:0:0:0:
441,89,1005322,1,4,0:3:0:0:
402,98,1005422,1,4,0:3:0:0:
363,108,1005523,1,4,0:3:0:0:
325,162,1005623,1,8,0:0:0:0:
286,171,1005723,1,4,0:3:0:0:
247,180,1005823,1,4,0:3:0:0:
208,190,1005924,1,4,0:3:0:0:
176,250,1006024,5,8,0:0:0:0:
141,203,1006124,1,4,0:3:0:0:
155,147,1006224,1,4,0:3:0:0:
208,122,1006325,1,4,0:3:0:0:
260,147,1006426,2,0,L|340:158,1,80,8|0,0:0|0:0,0:0:0:0:
144,344,1006626,1,8,0:0:0:0:
203,352,1006727,1,8,0:0:0:0:
263,361,1006828,6,0,L|343:350,1,80,4|0,0:0|0:0,0:0:0:0:
500,185,1007030,2,0,L|415:173,1,85.0000016212464,8|0,0:0|0:0,0:0:0:0:
139,250,1007232,1,4,0:3:0:0:
200,279,1007333,1,4,0:3:0:0:
268,269,1007434,1,8,0:0:0:0:
320,224,1007535,1,4,0:3:0:0:
339,157,1007636,2,0,L|352:63,1,85.0000016212464,4|0,0:3|0:0,0:0:0:0:
66,47,1007838,1,8,0:0:0:0:
66,47,1007939,2,0,L|78:132,1,85.0000016212464,4|0,0:3|0:0,0:0:0:0:
196,349,1008142,1,4,0:3:0:0:
196,349,1008243,2,0,L|196:264,1,85.0000016212464,8|0,0:0|0:0,0:0:0:0:
4,144,1008445,5,4,0:3:0:0:
22,181,1008546,1,4,0:3:0:0:
58,202,1008647,2,0,L|143:190,1,85.0000016212464,8|0,0:0|0:0,0:0:0:0:
334,217,1008849,1,4,0:3:0:0:
316,255,1008942,1,4,0:3:0:0:
280,275,1009051,2,0,L|195:263,1,85.0000016212464,8|0,0:0|0:0,0:0:0:0:
94,113,1009253,1,4,0:3:0:0:
112,75,1009354,1,4,0:3:0:0:
148,55,1009456,2,0,L|233:67,1,85.0000016212464,8|0,0:0|0:0,0:0:0:0:
423,187,1009658,1,4,0:3:0:0:
405,149,1009759,1,4,0:3:0:0:
369,129,1009860,2,0,L|284:141,1,85.0000016212464,8|0,0:0|0:0,0:0:0:0:
60,339,1010062,6,0,P|142:327|196:264,1,170.000003242493,4|8,0:3|0:0,0:0:0:0:
82,137,1010365,1,4,0:3:0:0:
82,137,1010466,2,0,P|75:179|83:221,1,85.0000016212464,4|0,0:3|0:0,0:0:0:0:
248,373,1010668,2,0,P|290:369|328:351,1,85.0000016212464,8|0,0:0|0:0,0:0:0:0:
508,254,1010871,2,0,P|423:245|346:210,1,170.000003242493,4|8,0:3|0:0,0:0:0:0:
159,140,1011174,1,4,0:3:0:0:
159,140,1011275,2,0,P|201:135|239:118,1,85.0000016212464,4|0,0:3|0:0,0:0:0:0:
427,46,1011477,2,0,P|384:50|346:67,1,85.0000016212464,8|0,0:0|0:0,0:0:0:0:
176,328,1011679,5,4,0:3:0:0:
412,152,1011881,1,12,0:0:0:0:
100,152,1012084,1,4,0:3:0:0:
336,328,1012286,1,12,0:0:0:0:
346,66,1012488,1,4,0:3:0:0:
88,236,1012690,1,12,0:0:0:0:
424,236,1012892,1,4,0:3:0:0:
166,66,1013094,1,12,0:0:0:0:
388,320,1013297,6,0,L|480:308,1,85.0000016212464,4|0,0:3|0:0,0:0:0:0:
354,214,1013497,1,8,0:0:0:0:
299,244,1013597,1,4,0:3:0:0:
276,302,1013697,1,4,0:3:0:0:
243,355,1013797,1,4,0:3:0:0:
184,376,1013897,1,8,0:0:0:0:
125,355,1013997,1,4,0:3:0:0:
92,303,1014097,2,0,P|148:272|188:176,1,170.000003242493,4|8,0:3|0:0,0:0:0:0:
29,90,1014397,1,4,0:3:0:0:
29,90,1014497,2,0,L|49:173,1,85.0000016212464,4|0,0:3|0:0,0:0:0:0:
299,244,1014697,2,0,L|279:161,1,85.0000016212464,8|0,0:0|0:0,0:0:0:0:
20,260,1014897,5,4,0:3:0:0:
51,288,1014997,1,4,0:3:0:0:
91,302,1015097,2,0,L|181:292,1,85.0000016212464,8|0,0:0|0:0,0:0:0:0:
131,92,1015297,1,4,0:3:0:0:
133,134,1015397,1,4,0:3:0:0:
151,172,1015497,2,0,L|221:228,1,85.0000016212464,8|0,0:0|0:0,0:0:0:0:
328,51,1015697,1,4,0:3:0:0:
299,82,1015797,1,4,0:3:0:0:
285,122,1015897,2,0,L|295:211,1,85.0000016212464,8|0,0:0|0:0,0:0:0:0:
496,162,1016097,1,4,0:3:0:0:
454,164,1016197,1,4,0:3:0:0:
416,182,1016297,2,0,L|359:252,1,85.0000016212464,8|0,0:0|0:0,0:0:0:0:
132,287,1016497,6,0,P|211:313|290:286,1,170.000003242493,4|8,0:3|0:0,0:0:0:0:
133,191,1016797,1,4,0:3:0:0:
133,191,1016897,2,0,P|76:206|53:233,1,85.0000016212464,4|0,0:3|0:0,0:0:0:0:
288,367,1017097,2,0,P|298:309|283:276,1,85.0000016212464,8|0,0:0|0:0,0:0:0:0:
242,74,1017297,2,0,P|290:141|372:154,1,170.000003242493,4|8,0:3|0:0,0:0:0:0:
487,31,1017597,1,4,0:3:0:0:
487,31,1017697,2,0,L|403:47,1,85.0000016212464,4|0,0:3|0:0,0:0:0:0:
403,260,1017897,2,0,L|487:276,1,85.0000016212464,8|0,0:0|0:0,0:0:0:0:
275,111,1018097,6,0,L|275:196,1,85.0000016212464,4|0,0:3|0:0,0:0:0:0:
177,353,1018297,1,8,0:0:0:0:
119,377,1018397,1,4,0:3:0:0:
62,353,1018497,1,4,0:3:0:0:
39,295,1018597,1,4,0:3:0:0:
63,238,1018697,1,8,0:0:0:0:
121,215,1018797,1,4,0:3:0:0:
178,240,1018897,5,8,0:0:0:0:
238,219,1018997,1,8,0:0:0:0:
301,212,1019097,1,4,0:3:0:0:
364,219,1019197,1,4,0:3:0:0:
424,240,1019297,1,8,0:0:0:0:
488,205,1019397,1,8,0:0:0:0:
490,131,1019497,1,8,0:0:0:0:
426,94,1019597,1,8,0:0:0:0:
364,129,1019697,6,0,P|276:114|259:104,1,89.9999972534181,4|0,0:0|0:0,0:0:0:0:
119,12,1019899,2,0,P|150:95|150:114,1,89.9999972534181,8|0,0:0|0:0,0:0:0:0:
141,282,1020101,1,4,0:3:0:0:
80,320,1020202,1,4,0:3:0:0:
17,285,1020302,1,8,0:0:0:0:
15,213,1020404,1,4,0:3:0:0:
77,176,1020505,2,0,L|175:191,1,89.9999972534181,4|0,0:3|0:0,0:0:0:0:
420,277,1020707,1,8,0:0:0:0:
420,277,1020806,2,0,L|322:292,1,89.9999972534181,4|0,0:3|0:0,0:0:0:0:
201,106,1021011,1,4,0:3:0:0:
201,106,1021112,2,0,P|236:132|255:173,1,89.9999972534181,8|0,0:0|0:0,0:0:0:0:
297,375,1021314,5,4,0:3:0:0:
261,348,1021415,1,4,0:3:0:0:
242,307,1021516,2,0,L|341:289,1,89.9999972534181,8|0,0:0|0:0,0:0:0:0:
432,134,1021718,1,4,0:3:0:0:
467,160,1021819,1,4,0:3:0:0:
486,201,1021920,2,0,L|387:219,1,89.9999972534181,8|0,0:0|0:0,0:0:0:0:
154,330,1022122,1,4,0:3:0:0:
118,303,1022223,1,4,0:3:0:0:
99,262,1022325,2,0,L|197:243,1,89.9999972534181,8|0,0:0|0:0,0:0:0:0:
289,89,1022527,1,4,0:3:0:0:
324,115,1022628,1,4,0:3:0:0:
343,156,1022729,2,0,L|244:174,1,89.9999972534181,8|0,0:0|0:0,0:0:0:0:
17,105,1022931,6,0,B|107:87|107:87|193:104,1,179.999994506836,4|8,0:3|0:0,0:0:0:0:
39,336,1023234,1,4,0:3:0:0:
39,336,1023335,2,0,B|10:300|10:300|0:257,1,89.9999972534181,4|0,0:3|0:0,0:0:0:0:
108,36,1023537,2,0,L|108:152,1,89.9999972534181,8|0,0:0|0:0,0:0:0:0:
172,337,1023740,2,0,B|201:301|201:301|232:159,1,179.999994506836,4|8,0:3|0:0,0:0:0:0:
364,44,1024043,1,4,0:3:0:0:
364,44,1024144,2,0,L|385:147,1,89.9999972534181,4|0,0:3|0:0,0:0:0:0:
324,345,1024346,2,0,L|305:256,1,89.9999972534181,8|0,0:0|0:0,0:0:0:0:
241,31,1024548,5,4,0:3:0:0:
404,336,1024750,1,12,0:0:0:0:
161,177,1024953,1,4,0:3:0:0:
494,166,1025155,1,12,0:0:0:0:
177,91,1025357,1,4,0:3:0:0:
476,251,1025559,1,12,0:0:0:0:
183,260,1025761,1,4,0:3:0:0:
471,82,1025963,1,12,0:0:0:0:
96,180,1026166,6,0,P|46:168|2:136,1,89.9999972534181,4|0,0:3|0:0,0:0:0:0:
103,39,1026368,1,8,0:0:0:0:
173,61,1026469,1,4,0:3:0:0:
222,114,1026570,1,4,0:3:0:0:
237,185,1026671,1,4,0:3:0:0:
216,254,1026772,1,8,0:0:0:0:
232,324,1026873,1,4,0:3:0:0:
282,378,1026974,2,0,L|462:356,1,179.999994506836,4|8,0:3|0:0,0:0:0:0:
512,171,1027277,1,4,0:3:0:0:
512,171,1027378,2,0,L|422:182,1,89.9999972534181,4|0,0:3|0:0,0:0:0:0:
145,306,1027581,2,0,P|190:282|224:239,1,89.9999972534181,8|0,0:0|0:0,0:0:0:0:
64,21,1027783,5,4,0:3:0:0:
59,65,1027880,1,4,0:3:0:0:
55,110,1027982,2,0,L|65:220,1,89.9999972534181,8|0,0:0|0:0,0:0:0:0:
181,350,1028187,1,4,0:3:0:0:
176,306,1028289,1,4,0:3:0:0:
172,261,1028392,2,0,L|182:151,1,89.9999972534181,8|0,0:0|0:0,0:0:0:0:
298,21,1028597,1,4,0:3:0:0:
293,65,1028699,1,4,0:3:0:0:
289,110,1028801,2,0,L|299:220,1,89.9999972534181,8|0,0:0|0:0,0:0:0:0:
415,350,1029006,1,4,0:3:0:0:
410,306,1029109,1,4,0:3:0:0:
406,261,1029211,2,0,L|416:151,1,89.9999972534181,8|0,0:0|0:0,0:0:0:0:
156,19,1029416,6,0,B|176:79|176:79|288:109,1,179.999994506836,4|0,1:2|0:0,0:0:0:0:
269,309,1029714,2,0,B|249:249|249:249|136:218,1,179.999994506836,4|0,1:2|0:0,0:0:0:0:
0,111,1030013,2,0,L|100:138,1,89.9999972534181,4|0,1:2|0:0,0:0:0:0:
414,215,1030212,6,0,P|462:162|391:161,1,179.999994506836,4|0,1:2|0:0,0:0:0:0:
268,309,1030511,2,0,P|220:256|291:255,1,179.999994506836,4|0,1:2|0:0,0:0:0:0:
486,350,1030809,2,0,L|399:373,1,89.9999972534181,8|0,1:2|0:0,0:0:0:0:
113,373,1031009,6,0,B|27:348|27:348|35:257,1,179.999994506836,4|0,1:2|0:0,0:0:0:0:
67,60,1031307,2,0,B|153:85|153:85|144:175,1,179.999994506836,4|0,1:2|0:0,0:0:0:0:
214,342,1031606,2,0,L|223:247,1,89.9999972534181,4|0,1:2|0:0,0:0:0:0:
299,36,1031805,6,0,P|383:25|416:102,1,179.999994506836,4|0,1:2|0:0,1:0:0:0:
299,258,1032104,2,0,P|383:269|416:192,1,179.999994506836,4|0,1:2|0:0,0:0:0:0:
178,107,1032403,2,0,P|167:150|174:194,1,89.9999972534181,8|0,1:2|0:0,0:0:0:0:
350,361,1032602,6,0,B|409:287|409:287|416:192,1,189.999994926453,4|0,1:2|0:0,0:0:0:0:
96,192,1032900,2,0,B|103:287|103:287|162:361,1,189.999994926453,4|0,1:2|0:0,0:0:0:0:
297,68,1033199,2,0,B|256:48|256:48|212:68,1,94.9999974632264,4|0,1:2|0:0,0:0:0:0:
104,285,1033398,6,0,P|21:248|8:155,1,189.999994926453,4|0,1:2|0:0,0:0:0:0:
505,157,1033697,2,0,P|490:248|407:285,1,189.999994926453,4|0,1:2|0:0,0:0:0:0:
96,191,1034016,2,0,B|136:80|256:104|256:104|376:168|312:252|256:284|200:252|136:168|256:104|256:104|376:80|416:192,1,800,4|0,1:2|0:0,0:0:0:0:
499,325,1035871,6,0,L|404:339,1,75,8|0,0:3|0:0,0:0:0:0:
352,347,1036148,1,8,0:0:0:0:
352,347,1036432,1,8,0:3:0:0:
457,237,1036628,2,0,P|473:188|452:131,1,104.999996795654,8|0,0:3|0:0,0:0:0:0:
388,187,1036900,1,8,0:0:0:0:
388,187,1037012,1,8,0:0:0:0:
192,311,1037199,5,4,0:3:0:0:
228,151,1037405,2,0,L|252:40,1,104.999996795654,4|0,0:3|0:0,0:0:0:0:
177,34,1037732,1,8,0:0:0:0:
177,34,1038024,1,4,0:3:0:0:
301,165,1038250,2,0,P|370:137|390:82,1,112.500004291535,8|0,0:3|0:0,0:0:0:0:
304,79,1038538,1,8,0:0:0:0:
304,79,1038633,1,8,0:0:0:0:
298,251,1038829,1,4,0:3:0:0:
131,73,1039051,5,8,0:0:0:0:
185,58,1039150,1,8,0:0:0:0:
233,88,1039250,1,8,0:3:0:0:
242,144,1039350,1,8,0:3:0:0:
207,189,1039449,1,4,0:3:0:0:
151,192,1039549,1,4,0:3:0:0:
110,153,1039649,1,8,0:0:0:0:
70,182,1039748,1,8,0:0:0:0:
52,228,1039848,6,0,L|60:318,1,69.9999978637696,8|8,0:3|0:3,0:0:0:0:
160,293,1040063,2,0,L|167:382,1,69.9999978637696,8|8,0:3|0:3,0:0:0:0:
298,251,1040278,2,4,L|303:181,1,69.9999978637696,4|4,0:3|0:3,0:3:0:0:
405,186,1040493,2,4,L|410:116,1,69.9999978637696,4|4,0:3|0:3,0:3:0:0:
480,351,1040708,5,8,0:0:0:0:
480,351,1041116,2,0,B|459:348|459:348|431:361|431:361|406:360,1,75
320,348,1041524,6,0,P|356:296|364:256,1,89.9999972534181,4|0,0:0|0:0,0:0:0:0:
168,160,1041720,2,0,P|182:203|211:238,1,89.9999972534181,8|0,0:0|0:0,0:0:0:0:
470,207,1041917,1,4,0:3:0:0:
434,145,1042016,1,4,0:3:0:0:
362,145,1042114,1,8,0:0:0:0:
326,207,1042212,1,4,0:3:0:0:
362,270,1042310,2,0,L|463:287,1,89.9999972534181,4|0,0:3|0:0,0:0:0:0:
330,80,1042507,1,8,0:0:0:0:
330,80,1042605,2,0,L|229:97,1,89.9999972534181,4|0,0:3|0:0,0:0:0:0:
0,201,1042802,1,4,0:3:0:0:
0,201,1042900,2,0,L|101:218,1,89.9999972534181,8|0,0:0|0:0,0:0:0:0:
232,20,1043097,5,4,0:3:0:0:
190,36,1043195,1,4,0:3:0:0:
167,74,1043294,2,0,L|150:175,1,89.9999972534181,8|0,0:0|0:0,0:0:0:0:
364,329,1043490,1,4,0:3:0:0:
405,312,1043588,1,4,0:3:0:0:
429,275,1043687,2,0,L|446:174,1,89.9999972534181,8|0,0:0|0:0,0:0:0:0:
145,242,1043885,1,4,0:3:0:0:
162,284,1043983,1,4,0:3:0:0:
200,307,1044082,2,0,L|300:324,1,89.9999972534181,8|0,0:0|0:0,0:0:0:0:
451,107,1044277,1,4,0:3:0:0:
434,65,1044375,1,4,0:3:0:0:
396,42,1044474,2,0,L|295:25,1,89.9999972534181,8|0,0:0|0:0,0:0:0:0:
29,162,1044671,6,0,B|86:171|86:171|147:160|147:160|206:171,1,179.999994506836,4|8,0:3|0:0,0:0:0:0:
288,321,1044978,1,4,0:3:0:0:
288,321,1045080,2,0,L|200:307,1,89.9999972534181,4|0,0:3|0:0,0:0:0:0:
147,53,1045285,2,0,L|235:67,1,89.9999972534181,8|0,0:0|0:0,0:0:0:0:
483,222,1045490,6,0,B|426:213|426:213|365:224|365:224|306:213,1,179.999994506836,4|8,0:3|0:0,0:0:0:0:
344,48,1045797,1,4,0:3:0:0:
344,48,1045899,2,0,L|358:136,1,89.9999972534181,4|0,0:3|0:0,0:0:0:0:
410,384,1046104,2,0,L|424:295,1,89.9999972534181,8|0,0:0|0:0,0:0:0:0:
448,38,1046309,5,4,0:3:0:0:
296,288,1046514,1,12,0:0:0:0:
283,39,1046718,1,4,0:3:0:0:
423,295,1046923,1,12,0:0:0:0:
198,39,1047128,1,4,0:3:0:0:
58,295,1047333,1,12,0:0:0:0:
33,38,1047537,1,4,0:3:0:0:
185,288,1047742,1,12,0:0:0:0:
436,134,1047947,6,0,P|395:116|336:109,1,89.9999972534181,4|0,0:3|0:0,0:0:0:0:
215,233,1048148,2,0,P|259:225|300:207,1,89.9999972534181,8|0,0:0|0:0,0:0:0:0:
102,0,1048349,1,4,0:3:0:0:
73,68,1048449,1,4,0:3:0:0:
44,136,1048550,1,8,0:0:0:0:
73,204,1048650,1,4,0:3:0:0:
102,272,1048751,6,0,P|179:316|268:315,1,179.999994506836,4|8,0:3|0:0,0:0:0:0:
479,226,1049052,1,4,0:3:0:0:
479,226,1049153,2,0,P|437:244|393:251,1,89.9999972534181,4|0,0:3|0:0,0:0:0:0:
179,166,1049354,2,0,P|220:184|264:191,1,89.9999972534181,8|0,0:0|0:0,0:0:0:0:
480,57,1049555,5,4,0:3:0:0:
436,47,1049655,1,4,0:3:0:0:
393,60,1049756,2,0,L|382:160,1,89.9999972534181,8|0,0:0|0:0,0:0:0:0:
366,337,1049957,1,4,0:3:0:0:
322,346,1050057,1,4,0:3:0:0:
279,333,1050158,2,0,L|267:233,1,89.9999972534181,8|0,0:0|0:0,0:0:0:0:
252,57,1050359,1,4,0:3:0:0:
208,48,1050459,1,4,0:3:0:0:
165,61,1050560,2,0,L|153:160,1,89.9999972534181,8|0,0:0|0:0,0:0:0:0:
138,337,1050761,1,4,0:3:0:0:
94,346,1050861,1,4,0:3:0:0:
51,333,1050962,2,0,L|39:233,1,89.9999972534181,8|0,0:0|0:0,0:0:0:0:
332,128,1051163,6,0,L|132:152,1,179.999994506836,4|8,0:3|0:0,0:0:0:0:
320,22,1051464,1,4,0:3:0:0:
320,22,1051565,2,0,P|374:27|421:61,1,89.9999972534181,4|0,0:3|0:0,0:0:0:0:
512,189,1051766,2,0,P|467:191|427:211,1,89.9999972534181,8|0,0:0|0:0,0:0:0:0:
272,349,1051967,2,0,P|187:374|102:348,1,179.999994506836,4|8,0:3|0:0,0:0:0:0:
16,229,1052268,1,4,0:3:0:0:
16,229,1052369,2,0,P|70:223|117:189,1,89.9999972534181,4|0,0:3|0:0,0:0:0:0:
216,28,1052570,2,0,P|193:78|199:135,1,89.9999972534181,8|0,0:0|0:0,0:0:0:0:
382,313,1052771,5,4,1:2:0:0:
253,194,1052970,1,0,0:0:0:0:
253,194,1053070,1,0,0:0:0:0:
253,194,1053169,1,0,0:0:0:0:
124,75,1053369,1,0,0:0:0:0:
437,136,1053568,5,4,1:2:0:0:
253,194,1053767,1,0,0:0:0:0:
253,194,1053867,1,0,0:0:0:0:
253,194,1053967,1,0,0:0:0:0:
68,251,1054166,1,0,0:0:0:0:
295,4,1054360,5,4,1:2:0:0:
252,194,1054559,1,0,0:0:0:0:
252,194,1054658,1,0,0:0:0:0:
252,194,1054757,1,0,0:0:0:0:
210,383,1054956,1,0,0:0:0:0:
442,236,1055155,5,8,0:0:0:0:
407,172,1055255,1,8,0:0:0:0:
338,147,1055356,1,8,0:3:0:0:
270,174,1055457,1,8,0:3:0:0:
236,240,1055557,1,8,0:3:0:0:
199,305,1055658,1,8,0:3:0:0:
124,305,1055759,1,4,0:3:0:0:
86,240,1055859,1,4,0:3:0:0:
124,174,1055981,6,0,P|88:66|50:174,1,300,4|0,0:0|0:0,0:0:0:0:
410,379,1057587,5,8,0:0:0:0:
343,347,1057686,1,8,0:0:0:0:
303,284,1057787,1,4,0:3:0:0:
301,210,1057887,1,4,0:3:0:0:
339,146,1057987,1,8,0:3:0:0:
392,93,1058088,1,8,0:3:0:0:
360,25,1058188,1,4,0:3:0:0:
285,36,1058288,1,4,0:3:0:0:
272,109,1058389,1,12,0:0:0:0:
64,336,1060115,6,0,L|200:316,1,129.999994049073,4|0,0:3|0:0,0:0:0:0:
173,188,1060439,2,0,L|193:324,1,129.999994049073,4|0,0:3|0:0,0:0:0:0:
87,239,1060763,1,4,0:3:0:0:
112,0,1061842,6,0,L|132:136,1,129.999994049073,4|0,0:3|0:0,0:0:0:0:
260,109,1062166,2,0,L|124:129,1,129.999994049073,4|0,0:3|0:0,0:0:0:0:
209,23,1062490,1,4,0:3:0:0:
448,48,1063568,6,0,L|312:68,1,129.999994049073,4|0,0:3|0:0,0:0:0:0:
339,196,1063892,2,0,L|319:60,1,129.999994049073,4|0,0:3|0:0,0:0:0:0:
425,145,1064216,1,4,0:3:0:0:
400,384,1065295,6,0,L|380:248,1,129.999994049073,4|0,0:3|0:0,0:0:0:0:
252,275,1065619,2,0,L|388:255,1,129.999994049073,4|0,0:3|0:0,0:0:0:0:
303,361,1065943,1,4,0:3:0:0:
256,116,1067022,6,0,L|149:144,1,100,8|0,0:0|0:0,0:0:0:0:
256,268,1067453,2,4,L|363:240,1,100,4|4,0:3|0:3,0:3:0:0:
176,112,1067885,6,4,L|125:198,1,100,8|4,0:0|0:3,0:3:0:0:
336,272,1068307,2,4,L|387:186,1,100,4|4,0:3|0:3,0:3:0:0:
104,192,1068730,6,4,L|132:299,1,100,8|4,0:0|0:3,0:3:0:0:
408,192,1069132,2,4,L|380:85,1,100,4|4,0:3|0:3,0:3:0:0:
125,322,1069535,6,4,L|241:390,1,100,8|4,0:0|0:3,0:3:0:0:
386,61,1069900,2,4,L|270:-6,1,100,4|4,0:3|0:3,0:3:0:0:
300,373,1070266,6,4,L|386:322,1,100,8|4,0:0|0:3,0:3:0:0:
211,10,1070599,2,4,L|125:61,1,100,4|4,0:3|0:3,0:3:0:0:
440,240,1070932,6,4,L|440:116,1,100,8|4,0:0|0:3,0:3:0:0:
72,140,1071239,2,4,L|72:240,1,100,4|4,0:3|0:3,0:3:0:0:
386,61,1071547,6,4,L|270:-6,1,100,8|4,0:0|0:3,0:3:0:0:
125,322,1071836,2,4,L|241:390,1,100,4|4,0:3|0:3,0:3:0:0:
408,192,1072126,6,4,L|380:85,1,89.9999972534181,8|4,0:0|0:3,0:3:0:0:
104,192,1072384,2,4,L|132:299,1,89.9999972534181,4|4,0:3|0:3,0:3:0:0:
336,272,1072643,6,4,L|387:186,1,80,8|4,0:0|0:3,0:3:0:0:
176,112,1072853,2,4,L|125:198,1,80,4|4,0:3|0:3,0:3:0:0:
256,268,1073064,6,4,L|363:240,1,69.9999978637696,8|4,0:0|0:3,0:3:0:0:
256,116,1073233,2,4,L|149:144,1,69.9999978637696,4|4,0:3|0:3,0:3:0:0:
224,201,1073402,6,4,L|284:185,3,59.9999981689454,8|4|4|4,0:0|0:3|0:3|0:3,0:3:0:0:
308,179,1073642,6,4,L|365:165,4,50,8|4|4|4|8,0:0|0:3|0:3|0:3|0:0,0:3:0:0:
256,192,1074754,5,4,0:0:0:0:
256,192,1074869,12,0,1080292,0:0:0:0:
136,280,1080436,6,0,L|124:220,3,50,4|8|8|8,0:3|0:0|0:0|0:0,0:0:0:0:
136,104,1080743,2,0,L|126:153,3,50,4|8|8|8,0:3|0:0|0:0|0:0,0:0:0:0:
196,192,1081072,2,0,L|272:192,3,50,4|0|0|0,0:3|0:0|0:0|0:0,0:0:0:0:
328,192,1081413,5,4,0:3:0:0:
329,204,1081498,1,4,0:3:0:0:
331,216,1081583,1,4,0:3:0:0:
333,229,1081669,1,4,0:3:0:0:
336,240,1081755,2,0,L|386:240,1,50,4|4,0:3|0:3,0:0:0:0:
460,164,1081926,2,0,L|410:164,1,50,4|4,0:3|0:3,0:0:0:0:
336,100,1082097,1,4,0:3:0:0:
336,100,1082183,1,4,0:3:0:0:
336,100,1082268,1,4,0:3:0:0:
424,64,1082439,5,4,0:3:0:0:
64,280,1083284,6,0,B|68:280|68:256|28:256|-16:256|-16:356|56:356|120:356|120:324|120:288|160:288|200:288|240:288|280:288|280:320|280:352|320:352|360:352|400:352|440:352|480:312,1,539.999983520508,4|0,0:0|0:0,0:0:0:0:
