osu file format v14

[General]
AudioFilename: audio.mp3
AudioLeadIn: 0
PreviewTime: 190359
Countdown: 0
SampleSet: Drum
StackLeniency: 0.7
Mode: 0
LetterboxInBreaks: 0
WidescreenStoryboard: 1

[Editor]
Bookmarks: 1024,28652,40359,63774,78408,101823,114262,137676,152310,163652,175725,193286,216701,228408,240115,254739,266447,272300,278154,289871,304505,327910,339617,351335
DistanceSpacing: 1.1
BeatDivisor: 3
GridSize: 4
TimelineZoom: 3.299999

[Metadata]
Title:Naki Oujo no Tame no Septette
TitleUnicode:亡き王女の為のセプテット
Artist:Magnum Opus
ArtistUnicode:まぐなむお~ぱす
Creator:kerupt
Version:Scarlet Devil
Source:東方紅魔郷 ~ the Embodiment of Scarlet Devil.
Tags:東方紅魔月譚 Scarlet Devil Fantasic Rhapsody Septette for a Dead Princess 高瀬裕司 愛知県 Japan 水sa e-forest th Touhou Moon Tale 東方紅魔月譚 Comiket 75 MGCD-0002 東方Project remilia scarlet レミリア・スカーレット eosd th06 instrumental progressive metal guitar rock marathon
BeatmapID:3499914
BeatmapSetID:1712809

[Difficulty]
HPDrainRate:4.5
CircleSize:4
OverallDifficulty:9
ApproachRate:9.5
SliderMultiplier:2.5
SliderTickRate:1

[Events]
//Background and Video events
0,0,"bg.jpg",0,0
//Break Periods
2,17135,19104
2,20061,22214
2,22988,24958
2,25915,27702
//Storyboard Layer 0 (Background)
//Storyboard Layer 1 (Fail)
//Storyboard Layer 2 (Pass)
//Storyboard Layer 3 (Foreground)
//Storyboard Layer 4 (Overlay)
//Storyboard Sound Samples

[TimingPoints]
1014.31084423346,400,4,3,1,70,1,0
12214,393.44262295082,4,3,1,70,1,0
16836,-100,4,3,1,5,0,0
16935,365.853658536585,4,3,1,70,1,0
30380,-100,4,3,1,5,0,0
30471,-100,4,3,1,70,0,0
33764,-125,4,3,1,70,0,0
37239,-100,4,3,1,70,0,0
37971,-100,4,3,1,70,0,0
40349,-100,4,3,1,70,0,1
51142,-133.333333333333,4,3,1,70,0,1
52422,-100,4,3,1,70,0,1
62849,-125,4,3,1,70,0,1
63764,-100,4,3,1,70,0,0
64130,-66.6666666666667,4,3,1,70,0,0
65593,-100,4,3,1,70,0,0
67056,-66.6666666666667,4,3,1,70,0,0
68337,-100,4,3,1,70,0,0
68886,-83.3333333333333,4,3,1,70,0,0
69983,-66.6666666666667,4,3,1,70,0,0
75471,-90.9090909090909,4,3,1,70,0,0
76203,-125,4,3,1,70,0,0
77666,-125,4,3,1,5,0,0
78398,-100,4,3,1,60,0,0
112056,-71.4285714285714,4,3,1,60,0,0
114252,365.853658536585,4,3,1,70,1,0
114252,-100,4,3,1,70,0,1
137666,-100,4,3,1,70,0,0
150837,-125,4,3,1,70,0,0
151569,-125,4,3,1,5,0,0
152300,-100,4,3,1,70,0,0
175715,-76.9230769230769,4,3,1,70,0,0
178642,-133.333333333333,4,3,1,70,0,0
181569,-76.9230769230769,4,3,1,70,0,0
183032,-66.6666666666667,4,3,1,70,0,0
184495,-133.333333333333,4,3,1,70,0,0
187422,-76.9230769230769,4,3,1,70,0,0
188886,-66.6666666666667,4,3,1,70,0,0
191630,-100,4,3,1,70,0,0
193276,-100,4,3,1,70,0,1
197117,-125,4,3,1,70,0,1
199130,-100,4,3,1,70,0,1
199861,-125,4,3,1,70,0,1
200593,-100,4,3,1,70,0,1
201142,-125,4,3,1,70,0,1
201508,-100,4,3,1,70,0,1
208642,-125,4,3,1,70,0,1
209008,-100,4,3,1,70,0,1
216691,-100,4,3,1,70,0,0
218886,-111.111111111111,4,3,1,70,0,0
219251,-125,4,3,1,70,0,0
219617,-100,4,3,1,70,0,0
240105,-100,4,3,1,70,0,1
254739,-100,4,3,1,70,0,0
266447,-100,4,3,1,70,0,1
272300,-100,4,3,1,70,0,0
278154,-100,4,3,1,70,0,1
289861,-100,4,3,1,70,0,0
300105,-76.9230769230769,4,3,1,70,0,0
303947,-76.9230769230769,4,3,1,5,0,0
304008,-76.9230769230769,4,3,1,70,0,0
304495,-100,4,3,1,70,0,1
327910,-100,4,3,1,70,0,0
339617,-100,4,3,1,70,0,1
343642,-133.333333333333,4,3,1,70,0,1
344556,-100,4,3,1,70,0,1
351325,-100,4,3,1,70,0,0
364495,444.444444444444,4,3,1,70,1,0
364495,-83.3333333333333,4,3,1,70,0,0
365383,-83.3333333333333,4,3,1,5,0,0
366228,521.739130434783,4,3,1,70,1,0
366228,-66.6666666666667,4,3,1,70,0,0
367271,545.454545454546,4,3,1,70,1,0
372589,-100,4,3,1,5,0,0

[Colours]
Combo1 : 135,169,220
Combo2 : 232,202,162
Combo3 : 247,68,68
Combo4 : 166,129,211

[HitObjects]
383,70,1014,5,6,0:1:0:0:
256,192,1114,12,0,4014,0:0:0:0:
196,256,4214,5,6,0:1:0:0:
256,192,4314,12,0,7214,0:0:0:0:
440,320,7414,5,6,0:1:0:0:
256,192,7514,12,0,10414,0:0:0:0:
96,122,10614,5,6,0:1:0:0:
256,192,10714,12,0,16836,0:0:0:0:
256,192,16935,5,12,0:2:0:0:
92,318,19678,5,2,0:0:0:0:
96,290,19770,1,2,0:0:0:0:
100,258,19861,1,14,0:2:0:0:
312,344,22788,5,12,0:2:0:0:
328,102,25532,5,2,0:0:0:0:
332,130,25624,1,2,0:0:0:0:
336,162,25715,1,14,0:2:0:0:
58,81,28276,6,0,L|125:89,1,62.5,2|0,2:1|2:0,2:0:0:0:
174,158,28459,1,8,0:0:0:0:
203,154,28550,1,4,0:0:0:0:
235,150,28642,6,0,P|260:111|234:34,1,125,6|0,0:2|2:0,0:0:0:0:
24,162,29008,2,0,P|-1:201|25:278,1,125,2|0,0:2|2:0,2:0:0:0:
166,384,29374,1,2,0:2:0:0:
289,301,29556,1,0,2:0:0:0:
289,301,29648,1,0,2:0:0:0:
289,301,29739,1,2,0:2:0:0:
197,253,29922,1,0,2:0:0:0:
313,152,30105,6,0,B|364:132|412:165|412:165|440:222|495:217,1,187.5,2|0,0:1|0:0,0:0:0:0:
495,190,30471,2,2,L|368:209,1,125,2|2,0:2|2:2,0:2:0:0:
75,345,30837,5,2,0:2:0:0:
30,319,30928,1,8,0:0:0:0:
14,271,31020,1,10,0:2:0:0:
29,224,31111,1,4,0:0:0:0:
68,193,31203,1,6,0:0:0:0:
34,61,31386,5,4,0:0:0:0:
34,61,31477,1,4,0:0:0:0:
34,61,31569,6,0,B|70:47|70:47|168:109|168:109|217:89,1,187.5,14|0,0:1|0:0,0:0:0:0:
257,28,31934,2,0,P|235:12|195:9,1,62.5,12|0,0:1|0:0,0:0:0:0:
253,170,32117,2,0,P|278:187|309:189,1,62.5,12|0,0:2|0:0,0:0:0:0:
398,138,32300,5,0,0:0:0:0:
402,110,32392,1,0,0:0:0:0:
406,78,32483,1,12,0:1:0:0:
162,209,32666,5,0,0:0:0:0:
166,241,32758,1,0,0:0:0:0:
170,269,32849,1,12,0:1:0:0:
430,384,33032,5,8,0:0:0:0:
484,350,33124,1,8,0:0:0:0:
497,288,33215,1,8,0:1:0:0:
471,237,33306,1,8,0:1:0:0:
421,218,33398,1,8,0:0:0:0:
377,239,33489,1,8,0:0:0:0:
373,282,33581,1,8,0:0:0:0:
393,311,33672,1,8,0:0:0:0:
417,314,33764,6,0,P|426:291|423:265,1,50,4|4,0:0|0:0,0:0:0:0:
366,203,33947,2,0,P|357:179|360:153,1,50,4|4,0:0|0:0,0:0:0:0:
438,26,34130,5,6,0:0:0:0:
491,46,34221,1,6,0:0:0:0:
487,104,34313,1,6,0:0:0:0:
430,118,34404,1,6,0:0:0:0:
401,69,34495,1,6,0:2:0:0:
408,59,34861,6,0,L|296:45,1,100,2|0,0:2|2:0,0:0:0:0:
260,142,35227,2,0,L|371:155,1,100,2|0,0:2|2:0,0:0:0:0:
311,250,35593,2,0,L|211:237,1,100,2|0,0:2|2:0,0:0:0:0:
31,76,35959,5,10,0:2:0:0:
65,40,36050,1,8,0:1:0:0:
115,36,36142,1,10,0:2:0:0:
153,58,36233,1,8,0:0:0:0:
168,99,36325,5,2,0:2:0:0:
148,115,36416,1,4,0:0:0:0:
123,118,36508,1,2,0:2:0:0:
100,107,36599,1,4,0:0:0:0:
89,84,36691,5,10,0:2:0:0:
115,36,36782,1,8,0:1:0:0:
168,20,36874,1,10,0:2:0:0:
221,30,36965,1,8,0:0:0:0:
257,70,37056,2,0,P|267:103|256:135,1,50,4|4,0:0|0:0,0:0:0:0:
206,176,37239,2,0,P|194:208|204:240,1,62.5,8|8,0:1|0:1,0:0:0:0:
267,303,37422,5,14,0:2:0:0:
425,223,37605,1,0,0:0:0:0:
168,99,37788,5,14,0:2:0:0:
498,290,37971,2,0,P|524:240|504:170,1,125,14|0,0:2|0:0,0:0:0:0:
353,160,38245,1,0,0:0:0:0:
353,160,38337,2,0,P|326:215|342:274,1,125,14|0,0:2|0:0,0:0:0:0:
361,295,38611,1,0,0:0:0:0:
361,295,38703,1,14,0:2:0:0:
456,99,38886,5,8,0:0:0:0:
436,37,38977,1,8,0:0:0:0:
382,5,39069,1,8,0:1:0:0:
319,5,39160,1,8,0:1:0:0:
273,46,39252,1,8,0:0:0:0:
260,67,39343,1,8,0:0:0:0:
237,77,39434,1,4,0:0:0:0:
212,73,39526,1,4,0:0:0:0:
193,56,39617,5,8,0:0:0:0:
236,51,39709,1,8,0:0:0:0:
272,74,39800,1,8,0:0:0:0:
282,123,39892,1,8,0:0:0:0:
261,168,39983,1,8,0:0:0:0:
219,206,40075,1,4,0:0:0:0:
204,259,40166,1,6,0:0:0:0:
225,324,40258,1,6,0:0:0:0:
292,356,40349,6,0,L|366:347,1,62.5,14|0,0:2|0:0,0:0:0:0:
424,238,40532,1,0,0:0:0:0:
424,238,40624,1,0,0:0:0:0:
424,238,40715,2,0,L|350:229,1,62.5,12|0,0:1|0:0,0:0:0:0:
282,123,40898,5,0,0:0:0:0:
262,77,40989,1,0,0:0:0:0:
277,29,41081,1,12,0:1:0:0:
323,10,41172,1,0,0:0:0:0:
372,20,41264,1,0,0:0:0:0:
386,61,41355,1,0,0:0:0:0:
371,95,41447,5,12,0:1:0:0:
324,77,41538,1,0,0:0:0:0:
273,81,41630,1,0,0:0:0:0:
240,110,41721,1,0,0:0:0:0:
214,145,41813,1,12,0:1:0:0:
177,152,41904,1,0,0:0:0:0:
147,141,41995,5,0,0:0:0:0:
177,109,42087,1,0,0:0:0:0:
220,109,42178,1,12,0:1:0:0:
255,135,42270,1,0,0:0:0:0:
271,175,42361,1,0,0:0:0:0:
301,206,42453,1,0,0:0:0:0:
344,210,42544,6,0,P|356:184|353:149,3,62.5,12|0|0|0,0:1|0:0|0:0|0:0,0:0:0:0:
229,354,42910,1,14,0:1:0:0:
262,300,43001,1,2,0:2:0:0:
230,245,43093,1,2,0:2:0:0:
168,244,43184,1,2,0:2:0:0:
145,284,43276,5,12,0:1:0:0:
175,339,43367,1,0,0:0:0:0:
229,354,43459,1,0,0:0:0:0:
282,336,43550,1,0,0:0:0:0:
306,292,43642,1,12,0:1:0:0:
301,242,43733,1,0,0:0:0:0:
269,210,43825,5,0,0:0:0:0:
258,264,43916,1,0,0:0:0:0:
283,314,44008,1,12,0:1:0:0:
329,332,44099,1,0,0:0:0:0:
379,327,44191,1,0,0:0:0:0:
409,295,44282,1,0,0:0:0:0:
414,257,44374,5,12,0:1:0:0:
362,235,44465,1,0,0:0:0:0:
308,250,44556,1,0,0:0:0:0:
277,289,44648,1,0,0:0:0:0:
253,332,44739,1,12,0:1:0:0:
216,356,44831,1,0,0:0:0:0:
178,354,44922,5,0,0:0:0:0:
146,307,45014,1,0,0:0:0:0:
153,257,45105,1,12,0:1:0:0:
191,225,45197,1,0,0:0:0:0:
240,227,45288,1,0,0:0:0:0:
274,253,45380,1,0,0:0:0:0:
277,289,45471,5,12,0:1:0:0:
246,257,45563,1,8,0:0:0:0:
245,213,45654,1,8,0:0:0:0:
271,170,45745,1,8,0:0:0:0:
313,143,45837,1,12,0:1:0:0:
340,94,45928,1,4,0:0:0:0:
332,37,46020,2,0,P|304:19|261:17,1,62.5,4|4,0:0|0:0,0:0:0:0:
70,54,46203,5,14,0:2:0:0:
74,94,46294,1,0,0:0:0:0:
80,136,46386,1,0,0:0:0:0:
85,178,46477,1,0,0:0:0:0:
90,218,46569,2,0,P|118:236|161:238,1,62.5,12|0,0:1|0:0,0:0:0:0:
277,289,46752,5,0,0:0:0:0:
308,243,46843,1,0,0:0:0:0:
363,235,46934,1,12,0:1:0:0:
408,268,47026,1,0,0:0:0:0:
452,290,47117,1,0,0:0:0:0:
499,274,47209,1,0,0:0:0:0:
510,232,47300,5,12,0:1:0:0:
459,195,47392,1,0,0:0:0:0:
398,207,47483,1,0,0:0:0:0:
364,259,47575,1,0,0:0:0:0:
327,301,47666,1,12,0:1:0:0:
272,316,47758,1,0,0:0:0:0:
226,295,47849,5,0,0:0:0:0:
222,264,47941,1,0,0:0:0:0:
218,233,48032,1,12,0:1:0:0:
215,202,48124,1,0,0:0:0:0:
211,171,48215,1,0,0:0:0:0:
207,139,48306,1,0,0:0:0:0:
203,108,48398,6,0,L|212:32,3,62.5,12|0|0|0,0:1|0:0|0:0|0:0,0:0:0:0:
341,7,48764,1,14,0:1:0:0:
296,51,48855,1,2,0:2:0:0:
313,112,48947,1,2,0:2:0:0:
373,128,49038,1,2,0:2:0:0:
418,84,49130,5,14,0:1:0:0:
383,47,49221,1,0,0:0:0:0:
332,44,49313,1,0,0:0:0:0:
288,68,49404,1,0,0:0:0:0:
263,111,49495,1,12,0:1:0:0:
218,134,49587,1,0,0:0:0:0:
173,112,49678,5,0,0:0:0:0:
224,89,49770,1,0,0:0:0:0:
274,114,49861,1,12,0:1:0:0:
292,167,49953,1,0,0:0:0:0:
272,219,50044,1,0,0:0:0:0:
221,245,50136,1,0,0:0:0:0:
168,224,50227,5,12,0:1:0:0:
213,181,50319,1,0,0:0:0:0:
274,175,50410,1,0,0:0:0:0:
328,206,50502,1,0,0:0:0:0:
370,251,50593,1,12,0:1:0:0:
431,260,50684,1,0,0:0:0:0:
483,225,50776,6,0,L|489:156,1,62.5,8|8,0:1|0:1,0:0:0:0:
258,259,50959,1,8,0:0:0:0:
261,281,51050,1,8,0:0:0:0:
264,304,51142,2,0,L|270:373,1,46.8750017881394,4|4,0:0|0:0,0:0:0:0:
388,79,51325,5,14,0:2:0:0:
330,31,51416,1,8,0:1:0:0:
254,38,51508,1,8,0:0:0:0:
206,88,51599,1,8,0:0:0:0:
189,156,51691,1,12,0:1:0:0:
147,206,51782,1,8,0:1:0:0:
81,216,51874,1,4,0:0:0:0:
32,179,51965,1,4,0:0:0:0:
32,123,52056,5,14,0:1:0:0:
68,116,52148,1,0,0:0:0:0:
105,111,52239,1,0,0:0:0:0:
143,104,52331,1,0,0:0:0:0:
186,97,52422,2,0,L|267:84,1,62.5,12|0,0:1|0:0,0:0:0:0:
384,173,52605,5,0,0:0:0:0:
330,154,52697,1,0,0:0:0:0:
280,179,52788,1,12,0:1:0:0:
263,233,52880,1,0,0:0:0:0:
282,285,52971,1,0,0:0:0:0:
327,305,53063,1,0,0:0:0:0:
364,283,53154,5,12,0:1:0:0:
314,257,53245,1,0,0:0:0:0:
259,270,53337,1,0,0:0:0:0:
230,310,53428,1,0,0:0:0:0:
194,346,53520,1,12,0:1:0:0:
150,350,53611,1,0,0:0:0:0:
120,326,53703,5,0,0:0:0:0:
116,295,53794,1,0,0:0:0:0:
112,264,53886,1,12,0:1:0:0:
109,233,53977,1,0,0:0:0:0:
105,202,54069,1,0,0:0:0:0:
101,170,54160,1,0,0:0:0:0:
97,139,54252,6,0,L|106:63,3,62.5,12|0|0|0,0:1|0:0|0:0|0:0,0:0:0:0:
179,20,54617,5,14,0:1:0:0:
209,75,54709,1,2,0:2:0:0:
265,99,54800,1,2,0:2:0:0:
327,97,54892,1,2,0:2:0:0:
373,55,54983,5,12,0:1:0:0:
324,43,55075,1,0,0:0:0:0:
284,73,55166,1,0,0:0:0:0:
274,122,55258,1,0,0:0:0:0:
295,167,55349,1,12,0:1:0:0:
335,184,55441,1,0,0:0:0:0:
370,174,55532,5,0,0:0:0:0:
329,143,55624,1,0,0:0:0:0:
279,148,55715,1,12,0:1:0:0:
247,186,55806,1,0,0:0:0:0:
233,234,55898,1,0,0:0:0:0:
201,263,55989,1,0,0:0:0:0:
163,258,56081,5,12,0:1:0:0:
191,210,56172,1,0,0:0:0:0:
247,207,56264,1,0,0:0:0:0:
290,242,56355,1,0,0:0:0:0:
294,298,56447,1,12,0:1:0:0:
265,338,56538,1,0,0:0:0:0:
221,340,56630,5,0,0:0:0:0:
243,302,56721,1,0,0:0:0:0:
285,290,56813,1,12,0:1:0:0:
326,303,56904,1,0,0:0:0:0:
358,332,56995,1,0,0:0:0:0:
395,354,57087,1,0,0:0:0:0:
428,337,57178,5,12,0:1:0:0:
430,318,57270,1,8,0:0:0:0:
432,293,57361,1,8,0:0:0:0:
434,261,57453,1,8,0:0:0:0:
436,223,57544,1,12,0:1:0:0:
440,180,57636,1,4,0:0:0:0:
444,134,57727,2,0,L|436:71,1,62.5,4|4,0:0|0:0,0:0:0:0:
224,14,57910,5,14,0:1:0:0:
180,39,58002,1,0,0:0:0:0:
169,88,58093,1,0,0:0:0:0:
186,133,58184,1,0,0:0:0:0:
229,156,58276,1,12,0:1:0:0:
271,146,58367,1,0,0:0:0:0:
289,113,58459,5,0,0:0:0:0:
241,96,58550,1,0,0:0:0:0:
192,109,58642,1,12,0:1:0:0:
158,145,58733,1,0,0:0:0:0:
112,167,58825,1,0,0:0:0:0:
69,156,58916,1,0,0:0:0:0:
53,121,59008,5,12,0:1:0:0:
107,133,59099,1,0,0:0:0:0:
138,180,59191,1,0,0:0:0:0:
132,235,59282,1,0,0:0:0:0:
93,276,59374,1,12,0:1:0:0:
76,322,59465,1,0,0:0:0:0:
94,361,59556,5,0,0:0:0:0:
134,356,59648,1,0,0:0:0:0:
176,350,59739,1,12,0:1:0:0:
218,345,59831,1,0,0:0:0:0:
258,340,59922,1,0,0:0:0:0:
300,335,60014,1,0,0:0:0:0:
342,330,60105,6,0,P|356:299|347:263,3,62.5,12|0|0|0,0:1|0:0|0:0|0:0,0:0:0:0:
262,221,60471,1,14,0:1:0:0:
217,177,60563,1,2,0:2:0:0:
234,116,60654,1,2,0:2:0:0:
294,100,60745,1,2,0:2:0:0:
339,144,60837,5,14,0:1:0:0:
304,181,60928,1,0,0:0:0:0:
253,184,61020,1,0,0:0:0:0:
209,160,61111,1,0,0:0:0:0:
160,149,61203,1,12,0:1:0:0:
113,168,61294,1,0,0:0:0:0:
94,207,61386,5,0,0:0:0:0:
143,200,61477,1,0,0:0:0:0:
171,158,61569,1,12,0:1:0:0:
166,108,61660,1,0,0:0:0:0:
124,80,61752,1,0,0:0:0:0:
80,85,61843,1,0,0:0:0:0:
56,113,61934,5,12,0:1:0:0:
108,134,62026,1,0,0:0:0:0:
160,114,62117,1,0,0:0:0:0:
182,62,62209,1,0,0:0:0:0:
163,15,62300,1,12,0:1:0:0:
120,3,62392,1,0,0:0:0:0:
87,22,62483,6,0,L|78:91,1,62.5,8|8,0:1|0:1,0:0:0:0:
273,212,62666,1,0,0:0:0:0:
270,190,62758,1,0,0:0:0:0:
267,167,62849,2,0,L|261:98,1,50,4|4,0:0|0:0,0:0:0:0:
396,14,63032,5,14,0:2:0:0:
468,48,63124,1,8,0:1:0:0:
488,119,63215,1,8,0:0:0:0:
464,184,63306,1,8,0:0:0:0:
424,233,63398,1,8,0:1:0:0:
402,277,63489,1,8,0:1:0:0:
407,323,63581,1,4,0:0:0:0:
437,348,63672,1,4,0:0:0:0:
475,341,63764,5,2,0:2:0:0:
457,322,63855,1,0,0:0:0:0:
432,318,63947,1,0,0:0:0:0:
407,323,64038,1,0,0:0:0:0:
391,341,64130,6,0,P|310:384|220:363,1,187.500007152558,14|0,0:2|0:0,0:0:0:0:
122,309,64404,1,0,0:0:0:0:
119,291,64495,1,0,0:0:0:0:
116,274,64587,1,0,0:0:0:0:
113,257,64678,6,0,B|130:117|130:117|158:204,1,187.500007152558,14|0,0:2|0:0,0:0:0:0:
230,246,64953,5,0,0:0:0:0:
230,246,65044,2,0,P|261:195|258:146,1,93.7500035762788,14|0,0:2|0:0,0:0:0:0:
340,59,65227,6,0,P|344:105|372:142,1,93.7500035762788,4|0,0:2|0:0,0:0:0:0:
372,249,65410,5,8,0:1:0:0:
388,247,65502,1,0,0:0:0:0:
403,246,65593,2,0,L|466:238,1,62.5,2|0,0:2|0:0,0:0:0:0:
401,365,65776,5,8,0:1:0:0:
385,363,65867,1,0,0:0:0:0:
370,362,65959,2,0,L|306:354,1,62.5,2|0,0:2|0:0,0:0:0:0:
180,384,66142,5,0,0:1:0:0:
155,361,66233,1,0,0:0:0:0:
145,324,66325,1,10,0:2:0:0:
152,280,66416,1,8,0:0:0:0:
183,236,66508,1,4,0:0:0:0:
200,178,66599,1,8,0:1:0:0:
170,122,66691,5,2,0:2:0:0:
151,147,66782,1,0,0:0:0:0:
147,178,66874,1,0,0:1:0:0:
166,202,66965,1,0,0:0:0:0:
191,214,67056,6,0,B|267:208|267:208|281:217|281:217|401:208,1,187.500007152558,14|8,0:2|0:0,0:0:0:0:
460,62,67331,1,8,0:0:0:0:
433,57,67422,1,4,0:0:0:0:
405,50,67514,1,4,0:0:0:0:
377,44,67605,6,0,B|335:94|335:94|380:223,1,187.500007152558,14|0,0:2|0:0,0:0:0:0:
476,265,67880,5,0,0:0:0:0:
476,264,67971,2,0,P|490:220|478:175,1,93.7500035762788,12|0,0:2|0:0,0:0:0:0:
271,244,68154,6,0,P|256:287|268:332,1,93.7500035762788,4|0,0:2|0:0,0:0:0:0:
375,209,68337,5,8,0:1:0:0:
373,193,68429,1,0,0:0:0:0:
372,178,68520,2,0,L|365:114,1,62.5,2|0,0:2|0:0,0:0:0:0:
219,16,68703,5,8,0:1:0:0:
217,32,68795,1,0,0:0:0:0:
216,46,68886,2,0,L|207:123,3,74.9999977111817,2|0|0|0,0:2|0:0|0:0|0:0,0:0:0:0:
18,296,69252,5,8,0:1:0:0:
18,232,69343,1,8,0:0:0:0:
60,193,69434,1,4,0:0:0:0:
116,199,69526,1,8,0:1:0:0:
141,232,69617,5,2,0:2:0:0:
119,244,69709,1,0,0:0:0:0:
94,245,69800,1,0,0:0:0:0:
72,232,69892,1,0,0:0:0:0:
61,209,69983,6,0,B|114:178|114:178|240:215,1,187.500007152558,14|0,0:2|0:0,0:0:0:0:
358,333,70258,1,0,0:0:0:0:
376,328,70349,1,0,0:0:0:0:
394,324,70441,1,0,0:0:0:0:
411,320,70532,6,0,P|450:237|420:147,1,187.500007152558,14|0,0:2|0:0,0:0:0:0:
458,49,70806,5,0,0:0:0:0:
458,49,70898,2,0,L|344:35,1,93.7500035762788,14|0,0:2|0:0,0:0:0:0:
234,213,71081,6,0,L|327:201,1,93.7500035762788,4|0,0:2|0:0,0:0:0:0:
241,91,71264,1,8,0:1:0:0:
241,91,71355,1,0,0:0:0:0:
241,91,71447,5,2,0:2:0:0:
205,47,71538,1,0,0:0:0:0:
148,49,71630,1,8,0:2:0:0:
117,84,71721,1,0,0:0:0:0:
119,121,71813,5,2,0:2:0:0:
144,148,71904,1,0,0:0:0:0:
157,182,71995,1,0,0:0:0:0:
151,228,72087,1,0,0:0:0:0:
120,262,72178,1,10,0:2:0:0:
99,314,72270,1,8,0:0:0:0:
118,366,72361,1,4,0:0:0:0:
172,381,72453,1,8,0:2:0:0:
202,346,72544,5,2,0:2:0:0:
188,332,72636,1,0,0:0:0:0:
169,331,72727,1,0,0:0:0:0:
152,340,72819,1,0,0:0:0:0:
143,358,72910,6,0,B|175:309|175:309|154:166,1,187.500007152558,14|0,0:2|0:0,0:0:0:0:
69,105,73184,1,0,0:0:0:0:
71,85,73276,1,0,0:0:0:0:
76,67,73367,1,0,0:0:0:0:
81,49,73459,6,0,B|138:12|204:54|159:74|236:128|284:98,1,187.500007152558,14|0,0:2|0:0,0:0:0:0:
359,0,73733,5,0,0:0:0:0:
359,0,73825,2,0,L|225:16,1,93.7500035762788,14|0,0:2|0:0,0:0:0:0:
156,181,74008,6,0,L|289:197,1,93.7500035762788,4|0,0:2|0:0,0:0:0:0:
410,104,74191,1,8,0:1:0:0:
410,104,74282,1,0,0:0:0:0:
410,104,74374,5,2,0:2:0:0:
366,139,74465,1,0,0:0:0:0:
358,194,74556,1,8,0:2:0:0:
375,236,74648,1,0,0:0:0:0:
409,252,74739,5,2,0:2:0:0:
410,186,74831,1,0,0:0:0:0:
366,139,74922,1,0,0:0:0:0:
300,133,75014,1,0,0:0:0:0:
247,171,75105,5,10,0:2:0:0:
251,198,75197,1,8,0:0:0:0:
255,225,75288,1,4,0:0:0:0:
260,252,75380,1,8,0:2:0:0:
266,278,75471,6,0,P|159:211|333:109,1,412.500012588501,6|0,0:1|0:0,0:0:0:0:
255,176,76111,5,0,0:0:0:0:
255,176,76203,2,0,L|87:196,2,133.333333333333,8|8|4,0:0|0:0|0:0,0:0:0:0:
397,230,76813,1,4,0:0:0:0:
287,259,76934,6,0,B|236:328|350:443|482:309|377:178|354:228|296:166|332:85,1,400,6|0,0:1|0:0,0:0:0:0:
337,91,78398,5,6,0:1:0:0:
315,129,78489,1,0,0:0:0:0:
277,152,78581,1,10,0:1:0:0:
233,151,78672,1,0,0:0:0:0:
196,127,78764,1,2,0:1:0:0:
178,86,78855,1,0,0:0:0:0:
182,42,78947,1,10,0:1:0:0:
209,16,79038,1,0,0:0:0:0:
240,17,79130,5,2,0:1:0:0:
232,53,79221,1,0,0:0:0:0:
201,74,79313,1,10,0:1:0:0:
163,70,79404,1,0,0:0:0:0:
133,46,79495,1,2,0:1:0:0:
96,38,79587,1,0,0:0:0:0:
60,47,79678,1,10,0:1:0:0:
41,72,79770,1,0,0:0:0:0:
44,96,79861,5,2,0:1:0:0:
51,126,79953,1,0,0:0:0:0:
58,156,80044,1,10,0:1:0:0:
64,186,80136,1,0,0:0:0:0:
70,216,80227,1,2,0:1:0:0:
77,246,80319,1,0,0:0:0:0:
82,276,80410,1,10,0:1:0:0:
88,306,80502,1,0,0:0:0:0:
98,336,80593,1,2,0:1:0:0:
121,356,80684,1,0,0:0:0:0:
151,362,80776,1,10,0:1:0:0:
181,353,80867,1,0,0:0:0:0:
201,329,80959,1,2,0:1:0:0:
206,298,81050,1,0,0:0:0:0:
196,267,81142,1,10,0:1:0:0:
170,248,81233,1,8,0:1:0:0:
138,250,81325,5,6,0:1:0:0:
156,296,81416,1,0,0:0:0:0:
204,309,81508,1,8,0:1:0:0:
249,289,81599,1,0,0:0:0:0:
281,250,81691,1,2,0:1:0:0:
328,236,81782,1,0,0:0:0:0:
376,249,81874,1,10,0:1:0:0:
401,284,81965,1,0,0:0:0:0:
397,321,82056,5,2,0:1:0:0:
360,286,82148,1,0,0:0:0:0:
353,236,82239,1,10,0:1:0:0:
381,194,82331,1,0,0:0:0:0:
430,187,82422,1,2,0:1:0:0:
473,212,82514,1,0,0:0:0:0:
488,259,82605,1,10,0:1:0:0:
474,300,82697,1,0,0:0:0:0:
439,314,82788,5,2,0:1:0:0:
400,281,82880,1,0,0:0:0:0:
350,275,82971,1,10,0:1:0:0:
303,293,83063,1,0,0:0:0:0:
277,335,83154,1,2,0:1:0:0:
245,373,83245,1,0,0:0:0:0:
195,380,83337,1,10,0:1:0:0:
146,368,83428,1,0,0:0:0:0:
123,323,83520,1,2,0:1:0:0:
134,274,83611,1,0,0:0:0:0:
175,245,83703,1,10,0:1:0:0:
205,205,83794,1,0,0:0:0:0:
208,154,83886,1,2,0:1:0:0:
174,117,83977,1,8,0:1:0:0:
123,116,84069,1,10,0:1:0:0:
89,152,84160,1,8,0:1:0:0:
94,201,84252,5,6,0:1:0:0:
107,188,84343,1,0,0:0:0:0:
112,170,84434,1,8,0:1:0:0:
106,152,84526,1,0,0:0:0:0:
93,138,84617,1,2,0:1:0:0:
81,122,84709,1,0,0:0:0:0:
78,103,84800,1,10,0:1:0:0:
86,86,84892,1,0,0:0:0:0:
102,78,84983,1,2,0:1:0:0:
113,63,85075,1,0,0:0:0:0:
113,44,85166,1,10,0:1:0:0:
101,28,85258,1,0,0:0:0:0:
82,23,85349,1,2,0:1:0:0:
65,31,85441,1,0,0:0:0:0:
55,47,85532,1,10,0:1:0:0:
55,65,85624,1,8,0:1:0:0:
69,82,85715,5,2,0:1:0:0:
85,80,85806,1,0,0:0:0:0:
102,78,85897,1,10,0:1:0:0:
119,76,85989,1,0,0:0:0:0:
135,74,86080,1,2,0:1:0:0:
152,72,86172,1,0,0:0:0:0:
168,70,86263,1,10,0:1:0:0:
185,68,86355,1,0,0:0:0:0:
201,66,86446,1,2,0:1:0:0:
218,64,86538,1,0,0:0:0:0:
234,62,86629,1,10,0:1:0:0:
251,60,86721,1,0,0:0:0:0:
267,58,86812,1,2,0:1:0:0:
284,56,86904,1,0,0:0:0:0:
301,54,86995,1,10,0:1:0:0:
317,52,87086,1,8,0:1:0:0:
333,50,87178,5,6,0:1:0:0:
351,67,87270,1,0,0:0:0:0:
357,90,87361,1,8,0:1:0:0:
353,114,87453,1,0,0:0:0:0:
339,134,87544,1,2,0:1:0:0:
316,145,87636,1,0,0:0:0:0:
291,146,87727,1,10,0:1:0:0:
268,135,87819,1,0,0:0:0:0:
256,113,87910,5,6,0:1:0:0:
281,95,88002,1,0,0:0:0:0:
311,97,88093,1,8,0:1:0:0:
337,113,88184,1,0,0:0:0:0:
353,139,88276,1,2,0:1:0:0:
353,170,88367,1,0,0:0:0:0:
338,197,88459,1,10,0:1:0:0:
309,210,88550,1,0,0:0:0:0:
277,206,88642,5,6,0:1:0:0:
302,178,88733,1,0,0:0:0:0:
338,167,88825,1,8,0:1:0:0:
374,176,88916,1,0,0:0:0:0:
397,205,89008,1,2,0:1:0:0:
404,241,89099,1,0,0:0:0:0:
395,277,89191,1,10,0:1:0:0:
367,302,89282,1,8,0:1:0:0:
329,306,89374,5,2,0:1:0:0:
332,262,89465,1,0,0:0:0:0:
334,218,89556,1,10,0:1:0:0:
338,167,89648,1,0,0:0:0:0:
342,123,89739,1,2,0:1:0:0:
346,79,89831,1,0,0:0:0:0:
351,35,89922,2,0,P|324:15|285:22,1,62.5,10|8,0:1|0:1,0:0:0:0:
105,49,90105,5,6,0:1:0:0:
49,79,90197,1,0,0:0:0:0:
36,139,90288,1,8,0:1:0:0:
66,193,90380,1,0,0:0:0:0:
127,202,90471,1,2,0:1:0:0:
176,163,90563,1,0,0:0:0:0:
238,158,90654,1,10,0:1:0:0:
283,190,90745,1,0,0:0:0:0:
291,239,90837,5,2,0:1:0:0:
243,210,90928,1,0,0:0:0:0:
231,154,91020,1,10,0:1:0:0:
256,104,91111,1,0,0:0:0:0:
310,90,91203,1,2,0:1:0:0:
362,108,91294,1,0,0:0:0:0:
383,160,91386,1,10,0:1:0:0:
372,208,91477,1,0,0:0:0:0:
334,230,91569,5,2,0:1:0:0:
303,227,91660,1,0,0:0:0:0:
271,223,91752,2,0,L|207:215,1,62.5,10|0,0:1|0:0,0:0:0:0:
277,378,91934,2,0,L|340:370,1,62.5,2|0,0:1|0:0,0:0:0:0:
424,115,92117,2,0,L|360:107,1,62.5,10|0,0:1|0:0,0:0:0:0:
169,361,92300,2,0,P|151:323|160:288,1,62.5,2|0,0:1|0:0,0:0:0:0:
468,209,92483,2,0,P|486:247|477:282,1,62.5,10|0,0:1|0:0,0:0:0:0:
271,223,92666,2,0,P|253:185|262:150,1,62.5,2|0,0:1|0:0,0:0:0:0:
408,57,92849,2,2,P|426:95|417:130,1,62.5,10|10,0:1|0:1,0:1:0:0:
120,59,93032,5,6,0:1:0:0:
157,16,93124,1,0,0:0:0:0:
212,10,93215,1,8,0:1:0:0:
262,34,93306,1,0,0:0:0:0:
285,85,93398,1,2,0:1:0:0:
276,140,93489,1,0,0:0:0:0:
235,180,93581,1,10,0:1:0:0:
185,180,93672,1,0,0:0:0:0:
153,149,93764,5,2,0:1:0:0:
197,126,93855,1,0,0:0:0:0:
247,130,93947,1,10,0:1:0:0:
284,163,94038,1,0,0:0:0:0:
313,203,94130,1,2,0:1:0:0:
359,219,94221,1,0,0:0:0:0:
409,213,94313,1,10,0:1:0:0:
441,183,94404,1,0,0:0:0:0:
445,145,94495,6,0,L|436:79,1,62.5
191,208,94678,2,0,L|182:273,1,62.5,10|0,0:1|0:0,0:0:0:0:
417,274,94861,2,0,L|408:208,1,62.5
284,163,95044,2,0,L|275:228,1,62.5,10|0,0:1|0:0,0:0:0:0:
512,324,95227,5,8,0:0:0:0:
512,324,95319,1,8,0:0:0:0:
512,324,95410,2,0,L|503:258,1,62.5,4|4,0:0|0:0,0:0:0:0:
191,208,95593,6,0,L|182:269,1,62.5,10|0,0:1|0:0,0:0:0:0:
445,145,95776,6,0,L|436:83,1,62.5,8|8,0:1|0:1,0:0:0:0:
292,21,95959,5,6,0:1:0:0:
271,48,96050,1,0,0:0:0:0:
265,82,96142,1,8,0:1:0:0:
276,114,96233,1,0,0:0:0:0:
305,139,96325,1,2,0:1:0:0:
327,167,96416,1,0,0:0:0:0:
331,202,96508,1,10,0:1:0:0:
317,233,96599,1,0,0:0:0:0:
289,254,96691,1,2,0:1:0:0:
255,253,96782,1,0,0:0:0:0:
227,235,96874,1,10,0:1:0:0:
208,208,96965,1,0,0:0:0:0:
186,182,97056,1,2,0:1:0:0:
155,167,97148,1,0,0:0:0:0:
121,165,97239,1,10,0:1:0:0:
89,178,97331,1,0,0:0:0:0:
63,215,97422,5,2,0:1:0:0:
87,224,97514,1,0,0:0:0:0:
112,223,97605,1,10,0:1:0:0:
133,209,97697,1,0,0:0:0:0:
146,188,97788,1,2,0:1:0:0:
150,164,97880,1,0,0:0:0:0:
142,141,97971,1,10,0:1:0:0:
126,123,98063,1,0,0:0:0:0:
105,112,98154,1,2,0:1:0:0:
81,110,98245,1,0,0:0:0:0:
57,117,98337,1,10,0:1:0:0:
42,137,98428,1,0,0:0:0:0:
39,162,98520,1,2,0:1:0:0:
48,186,98611,1,0,0:0:0:0:
69,201,98703,1,10,0:1:0:0:
94,200,98794,1,8,0:1:0:0:
113,183,98886,5,6,0:1:0:0:
127,155,98977,1,0,0:0:0:0:
152,135,99069,1,8,0:1:0:0:
182,126,99160,1,0,0:0:0:0:
214,128,99252,1,2,0:1:0:0:
241,145,99343,1,0,0:0:0:0:
259,171,99434,1,10,0:1:0:0:
268,202,99526,1,0,0:0:0:0:
260,232,99617,5,6,0:1:0:0:
237,203,99709,1,0,0:0:0:0:
233,166,99800,1,8,0:1:0:0:
244,130,99892,1,0,0:0:0:0:
271,104,99983,1,2,0:1:0:0:
306,89,100075,1,0,0:0:0:0:
343,96,100166,1,10,0:1:0:0:
372,121,100258,1,0,0:0:0:0:
384,157,100349,5,6,0:1:0:0:
346,136,100441,1,0,0:0:0:0:
334,95,100532,1,8,0:1:0:0:
347,53,100624,1,0,0:0:0:0:
380,25,100715,1,2,0:1:0:0:
424,24,100806,1,0,0:0:0:0:
462,47,100898,1,10,0:1:0:0:
477,89,100989,1,8,0:1:0:0:
467,132,101081,5,6,0:1:0:0:
419,137,101172,1,0,0:0:0:0:
369,140,101264,1,8,0:1:0:0:
320,143,101355,1,0,0:0:0:0:
269,145,101447,2,0,L|259:64,1,62.5,2|0,0:1|0:1,0:0:0:0:
334,227,101630,2,0,L|322:308,1,62.5,8|8,0:1|0:1,0:0:0:0:
114,282,101813,5,6,0:1:0:0:
72,246,101904,1,0,0:0:0:0:
62,191,101995,1,10,0:1:0:0:
87,140,102087,1,0,0:0:0:0:
138,116,102178,1,2,0:2:0:0:
194,129,102270,1,0,0:0:0:0:
226,175,102361,2,0,L|216:250,1,62.5,10|0,0:2|0:0,0:0:0:0:
114,282,102544,2,0,L|106:220,2,62.5,2|0|10,0:2|0:0|0:2,0:0:0:0:
188,367,102819,1,0,3:0:0:0:
197,342,102910,6,0,B|286:335|243:393|338:384,1,125,0|10,3:0|3:2,3:0:0:0:
430,334,103184,1,0,0:0:0:0:
382,269,103276,6,0,P|352:272|326:289,1,62.5,6|0,0:2|0:0,0:0:0:0:
433,187,103459,1,10,0:2:0:0:
433,187,103550,1,0,0:2:0:0:
433,187,103642,2,0,P|459:204|490:207,1,62.5,2|0,0:2|0:0,0:0:0:0:
435,35,103825,1,10,0:2:0:0:
427,26,103916,1,8,0:1:0:0:
417,17,104008,2,0,L|408:80,2,62.5,2|0|8,0:2|0:0|0:2,0:0:0:0:
302,34,104282,1,0,0:0:0:0:
280,68,104374,6,0,L|296:197,1,125,2|10,0:2|0:2,0:0:0:0:
309,282,104648,1,0,0:0:0:0:
309,282,104739,6,0,P|272:310|252:312,1,62.5,6|0,0:1|0:0,0:0:0:0:
175,368,104922,1,8,0:1:0:0:
175,368,105014,2,0,B|145:325|145:325|171:228,1,125,0|0,0:0|0:2,0:0:0:0:
130,174,105288,1,10,0:2:0:0:
138,148,105380,1,0,0:0:0:0:
146,123,105471,2,0,B|171:108|207:119|207:119|252:173|303:168,1,125,6|8,0:1|0:2,0:0:0:0:
414,237,105745,1,0,0:0:0:0:
404,224,105837,1,2,0:2:0:0:
407,193,105928,1,0,0:0:0:0:
410,162,106019,1,10,0:2:0:0:
415,131,106111,1,0,0:0:0:0:
418,100,106202,5,6,0:1:0:0:
458,132,106294,1,0,0:0:0:0:
477,180,106386,1,8,0:1:0:0:
468,230,106477,1,0,0:0:0:0:
439,271,106569,1,2,0:1:0:0:
392,287,106660,1,0,0:0:0:0:
342,278,106752,1,8,0:1:0:0:
301,248,106843,1,8,0:1:0:0:
284,201,106934,6,0,B|329:174|329:174|416:207,1,125,8|8,0:0|0:0,0:0:0:0:
461,357,107209,1,8,0:0:0:0:
461,357,107300,6,0,L|401:365,2,31.25,10|8|8,0:1|0:1|0:1,0:0:0:0:
391,298,107483,2,0,L|303:310,1,62.5,8|8,0:1|0:1,0:0:0:0:
219,342,107666,5,6,0:1:0:0:
165,322,107757,1,0,0:0:0:0:
137,274,107848,1,8,0:1:0:0:
142,217,107940,1,0,0:0:0:0:
181,176,108032,1,2,0:2:0:0:
238,169,108123,1,0,0:0:0:0:
284,201,108214,2,0,P|295:237|280:280,1,62.5,10|0,0:2|0:0,0:0:0:0:
396,199,108398,2,0,P|392:168|402:139,2,62.5,2|0|10,0:2|0:0|0:2,0:0:0:0:
342,24,108672,1,0,0:0:0:0:
358,37,108764,6,0,P|319:85|239:70,1,125,2|10,0:2|0:2,0:0:0:0:
183,34,109038,1,0,0:0:0:0:
103,89,109130,6,0,L|93:22,1,62.5,6|0,0:1|0:0,0:0:0:0:
28,179,109313,1,10,0:2:0:0:
28,179,109404,1,0,0:0:0:0:
28,179,109495,2,0,L|18:117,1,62.5,2|0,0:2|0:0,0:0:0:0:
152,191,109678,1,10,0:2:0:0:
166,183,109770,1,8,0:2:0:0:
181,176,109861,6,0,L|171:243,2,62.5,2|0|8,0:2|0:0|0:2,0:0:0:0:
168,346,110135,1,0,0:0:0:0:
154,361,110227,6,0,P|203:385|261:344,1,125,0|10,0:0|0:2,0:0:0:0:
294,262,110502,1,0,0:0:0:0:
294,262,110593,6,0,P|316:283|345:292,1,62.5,6|0,0:1|0:0,0:0:0:0:
418,374,110776,1,8,0:1:0:0:
418,374,110868,2,0,B|454:322|454:322|428:200,1,187.5,0|10,0:0|0:2,0:0:0:0:
353,149,111233,1,0,0:0:0:0:
353,149,111325,6,0,L|360:84,1,62.5,6|0,0:1|0:0,0:0:0:0:
478,42,111508,1,10,0:2:0:0:
492,75,111599,2,0,P|475:101|436:113,1,62.5
259,71,111782,1,0,0:2:0:0:
244,40,111873,2,0,P|261:14|300:2,1,62.5,10|0,0:2|0:0,0:0:0:0:
359,86,112056,6,0,L|334:289,2,174.999994659424,10|0|0,0:2|0:0|0:0,0:0:0:0:
24,359,112605,6,0,L|1:172,2,174.999994659424,10|0|0,0:2|0:0|0:0,0:0:0:0:
227,179,113154,6,0,L|220:228,2,43.749998664856,10|10|10,0:1|0:1|0:1,0:0:0:0:
141,228,113337,1,10,0:1:0:0:
151,276,113428,1,10,0:1:0:0:
464,270,114252,5,6,0:1:0:0:
431,325,114343,1,0,0:0:0:0:
372,347,114434,1,8,0:1:0:0:
311,331,114526,1,0,0:0:0:0:
276,279,114617,1,2,0:0:0:0:
271,216,114709,1,0,0:0:0:0:
303,163,114800,1,8,0:1:0:0:
331,107,114892,1,0,0:0:0:0:
319,45,114983,1,2,0:0:0:0:
265,12,115075,1,0,0:0:0:0:
203,16,115166,1,8,0:1:0:0:
164,65,115258,1,0,0:0:0:0:
160,127,115349,1,2,0:0:0:0:
191,181,115441,1,0,0:0:0:0:
251,197,115532,1,8,0:1:0:0:
310,180,115623,1,0,0:0:0:0:
333,121,115715,5,2,0:0:0:0:
280,102,115806,1,0,0:0:0:0:
228,125,115898,1,8,0:1:0:0:
203,175,115989,1,0,0:0:0:0:
215,230,116081,1,2,0:0:0:0:
234,282,116172,1,0,0:0:0:0:
229,338,116264,1,8,0:1:0:0:
190,378,116355,1,0,0:0:0:0:
133,377,116447,1,2,0:0:0:0:
86,345,116538,1,0,0:0:0:0:
75,289,116630,1,8,0:1:0:0:
100,239,116721,1,0,0:0:0:0:
153,220,116812,2,0,L|223:231,1,62.5,2|0,0:0|0:0,0:0:0:0:
307,384,116995,2,0,L|377:373,1,62.5,8|0,0:1|0:0,0:0:0:0:
454,223,117178,5,6,0:1:0:0:
483,163,117270,1,0,0:0:0:0:
469,99,117361,1,8,0:1:0:0:
416,60,117453,1,0,0:0:0:0:
350,62,117544,1,2,0:0:0:0:
297,96,117636,1,0,0:0:0:0:
278,154,117727,1,8,0:1:0:0:
261,215,117819,1,0,0:0:0:0:
212,252,117910,1,2,0:0:0:0:
149,261,118002,1,0,0:0:0:0:
94,231,118093,1,8,0:1:0:0:
66,174,118184,1,0,0:0:0:0:
77,105,118276,1,2,0:0:0:0:
124,55,118367,1,0,0:0:0:0:
192,44,118459,1,8,0:1:0:0:
253,73,118550,1,0,0:0:0:0:
273,139,118642,5,2,0:0:0:0:
220,172,118733,1,0,0:0:0:0:
157,164,118825,1,8,0:1:0:0:
118,114,118916,1,0,0:0:0:0:
124,55,119008,1,2,0:0:0:0:
167,11,119099,1,0,0:0:0:0:
229,16,119191,1,8,0:1:0:0:
271,61,119282,1,0,0:0:0:0:
274,123,119373,1,2,0:0:0:0:
233,170,119465,1,0,0:0:0:0:
203,217,119556,1,8,0:1:0:0:
200,273,119648,1,0,0:0:0:0:
212,321,119739,2,0,P|243:342|274:342,1,62.5,10|8,0:1|0:1,0:0:0:0:
372,204,119922,2,0,P|396:185|427:181,1,62.5,8|8,0:1|0:1,0:0:0:0:
450,342,120105,5,4,0:1:0:0:
406,378,120197,1,0,0:0:0:0:
350,374,120288,1,8,0:1:0:0:
301,344,120380,1,0,0:0:0:0:
282,291,120471,1,2,0:0:0:0:
291,235,120562,1,0,0:0:0:0:
331,194,120654,1,8,0:1:0:0:
363,148,120745,1,0,0:0:0:0:
362,97,120837,1,2,0:0:0:0:
331,57,120928,1,0,0:0:0:0:
281,51,121020,1,8,0:1:0:0:
242,82,121111,1,0,0:0:0:0:
233,131,121203,1,2,0:0:0:0:
257,174,121294,1,0,0:0:0:0:
304,189,121386,1,8,0:1:0:0:
349,168,121477,1,0,0:0:0:0:
367,127,121569,5,2,0:0:0:0:
322,84,121660,1,0,0:0:0:0:
259,85,121751,1,8,0:1:0:0:
208,123,121843,1,0,0:0:0:0:
182,180,121934,1,2,0:0:0:0:
125,207,122026,1,0,0:0:0:0:
63,197,122117,1,8,0:1:0:0:
22,149,122209,1,0,0:0:0:0:
20,90,122300,1,2,0:0:0:0:
51,43,122392,1,0,0:0:0:0:
105,31,122483,1,8,0:1:0:0:
158,51,122575,1,0,0:0:0:0:
179,96,122666,2,0,L|186:160,1,62.5,2|0,0:0|0:0,0:0:0:0:
267,283,122849,2,0,L|274:220,1,62.5,8|0,0:1|0:0,0:0:0:0:
322,84,123032,5,6,0:1:0:0:
354,46,123123,1,0,0:0:0:0:
405,43,123215,1,8,0:1:0:0:
442,77,123306,1,0,0:0:0:0:
446,128,123398,2,0,P|427:151|393:161,3,62.5,2|0|8|0,0:0|0:0|0:1|0:0,0:0:0:0:
353,328,123764,5,6,0:1:0:0:
305,355,123855,1,0,0:0:0:0:
250,345,123947,1,8,0:1:0:0:
217,300,124038,1,0,0:0:0:0:
218,244,124130,2,0,P|249:224|292:224,3,62.5,2|0|8|0,0:0|0:0|0:1|0:0,0:0:0:0:
447,374,124495,5,6,0:1:0:0:
495,321,124587,1,0,0:0:0:0:
489,250,124678,1,8,0:0:0:0:
437,203,124770,1,8,0:0:0:0:
385,158,124861,1,6,0:0:0:0:
361,93,124953,1,4,0:0:0:0:
384,28,125044,1,6,0:0:0:0:
453,13,125136,1,4,0:0:0:0:
505,58,125227,1,8,0:1:0:0:
503,134,125319,1,8,0:1:0:0:
441,176,125410,1,4,0:0:0:0:
368,158,125501,1,4,0:0:0:0:
313,107,125593,2,0,L|311:67,2,31.25,8|8|8,0:1|0:1|0:1,0:0:0:0:
236,77,125776,2,0,L|233:15,1,62.5,8|8,0:1|0:1,0:0:0:0:
113,153,125959,5,4,0:1:0:0:
102,196,126050,1,0,0:0:0:0:
120,236,126141,1,8,0:1:0:0:
158,258,126233,1,0,0:0:0:0:
201,250,126324,1,2,0:2:0:0:
235,221,126416,1,0,0:0:0:0:
245,179,126507,1,10,0:2:0:0:
259,138,126599,1,0,0:0:0:0:
296,113,126690,1,2,0:2:0:0:
339,123,126782,1,2,0:2:0:0:
369,154,126873,1,8,0:2:0:0:
369,197,126965,1,0,0:0:0:0:
342,231,127056,1,2,0:2:0:0:
298,238,127148,1,0,0:0:0:0:
258,219,127239,1,10,0:2:0:0:
245,179,127330,1,0,0:0:0:0:
259,138,127422,5,2,0:2:0:0:
298,156,127513,1,0,0:0:0:0:
314,196,127605,1,10,0:2:0:0:
298,238,127696,1,0,0:0:0:0:
272,273,127788,1,2,0:2:0:0:
258,314,127879,1,0,0:0:0:0:
272,355,127971,1,10,0:2:0:0:
307,380,128062,1,0,0:0:0:0:
350,378,128154,1,2,0:2:0:0:
386,354,128245,1,0,0:0:0:0:
397,311,128337,1,10,0:2:0:0:
383,269,128428,1,0,0:0:0:0:
344,248,128520,2,0,L|275:258,1,62.5,2|2,0:2|0:2,0:0:0:0:
210,365,128702,2,0,L|273:354,1,62.5,10|2,0:2|0:2,0:0:0:0:
427,180,128885,5,4,0:1:0:0:
450,228,128977,1,0,0:0:0:0:
439,280,129068,1,10,0:2:0:0:
397,311,129160,1,0,0:0:0:0:
344,309,129251,1,2,0:2:0:0:
301,282,129343,1,0,0:0:0:0:
286,236,129434,1,10,0:2:0:0:
273,187,129526,1,0,0:0:0:0:
233,157,129617,1,2,0:2:0:0:
183,150,129709,1,2,0:2:0:0:
139,174,129800,1,8,0:1:0:0:
117,220,129891,1,0,0:0:0:0:
125,275,129983,1,2,0:2:0:0:
163,315,130074,1,0,0:0:0:0:
217,324,130166,1,10,0:2:0:0:
266,300,130257,1,0,0:0:0:0:
282,248,130349,5,2,0:2:0:0:
243,216,130440,1,0,0:0:0:0:
193,223,130532,1,10,0:2:0:0:
155,255,130623,1,0,0:0:0:0:
146,304,130715,1,2,0:2:0:0:
168,348,130806,1,0,0:0:0:0:
212,370,130898,1,10,0:2:0:0:
260,360,130989,1,0,0:0:0:0:
291,321,131080,1,2,0:2:0:0:
325,284,131172,1,0,0:0:0:0:
373,272,131263,1,10,0:2:0:0:
414,285,131355,1,0,0:0:0:0:
445,315,131447,2,0,P|457:350|450:380,1,62.5,10|10,0:2|0:2,0:0:0:0:
230,247,131630,2,0,P|217:211|224:181,1,62.5,10|10,0:2|0:2,0:0:0:0:
448,35,131812,5,4,0:1:0:0:
489,83,131904,1,0,0:0:0:0:
484,143,131995,1,10,0:2:0:0:
447,190,132087,1,0,0:0:0:0:
390,198,132178,1,2,0:2:0:0:
336,181,132269,1,0,0:0:0:0:
301,135,132361,1,10,0:2:0:0:
260,97,132452,1,0,0:0:0:0:
209,91,132544,1,2,0:2:0:0:
165,116,132636,1,2,0:2:0:0:
152,165,132727,1,10,0:2:0:0:
178,208,132818,1,0,0:0:0:0:
225,223,132910,1,2,0:2:0:0:
270,205,133001,1,0,0:0:0:0:
293,161,133093,1,10,0:2:0:0:
278,114,133184,1,0,0:0:0:0:
237,95,133276,5,2,0:2:0:0:
202,131,133367,1,0,0:0:0:0:
203,182,133458,1,10,0:2:0:0:
234,222,133550,1,0,0:0:0:0:
279,243,133641,1,2,0:2:0:0:
301,289,133733,1,0,0:0:0:0:
293,338,133824,1,10,0:2:0:0:
254,371,133916,1,0,0:0:0:0:
207,373,134007,1,2,0:2:0:0:
170,348,134099,1,0,0:0:0:0:
160,305,134190,1,10,0:2:0:0:
176,262,134282,1,0,0:0:0:0:
217,234,134373,2,0,L|286:244,1,62.5,2|2,0:2|0:2,0:0:0:0:
385,368,134556,2,0,L|448:357,1,62.5,10|2,0:2|0:2,0:0:0:0:
499,127,134739,5,4,0:1:0:0:
467,89,134830,1,0,0:0:0:0:
416,85,134922,1,10,0:1:0:0:
379,120,135013,1,0,0:0:0:0:
375,171,135105,2,0,P|394:194|428:204,3,62.5,2|0|8|0,0:0|0:0|0:1|0:0,0:0:0:0:
353,319,135471,5,4,0:1:0:0:
321,357,135562,1,0,0:0:0:0:
270,360,135654,1,10,0:1:0:0:
233,326,135745,1,0,0:0:0:0:
229,275,135837,2,0,P|248:252|282:242,1,62.5,8|8,0:2|0:2,0:0:0:0:
424,203,136020,2,0,P|394:193|374:169,1,62.5,8|8,0:2|0:2,0:0:0:0:
168,202,136203,5,4,0:1:0:0:
101,181,136294,1,0,0:0:0:0:
70,118,136386,1,8,0:1:0:0:
84,51,136477,1,8,0:1:0:0:
140,10,136569,2,0,L|179:15,2,31.25,8|8|8,0:0|0:0|0:0,0:0:0:0:
229,110,136751,2,0,L|167:101,1,62.5,8|0,0:0|0:0,0:0:0:0:
28,225,136934,5,4,0:0:0:0:
47,278,137026,1,4,0:0:0:0:
95,305,137117,1,4,0:0:0:0:
151,302,137209,1,4,0:0:0:0:
192,264,137300,1,4,0:0:0:0:
235,218,137392,1,8,0:1:0:0:
297,214,137483,1,8,0:1:0:0:
355,250,137575,1,8,0:1:0:0:
354,324,137666,6,0,B|307:357|307:357|171:329,1,187.5,4|0,0:1|0:0,0:0:0:0:
151,302,138032,1,10,0:1:0:0:
229,110,138215,1,0,0:0:0:0:
84,51,138398,1,2,0:2:0:0:
84,51,138489,2,0,P|55:109|77:177,1,125,8|0,0:1|0:0,0:0:0:0:
151,302,138764,2,0,P|180:244|158:176,1,125,10|0,0:2|0:0,0:0:0:0:
229,110,139038,1,0,2:0:0:0:
229,110,139130,6,0,B|286:75|357:118|318:146|377:186|429:165,1,187.5,6|0,0:1|0:0,0:0:0:0:
473,0,139495,2,0,L|345:15,1,125,12|0,0:2|0:0,0:0:0:0:
271,196,139861,1,2,0:2:0:0:
271,196,139953,1,8,0:1:0:0:
193,20,140136,1,0,0:2:0:0:
193,20,140228,1,10,0:2:0:0:
69,255,140410,1,8,0:1:0:0:
160,343,140593,6,0,B|231:334|231:334|258:355|258:355|345:344,1,187.5,4|0,0:1|0:0,0:0:0:0:
443,374,140959,1,12,0:1:0:0:
465,352,141050,1,8,0:0:0:0:
473,321,141142,1,4,0:0:0:0:
468,290,141233,1,0,0:0:0:0:
446,267,141325,5,4,0:1:0:0:
446,267,141416,2,0,L|380:259,1,62.5,8|8,0:1|0:0,0:0:0:0:
435,156,141599,1,4,0:0:0:0:
443,141,141691,2,0,L|508:133,1,62.5,8|8,0:1|0:0,0:0:0:0:
311,107,141873,1,4,0:0:0:0:
317,73,141965,1,0,0:0:0:0:
347,61,142056,6,0,P|335:142|239:141,1,187.5,4|0,0:1|0:0,0:0:0:0:
125,255,142422,2,0,L|115:180,1,62.5,8|0,0:1|0:0,0:0:0:0:
20,175,142605,1,8,0:0:0:0:
23,143,142696,1,4,0:0:0:0:
27,112,142787,5,4,0:1:0:0:
27,112,142880,2,0,P|57:88|93:90,1,62.5,8|8,0:1|0:0,0:0:0:0:
151,18,143062,1,4,0:0:0:0:
151,18,143154,2,0,P|181:42|217:40,1,62.5,8|0,0:1|0:0,0:0:0:0:
297,119,143337,2,0,P|266:123|244:144,1,62.5,8|8,0:0|0:0,0:0:0:0:
117,192,143520,6,0,L|146:430,1,187.5,4|0,0:1|0:0,0:0:0:0:
289,333,143886,1,12,0:1:0:0:
292,301,143977,1,8,0:0:0:0:
296,269,144069,1,4,0:0:0:0:
300,237,144160,1,0,0:0:0:0:
304,205,144252,5,4,0:1:0:0:
304,205,144343,2,0,L|313:282,1,62.5,8|8,0:1|0:0,0:0:0:0:
398,361,144526,1,4,0:0:0:0:
413,353,144618,2,0,L|421:288,1,62.5,8|8,0:1|0:0,0:0:0:0:
505,234,144800,1,4,0:0:0:0:
499,200,144892,1,0,0:0:0:0:
492,163,144983,6,0,B|455:137|410:168|410:168|362:226|315:207,1,187.5,4|0,0:1|0:0,0:0:0:0:
230,55,145349,2,0,P|254:36|285:35,1,62.5,8|0,0:1|0:0,0:0:0:0:
223,160,145532,1,8,0:0:0:0:
191,157,145623,1,8,0:0:0:0:
157,156,145714,5,4,0:1:0:0:
157,156,145807,2,0,P|133:126|135:90,2,62.5,8|0|0,0:1|0:0|0:0,0:0:0:0:
247,292,146081,1,8,0:1:0:0:
216,353,146172,1,8,0:1:0:0:
147,365,146264,1,8,0:1:0:0:
91,325,146355,1,8,0:1:0:0:
89,255,146448,5,6,0:1:0:0:
115,238,146538,1,0,0:0:0:0:
146,239,146631,1,10,0:2:0:0:
173,253,146721,1,0,0:0:0:0:
191,277,146813,1,2,0:2:0:0:
210,301,146904,1,0,0:0:0:0:
239,310,146996,1,10,0:2:0:0:
270,306,147087,1,0,0:0:0:0:
293,285,147179,5,2,0:2:0:0:
262,265,147269,1,0,0:0:0:0:
224,266,147362,1,10,0:2:0:0:
192,283,147452,1,0,0:0:0:0:
170,311,147544,1,2,0:2:0:0:
148,340,147635,1,0,0:0:0:0:
113,351,147727,1,10,0:2:0:0:
76,346,147818,1,0,0:0:0:0:
35,360,147909,5,2,0:2:0:0:
41,315,148001,1,0,0:0:0:0:
48,271,148093,1,10,0:2:0:0:
52,227,148184,1,0,0:0:0:0:
60,183,148276,1,2,0:2:0:0:
64,140,148367,1,0,0:0:0:0:
71,95,148459,1,10,0:2:0:0:
77,52,148550,1,0,0:0:0:0:
60,11,148642,5,2,0:2:0:0:
32,44,148733,1,0,0:0:0:0:
29,87,148825,1,10,0:2:0:0:
49,125,148916,1,0,0:0:0:0:
87,146,149008,1,2,0:2:0:0:
130,146,149099,1,0,0:0:0:0:
163,127,149191,1,10,0:2:0:0:
179,93,149282,1,0,0:0:0:0:
178,61,149373,6,0,L|169:-8,1,62.5,4|0,0:1|0:0,0:0:0:0:
42,297,149556,2,0,L|34:359,1,62.5,8|8,0:0|0:0,0:0:0:0:
272,144,149739,2,0,L|263:74,1,62.5,8|8,0:0|0:0,0:0:0:0:
128,256,149922,2,0,L|120:318,1,62.5,4|4,0:0|0:0,0:0:0:0:
366,227,150105,2,0,L|357:157,1,62.5,4|4,0:0|0:0,0:0:0:0:
214,215,150288,2,0,L|206:277,1,62.5,4|4,0:0|0:0,0:0:0:0:
449,383,150471,5,8,0:1:0:0:
501,347,150562,1,8,0:1:0:0:
512,290,150654,1,4,0:0:0:0:
492,237,150745,1,4,0:0:0:0:
460,212,150837,2,0,B|361:199|361:199|290:251|290:251|137:227|137:227|211:210,1,400,6|0,0:1|2:0,0:0:0:0:
16,102,152300,5,6,0:1:0:0:
34,58,152391,1,0,0:0:0:0:
74,37,152483,1,10,0:1:0:0:
118,38,152574,1,0,0:0:0:0:
155,62,152666,1,2,0:1:0:0:
173,103,152757,1,0,0:0:0:0:
169,147,152849,1,10,0:1:0:0:
142,173,152940,1,0,0:0:0:0:
111,172,153032,5,2,0:1:0:0:
107,134,153123,1,0,0:0:0:0:
130,104,153215,1,10,0:1:0:0:
166,95,153306,1,0,0:0:0:0:
201,106,153397,1,2,0:1:0:0:
225,134,153489,1,0,0:0:0:0:
249,161,153580,1,10,0:1:0:0:
286,167,153672,1,0,0:0:0:0:
308,141,153765,5,2,0:1:0:0:
281,121,153855,1,0,0:0:0:0:
249,110,153947,1,10,0:1:0:0:
216,112,154038,1,0,0:0:0:0:
186,123,154130,1,2,0:1:0:0:
160,145,154221,1,0,0:0:0:0:
142,173,154312,1,10,0:1:0:0:
136,205,154404,1,0,0:0:0:0:
140,238,154495,1,2,0:1:0:0:
153,268,154587,1,0,0:0:0:0:
176,291,154678,1,10,0:1:0:0:
206,306,154770,1,0,0:0:0:0:
240,310,154861,1,2,0:1:0:0:
272,304,154953,1,0,0:0:0:0:
300,286,155044,1,10,0:1:0:0:
321,261,155135,1,0,0:0:0:0:
312,222,155227,5,6,0:1:0:0:
280,257,155318,1,0,0:0:0:0:
272,304,155409,1,10,0:1:0:0:
290,348,155501,1,0,0:0:0:0:
329,375,155592,1,2,0:0:0:0:
377,377,155684,1,0,0:0:0:0:
418,354,155775,1,10,0:1:0:0:
440,312,155867,1,0,0:0:0:0:
431,268,155959,5,2,0:1:0:0:
385,249,156050,1,0,0:0:0:0:
336,257,156142,1,10,0:1:0:0:
302,293,156233,1,0,0:0:0:0:
276,335,156325,1,2,0:1:0:0:
232,355,156416,1,0,0:0:0:0:
182,354,156508,1,10,0:1:0:0:
147,327,156599,1,0,0:0:0:0:
142,283,156691,5,2,0:1:0:0:
181,265,156782,1,0,0:0:0:0:
221,281,156873,1,10,0:1:0:0:
240,320,156965,1,0,0:0:0:0:
230,362,157056,1,2,0:1:0:0:
191,383,157148,1,0,0:0:0:0:
147,376,157239,1,10,0:1:0:0:
118,342,157331,1,0,0:0:0:0:
117,298,157422,1,2,0:1:0:0:
135,258,157514,1,0,0:0:0:0:
169,231,157605,1,10,0:1:0:0:
193,194,157697,1,0,0:0:0:0:
194,150,157788,1,2,0:1:0:0:
161,111,157880,1,8,0:1:0:0:
111,103,157971,1,8,0:1:0:0:
69,130,158062,1,8,0:1:0:0:
58,189,158154,5,6,0:1:0:0:
71,202,158245,1,0,0:0:0:0:
89,207,158336,1,8,0:1:0:0:
107,201,158428,1,0,0:0:0:0:
123,191,158519,1,2,0:1:0:0:
139,182,158611,1,0,0:0:0:0:
157,180,158702,1,10,0:1:0:0:
175,184,158794,1,0,0:0:0:0:
190,194,158885,1,2,0:1:0:0:
208,198,158977,1,0,0:0:0:0:
231,196,159068,1,10,0:1:0:0:
247,186,159160,1,0,0:0:0:0:
264,179,159251,1,2,0:1:0:0:
282,179,159343,1,0,0:0:0:0:
300,183,159434,1,10,0:1:0:0:
316,192,159526,1,8,0:1:0:0:
325,207,159617,5,2,0:1:0:0:
325,225,159708,1,0,0:0:0:0:
315,241,159799,1,10,0:1:0:0:
297,247,159891,1,0,0:0:0:0:
279,240,159982,1,2,0:1:0:0:
266,226,160074,1,0,0:0:0:0:
264,207,160165,1,10,0:1:0:0:
274,191,160257,1,0,0:0:0:0:
292,186,160348,1,2,0:1:0:0:
310,190,160440,1,0,0:0:0:0:
325,207,160531,1,10,0:1:0:0:
325,225,160623,1,0,0:0:0:0:
315,241,160714,1,2,0:1:0:0:
305,257,160806,1,0,0:0:0:0:
298,274,160897,1,10,0:1:0:0:
299,292,160988,1,8,0:1:0:0:
317,317,161080,5,6,0:1:0:0:
301,344,161172,1,0,0:0:0:0:
272,355,161263,1,8,0:1:0:0:
242,345,161355,1,0,0:0:0:0:
223,320,161446,1,2,0:1:0:0:
199,299,161538,1,0,0:0:0:0:
168,291,161629,1,10,0:1:0:0:
137,298,161721,1,0,0:0:0:0:
122,325,161812,5,6,0:1:0:0:
158,350,161904,1,0,0:0:0:0:
200,338,161995,1,8,0:1:0:0:
215,297,162086,1,0,0:0:0:0:
204,254,162178,1,2,0:1:0:0:
170,226,162269,1,0,0:0:0:0:
155,184,162361,1,10,0:1:0:0:
166,142,162452,1,0,0:0:0:0:
198,112,162544,5,6,0:1:0:0:
235,153,162635,1,0,0:0:0:0:
213,205,162727,2,0,L|129:215,1,62.5,8|0,0:1|0:0,0:0:0:0:
47,76,162910,1,8,0:1:0:0:
73,19,163001,1,8,0:1:0:0:
134,3,163093,1,8,0:1:0:0:
191,27,163184,1,8,0:1:0:0:
213,72,163276,6,0,L|206:123,2,41.6666666666667,8|8|8,0:0|0:0|0:0,0:0:0:0:
132,163,163459,2,0,L|138:214,2,41.6666666666667,8|8|8,0:0|0:0|0:0,0:0:0:0:
220,255,163642,2,0,L|213:306,2,41.6666666666667,8|8|8,0:0|0:0|0:0,0:0:0:0:
106,372,163825,2,0,L|98:309,1,62.5,8|8,0:1|0:1,0:0:0:0:
285,182,164007,5,6,0:1:0:0:
341,212,164099,1,0,0:0:0:0:
354,272,164190,1,8,0:1:0:0:
324,326,164282,1,0,0:0:0:0:
263,335,164373,1,2,0:1:0:0:
214,296,164465,1,0,0:0:0:0:
152,291,164556,1,10,0:1:0:0:
98,331,164647,1,0,0:0:0:0:
106,372,164739,5,2,0:1:0:0:
154,343,164830,1,0,0:0:0:0:
166,287,164922,1,10,0:1:0:0:
141,237,165013,1,0,0:0:0:0:
87,223,165105,1,2,0:1:0:0:
35,241,165196,1,0,0:0:0:0:
14,293,165288,1,10,0:1:0:0:
25,341,165379,1,0,0:0:0:0:
63,363,165471,5,2,0:1:0:0:
93,359,165562,1,0,0:0:0:0:
125,355,165654,2,0,L|189:347,1,62.5,10|0,0:1|0:0,0:0:0:0:
87,223,165836,2,0,L|24:215,1,62.5,2|0,0:1|0:0,0:0:0:0:
201,87,166019,2,0,L|265:79,1,62.5,10|0,0:1|0:0,0:0:0:0:
31,15,166202,2,0,P|21:55|37:88,1,62.5,2|0,0:1|0:0,0:0:0:0:
269,230,166386,2,0,P|279:200|272:170,1,62.5,10|0,0:1|0:0,0:0:0:0:
128,295,166569,2,0,P|118:335|134:368,1,62.5,2|0,0:1|0:0,0:0:0:0:
285,242,166751,2,0,P|294:201|278:168,1,62.5,10|8,0:1|0:1,0:0:0:0:
15,175,166934,5,6,0:1:0:0:
52,218,167026,1,0,0:0:0:0:
107,224,167117,1,8,0:1:0:0:
157,200,167208,1,0,0:0:0:0:
180,149,167300,1,2,0:1:0:0:
171,94,167391,1,0,0:0:0:0:
130,54,167483,1,10,0:1:0:0:
80,54,167574,1,0,0:0:0:0:
48,85,167666,5,2,0:1:0:0:
92,108,167757,1,0,0:0:0:0:
142,104,167849,1,10,0:1:0:0:
179,71,167940,1,0,0:0:0:0:
208,31,168032,1,2,0:1:0:0:
254,15,168123,1,0,0:0:0:0:
304,21,168215,1,10,0:1:0:0:
336,51,168306,1,0,0:0:0:0:
340,89,168397,6,0,L|331:155,1,62.5
165,261,168580,2,0,L|156:196,1,62.5,10|0,0:1|0:0,0:0:0:0:
353,106,168763,2,0,L|344:172,1,62.5
177,273,168946,2,0,L|168:208,1,62.5,10|0,0:1|0:0,0:0:0:0:
431,275,169129,5,8,0:0:0:0:
431,275,169221,1,8,0:0:0:0:
431,275,169312,2,0,P|403:300|369:309,1,62.5,4|4,0:0|0:0,0:0:0:0:
330,173,169495,6,0,P|308:153|273:148,1,62.5,10|0,0:1|0:0,0:0:0:0:
169,286,169678,6,0,P|143:307|109:309,1,62.5,8|8,0:1|0:1,0:0:0:0:
27,78,169861,5,6,0:1:0:0:
54,57,169952,1,0,0:0:0:0:
88,55,170044,1,8,0:1:0:0:
120,68,170135,1,0,0:0:0:0:
143,99,170227,1,2,0:1:0:0:
169,123,170318,1,0,0:0:0:0:
205,132,170410,1,10,0:1:0:0:
239,118,170501,1,0,0:0:0:0:
250,81,170593,1,2,0:1:0:0:
233,47,170684,1,0,0:0:0:0:
197,33,170776,1,10,0:1:0:0:
162,46,170867,1,0,0:0:0:0:
140,76,170959,1,2,0:1:0:0:
143,113,171050,1,0,0:0:0:0:
169,140,171142,1,10,0:1:0:0:
204,151,171233,1,0,0:0:0:0:
236,132,171325,5,2,0:1:0:0:
223,103,171416,1,0,0:0:0:0:
194,89,171508,1,10,0:1:0:0:
163,93,171599,1,0,0:0:0:0:
143,113,171691,1,2,0:1:0:0:
136,143,171782,1,0,0:0:0:0:
146,172,171873,1,10,0:1:0:0:
168,193,171965,1,0,0:0:0:0:
192,212,172056,1,2,0:1:0:0:
205,240,172148,1,0,0:0:0:0:
203,271,172239,1,10,0:1:0:0:
185,296,172331,1,0,0:0:0:0:
156,307,172422,1,2,0:1:0:0:
126,297,172514,1,0,0:0:0:0:
108,279,172605,1,10,0:1:0:0:
103,260,172697,1,8,0:1:0:0:
116,232,172788,5,6,0:1:0:0:
149,203,172880,1,0,0:0:0:0:
192,205,172971,1,10,0:1:0:0:
223,224,173062,1,8,0:1:0:0:
241,257,173154,1,8,0:0:0:0:
267,273,173245,1,8,0:0:0:0:
292,270,173337,1,4,0:0:0:0:
306,258,173428,1,4,0:0:0:0:
306,245,173520,5,6,0:1:0:0:
268,222,173611,1,8,0:1:0:0:
225,233,173703,1,10,0:1:0:0:
203,270,173794,1,0,0:0:0:0:
205,313,173886,1,10,0:1:0:0:
232,346,173977,1,0,0:0:0:0:
275,353,174069,1,8,0:1:0:0:
315,336,174160,1,8,0:1:0:0:
330,295,174251,5,2,0:0:0:0:
282,264,174343,1,8,0:1:0:0:
226,274,174434,1,8,0:1:0:0:
188,316,174526,1,8,0:1:0:0:
162,365,174617,1,8,0:0:0:0:
107,381,174709,1,8,0:0:0:0:
52,367,174800,1,4,0:0:0:0:
21,319,174892,1,4,0:0:0:0:
27,263,174983,5,12,0:1:0:0:
87,228,175075,1,8,0:1:0:0:
153,244,175166,1,8,0:0:0:0:
195,298,175258,1,8,0:0:0:0:
241,347,175349,1,8,0:1:0:0:
309,352,175441,1,8,0:1:0:0:
366,314,175532,1,8,0:1:0:0:
383,247,175623,1,8,0:1:0:0:
352,179,175715,6,0,B|325:223|325:223|362:333,2,162.499992561341,6|2|2,0:1|0:2|0:2,0:0:0:0:
87,228,176264,6,0,B|114:184|114:184|77:74,2,162.499992561341,12|2|2,0:1|0:2|0:2,0:0:0:0:
187,26,176812,6,0,P|238:83|338:68,1,162.499992561341,12|2,0:1|0:2,0:0:0:0:
421,0,177087,1,0,0:0:0:0:
421,0,177178,6,0,L|444:190,2,162.499992561341,12|2|2,0:1|0:2|0:2,0:0:0:0:
264,354,177727,6,0,L|283:192,2,162.499992561341,12|2|2,0:1|0:2|0:2,0:0:0:0:
65,47,178276,5,12,0:1:0:0:
72,107,178367,1,8,0:1:0:0:
79,167,178458,1,8,0:1:0:0:
87,228,178550,1,8,0:1:0:0:
93,255,178642,6,0,P|112:268|149:266,1,46.8750017881394,6|0,0:1|0:0,0:0:0:0:
264,354,178825,2,0,P|240:356|221:369,1,46.8750017881394
283,192,179008,1,10,0:2:0:0:
290,203,179191,6,0,L|353:195,1,46.8750017881394
433,190,179373,2,0,L|394:138,1,46.8750017881394,2|0,0:2|0:0,0:0:0:0:
350,72,179556,2,0,L|324:130,1,46.8750017881394
447,77,179739,1,10,0:2:0:0:
275,6,179922,5,0,0:0:0:0:
275,6,180014,1,0,0:0:0:0:
275,6,180105,2,0,P|254:22|233:25,1,46.8750017881394,2|0,0:2|0:0,0:0:0:0:
116,55,180288,2,0,P|138:59|156:74,1,46.8750017881394
236,118,180471,1,10,0:2:0:0:
238,131,180654,6,0,L|243:177,1,46.8750017881394
148,227,180837,2,0,L|153:180,1,46.8750017881394,2|0,0:2|0:0,0:0:0:0:
58,131,181020,2,0,L|63:177,1,46.8750017881394
2,252,181203,1,10,0:2:0:0:
95,374,181386,1,8,0:1:0:0:
95,374,181477,1,8,0:1:0:0:
95,374,181569,6,0,P|145:326|248:330,2,162.499992561341,6|2|2,0:1|0:2|0:2,0:0:0:0:
377,181,182117,6,0,P|297:182|237:130,2,162.499992561341,12|2|2,0:1|0:2|0:2,0:0:0:0:
43,16,182666,6,0,L|66:206,1,162.499992561341,8|2,0:1|0:2,0:0:0:0:
120,244,182941,1,0,0:0:0:0:
120,244,183032,6,0,B|165:218|226:252|189:271|243:310|286:294,2,187.500007152558,8|2|2,0:1|0:2|0:2,0:0:0:0:
405,73,183581,6,0,B|357:53|296:87|334:106|280:145|236:129,2,187.500007152558,8|2|2,0:1|0:2|0:2,0:0:0:0:
493,157,184130,5,8,0:1:0:0:
486,217,184221,1,8,0:1:0:0:
479,277,184312,1,8,0:1:0:0:
471,338,184404,1,8,0:1:0:0:
465,365,184496,6,0,L|409:376,1,46.8750017881394,6|0,0:1|0:0,0:0:0:0:
339,264,184678,2,0,L|384:273,1,46.8750017881394
276,371,184862,1,10,0:2:0:0:
258,382,185044,6,0,P|246:358|249:333,1,46.8750017881394
215,243,185227,2,0,P|200:265|177:275,1,46.8750017881394,2|0,0:2|0:0,0:0:0:0:
116,349,185410,2,0,P|142:350|162:365,1,46.8750017881394
95,251,185593,1,10,0:2:0:0:
21,150,185776,1,0,0:0:0:0:
21,150,185867,1,0,0:0:0:0:
21,150,185959,6,0,L|75:142,1,46.8750017881394,2|0,0:2|0:0,0:0:0:0:
87,64,186142,2,0,L|141:56,1,46.8750017881394
206,156,186325,1,10,0:2:0:0:
217,166,186508,6,0,P|231:139|232:113,1,46.8750017881394
305,62,186691,2,0,P|308:84|320:105,1,46.8750017881394,2|0,0:2|0:0,0:0:0:0:
390,174,186873,2,0,P|404:147|405:121,1,46.8750017881394
302,205,187056,1,10,0:2:0:0:
475,320,187239,1,8,0:1:0:0:
475,320,187331,1,8,0:1:0:0:
475,320,187422,6,0,L|277:344,1,162.499992561341,14|0,0:1|0:0,0:0:0:0:
209,348,187697,1,0,0:0:0:0:
193,329,187788,1,10,0:1:0:0:
186,305,187880,1,0,0:0:0:0:
192,281,187971,2,0,L|389:305,1,162.499992561341,0|10,0:0|0:1,0:0:0:0:
475,320,188245,1,0,0:0:0:0:
491,301,188336,1,0,0:0:0:0:
498,277,188428,1,0,0:0:0:0:
492,253,188519,2,0,L|294:277,1,162.499992561341,10|0,0:1|0:0,0:0:0:0:
212,195,188794,1,0,0:0:0:0:
212,195,188886,6,0,P|186:244|195:288,1,93.7500035762788,10|0,0:1|0:0,0:0:0:0:
298,167,189069,2,0,P|268:120|225:106,1,93.7500035762788,8|0,0:1|0:0,0:0:0:0:
280,256,189251,2,0,P|335:253|368:223,1,93.7500035762788,10|0,0:1|0:0,0:0:0:0:
112,123,189434,6,0,L|100:29,1,93.7500035762788,8|0,0:1|0:0,0:0:0:0:
309,73,189617,2,0,L|297:166,1,93.7500035762788,10|0,0:1|0:0,0:0:0:0:
191,280,189800,2,0,L|179:186,1,93.7500035762788,8|0,0:1|0:0,0:0:0:0:
433,276,189983,5,10,0:1:0:0:
434,345,190075,1,8,0:1:0:0:
365,370,190166,1,8,0:1:0:0:
322,313,190258,1,8,0:1:0:0:
361,253,190349,1,2,0:0:0:0:
330,272,191630,2,0,L|335:313,2,41.6666666666667
272,365,191812,5,10,0:1:0:0:
56,106,193276,5,6,0:1:0:0:
83,72,193367,1,0,0:0:0:0:
126,67,193459,1,10,0:1:0:0:
165,85,193550,1,0,0:0:0:0:
180,126,193642,1,2,0:1:0:0:
173,169,193733,1,0,0:0:0:0:
146,203,193825,1,10,0:1:0:0:
111,229,193916,1,0,0:0:0:0:
94,269,194008,1,2,0:1:0:0:
104,311,194099,1,0,0:0:0:0:
137,339,194191,1,10,0:1:0:0:
179,341,194282,1,0,0:0:0:0:
209,320,194373,1,2,0:1:0:0:
216,289,194465,1,0,0:0:0:0:
203,267,194556,1,10,0:1:0:0:
184,261,194648,1,0,0:0:0:0:
169,274,194739,5,2,0:1:0:0:
191,325,194831,1,0,0:0:0:0:
245,337,194922,1,10,0:1:0:0:
295,310,195014,1,0,0:0:0:0:
315,258,195105,1,2,0:1:0:0:
294,205,195197,1,0,0:0:0:0:
288,155,195288,1,10,0:1:0:0:
310,110,195380,1,0,0:0:0:0:
353,85,195471,1,2,0:1:0:0:
401,95,195562,1,0,0:0:0:0:
438,126,195654,2,0,L|428:198,1,62.5,10|0,0:1|0:0,0:0:0:0:
217,88,195837,1,2,0:1:0:0:
217,88,195928,1,0,0:0:0:0:
217,88,196020,2,0,L|207:16,1,62.5,10|0,0:1|0:0,0:0:0:0:
96,257,196203,5,2,0:1:0:0:
45,251,196294,1,0,0:0:0:0:
8,216,196386,1,10,0:1:0:0:
1,166,196477,1,0,0:0:0:0:
21,119,196569,1,2,0:1:0:0:
66,97,196660,1,0,0:0:0:0:
114,107,196751,1,10,0:1:0:0:
149,142,196843,1,0,0:0:0:0:
157,191,196934,1,2,0:1:0:0:
183,233,197026,1,0,0:0:0:0:
230,248,197117,2,0,P|246:229|248:192,1,50,10|0,0:1|0:0,0:0:0:0:
303,135,197300,2,0,P|311:158|342:178,1,50,2|0,0:1|0:0,0:0:0:0:
364,254,197483,2,0,P|339:249|306:266,1,50,10|0,0:1|0:0,0:0:0:0:
404,21,197666,5,2,0:1:0:0:
463,32,197758,1,0,0:0:0:0:
500,76,197849,1,10,0:1:0:0:
503,131,197941,1,0,0:0:0:0:
477,180,198032,1,2,0:1:0:0:
426,201,198123,1,0,0:0:0:0:
376,190,198215,1,10,0:1:0:0:
347,149,198306,1,0,0:0:0:0:
353,104,198398,2,0,L|419:95,1,50,8|0,0:1|0:0,0:0:0:0:
500,302,198581,2,0,L|433:293,1,50,8|0,0:1|0:0,0:0:0:0:
368,89,198764,2,0,L|417:82,1,50,8|0,0:1|0:0,0:0:0:0:
292,289,198947,1,4,0:0:0:0:
292,289,199038,1,4,0:0:0:0:
292,289,199130,6,0,P|277:253|283:221,1,62.5,6|0,0:1|0:0,0:0:0:0:
368,89,199312,1,10,0:1:0:0:
311,54,199404,1,0,0:0:0:0:
252,68,199495,1,2,0:1:0:0:
220,115,199587,1,0,0:0:0:0:
205,162,199678,1,10,0:1:0:0:
168,188,199770,1,0,0:0:0:0:
128,187,199861,2,0,P|109:166|107:142,1,50,2|0,0:1|0:1,0:1:0:0:
26,121,200044,2,0,P|34:94|54:80,1,50,10|0,0:1|0:0,0:0:0:0:
309,163,200227,5,2,0:1:0:0:
304,200,200318,1,0,0:0:0:0:
299,237,200409,1,10,0:1:0:0:
295,274,200501,1,0,0:0:0:0:
290,311,200593,2,0,B|250:296|212:322|212:322|204:321|204:321|158:390|105:368,1,187.5,2|0,0:1|0:0,0:0:0:0:
23,384,200959,5,2,0:1:0:0:
18,372,201050,1,0,0:0:0:0:
14,360,201142,2,0,L|21:287,1,50,10|0,0:1|0:0,0:0:0:0:
115,279,201325,5,2,0:1:0:0:
121,262,201416,1,0,0:0:0:0:
127,245,201508,2,0,L|117:142,1,62.5,10|0,0:1|0:0,0:0:0:0:
14,110,201691,5,2,0:1:0:0:
30,75,201782,1,0,0:0:0:0:
61,55,201873,1,10,0:1:0:0:
98,50,201965,1,0,0:0:0:0:
132,62,202056,2,0,P|179:116|307:106,1,187.5,2|0,0:1|0:0,0:0:0:0:
379,178,202422,1,2,0:1:0:0:
379,178,202514,1,0,0:0:0:0:
379,178,202605,6,0,L|389:108,1,62.5,10|0,0:1|0:0,0:0:0:0:
232,20,202788,2,0,B|203:71|203:71|236:208,1,187.5,2|0,0:1|0:0,0:0:0:0:
392,191,203154,1,2,0:1:0:0:
392,191,203246,1,0,0:0:0:0:
392,191,203337,2,0,L|402:121,1,62.5,10|0,0:1|0:1,0:1:0:0:
481,287,203520,5,2,0:1:0:0:
455,329,203611,1,0,0:0:0:0:
411,353,203703,1,10,0:1:0:0:
361,348,203794,1,0,0:0:0:0:
329,316,203886,1,2,0:1:0:0:
314,275,203977,1,0,0:0:0:0:
274,255,204069,1,10,0:1:0:0:
230,260,204160,1,0,0:0:0:0:
205,288,204251,1,2,0:1:0:0:
202,325,204343,1,0,0:0:0:0:
219,350,204434,1,10,0:1:0:0:
241,361,204526,1,0,0:0:0:0:
265,363,204617,2,0,L|271:308,2,31.25,10|8|8,0:1|0:1|0:1,0:0:0:0:
347,339,204800,2,0,L|354:276,1,62.5,8|8,0:1|0:1,0:0:0:0:
292,85,204983,5,6,0:1:0:0:
223,54,205075,1,0,0:0:0:0:
160,82,205166,1,10,0:2:0:0:
136,140,205258,1,0,0:0:0:0:
101,183,205349,1,2,0:2:0:0:
52,196,205441,1,0,0:0:0:0:
15,172,205532,1,10,0:2:0:0:
0,137,205623,1,0,0:0:0:0:
10,107,205715,6,0,P|34:88|72:87,1,62.5,2|0,0:2|0:0,0:0:0:0:
160,250,205898,2,0,P|136:269|98:270,1,62.5,10|0,0:2|0:0,0:0:0:0:
223,54,206081,6,0,L|234:149,1,62.5,2|0,0:2|0:0,0:0:0:0:
351,335,206264,2,0,L|358:272,1,62.5,10|0,0:2|0:0,0:0:0:0:
441,160,206447,5,2,0:2:0:0:
473,171,206538,1,0,0:0:0:0:
495,201,206630,1,10,0:2:0:0:
498,244,206721,1,0,0:0:0:0:
469,284,206812,1,2,0:2:0:0:
414,298,206904,1,0,0:0:0:0:
357,272,206995,1,10,0:2:0:0:
303,228,207087,1,0,0:0:0:0:
235,235,207178,2,0,P|195:287|121:285,1,125,2|10,0:2|0:2,0:0:0:0:
53,356,207453,1,0,0:0:0:0:
37,340,207544,2,0,L|26:252,1,62.5,2|0,0:2|0:0,0:0:0:0:
85,153,207727,2,0,L|92:215,1,62.5,10|0,0:2|0:0,0:0:0:0:
0,85,207910,5,6,0:1:0:0:
49,38,208001,1,0,0:0:0:0:
111,33,208093,1,10,0:2:0:0:
161,58,208184,1,0,0:0:0:0:
188,100,208276,1,2,0:2:0:0:
216,132,208367,1,0,0:0:0:0:
263,148,208459,1,10,0:2:0:0:
317,137,208550,1,0,0:0:0:0:
342,82,208642,6,0,P|323:65|299:60,1,50,2|0,0:2|0:0,0:0:0:0:
387,204,208825,2,0,P|411:199|429:182,1,50,10|0,0:2|0:0,0:0:0:0:
242,297,209008,6,0,L|234:234,1,62.5,2|0,0:2|0:0,0:0:0:0:
85,153,209191,2,0,L|92:215,1,62.5,10|0,0:2|0:0,0:0:0:0:
342,82,209373,5,2,0:2:0:0:
317,137,209465,1,0,0:0:0:0:
263,148,209556,1,10,0:2:0:0:
216,132,209648,1,0,0:0:0:0:
188,100,209739,1,2,0:2:0:0:
161,58,209831,1,0,0:0:0:0:
111,33,209922,1,10,0:2:0:0:
49,38,210014,1,0,0:0:0:0:
0,85,210105,2,0,L|21:251,1,125,2|10,0:2|0:2,0:0:0:0:
66,290,210380,1,2,0:2:0:0:
77,304,210471,5,0,0:0:0:0:
123,312,210562,1,0,0:0:0:0:
164,314,210654,2,0,P|180:281|171:238,1,62.5,10|10,0:2|0:2,0:0:0:0:
310,178,210837,5,6,0:1:0:0:
279,109,210928,1,0,0:0:0:0:
207,90,211020,1,10,0:1:0:0:
145,118,211111,1,0,0:0:0:0:
127,175,211203,1,2,0:1:0:0:
146,224,211294,1,0,0:0:0:0:
178,255,211386,2,0,L|240:249,1,62.5,10|0,0:1|0:0,0:0:0:0:
472,294,211569,5,2,0:1:0:0:
447,351,211660,1,0,0:0:0:0:
392,364,211751,1,10,0:1:0:0:
348,338,211843,1,8,0:1:0:0:
334,296,211934,2,0,L|342:229,1,62.5,2|0,0:1|0:0,0:0:0:0:
490,118,212117,2,0,L|497:180,1,62.5,10|0,0:1|0:0,0:0:0:0:
412,37,212300,6,0,P|396:48|377:53,3,31.25,2|0|2|0,0:1|2:0|0:0|2:0,0:0:0:0:
326,113,212483,2,0,P|310:102|291:97,3,31.25,10|0|2|0,0:1|2:0|0:0|2:0,0:0:0:0:
278,16,212666,2,0,P|262:27|243:32,3,31.25,2|0|2|0,0:1|2:0|0:0|2:0,0:0:0:0:
205,102,212849,2,0,P|189:91|170:86,3,31.25,10|0|2|0,0:1|2:0|0:0|2:0,0:0:0:0:
92,24,213032,5,2,0:1:0:0:
59,46,213123,1,0,0:0:0:0:
38,86,213215,1,10,0:1:0:0:
49,135,213306,1,0,0:0:0:0:
89,175,213398,1,2,0:1:0:0:
133,208,213489,1,0,0:0:0:0:
153,260,213581,1,10,0:1:0:0:
141,314,213672,1,0,0:0:0:0:
96,336,213764,6,0,B|42:301|42:301|233:272,1,250,2|2,0:1|0:1,0:0:0:0:
210,373,214221,1,0,0:0:0:0:
210,373,214312,2,0,L|289:358,1,62.5,10|0,0:1|0:0,0:0:0:0:
332,286,214495,1,2,0:1:0:0:
351,318,214587,1,0,0:0:0:0:
384,335,214678,1,10,0:1:0:0:
421,331,214770,1,0,0:0:0:0:
452,310,214861,2,0,P|467:282|466:248,1,62.5,2|0,0:0|0:0,0:0:0:0:
395,199,215044,2,0,P|380:171|381:137,1,62.5,10|0,0:1|0:0,0:0:0:0:
454,51,215227,5,6,0:1:0:0:
403,13,215319,1,0,0:0:0:0:
340,12,215410,1,10,0:1:0:0:
302,53,215501,1,0,0:0:0:0:
274,87,215593,2,0,P|252:96|231:96,2,31.25,8|8|8,0:0|0:0|0:0,0:0:0:0:
178,145,215776,2,0,P|138:115|104:114,1,62.5,8|8,0:0|0:0,0:0:0:0:
34,212,215959,6,0,L|30:180,2,31.25,4|4|4,0:0|0:0|0:0,0:0:0:0:
129,232,216142,2,0,L|121:295,1,62.5,4|4,0:0|0:0,0:0:0:0:
3,360,216325,1,4,0:0:0:0:
6,348,216416,5,8,0:1:0:0:
73,333,216508,1,8,0:1:0:0:
140,322,216599,1,8,0:1:0:0:
207,307,216691,6,0,B|268:289|315:322|274:336|334:378|385:356,1,187.5,6|0,0:1|0:0,0:0:0:0:
466,384,217056,2,0,L|474:316,1,62.5,2|0,0:2|0:0,0:0:0:0:
371,268,217239,2,0,L|363:200,1,62.5,10|0,0:2|0:0,0:0:0:0:
458,77,217422,2,0,P|437:103|402:108,1,62.5,2|0,0:2|0:0,0:0:0:0:
379,187,217605,2,0,P|347:175|332:143,1,62.5,10|0,0:2|0:0,0:0:0:0:
249,145,217788,2,0,P|250:111|276:87,1,62.5,2|0,0:2|0:0,0:0:0:0:
328,36,217971,6,0,B|235:47|235:47|230:55|230:55|116:69,1,187.5,10|0,0:2|0:0,0:0:0:0:
49,14,218337,1,10,0:2:0:0:
45,38,218428,1,0,0:0:0:0:
42,64,218520,2,0,L|50:129,1,62.5,2|0,0:2|0:0,0:0:0:0:
140,153,218703,2,0,L|132:90,1,62.5,10|0,0:2|0:0,0:0:0:0:
0,192,218886,2,0,P|31:205|55:227,1,56.2499982833863,2|0,0:2|0:0,0:0:0:0:
106,283,219069,2,0,P|128:265|154:255,1,56.2499982833863,10|0,0:2|0:0,0:0:0:0:
209,322,219251,2,0,L|200:387,1,50,2|0,0:2|0:0,0:0:0:0:
286,272,219434,2,0,L|278:209,1,50,10|0,0:2|0:0,0:0:0:0:
351,372,219617,6,0,L|356:330,2,41.6666666666667,6|0|0,0:1|0:0|0:0,0:0:0:0:
479,219,219800,1,10,0:2:0:0:
442,253,219892,1,0,0:0:0:0:
392,253,219983,1,2,0:2:0:0:
359,222,220075,1,0,0:0:0:0:
356,178,220166,1,10,0:2:0:0:
377,146,220258,1,0,0:0:0:0:
406,135,220349,5,0,0:0:0:0:
427,194,220441,1,0,0:0:0:0:
402,251,220532,1,8,0:0:0:0:
350,273,220623,1,8,0:0:0:0:
301,258,220715,1,4,0:0:0:0:
275,222,220806,1,4,0:0:0:0:
271,184,220898,2,0,P|293:170|337:168,1,62.5,8|8,0:1|0:1,0:0:0:0:
402,251,221081,6,0,L|382:409,1,125,4|8,0:1|0:1,0:1:0:0:
51,248,221447,2,0,L|43:185,1,62.5,8|8,0:0|0:0,0:1:0:0:
91,82,221630,1,8,0:1:0:0:
118,67,221721,1,0,0:0:0:0:
149,65,221812,1,4,0:0:0:0:
177,77,221904,1,4,0:0:0:0:
196,101,221995,1,8,0:1:0:0:
206,130,222087,1,8,0:1:0:0:
224,155,222178,5,4,0:1:0:0:
269,184,222270,1,0,0:0:0:0:
331,172,222361,1,8,0:1:0:0:
363,118,222453,1,8,0:1:0:0:
347,57,222544,5,6,0:1:0:0:
331,76,222636,1,0,0:0:0:0:
326,100,222727,1,10,0:2:0:0:
333,123,222819,1,0,0:0:0:0:
349,141,222910,1,2,0:2:0:0:
368,156,223001,1,0,0:0:0:0:
389,179,223093,1,10,0:2:0:0:
399,208,223184,1,0,0:0:0:0:
401,239,223276,2,0,L|392:311,1,62.5,2|0,0:2|0:0,0:0:0:0:
299,361,223459,2,0,L|291:298,1,62.5,10|0,0:2|0:0,0:0:0:0:
198,209,223642,2,0,L|190:271,1,62.5,2|0,0:2|0:0,0:0:0:0:
89,375,223825,2,0,L|81:312,1,62.5,10|0,0:2|0:0,0:0:0:0:
15,121,224008,5,2,0:2:0:0:
34,96,224099,1,0,0:0:0:0:
68,80,224191,1,10,0:2:0:0:
105,82,224282,1,0,0:0:0:0:
141,104,224373,1,2,0:2:0:0:
162,142,224465,1,0,0:0:0:0:
185,186,224556,1,10,0:2:0:0:
229,209,224648,1,0,0:0:0:0:
284,201,224739,1,2,0:2:0:0:
322,159,224831,1,0,0:0:0:0:
320,96,224922,1,10,0:2:0:0:
277,50,225014,1,0,0:0:0:0:
214,52,225105,5,2,0:2:0:0:
243,114,225197,1,0,0:0:0:0:
311,120,225288,2,0,P|342:97|348:52,1,62.5,10|0,0:2|0:0,0:0:0:0:
448,0,225471,5,4,0:1:0:0:
491,49,225562,1,0,0:0:0:0:
493,111,225654,1,8,0:1:0:0:
467,160,225745,1,0,0:0:0:0:
428,197,225837,1,4,0:1:0:0:
394,233,225928,1,0,0:0:0:0:
388,282,226020,1,12,0:1:0:0:
406,328,226111,1,0,0:0:0:0:
455,355,226203,5,4,0:1:0:0:
476,303,226294,1,0,0:0:0:0:
447,254,226386,1,8,0:1:0:0:
394,233,226477,1,0,0:0:0:0:
345,253,226569,1,4,0:1:0:0:
329,297,226660,1,0,0:0:0:0:
334,331,226751,2,0,L|397:319,1,62.5,8|0,0:1|0:0,0:0:0:0:
323,162,226934,5,8,0:1:0:0:
261,128,227026,1,8,0:1:0:0:
196,152,227117,1,8,0:0:0:0:
164,206,227209,1,8,0:0:0:0:
135,254,227300,1,4,0:0:0:0:
89,275,227392,1,4,0:0:0:0:
51,269,227483,2,0,P|32:242|33:202,1,62.5,12|4,0:1|0:0,0:0:0:0:
90,45,227666,5,8,0:0:0:0:
122,55,227757,1,8,0:0:0:0:
122,89,227848,1,4,0:0:0:0:
90,100,227940,1,4,0:0:0:0:
69,72,228031,1,8,0:1:0:0:
74,64,228398,5,2,0:1:0:0:
441,140,229861,5,10,0:1:0:0:
61,264,231325,5,2,0:0:0:0:
226,355,232788,6,0,L|231:313,2,41.6666666666667,8|8|8,0:1|0:1|0:1,0:0:0:0:
314,243,232971,2,0,L|321:306,1,62.5,8|8,0:1|0:1,0:0:0:0:
405,370,233154,2,0,L|412:307,1,62.5,8|8,0:1|0:1,0:0:0:0:
491,247,233337,1,8,0:0:0:0:
493,263,233428,1,8,0:0:0:0:
495,279,233519,5,8,0:1:0:0:
463,318,233611,1,8,0:1:0:0:
420,306,233703,1,8,0:0:0:0:
397,276,233794,1,8,0:0:0:0:
400,238,233886,1,8,0:1:0:0:
431,208,233977,1,4,0:0:0:0:
452,169,234069,1,4,0:0:0:0:
452,125,234160,1,4,0:0:0:0:
426,89,234251,5,6,0:1:0:0:
428,79,234617,1,2,2:2:0:0:
430,69,235349,1,2,2:2:0:0:
226,203,235715,5,6,0:1:0:0:
224,193,236081,1,2,2:2:0:0:
222,183,236813,1,2,2:2:0:0:
417,338,237178,5,6,0:1:0:0:
407,336,237544,1,2,2:2:0:0:
397,334,238276,1,2,2:2:0:0:
81,58,238642,6,0,L|122:63,2,41.6666666666667,8|8|8,0:1|0:1|0:1,0:0:0:0:
193,146,238825,2,0,L|129:153,1,62.5,8|8,0:1|0:1,0:0:0:0:
66,237,239008,2,0,L|128:244,1,62.5,8|8,0:1|0:1,0:0:0:0:
222,310,239191,1,8,0:0:0:0:
227,297,239282,1,8,0:0:0:0:
233,280,239373,6,0,L|229:248,2,31.25,8|8|8,0:1|0:1|0:1,0:0:0:0:
332,199,239556,1,8,0:0:0:0:
330,215,239647,1,8,0:0:0:0:
328,231,239738,5,8,0:1:0:0:
361,292,239831,1,8,0:1:0:0:
427,306,239922,1,8,0:1:0:0:
486,271,240014,1,8,0:1:0:0:
498,203,240105,6,0,L|490:140,1,62.5,6|0,0:1|0:0,0:0:0:0:
229,248,240288,2,0,L|236:310,1,62.5,10|0,0:2|0:0,0:0:0:0:
487,194,240471,2,0,L|479:131,1,62.5,2|0,0:2|0:0,0:0:0:0:
218,239,240654,2,0,L|225:301,1,62.5,10|0,0:2|0:0,0:0:0:0:
299,69,240837,6,0,P|329:73|355:90,1,62.5,2|0,0:2|0:0,0:0:0:0:
105,207,241020,2,0,P|74:202|48:185,1,62.5,10|0,0:2|0:0,0:0:0:0:
307,58,241203,2,0,P|337:62|363:79,1,62.5,2|0,0:2|0:0,0:0:0:0:
113,196,241386,2,0,P|82:191|56:174,1,62.5,10|0,0:2|0:0,0:0:0:0:
385,306,241569,6,0,L|377:369,1,62.5,6|0,0:1|0:0,0:0:0:0:
225,301,241751,2,0,L|217:238,1,62.5,10|0,0:2|0:0,0:0:0:0:
487,194,241934,2,0,L|479:257,1,62.5,2|0,0:2|0:0,0:0:0:0:
320,160,242116,2,0,L|312:97,1,62.5,10|0,0:2|0:0,0:0:0:0:
482,80,242300,6,0,P|460:104|428:108,1,62.5,2|0,0:2|0:0,0:0:0:0:
217,238,242483,2,0,P|247:243|267:266,1,62.5,10|0,0:2|0:0,0:0:0:0:
478,58,242666,2,0,P|456:82|424:86,1,62.5,2|0,0:2|0:0,0:0:0:0:
213,216,242849,2,0,P|243:221|263:244,1,62.5,10|0,0:2|0:0,0:0:0:0:
312,97,243032,6,0,L|319:34,1,62.5,6|0,0:1|0:0,0:0:0:0:
487,194,243215,2,0,L|479:256,1,62.5,10|0,0:2|0:0,0:0:0:0:
213,216,243398,2,0,L|220:153,1,62.5,2|0,0:2|0:2,0:2:0:0:
388,313,243581,2,0,L|380:375,1,62.5,10|0,0:2|0:0,0:0:0:0:
133,336,243764,6,0,P|117:297|126:263,1,62.5,2|0,0:2|0:0,0:0:0:0:
312,97,243947,2,0,P|328:136|319:170,1,62.5,10|0,0:2|0:2,0:2:0:0:
28,334,244130,2,0,P|12:295|21:261,1,62.5,2|0,0:2|0:2,0:2:0:0:
207,95,244313,2,0,P|223:134|214:168,1,62.5,10|0,0:2|0:2,0:2:0:0:
163,259,244495,6,0,L|99:251,1,62.5,6|0,0:1|0:0,0:0:0:0:
201,384,244678,2,0,L|264:376,1,62.5,10|0,0:2|0:0,0:0:0:0:
176,247,244861,2,0,L|112:239,1,62.5,2|0,0:2|0:0,0:0:0:0:
214,372,245044,2,0,L|277:364,1,62.5,10|0,0:2|0:0,0:0:0:0:
388,313,245227,6,0,P|400:284|397:253,1,62.5,4|0,0:1|0:0,0:0:0:0:
293,191,245410,2,0,P|280:219|283:250,1,62.5,8|0,0:2|0:2,0:2:0:0:
402,325,245593,2,0,P|414:296|411:265,1,62.5,2|8,0:2|0:2,0:0:0:0:
280,175,245776,2,0,P|267:203|270:234,1,62.5,10|0,0:2|0:2,0:2:0:0:
452,120,245959,6,0,L|444:56,1,62.5,6|0,0:1|0:0,0:0:0:0:
206,309,246142,2,0,L|213:371,1,62.5,10|0,0:2|0:2,0:2:0:0:
353,89,246325,2,0,L|345:25,1,62.5,2|0,0:2|0:0,0:0:0:0:
107,278,246508,2,0,L|114:340,1,62.5,14|0,0:2|0:2,0:2:0:0:
280,175,246691,6,0,P|256:195|216:197,1,62.5,2|0,0:2|0:0,0:0:0:0:
23,140,246873,2,0,P|47:120|87:118,1,62.5,14|0,0:2|0:0,0:0:0:0:
264,163,247056,2,0,P|240:183|200:185,1,62.5,2|0,0:2|0:0,0:0:0:0:
7,128,247238,2,0,P|31:108|71:106,1,62.5,14|0,0:2|0:0,0:0:0:0:
210,24,247422,6,0,L|202:86,1,62.5,6|0,0:1|0:2,0:2:0:0:
106,277,247605,2,0,L|99:215,1,62.5,10|0,0:2|0:2,0:2:0:0:
283,89,247788,2,0,L|275:151,1,62.5,2|0,0:2|0:2,0:2:0:0:
194,310,247971,2,0,L|186:247,1,62.5,14|0,0:2|0:2,0:2:0:0:
347,222,248154,6,0,P|323:242|283:244,1,62.5,0|0,0:2|0:0,0:0:0:0:
381,333,248337,2,0,P|411:337|435:357,1,62.5,14|0,0:2|0:0,0:0:0:0:
340,245,248520,2,0,P|316:265|276:267,1,62.5,0|0,0:2|0:0,0:0:0:0:
374,356,248703,2,0,P|404:360|428:380,1,62.5,14|0,0:2|0:0,0:0:0:0:
492,223,248886,6,0,L|484:160,1,62.5,6|0,0:1|0:2,0:2:0:0:
332,65,249069,2,0,L|324:127,1,62.5,10|8,0:2|0:2,0:2:0:0:
194,310,249251,2,0,L|186:247,1,62.5,10|8,0:2|0:2,0:2:0:0:
38,113,249435,2,0,L|30:175,1,62.5,8|8,0:0|0:0,0:2:0:0:
207,53,249617,6,0,P|185:32|153:23,1,62.5,4|8,0:0|0:1,0:0:0:0:
271,156,249800,2,0,P|300:147|323:126,1,62.5,8|8,0:1|0:1,0:0:0:0:
186,247,249983,2,0,P|164:226|132:217,1,62.5,8|8,0:0|0:0,0:0:0:0:
264,351,250166,2,0,P|293:342|316:321,1,62.5,8|0,0:1|0:0,0:0:0:0:
75,384,250349,6,0,L|67:321,1,62.5,12|0,0:1|0:0,0:0:0:0:
186,247,250532,2,0,L|178:309,1,62.5,10|0,0:2|0:0,0:0:0:0:
61,370,250715,2,0,L|53:307,1,62.5,10|0,0:2|0:0,0:0:0:0:
172,233,250898,2,0,L|164:295,1,62.5,2|0,0:2|0:0,0:0:0:0:
31,192,251081,6,0,P|53:171|83:162,1,62.5,10|0,0:2|0:0,0:0:0:0:
105,77,251264,2,0,P|134:86|156:107,1,62.5,2|0,0:2|0:0,0:0:0:0:
242,78,251447,2,0,P|248:108|241:138,1,62.5,10|0,0:2|0:0,0:0:0:0:
304,199,251630,2,0,P|281:219|251:228,1,62.5,10|8,0:2|0:2,0:0:0:0:
164,295,251812,6,0,L|156:232,1,62.5,6|0,0:1|0:0,0:0:0:0:
311,318,251995,2,0,L|303:380,1,62.5,10|0,0:2|0:0,0:0:0:0:
251,228,252178,2,0,L|243:165,1,62.5,2|0,0:2|0:0,0:0:0:0:
398,251,252361,2,0,L|390:313,1,62.5,10|0,0:2|0:0,0:0:0:0:
455,109,252544,6,0,P|435:133|406:143,1,62.5
298,61,252727,2,0,P|317:36|346:26,1,62.5,10|0,0:2|0:0,0:0:0:0:
453,121,252910,2,0,P|433:145|404:155,1,62.5
296,73,253093,2,0,P|315:48|344:38,1,62.5,10|0,0:2|0:0,0:0:0:0:
313,235,253276,6,0,L|249:227,1,62.5,10|0,0:2|0:1,0:0:0:0:
227,143,253459,2,0,L|164:150,1,62.5,8|8,0:0|0:0,0:0:0:0:
134,255,253642,2,0,L|70:247,1,62.5,4|4,0:0|0:0,0:0:0:0:
62,111,253825,2,0,L|0:118,1,62.5,8|8,0:1|0:1,0:0:0:0:
204,362,254008,6,0,B|217:339|217:339|202:284,1,62.5,8|8,0:0|0:0,0:0:0:0:
254,169,254191,2,0,B|240:191|240:191|255:246,1,62.5,4|4,0:0|0:0,0:0:0:0:
326,295,254373,2,0,L|329:263,2,31.25,8|8|8,0:1|0:1|0:1,0:0:0:0:
418,265,254556,2,0,L|425:202,1,62.5,8|8,0:1|0:1,0:0:0:0:
458,111,254739,5,4,0:1:0:0:
439,94,254831,1,0,0:0:0:0:
415,87,254922,1,10,0:2:0:0:
390,90,255014,1,0,0:0:0:0:
370,105,255105,1,2,0:2:0:0:
355,133,255197,1,0,0:0:0:0:
334,156,255288,1,10,0:2:0:0:
303,163,255380,1,0,0:0:0:0:
275,149,255471,5,2,0:2:0:0:
294,124,255562,1,0,0:0:0:0:
325,121,255654,1,10,0:2:0:0:
355,133,255745,1,0,0:0:0:0:
374,165,255837,1,2,0:2:0:0:
373,202,255928,1,0,0:0:0:0:
348,238,256020,2,0,P|320:252|286:249,1,62.5,10|0,0:2|0:0,0:0:0:0:
168,355,256203,5,4,0:1:0:0:
118,327,256294,1,0,0:0:0:0:
92,277,256386,1,8,0:2:0:0:
96,220,256477,1,0,0:0:0:0:
137,182,256569,1,2,0:2:0:0:
180,147,256660,1,0,0:0:0:0:
199,88,256751,1,10,0:2:0:0:
176,29,256843,1,0,0:0:0:0:
118,4,256934,5,2,0:2:0:0:
111,72,257026,1,0,0:0:0:0:
163,115,257117,1,10,0:2:0:0:
225,117,257209,1,0,0:0:0:0:
269,83,257300,1,2,0:2:0:0:
295,40,257392,1,0,0:0:0:0:
337,30,257483,1,10,0:2:0:0:
380,39,257575,1,0,0:0:0:0:
403,67,257666,6,0,L|394:138,1,62.5,4|0,0:1|0:0,0:0:0:0:
318,205,257849,2,0,L|312:163,2,41.6666666666667,10|0|0,0:2|2:0|2:0,0:0:0:0:
441,273,258032,2,0,L|448:210,1,62.5,2|0,0:2|0:0,0:0:0:0:
348,352,258215,5,10,0:2:0:0:
313,378,258306,1,0,0:0:0:0:
269,374,258398,1,2,0:2:0:0:
241,348,258489,1,0,0:0:0:0:
235,316,258581,2,0,P|253:301|297:297,1,62.5,8|0,0:2|0:0,0:0:0:0:
206,215,258764,5,2,0:2:0:0:
162,190,258855,1,0,0:0:0:0:
111,195,258947,1,10,0:2:0:0:
78,224,259038,1,0,0:0:0:0:
78,261,259130,5,6,0:1:0:0:
115,258,259221,1,0,0:0:0:0:
141,231,259312,1,10,0:2:0:0:
143,187,259404,1,0,0:0:0:0:
116,152,259495,1,0,0:0:0:0:
70,131,259587,1,0,0:0:0:0:
47,86,259678,1,10,0:2:0:0:
51,35,259770,1,0,0:0:0:0:
98,5,259861,5,6,0:1:0:0:
138,53,259953,1,0,0:0:0:0:
130,114,260044,1,10,0:2:0:0:
83,156,260136,1,0,0:0:0:0:
20,154,260227,2,0,P|0:120|5:79,1,62.5,2|8,0:2|0:1,0:0:0:0:
206,0,260410,2,0,P|223:25|226:56,1,62.5,10|8,0:2|0:2,0:0:0:0:
83,302,260593,6,0,L|77:260,2,41.6666666666667,0|0|0,0:0|2:0|2:0,0:0:0:0:
163,326,260776,2,0,L|157:284,2,41.6666666666667,8|0|0,0:1|2:0|2:0,0:0:0:0:
245,354,260959,2,0,L|239:312,2,41.6666666666667,0|0|0,0:0|2:0|2:0,0:0:0:0:
284,232,261142,6,0,P|297:251|321:261,2,41.6666666666667,8|0|0,0:1|2:0|2:0,0:0:0:0:
334,337,261325,2,0,P|356:330|373:310,2,41.6666666666667,0|0|0,0:1|2:0|2:0,0:0:0:0:
449,321,261508,2,0,P|449:297|436:275,2,41.6666666666667,8|0|0,0:2|2:0|2:0,0:0:0:0:
469,206,261691,2,0,P|447:198|422:204,2,41.6666666666667,0|0|0,0:1|2:0|2:0,0:0:0:0:
365,151,261873,2,0,P|350:169|348:195,2,41.6666666666667,8|0|0,0:1|2:0|2:0,0:0:0:0:
452,68,262056,6,0,B|405:33|405:33|266:74,1,187.5,6|0,0:1|0:0,0:0:0:0:
213,139,262422,1,2,0:2:0:0:
181,135,262514,1,0,0:0:0:0:
150,131,262605,2,0,P|136:106|135:72,1,62.5,10|0,0:2|0:0,0:0:0:0:
18,180,262788,5,2,0:2:0:0:
99,214,262910,5,2,2:1:0:0:
110,299,263032,5,2,2:1:0:0:
66,336,263154,5,2,0:2:0:0:
45,283,263276,5,2,2:1:0:0:
75,249,263398,5,2,2:1:0:0:
105,310,263520,6,0,L|63:315,2,41.6666666666667,4|2|2,0:1|2:1|2:1,0:0:0:0:
181,232,263703,2,0,P|213:271|315:272,1,125,10|2,0:2|0:2,0:0:0:0:
359,358,263977,1,0,0:0:0:0:
374,341,264069,2,0,L|382:274,1,62.5,10|0,0:2|0:0,0:0:0:0:
484,314,264251,2,0,L|468:189,1,125,2|10,0:2|0:2,0:0:0:0:
425,110,264526,1,0,0:0:0:0:
435,93,264617,5,2,0:2:0:0:
398,68,264709,1,0,0:0:0:0:
354,68,264800,1,10,0:2:0:0:
319,95,264892,1,0,0:0:0:0:
305,136,264983,5,6,0:1:0:0:
277,178,265075,1,0,0:0:0:0:
230,195,265166,1,10,0:2:0:0:
180,184,265258,1,0,0:0:0:0:
158,153,265349,2,0,L|167:74,1,62.5,2|0,0:2|0:0,0:0:0:0:
37,141,265532,2,0,L|44:203,1,62.5,10|0,0:2|0:0,0:0:0:0:
0,329,265715,5,6,0:1:0:0:
20,367,265806,1,0,0:0:0:0:
61,382,265898,1,10,0:2:0:0:
103,375,265989,1,0,0:0:0:0:
129,340,266081,2,0,L|137:268,1,62.5,2|8,0:2|0:1,0:0:0:0:
44,203,266264,1,8,0:1:0:0:
45,175,266356,1,8,0:1:0:0:
37,141,266447,5,2,0:1:0:0:
70,99,266538,1,0,0:0:0:0:
120,96,266630,1,10,0:2:0:0:
160,124,266721,1,0,0:0:0:0:
175,177,266812,5,2,0:2:0:0:
207,223,266904,1,0,0:0:0:0:
262,232,266995,1,10,0:2:0:0:
311,205,267087,1,0,0:0:0:0:
323,150,267178,5,2,0:2:0:0:
263,131,267270,1,0,0:0:0:0:
211,166,267361,1,10,0:2:0:0:
202,228,267453,1,0,0:0:0:0:
234,279,267544,1,2,0:2:0:0:
286,299,267636,1,0,0:0:0:0:
327,284,267727,1,10,0:2:0:0:
346,251,267819,1,0,0:0:0:0:
340,220,267910,5,6,0:1:0:0:
306,235,268001,1,0,0:0:0:0:
295,271,268093,1,10,0:2:0:0:
309,305,268184,1,0,0:0:0:0:
340,325,268276,1,2,0:2:0:0:
377,323,268367,1,0,0:0:0:0:
407,300,268459,2,0,L|411:237,1,62.5,10|0,0:2|0:0,0:0:0:0:
459,117,268642,5,2,0:2:0:0:
421,83,268733,1,0,0:0:0:0:
371,76,268825,1,10,0:2:0:0:
327,99,268916,1,0,0:0:0:0:
304,143,269008,1,2,0:2:0:0:
263,181,269099,1,0,0:0:0:0:
206,182,269191,1,10,0:2:0:0:
156,145,269282,1,0,0:0:0:0:
163,109,269373,5,6,0:1:0:0:
197,136,269465,1,0,0:0:0:0:
206,182,269556,2,0,P|184:210|141:223,1,62.5,10|0,0:2|0:0,0:0:0:0:
70,279,269739,2,0,P|97:293|115:318,1,62.5,2|0,0:2|0:0,0:0:0:0:
181,380,269922,1,10,0:2:0:0:
195,377,270014,1,0,0:0:0:0:
212,373,270105,6,0,L|219:306,1,62.5,2|0,0:2|0:0,0:0:0:0:
301,245,270288,2,0,L|307:307,1,62.5,10|0,0:2|0:0,0:0:0:0:
390,373,270471,2,0,L|396:310,1,62.5,2|0,0:2|0:0,0:0:0:0:
479,245,270654,2,0,L|485:307,1,62.5,10|0,0:2|0:0,0:0:0:0:
397,77,270837,6,0,P|434:129|340:116,1,187.5,6|0,0:1|0:0,0:0:0:0:
273,57,271203,2,0,L|265:120,2,62.5,2|0|10,0:2|0:0|0:2,0:0:0:0:
149,191,271477,1,0,0:0:0:0:
142,179,271569,6,0,B|198:145|253:193|217:216|271:260|336:239,1,187.5,6|0,0:1|0:0,0:0:0:0:
354,178,271934,1,2,0:2:0:0:
361,168,272026,5,8,0:2:0:0:
418,194,272117,1,10,0:2:0:0:
437,261,272209,1,8,0:2:0:0:
394,322,272300,6,0,B|360:309|349:275|349:275|378:81,1,250,6|2,0:1|0:2,0:0:0:0:
277,24,272758,1,0,0:0:0:0:
256,33,272849,2,0,L|269:100,1,62.5,10|0,0:2|0:0,0:0:0:0:
190,189,273032,5,2,0:2:0:0:
152,230,273123,1,0,0:0:0:0:
95,234,273215,1,10,0:2:0:0:
47,204,273306,1,0,0:0:0:0:
30,156,273398,1,2,0:2:0:0:
37,106,273489,1,0,0:0:0:0:
70,76,273581,2,0,L|133:84,1,62.5,10|0,0:2|0:0,0:0:0:0:
197,170,273764,5,4,0:1:0:0:
190,189,273855,2,0,P|166:117|262:125,1,187.5
314,182,274221,1,0,0:0:0:0:
312,201,274312,2,0,L|303:269,1,62.5,10|0,0:2|0:0,0:0:0:0:
388,351,274495,5,2,0:2:0:0:
439,373,274587,1,0,0:0:0:0:
491,353,274678,1,10,0:2:0:0:
508,299,274770,1,0,0:0:0:0:
489,252,274861,1,2,0:2:0:0:
449,221,274953,1,0,0:0:0:0:
421,187,275044,1,10,0:2:0:0:
423,143,275136,1,0,0:0:0:0:
451,119,275227,5,6,0:1:0:0:
480,151,275319,1,0,0:0:0:0:
481,193,275410,1,10,0:2:0:0:
449,221,275501,1,0,0:0:0:0:
399,212,275593,1,2,0:2:0:0:
369,172,275684,1,0,0:0:0:0:
322,139,275776,1,10,0:2:0:0:
272,138,275867,1,0,0:0:0:0:
242,171,275959,5,2,0:2:0:0:
283,208,276050,1,0,0:0:0:0:
339,208,276142,1,10,0:2:0:0:
372,163,276233,1,0,0:0:0:0:
369,106,276325,1,2,0:2:0:0:
325,71,276416,1,0,0:0:0:0:
268,73,276508,1,10,0:2:0:0:
234,118,276599,1,0,0:0:0:0:
242,171,276691,6,0,P|265:190|302:193,1,62.5,6|0,0:1|0:0,0:0:0:0:
369,106,276873,2,0,P|348:107|329:116,2,41.6666666666667,10|0|0,0:2|2:0|2:0,0:0:0:0:
456,200,277056,2,0,L|461:158,2,41.6666666666667,2|0|0,0:2|2:0|2:0,0:0:0:0:
379,269,277239,2,0,L|373:227,2,41.6666666666667,10|0|0,0:2|2:0|2:0,0:0:0:0:
450,365,277422,6,0,P|429:363|410:354,2,41.6666666666667,6|0|0,0:1|2:0|2:0,0:0:0:0:
359,292,277605,2,0,P|338:293|319:302,2,41.6666666666667,8|0|0,0:2|2:0|2:0,0:0:0:0:
271,381,277788,2,0,L|229:375,2,41.6666666666667,2|0|0,0:2|2:0|2:0,0:0:0:0:
201,285,277971,2,0,L|159:290,2,41.6666666666667,10|0|0,0:2|2:0|2:0,0:0:0:0:
85,364,278154,5,6,0:1:0:0:
44,316,278245,1,0,0:0:0:0:
42,259,278337,1,10,0:2:0:0:
78,216,278428,1,0,0:0:0:0:
133,207,278520,1,2,0:2:0:0:
182,233,278611,1,0,0:0:0:0:
201,285,278703,1,10,0:2:0:0:
228,326,278794,1,0,0:0:0:0:
276,340,278886,1,2,0:2:0:0:
323,323,278977,1,0,0:0:0:0:
340,275,279069,1,10,0:2:0:0:
324,227,279160,1,0,0:0:0:0:
278,205,279251,1,2,0:2:0:0:
249,163,279343,1,0,0:0:0:0:
245,119,279434,1,10,0:2:0:0:
275,87,279526,1,0,0:0:0:0:
312,90,279617,5,6,0:1:0:0:
307,127,279709,1,0,0:0:0:0:
277,149,279800,1,10,0:2:0:0:
239,150,279892,1,0,0:0:0:0:
207,130,279983,1,2,0:2:0:0:
194,101,280075,1,0,0:0:0:0:
172,79,280166,1,10,0:2:0:0:
141,72,280258,1,0,0:0:0:0:
111,80,280349,1,2,0:2:0:0:
92,105,280441,1,0,0:0:0:0:
89,135,280532,1,10,0:2:0:0:
99,157,280623,1,0,0:0:0:0:
113,169,280715,1,2,0:2:0:0:
130,174,280806,1,0,0:0:0:0:
148,170,280898,1,10,0:2:0:0:
161,157,280989,1,0,0:0:0:0:
161,137,281081,6,0,B|124:186|124:186|164:313,1,187.5,6|0,0:1|0:0,0:0:0:0:
250,371,281447,1,2,0:2:0:0:
250,371,281538,1,0,0:0:0:0:
250,371,281630,2,0,L|258:302,1,62.5,10|0,0:2|0:0,0:0:0:0:
331,247,281812,5,2,0:2:0:0:
344,268,281904,1,0,0:0:0:0:
364,281,281995,1,10,0:2:0:0:
388,285,282087,1,0,0:0:0:0:
418,277,282178,1,2,0:2:0:0:
438,253,282270,1,0,0:0:0:0:
441,222,282361,1,10,0:2:0:0:
426,193,282453,1,0,0:0:0:0:
392,176,282544,1,6,0:1:0:0:
366,147,282636,1,0,0:0:0:0:
358,110,282727,1,10,0:2:0:0:
371,74,282819,1,0,0:0:0:0:
406,62,282910,5,2,0:2:0:0:
420,109,283001,1,0,0:0:0:0:
393,151,283093,1,10,0:2:0:0:
345,165,283184,1,0,0:0:0:0:
299,144,283276,1,6,0:2:0:0:
275,100,283367,1,0,0:0:0:0:
233,61,283459,1,10,0:2:0:0:
177,59,283550,1,0,0:0:0:0:
129,90,283642,2,0,P|117:129|123:171,1,62.5,2|10,0:2|0:1,0:0:0:0:
211,263,283825,2,0,P|223:224|217:182,1,62.5,8|10,0:2|0:1,0:0:0:0:
62,299,284008,5,6,0:1:0:0:
34,329,284099,1,0,0:0:0:0:
37,366,284191,1,10,0:2:0:0:
64,381,284282,1,0,0:0:0:0:
100,372,284373,1,2,0:2:0:0:
119,339,284465,1,0,0:0:0:0:
150,308,284556,1,10,0:2:0:0:
193,300,284648,1,0,0:0:0:0:
234,314,284739,1,2,0:2:0:0:
256,351,284831,1,0,0:0:0:0:
299,374,284922,1,10,0:2:0:0:
348,368,285014,1,0,0:0:0:0:
385,334,285105,1,2,0:2:0:0:
396,285,285197,1,0,0:0:0:0:
376,239,285288,1,10,0:2:0:0:
337,217,285380,1,0,0:0:0:0:
300,222,285471,5,4,0:1:0:0:
309,270,285562,1,0,0:0:0:0:
354,291,285654,1,10,0:2:0:0:
401,276,285745,1,0,0:0:0:0:
430,235,285837,1,2,0:2:0:0:
423,185,285928,1,0,0:0:0:0:
391,146,286020,1,10,0:2:0:0:
345,126,286111,1,0,0:0:0:0:
317,91,286203,1,2,0:2:0:0:
318,53,286294,1,0,0:0:0:0:
346,27,286386,1,10,0:2:0:0:
389,32,286477,1,0,0:0:0:0:
412,69,286569,1,2,0:2:0:0:
401,111,286660,1,0,0:0:0:0:
362,131,286751,2,0,L|293:122,1,62.5,10|0,0:2|0:0,0:0:0:0:
218,250,286934,5,6,0:1:0:0:
220,264,287026,1,0,0:0:0:0:
223,278,287117,1,10,0:2:0:0:
254,317,287209,1,0,0:0:0:0:
309,319,287300,1,2,0:2:0:0:
348,287,287392,1,0,0:0:0:0:
351,243,287483,1,10,0:2:0:0:
326,214,287575,1,0,0:0:0:0:
294,216,287666,5,2,0:2:0:0:
304,245,287758,1,0,0:0:0:0:
332,256,287849,1,10,0:2:0:0:
363,251,287941,1,0,0:0:0:0:
389,234,288032,1,2,0:2:0:0:
409,210,288123,1,0,0:0:0:0:
445,201,288215,1,10,0:2:0:0:
484,220,288306,1,0,0:0:0:0:
501,267,288398,5,6,0:1:0:0:
451,293,288489,1,0,0:0:0:0:
402,263,288581,1,10,0:2:0:0:
391,208,288672,1,0,0:0:0:0:
415,157,288764,1,2,0:2:0:0:
438,106,288855,1,0,0:0:0:0:
422,51,288947,1,10,0:2:0:0:
373,23,289038,1,0,0:0:0:0:
311,34,289130,5,6,0:1:0:0:
301,101,289221,1,0,0:0:0:0:
345,152,289312,1,10,0:2:0:0:
415,157,289404,1,0,0:0:0:0:
470,116,289495,2,0,L|461:45,1,62.5,10|10,0:2|0:2,0:2:0:0:
254,183,289678,2,0,L|246:245,1,62.5,10|10,0:1|0:1,0:1:0:0:
114,102,289861,5,6,0:1:0:0:
72,138,289952,1,0,0:0:0:0:
62,193,290043,1,10,0:1:0:0:
87,244,290135,1,0,0:0:0:0:
138,268,290226,1,2,0:2:0:0:
194,255,290318,1,0,0:0:0:0:
226,209,290409,2,0,L|216:134,1,62.5,10|0,0:2|0:0,0:0:0:0:
114,102,290592,2,0,L|106:164,2,62.5,2|0|10,0:2|0:0|0:2,0:0:0:0:
86,26,290867,1,0,3:0:0:0:
100,8,290958,6,0,B|189:1|146:59|241:50,1,125,0|10,3:0|3:2,3:0:0:0:
291,9,291232,1,0,0:0:0:0:
322,99,291324,6,0,P|347:116|378:119,1,62.5,6|0,0:2|0:0,0:0:0:0:
465,39,291508,1,10,0:2:0:0:
469,27,291599,1,0,0:0:0:0:
461,15,291690,2,0,P|430:18|404:35,1,62.5,2|0,0:2|0:0,0:0:0:0:
469,176,291873,1,10,0:2:0:0:
469,176,291964,1,8,0:1:0:0:
469,176,292056,2,0,L|478:113,2,62.5,2|0|8,0:2|0:0|0:2,0:0:0:0:
378,119,292330,1,0,0:0:0:0:
356,153,292422,6,0,L|372:282,1,125,2|10,0:2|0:2,0:0:0:0:
330,355,292696,1,0,0:0:0:0:
330,355,292787,6,0,P|293:327|273:325,1,62.5,6|0,0:1|0:0,0:0:0:0:
203,380,292970,1,8,0:1:0:0:
203,380,293062,2,0,B|173:337|173:337|199:240,1,125,0|0,0:0|0:2,0:0:0:0:
141,202,293336,1,10,0:2:0:0:
149,176,293428,1,0,0:0:0:0:
157,151,293519,2,0,P|189:215|98:183,1,187.5,6|0,0:1|0:2,0:0:0:0:
15,261,293886,2,0,L|7:198,1,62.5,2|0,0:2|0:0,0:0:0:0:
50,60,294069,2,0,L|58:123,1,62.5,10|0,0:2|0:0,0:0:0:0:
102,222,294250,5,6,0:1:0:0:
134,262,294342,1,0,0:0:0:0:
182,281,294434,1,8,0:1:0:0:
232,272,294525,1,0,0:0:0:0:
273,243,294617,1,2,0:1:0:0:
289,196,294708,1,0,0:0:0:0:
280,146,294800,1,8,0:1:0:0:
250,104,294891,1,8,0:1:0:0:
203,88,294982,6,0,B|176:133|176:133|209:220,1,125,8|8,0:0|0:0,0:0:0:0:
241,285,295257,1,8,0:0:0:0:
241,285,295348,6,0,L|301:277,2,31.25,10|8|8,0:1|0:1|0:1,0:0:0:0:
284,359,295531,2,0,L|372:347,1,62.5,8|8,0:1|0:1,0:0:0:0:
483,173,295714,5,6,0:1:0:0:
467,118,295805,1,0,0:0:0:0:
420,85,295898,1,8,0:1:0:0:
359,94,295989,1,0,0:0:0:0:
321,135,296081,1,2,0:2:0:0:
315,192,296172,1,0,0:0:0:0:
347,238,296264,2,0,P|381:252|426:240,1,62.5,10|0,0:2|0:0,0:0:0:0:
486,320,296447,2,0,P|454:318|426:331,2,62.5,2|0|10,0:2|0:0|0:2,0:0:0:0:
352,384,296721,1,0,0:0:0:0:
340,366,296812,6,0,L|192:348,1,125,2|10,0:2|0:2,0:0:0:0:
164,296,297086,1,0,0:0:0:0:
83,376,297178,6,0,L|73:314,1,62.5,6|0,0:1|0:0,0:0:0:0:
156,206,297361,1,10,0:2:0:0:
165,220,297453,1,0,0:2:0:0:
173,234,297543,2,0,L|163:296,1,62.5,2|0,0:2|0:0,0:0:0:0:
55,222,297726,1,10,0:2:0:0:
41,232,297818,1,8,0:2:0:0:
28,241,297909,6,0,L|38:174,2,62.5,2|0|8,0:2|0:0|0:2,0:0:0:0:
84,61,298183,1,0,0:0:0:0:
70,67,298275,6,0,P|100:118|160:120,1,125,0|10,0:0|0:2,0:0:0:0:
226,53,298550,1,0,0:0:0:0:
205,49,298641,6,0,P|227:28|262:24,1,62.5,6|0,0:1|0:0,0:0:0:0:
340,72,298824,1,8,0:1:0:0:
340,72,298916,2,0,B|365:118|348:179|326:148|310:215|336:266,1,187.5,0|10,0:0|0:2,0:0:0:0:
390,330,299282,1,8,0:1:0:0:
390,330,299373,6,0,P|368:351|333:355,1,62.5,6|0,0:1|0:0,0:0:0:0:
222,383,299556,1,10,0:2:0:0:
202,365,299648,2,0,L|210:293,1,62.5,0|2,0:0|0:2,0:0:0:0:
317,172,299831,1,0,0:2:0:0:
337,190,299922,2,0,L|328:261,1,62.5,10|0,0:2|0:0,0:0:0:0:
193,160,300105,6,0,P|132:211|52:215,2,162.499992561341,6|0|0,0:1|0:0|0:0,0:0:0:0:
462,79,300654,6,0,P|401:27|321:23,2,162.499992561341,6|0|0,0:1|0:0|0:0,0:0:0:0:
413,287,301203,6,0,L|406:238,2,40.6249981403352,10|10|10,0:1|0:1|0:1,0:0:0:0:
327,238,301386,1,10,0:1:0:0:
337,190,301477,1,10,0:1:0:0:
256,192,301569,12,0,303947,0:0:0:0:
192,288,304008,6,0,L|185:234,1,54.1666641871136
256,192,304130,1,10,0:1:0:0:
56,117,304495,5,6,0:1:0:0:
81,59,304586,1,0,0:0:0:0:
140,37,304677,1,8,0:1:0:0:
201,53,304769,1,0,0:0:0:0:
236,105,304860,1,2,0:0:0:0:
241,168,304952,1,0,0:0:0:0:
209,221,305043,1,8,0:1:0:0:
181,277,305135,1,0,0:0:0:0:
193,339,305226,1,2,0:0:0:0:
247,372,305318,1,0,0:0:0:0:
309,368,305409,1,8,0:1:0:0:
348,319,305501,1,0,0:0:0:0:
352,257,305592,1,2,0:0:0:0:
321,203,305684,1,0,0:0:0:0:
261,187,305775,1,8,0:1:0:0:
202,204,305866,1,0,0:0:0:0:
179,263,305958,5,2,0:0:0:0:
232,282,306049,1,0,0:0:0:0:
284,259,306141,1,8,0:1:0:0:
309,209,306232,1,0,0:0:0:0:
296,150,306324,1,2,0:0:0:0:
272,91,306415,1,0,0:0:0:0:
290,33,306507,1,8,0:1:0:0:
339,1,306598,1,0,0:0:0:0:
401,9,306690,1,2,0:0:0:0:
441,49,306781,1,0,0:0:0:0:
444,104,306873,1,8,0:1:0:0:
413,151,306964,1,0,0:0:0:0:
357,159,307056,2,0,L|286:148,1,62.5,2|0,0:0|0:0,0:0:0:0:
212,4,307238,2,0,L|142:15,1,62.5,8|0,0:1|0:0,0:0:0:0:
58,161,307421,5,6,0:1:0:0:
29,221,307513,1,0,0:0:0:0:
43,285,307604,1,8,0:1:0:0:
96,324,307696,1,0,0:0:0:0:
162,322,307787,1,2,0:0:0:0:
215,288,307879,1,0,0:0:0:0:
234,230,307970,1,8,0:1:0:0:
251,169,308062,1,0,0:0:0:0:
300,132,308153,1,2,0:0:0:0:
363,123,308245,1,0,0:0:0:0:
418,153,308336,1,8,0:1:0:0:
446,210,308427,1,0,0:0:0:0:
435,279,308519,1,2,0:0:0:0:
388,329,308610,1,0,0:0:0:0:
320,340,308702,1,8,0:1:0:0:
259,311,308793,1,0,0:0:0:0:
239,245,308885,5,2,0:0:0:0:
292,212,308976,1,0,0:0:0:0:
355,220,309068,1,8,0:1:0:0:
394,270,309159,1,0,0:0:0:0:
388,329,309251,1,2,0:0:0:0:
345,373,309342,1,0,0:0:0:0:
282,370,309434,1,8,0:1:0:0:
240,324,309525,1,0,0:0:0:0:
240,261,309616,1,2,0:0:0:0:
285,217,309708,1,0,0:0:0:0:
299,156,309799,1,8,0:1:0:0:
269,100,309891,1,0,0:0:0:0:
211,75,309982,2,0,B|194:102|194:102|202:141,1,62.5,10|8,0:1|0:1,0:0:0:0:
99,241,310166,2,0,B|115:214|115:214|108:175,1,62.5,10|8,0:1|0:1,0:0:0:0:
62,42,310348,5,4,0:1:0:0:
106,6,310440,1,0,0:0:0:0:
162,10,310531,1,8,0:1:0:0:
211,40,310623,1,0,0:0:0:0:
230,93,310714,1,2,0:0:0:0:
221,149,310805,1,0,0:0:0:0:
181,190,310897,1,8,0:1:0:0:
149,236,310988,1,0,0:0:0:0:
150,287,311080,1,2,0:0:0:0:
181,327,311171,1,0,0:0:0:0:
231,333,311263,1,8,0:1:0:0:
270,302,311354,1,0,0:0:0:0:
279,253,311446,1,2,0:0:0:0:
255,210,311537,1,0,0:0:0:0:
208,195,311629,1,8,0:1:0:0:
163,216,311720,1,0,0:0:0:0:
145,257,311812,5,2,0:0:0:0:
190,300,311903,1,0,0:0:0:0:
253,299,311994,1,8,0:1:0:0:
304,261,312086,1,0,0:0:0:0:
330,204,312177,1,2,0:0:0:0:
387,177,312269,1,0,0:0:0:0:
449,187,312360,1,8,0:1:0:0:
490,235,312452,1,0,0:0:0:0:
492,294,312543,1,2,0:0:0:0:
461,341,312635,1,0,0:0:0:0:
407,353,312726,1,8,0:1:0:0:
354,333,312818,1,0,0:0:0:0:
333,288,312909,2,0,L|326:224,1,62.5,2|0,0:0|0:0,0:0:0:0:
245,101,313092,2,0,L|238:164,1,62.5,8|0,0:1|0:0,0:0:0:0:
190,300,313275,5,6,0:1:0:0:
158,338,313366,1,0,0:0:0:0:
107,341,313458,1,8,0:1:0:0:
70,307,313549,1,0,0:0:0:0:
66,256,313641,2,0,P|85:233|119:223,3,62.5,2|0|8|0,0:0|0:0|0:1|0:0,0:0:0:0:
159,56,314007,5,6,0:1:0:0:
207,29,314098,1,0,0:0:0:0:
262,39,314190,1,8,0:1:0:0:
295,84,314281,1,0,0:0:0:0:
294,140,314373,2,0,P|263:160|220:160,3,62.5,2|0|8|0,0:0|0:0|0:1|0:0,0:0:0:0:
65,10,314739,5,6,0:1:0:0:
17,63,314831,1,0,0:0:0:0:
23,134,314922,1,8,0:0:0:0:
75,181,315014,1,8,0:0:0:0:
127,226,315105,1,6,0:0:0:0:
151,291,315197,1,4,0:0:0:0:
128,356,315288,1,6,0:0:0:0:
59,371,315380,1,4,0:0:0:0:
7,326,315471,1,8,0:1:0:0:
9,250,315563,1,8,0:1:0:0:
71,208,315654,1,4,0:0:0:0:
144,226,315745,1,4,0:0:0:0:
199,277,315837,2,0,L|201:317,2,31.25,8|8|8,0:1|0:1|0:1,0:0:0:0:
276,307,316020,2,0,L|279:369,1,62.5,8|8,0:1|0:1,0:0:0:0:
399,231,316202,5,4,0:1:0:0:
410,188,316293,1,0,0:0:0:0:
392,148,316386,1,8,0:1:0:0:
354,126,316477,1,0,0:0:0:0:
311,134,316569,1,2,0:2:0:0:
277,163,316660,1,0,0:0:0:0:
267,205,316751,1,10,0:2:0:0:
253,246,316843,1,0,0:0:0:0:
216,271,316934,1,2,0:2:0:0:
173,261,317026,1,2,0:2:0:0:
143,230,317117,1,8,0:2:0:0:
143,187,317209,1,0,0:0:0:0:
170,153,317300,1,2,0:2:0:0:
214,146,317392,1,0,0:0:0:0:
254,165,317483,1,10,0:2:0:0:
267,205,317575,1,0,0:0:0:0:
253,246,317665,5,2,0:2:0:0:
214,228,317758,1,0,0:0:0:0:
197,188,317850,1,10,0:2:0:0:
214,146,317941,1,0,0:0:0:0:
240,111,318033,1,2,0:2:0:0:
254,70,318124,1,0,0:0:0:0:
240,29,318216,1,10,0:2:0:0:
205,4,318307,1,0,0:0:0:0:
162,6,318399,1,2,0:2:0:0:
126,30,318490,1,0,0:0:0:0:
115,73,318582,1,10,0:2:0:0:
129,115,318673,1,0,0:0:0:0:
168,136,318765,2,0,L|237:126,1,62.5,2|2,0:2|0:2,0:0:0:0:
301,18,318947,2,0,L|238:29,1,62.5,10|2,0:2|0:2,0:0:0:0:
86,204,319130,5,4,0:1:0:0:
62,156,319221,1,0,0:0:0:0:
73,104,319312,1,10,0:2:0:0:
115,73,319404,1,0,0:0:0:0:
168,75,319495,1,2,0:2:0:0:
211,102,319587,1,0,0:0:0:0:
226,148,319678,1,10,0:2:0:0:
239,197,319770,1,0,0:0:0:0:
279,227,319861,1,2,0:2:0:0:
329,234,319953,1,2,0:2:0:0:
373,210,320044,1,8,0:1:0:0:
395,164,320135,1,0,0:0:0:0:
387,109,320227,1,2,0:2:0:0:
349,69,320318,1,0,0:0:0:0:
295,60,320410,1,10,0:2:0:0:
246,84,320501,1,0,0:0:0:0:
230,136,320592,5,2,0:2:0:0:
269,168,320683,1,0,0:0:0:0:
319,161,320775,1,10,0:2:0:0:
357,129,320866,1,0,0:0:0:0:
366,80,320958,1,2,0:2:0:0:
344,36,321049,1,0,0:0:0:0:
300,14,321141,1,10,0:2:0:0:
252,24,321232,1,0,0:0:0:0:
221,63,321325,1,2,0:2:0:0:
187,100,321416,1,0,0:0:0:0:
139,112,321508,1,10,0:2:0:0:
98,99,321599,1,0,0:0:0:0:
67,69,321690,2,0,L|75:0,1,62.5,10|10,0:2|0:2,0:0:0:0:
282,136,321873,2,0,L|274:199,1,62.5,10|10,0:2|0:2,0:0:0:0:
64,349,322055,5,4,0:1:0:0:
23,301,322147,1,0,0:0:0:0:
28,241,322238,1,10,0:2:0:0:
65,194,322330,1,0,0:0:0:0:
122,186,322421,1,2,0:2:0:0:
176,203,322514,1,0,0:0:0:0:
211,249,322605,1,10,0:2:0:0:
252,287,322697,1,0,0:0:0:0:
303,293,322788,1,2,0:2:0:0:
347,268,322880,1,2,0:2:0:0:
360,219,322971,1,10,0:2:0:0:
334,176,323062,1,0,0:0:0:0:
287,161,323154,1,2,0:2:0:0:
242,179,323245,1,0,0:0:0:0:
219,223,323337,1,10,0:2:0:0:
234,270,323427,1,0,0:0:0:0:
275,289,323519,5,2,0:2:0:0:
310,253,323610,1,0,0:0:0:0:
309,202,323703,1,10,0:2:0:0:
278,162,323794,1,0,0:0:0:0:
233,141,323886,1,2,0:2:0:0:
211,95,323977,1,0,0:0:0:0:
219,46,324069,1,10,0:2:0:0:
258,13,324160,1,0,0:0:0:0:
305,11,324251,1,2,0:2:0:0:
342,36,324343,1,0,0:0:0:0:
352,79,324434,1,10,0:2:0:0:
336,122,324526,1,0,0:0:0:0:
295,150,324616,2,0,L|226:140,1,62.5,2|2,0:2|0:2,0:0:0:0:
127,16,324799,2,0,L|64:27,1,62.5,10|2,0:2|0:2,0:0:0:0:
13,257,324982,5,4,0:1:0:0:
45,295,325075,1,0,0:0:0:0:
96,299,325167,1,10,0:1:0:0:
133,264,325258,1,0,0:0:0:0:
137,213,325349,2,0,P|118:190|84:180,3,62.5,2|0|8|8,0:0|0:0|0:1|0:1,0:0:0:0:
159,65,325715,5,4,0:1:0:0:
191,27,325806,1,0,0:0:0:0:
242,24,325898,1,10,0:1:0:0:
279,58,325989,1,0,0:0:0:0:
283,109,326081,2,0,P|264:132|230:142,1,62.5,8|8,0:2|0:2,0:0:0:0:
88,181,326264,2,0,P|118:191|138:215,1,62.5,8|8,0:2|0:2,0:0:0:0:
344,182,326446,5,4,0:1:0:0:
411,203,326537,1,0,0:0:0:0:
442,266,326629,1,8,0:1:0:0:
428,333,326720,1,8,0:1:0:0:
372,374,326812,2,0,L|333:369,2,31.25,8|8|8,0:0|0:0|0:0,0:0:0:0:
283,274,326994,2,0,L|345:283,1,62.5,8|0,0:0|0:0,0:0:0:0:
484,159,327177,5,6,0:0:0:0:
465,106,327269,1,6,0:0:0:0:
417,79,327360,1,6,0:0:0:0:
361,82,327452,1,6,0:0:0:0:
320,120,327543,1,6,0:0:0:0:
277,166,327635,1,8,0:1:0:0:
215,170,327726,1,10,0:1:0:0:
157,134,327818,1,8,0:1:0:0:
158,60,327909,6,0,B|195:34|195:34|281:59,1,125,4|8,0:1|0:1,0:0:0:0:
403,161,328184,1,0,0:0:0:0:
403,161,328276,2,0,L|393:236,1,62.5,2|0,0:0|0:0,0:0:0:0:
290,336,328459,2,0,L|282:273,1,62.5,8|0,0:1|0:0,0:0:0:0:
215,170,328642,5,2,0:0:0:0:
169,145,328733,1,0,0:0:0:0:
116,151,328825,1,8,0:1:0:0:
80,186,328916,1,0,0:0:0:0:
74,229,329008,1,2,0:0:0:0:
89,269,329099,1,0,0:1:0:0:
122,287,329191,1,8,0:1:0:0:
159,282,329282,1,0,0:0:0:0:
173,254,329373,6,0,L|162:166,1,83.3333333333333,2|2,0:0|2:1,0:0:0:0:
271,56,329617,1,2,2:1:0:0:
290,336,329739,6,0,L|300:253,1,83.3333333333333,2|2,0:0|2:1,0:0:0:0:
194,182,329983,1,2,2:1:0:0:
441,281,330105,5,2,0:0:0:0:
438,260,330197,1,0,0:0:0:0:
435,239,330288,1,8,0:1:0:0:
433,218,330380,1,0,0:0:0:0:
373,174,330471,5,2,0:0:0:0:
376,153,330563,1,0,0:0:0:0:
379,132,330654,1,8,0:1:0:0:
381,111,330746,1,0,0:0:0:0:
387,80,330837,6,0,P|410:66|430:65,3,31.25,6|0|0|0,0:1|2:0|0:0|2:0,0:0:0:0:
316,21,331020,1,8,0:1:0:0:
276,3,331111,1,0,0:0:0:0:
232,10,331203,1,2,0:0:0:0:
203,42,331294,1,0,0:0:0:0:
192,84,331386,1,8,0:1:0:0:
166,119,331477,1,0,0:0:0:0:
125,137,331569,1,2,0:0:0:0:
88,131,331660,1,0,0:0:0:0:
61,104,331751,1,8,0:1:0:0:
60,72,331843,1,0,0:0:0:0:
81,49,331934,5,2,0:0:0:0:
105,68,332026,1,0,0:0:0:0:
120,95,332117,1,8,0:1:0:0:
116,126,332209,1,0,0:0:0:0:
99,152,332300,1,2,0:0:0:0:
79,176,332392,1,0,0:0:0:0:
68,205,332483,1,8,0:1:0:0:
67,236,332575,1,0,0:0:0:0:
79,264,332666,1,2,0:1:0:0:
103,283,332758,1,0,0:0:0:0:
131,287,332849,2,0,P|155:260|149:222,1,62.5,8|0,0:1|0:0,0:0:0:0:
226,162,333032,5,2,0:0:0:0:
256,131,333123,1,0,0:0:0:0:
298,124,333215,1,8,0:1:0:0:
333,135,333306,1,0,0:0:0:0:
358,162,333398,1,10,0:1:0:0:
370,197,333489,1,8,0:1:0:0:
365,234,333581,1,10,0:1:0:0:
339,262,333672,1,8,0:1:0:0:
294,263,333764,5,6,0:1:0:0:
317,226,333855,1,0,0:0:0:0:
360,224,333947,1,8,0:1:0:0:
393,251,334038,1,0,0:0:0:0:
403,293,334130,1,2,0:0:0:0:
384,332,334221,1,0,0:0:0:0:
341,357,334312,1,8,0:1:0:0:
293,341,334404,1,0,0:0:0:0:
264,292,334495,2,0,L|273:218,1,62.5,2|0,0:0|0:0,0:0:0:0:
129,301,334678,2,0,L|136:363,1,62.5,8|0,0:1|0:0,0:0:0:0:
27,218,334861,6,0,P|45:205|68:203,2,41.6666666666667,2|0|0,0:0|2:0|2:0,0:0:0:0:
101,121,335044,2,0,P|125:143|175:152,1,62.5,8|0,0:1|0:0,0:0:0:0:
200,246,335227,2,0,P|224:223|274:215,1,62.5,2|0,0:0|0:0,0:0:0:0:
316,148,335410,2,0,P|295:144|279:132,2,41.6666666666667,8|0|0,0:1|2:0|2:0,0:0:0:0:
398,227,335593,5,2,0:0:0:0:
444,223,335684,1,0,0:0:0:0:
472,189,335776,1,8,0:1:0:0:
473,145,335867,1,0,0:0:0:0:
448,108,335959,1,2,0:0:0:0:
400,93,336050,1,0,0:0:0:0:
351,104,336142,1,8,0:1:0:0:
316,148,336233,1,0,0:0:0:0:
312,204,336325,1,2,0:0:0:0:
338,245,336416,1,0,0:0:0:0:
371,282,336508,1,8,0:1:0:0:
373,325,336599,1,0,0:0:0:0:
346,360,336691,5,6,0:1:0:0:
313,322,336782,1,0,0:0:0:0:
317,272,336873,1,8,0:1:0:0:
349,233,336965,1,0,0:0:0:0:
398,230,337056,1,2,0:0:0:0:
440,256,337148,1,0,0:0:0:0:
448,305,337239,2,0,L|375:316,1,62.5,8|0,0:1|0:0,0:0:0:0:
132,253,337422,5,6,0:1:0:0:
93,195,337514,1,0,0:0:0:0:
104,127,337605,1,8,0:1:0:0:
152,87,337697,1,0,0:0:0:0:
214,88,337788,1,2,0:0:0:0:
260,130,337880,1,0,0:0:0:0:
311,152,337971,1,8,0:1:0:0:
358,138,338062,1,0,0:0:0:0:
374,97,338154,5,6,0:1:0:0:
336,75,338245,1,8,0:1:0:0:
292,83,338337,1,8,0:1:0:0:
264,117,338428,1,8,0:1:0:0:
255,153,338520,1,8,0:0:0:0:
267,188,338611,1,8,0:0:0:0:
295,212,338703,1,4,0:0:0:0:
318,240,338794,1,4,0:0:0:0:
320,271,338886,5,6,0:1:0:0:
301,296,338977,1,4,0:0:0:0:
276,300,339069,1,4,0:0:0:0:
257,283,339160,1,4,0:0:0:0:
253,264,339251,1,8,0:0:0:0:
265,242,339343,1,8,0:0:0:0:
292,228,339434,1,8,0:1:0:0:
327,241,339526,1,8,0:1:0:0:
340,275,339617,5,6,0:1:0:0:
171,379,339800,2,0,L|75:367,1,62.5,10|0,0:2|0:0,0:0:0:0:
14,295,339983,2,0,L|109:283,1,62.5,2|0,0:2|0:0,0:0:0:0:
171,211,340166,2,0,L|75:199,1,62.5,10|0,0:2|0:0,0:0:0:0:
26,117,340349,5,2,0:2:0:0:
53,74,340441,1,0,0:0:0:0:
100,59,340532,1,10,0:2:0:0:
146,76,340623,1,0,0:0:0:0:
177,115,340715,1,2,0:2:0:0:
219,141,340806,1,0,0:0:0:0:
269,136,340898,2,0,P|285:113|286:75,1,62.5,10|0,0:2|0:0,0:0:0:0:
212,18,341081,5,2,0:1:0:0:
96,140,341203,2,0,L|107:231,1,83.3333333333333,2|2,2:1|2:1,2:1:0:0:
28,306,341447,5,2,3:1:0:0:
164,384,341569,2,0,L|174:301,1,83.3333333333333,2|2,2:1|2:1,2:1:0:0:
277,335,341812,5,2,0:2:0:0:
347,350,341904,1,0,0:0:0:0:
404,308,341995,1,10,0:2:0:0:
422,246,342087,1,0,0:0:0:0:
404,191,342178,1,2,0:2:0:0:
361,164,342270,1,2,0:2:0:0:
311,167,342361,1,10,0:2:0:0:
280,203,342453,1,2,0:2:0:0:
282,240,342544,6,0,P|310:257|327:257,2,41.6666666666667,6|2|2,0:1|2:1|2:1,0:0:0:0:
277,335,342727,2,0,P|250:355|222:362,1,62.5,10|0,0:2|0:0,0:0:0:0:
97,327,342910,1,2,0:2:0:0:
59,293,343001,1,0,0:0:0:0:
52,246,343093,1,10,0:2:0:0:
71,203,343184,1,0,0:0:0:0:
112,184,343276,1,2,0:2:0:0:
153,187,343367,1,2,0:2:0:0:
179,215,343459,1,10,0:2:0:0:
183,245,343550,1,0,0:0:0:0:
175,271,343642,2,0,L|128:276,1,46.8750017881394,2|0,0:2|0:0,0:0:0:0:
29,101,343825,2,0,L|75:106,1,46.8750017881394,10|0,0:2|0:0,0:0:0:0:
295,16,344008,5,2,0:2:0:0:
318,45,344099,1,0,0:0:0:0:
322,82,344191,1,10,0:2:0:0:
310,117,344282,1,0,0:0:0:0:
283,142,344373,1,2,0:2:0:0:
269,182,344465,1,0,0:0:0:0:
283,226,344556,2,0,P|308:245|356:249,1,62.5,10|0,0:2|0:0,0:0:0:0:
450,189,344739,6,0,L|461:93,1,62.5,10|0,0:2|0:0,0:0:0:0:
194,302,344922,2,0,L|201:364,1,62.5,10|0,0:2|0:0,0:0:0:0:
34,257,345105,2,0,L|39:215,2,31.25,8|8|8,0:0|0:0|0:0,0:0:0:0:
142,142,345288,2,0,L|149:204,1,62.5,10|8,0:2|0:1,0:0:0:0:
49,65,345471,5,6,0:1:0:0:
80,26,345562,1,0,0:0:0:0:
130,21,345654,1,10,0:2:0:0:
176,39,345745,1,0,0:0:0:0:
202,81,345837,1,2,0:2:0:0:
227,123,345928,1,0,0:0:0:0:
275,151,346020,1,10,0:2:0:0:
330,145,346111,1,0,0:0:0:0:
365,100,346203,1,2,0:2:0:0:
360,37,346294,1,0,0:0:0:0:
306,4,346386,1,10,0:2:0:0:
245,16,346477,1,0,0:0:0:0:
217,72,346569,5,2,0:2:0:0:
268,106,346660,1,0,0:0:0:0:
326,84,346751,1,10,0:2:0:0:
360,37,346843,1,0,0:0:0:0:
411,16,346934,1,2,0:2:0:0:
466,28,347026,1,0,0:0:0:0:
499,64,347117,1,10,0:2:0:0:
498,114,347209,1,0,0:0:0:0:
474,150,347300,2,0,L|406:158,1,62.5,2|0,0:2|0:0,0:0:0:0:
349,261,347483,2,0,L|286:253,1,62.5,10|0,0:2|0:0,0:0:0:0:
217,72,347666,5,8,0:1:0:0:
141,64,347758,1,8,0:1:0:0:
80,107,347849,1,8,0:1:0:0:
62,180,347941,1,8,0:1:0:0:
96,246,348032,5,8,0:1:0:0:
129,230,348123,1,4,0:0:0:0:
141,194,348215,1,8,0:1:0:0:
126,166,348306,1,8,0:1:0:0:
95,160,348398,5,14,0:1:0:0:
104,208,348489,1,8,0:1:0:0:
150,227,348581,1,0,0:0:0:0:
199,227,348672,1,0,0:0:0:0:
239,197,348764,1,8,0:0:0:0:
275,173,348855,1,8,0:0:0:0:
318,177,348947,1,4,0:0:0:0:
346,200,349038,1,4,0:0:0:0:
354,236,349130,5,14,0:1:0:0:
306,275,349221,1,8,0:1:0:0:
244,264,349312,1,8,0:0:0:0:
212,209,349404,1,4,0:0:0:0:
223,147,349495,2,0,L|260:142,2,31.25,8|8|8,0:1|0:1|0:1,0:0:0:0:
245,68,349678,2,0,L|308:60,1,62.5,4|4,0:0|0:0,0:0:0:0:
476,161,349861,5,14,0:1:0:0:
505,209,349953,1,8,0:1:0:0:
499,264,350044,1,0,0:0:0:0:
465,301,350136,1,0,0:0:0:0:
415,304,350227,1,8,0:0:0:0:
374,273,350319,1,8,0:0:0:0:
335,241,350410,1,8,0:0:0:0:
285,240,350501,1,8,0:0:0:0:
244,269,350593,1,4,0:0:0:0:
225,315,350684,1,4,0:0:0:0:
186,356,350776,1,4,0:0:0:0:
130,364,350867,1,4,0:0:0:0:
81,325,350959,1,8,0:1:0:0:
61,345,351325,6,0,B|28:298|28:298|56:162,1,187.5,6|0,0:1|0:0,0:0:0:0:
60,143,351691,1,10,0:1:0:0:
152,250,351874,1,0,0:0:0:0:
258,38,352057,1,2,0:2:0:0:
258,38,352148,2,0,P|200:9|132:31,1,125,8|0,0:1|0:0,0:0:0:0:
60,143,352423,2,0,P|118:172|186:150,1,125,10|0,0:2|0:0,0:0:0:0:
265,220,352697,1,2,2:1:0:0:
265,220,352789,6,0,B|341:215|341:215|351:232|351:232|465:220,1,187.5,6|0,0:1|0:0,0:0:0:0:
509,100,353154,2,0,L|381:115,1,125,12|0,0:2|0:0,0:0:0:0:
265,220,353520,1,2,0:2:0:0:
265,220,353612,1,8,0:1:0:0:
365,361,353795,1,0,0:2:0:0:
365,361,353887,1,10,0:2:0:0:
501,119,354069,1,8,0:1:0:0:
411,24,354252,6,0,B|360:-4|288:34|331:53|280:96|241:80,1,187.5,4|0,0:1|0:0,0:0:0:0:
129,55,354618,1,12,0:1:0:0:
107,77,354709,1,8,0:0:0:0:
99,108,354801,1,4,0:0:0:0:
104,139,354892,1,0,0:0:0:0:
126,162,354984,5,4,0:1:0:0:
126,162,355075,2,0,L|192:170,1,62.5,8|8,0:1|0:0,0:0:0:0:
251,252,355258,1,4,0:0:0:0:
243,267,355350,2,0,L|178:275,1,62.5,8|8,0:1|0:0,0:0:0:0:
38,368,355532,1,4,0:0:0:0:
38,368,355624,1,0,0:0:0:0:
38,368,355715,6,0,B|27:337|5:316|5:316|34:187,1,187.5,4|0,0:1|0:0,0:0:0:0:
62,96,356081,2,0,P|88:127|127:131,1,62.5,8|0,0:1|0:0,0:0:0:0:
200,92,356264,1,8,0:0:0:0:
215,69,356355,1,4,0:0:0:0:
251,70,356446,5,4,0:1:0:0:
251,70,356539,2,0,L|261:152,1,62.5,8|8,0:1|0:0,0:0:0:0:
348,189,356721,1,4,0:0:0:0:
348,189,356813,2,0,L|355:124,1,62.5,8|0,0:1|0:0,0:0:0:0:
448,74,356996,2,0,L|456:139,1,62.5,8|8,0:0|0:0,0:0:0:0:
426,298,357179,6,0,P|405:239|281:252,1,187.5,4|0,0:1|0:0,0:0:0:0:
170,247,357545,1,12,0:1:0:0:
173,279,357636,1,8,0:0:0:0:
177,311,357728,1,4,0:0:0:0:
181,343,357819,1,0,0:0:0:0:
185,375,357911,5,4,0:1:0:0:
185,375,358002,2,0,L|194:298,1,62.5,8|8,0:1|0:0,0:0:0:0:
90,341,358185,1,4,0:0:0:0:
76,328,358277,2,0,L|84:263,1,62.5,8|8,0:1|0:0,0:0:0:0:
5,216,358459,1,4,0:0:0:0:
11,182,358551,1,0,0:0:0:0:
18,145,358642,6,0,B|55:119|100:150|100:150|148:208|195:189,1,187.5,4|0,0:1|0:0,0:0:0:0:
258,145,359008,2,0,L|267:65,1,62.5,8|0,0:1|0:0,0:0:0:0:
352,196,359191,2,0,L|359:258,1,62.5,8|8,0:0|0:0,0:0:0:0:
450,140,359373,5,4,0:1:0:0:
450,140,359465,2,0,P|413:127|395:96,2,62.5,8|8|4,0:1|0:0|0:0,0:0:0:0:
221,303,359740,1,8,0:1:0:0:
160,272,359831,1,8,0:1:0:0:
148,203,359923,1,8,0:1:0:0:
188,147,360014,1,8,0:1:0:0:
258,145,360106,5,6,0:1:0:0:
274,171,360196,1,0,0:0:0:0:
274,202,360289,1,10,0:2:0:0:
260,229,360379,1,0,0:0:0:0:
230,239,360471,1,2,0:2:0:0:
199,233,360562,1,0,0:0:0:0:
177,210,360654,1,10,0:2:0:0:
170,179,360745,1,0,0:0:0:0:
188,147,360837,5,2,0:2:0:0:
233,167,360928,1,0,0:0:0:0:
255,212,361020,1,10,0:2:0:0:
263,261,361111,1,0,0:0:0:0:
296,298,361203,1,2,0:2:0:0:
344,310,361294,1,0,0:0:0:0:
391,294,361386,1,10,0:2:0:0:
414,250,361477,1,0,0:0:0:0:
406,200,361569,5,2,0:2:0:0:
350,203,361660,1,0,0:0:0:0:
316,247,361751,1,10,0:2:0:0:
309,303,361843,1,0,0:0:0:0:
280,351,361934,1,2,0:2:0:0:
224,360,362026,1,0,0:0:0:0:
172,338,362117,1,10,0:2:0:0:
148,293,362209,1,0,0:0:0:0:
154,249,362300,5,2,0:2:0:0:
188,276,362392,1,0,0:0:0:0:
195,318,362483,1,10,0:2:0:0:
172,355,362575,1,0,0:0:0:0:
130,368,362666,1,2,0:2:0:0:
89,351,362758,1,0,0:0:0:0:
68,319,362849,1,10,0:2:0:0:
69,282,362941,1,0,0:0:0:0:
91,256,363032,6,0,L|157:247,1,62.5,6|0,0:1|0:0,0:0:0:0:
266,62,363215,2,0,L|199:53,1,62.5
195,318,363398,2,0,L|261:309,1,62.5,8|8,0:0|0:0,0:0:0:0:
372,145,363581,2,0,L|305:136,1,62.5,8|8,0:0|0:0,0:0:0:0:
328,372,363764,2,0,L|394:363,1,62.5,4|4,0:0|0:0,0:0:0:0:
473,240,363947,2,0,L|406:231,1,62.5,4|4,0:0|0:0,0:0:0:0:
76,175,364130,5,8,0:1:0:0:
34,221,364221,1,8,0:1:0:0:
32,282,364312,1,8,0:0:0:0:
67,333,364404,1,4,0:0:0:0:
90,348,364495,6,0,B|175:332|175:332|178:337|178:337|249:325|249:325|293:363|385:342|385:342|296:246|370:169|370:169|370:162|370:162|370:169|370:169|436:202|401:257,1,599.999981689454,6|0,0:1|2:0,0:0:0:0:
411,232,366228,6,0,B|355:202|292:269|292:269|222:299|146:178|239:85|392:158|336:256|260:370|157:322,1,562.500021457673,4|0,0:1|0:0,0:0:0:0:
90,261,367141,1,0,0:0:0:0:
45,350,367271,1,10,0:0:0:0:
38,340,367680,1,4,0:0:0:0:
178,329,368089,5,4,0:0:0:0:
90,261,368225,1,4,0:0:0:0:
224,191,368361,1,6,0:1:0:0:
256,192,368430,12,0,372589,2:0:0:0:
