osu file format v14

[General]
AudioFilename: audio.mp3
AudioLeadIn: 0
PreviewTime: -1
Countdown: 1
SampleSet: Soft
StackLeniency: 0.7
Mode: 0
LetterboxInBreaks: 0
WidescreenStoryboard: 0

[Editor]
Bookmarks: 81737,81822,81908,93499,93584,93669,97590,97930,120090
DistanceSpacing: 1.3
BeatDivisor: 4
GridSize: 4
TimelineZoom: 2

[Metadata]
Title:Dead leaves
TitleUnicode:Dead leaves
Artist:Magnetude ft Julia Marks
ArtistUnicode:Magnetude ft Julia Marks
Creator:Oxia
Version:Death
Source:
Tags:
BeatmapID:1412977
BeatmapSetID:667803

[Difficulty]
HPDrainRate:7
CircleSize:4
OverallDifficulty:8
ApproachRate:9.7
SliderMultiplier:1.4
SliderTickRate:1

[Events]
//Background and Video events
//Break Periods
2,6425,65049
//Storyboard Layer 0 (Background)
//Storyboard Layer 1 (Fail)
//Storyboard Layer 2 (Pass)
//Storyboard Layer 3 (Foreground)
//Storyboard Sound Samples

[TimingPoints]
90,340.909090909091,4,2,1,49,1,0
65459,-66.6666666666667,4,2,1,100,0,0
99124,-50,4,2,1,50,0,0
99124,-133.333333333333,4,2,1,49,0,0
99550,-66.6666666666667,4,2,1,49,0,0
99550,-50,4,2,1,49,0,0
99805,-50,4,2,1,49,0,0
99805,-66.6666666666667,4,2,1,49,0,0
100232,-50,4,2,1,100,0,0
100232,-133.333333333333,4,2,1,49,0,0
100232,-66.6666666666667,4,2,1,100,0,0
100487,-50,4,2,1,49,0,0
100913,-133.333333333333,4,2,1,49,0,0
100913,-50,4,2,1,49,0,0
101169,-50,4,2,1,49,0,0

[HitObjects]
80,72,90,6,0,P|128:120|200:152,1,140
304,80,771,1,0,0:0:0:0:
416,256,1112,1,0,0:0:0:0:
208,284,1453,2,0,P|144:244|116:172,2,140
180,76,2476,1,0,0:0:0:0:
320,232,2817,2,0,P|364:184|360:104,2,140
160,96,3840,5,0,0:0:0:0:
96,296,4180,2,0,B|180:316|180:316|240:288,2,140
200,112,5203,1,0,0:0:0:0:
288,304,5544,2,0,B|344:276|344:276|352:184,2,140
116,56,65544,6,8,P|156:112|128:280,1,210.000008010865
356,92,66567,1,8,0:0:0:0:
180,240,66908,1,8,0:0:0:0:
284,56,67590,1,0,0:0:0:0:
176,212,67760,1,0,0:0:0:0:
364,192,67930,1,0,0:0:0:0:
200,96,68101,2,8,P|172:64|88:88,1,105.000004005432
88,180,68612,2,0,B|196:124|192:244|344:288|396:160,1,315.000012016297
380,348,69294,6,0,P|420:300|428:244,1,105.000004005432
272,164,69635,1,8,0:0:0:0:
252,340,70317,1,0,0:0:0:0:
140,176,70487,1,0,0:0:0:0:
336,208,70658,1,0,0:0:0:0:
156,292,70828,2,8,P|80:276|80:252,1,105.000004005432,8|0,0:0|0:0,0:0:0:0:
72,96,71169,5,0,0:0:0:0:
196,208,71340,1,0,0:0:0:0:
248,48,71510,1,0,0:0:0:0:
298,49,71595,1,0,0:0:0:0:
331,88,71680,1,0,0:0:0:0:
188,180,71851,2,0,P|176:248|204:276,1,105.000004005432,8|0,0:0|0:0,0:0:0:0:
344,192,72192,5,0,0:0:0:0:
460,312,72362,1,0,0:0:0:0:
484,144,72533,1,0,0:0:0:0:
336,68,72703,1,0,0:0:0:0:
196,160,72874,1,0,0:0:0:0:
175,205,72959,1,0,0:0:0:0:
203,247,73044,1,0,0:0:0:0:
352,324,73215,2,8,P|416:284|408:256,1,105.000004005432
272,196,73555,1,0,0:0:0:0:
396,104,73726,6,8,L|424:48,4,52.5000020027161
352,92,74152,1,8,0:0:0:0:
301,77,74237,1,8,0:0:0:0:
249,76,74322,1,8,0:0:0:0:
198,88,74407,1,8,0:0:0:0:
152,113,74492,1,8,0:0:0:0:
114,149,74578,1,8,0:0:0:0:
87,194,74663,1,8,0:0:0:0:
72,244,74749,1,4,0:0:0:0:
256,192,75090,12,0,76283,0:0:0:0:
84,56,76453,6,0,B|132:100|132:100|244:104|244:104|272:128,1,210.000008010865,8|0,0:0|0:0,0:0:0:0:
100,212,76965,1,0,0:0:0:0:
240,288,77135,2,0,B|336:240|336:240|288:188|312:124,1,210.000008010865
164,76,77646,1,0,0:0:0:0:
188,232,77817,6,0,B|280:236|280:236|328:292|388:288,1,210.000008010865,8|0,0:0|0:0,0:0:0:0:
472,160,78328,1,0,0:0:0:0:
188,152,78499,6,0,B|280:148|280:148|328:92|381:95,1,210.000008010865,8|0,0:0|0:0,0:0:0:0:
232,36,79010,1,0,0:0:0:0:
100,100,79180,2,0,B|92:212|92:212|152:208|180:256,1,210.000008010865,8|0,0:0|0:0,0:0:0:0:
304,348,79692,1,0,0:0:0:0:
412,100,79862,2,0,B|420:212|420:212|360:208|332:256,1,210.000008010865,8|0,0:0|0:0,0:0:0:0:
216,356,80374,1,0,0:0:0:0:
112,236,80544,6,0,B|148:132|148:132|216:164|256:140,1,210.000008010865,8|0,0:0|0:0,0:0:0:0:
396,184,81055,1,0,0:0:0:0:
392,40,81226,5,0,0:0:0:0:
351,73,81311,1,0,0:0:0:0:
310,106,81396,1,0,0:0:0:0:
331,146,81481,1,0,0:0:0:0:
304,184,81566,1,0,0:0:0:0:
268,222,81652,1,0,0:0:0:0:
236,252,81737,2,0,L|220:244,8,13.125000500679
136,128,82078,5,0,0:0:0:0:
284,68,82249,1,0,0:0:0:0:
268,222,82419,1,0,0:0:0:0:
200,80,82590,2,0,B|180:148|204:184|204:184|176:244|176:244|132:268,1,210.000008010865
400,48,83271,5,8,0:0:0:0:
423,94,83356,1,0,0:0:0:0:
428,146,83441,1,0,0:0:0:0:
412,196,83526,1,0,0:0:0:0:
380,224,83612,2,0,P|316:248|248:248,1,105.000004005432
112,48,83953,5,8,0:0:0:0:
88,94,84038,1,0,0:0:0:0:
83,146,84123,1,0,0:0:0:0:
99,196,84208,1,0,0:0:0:0:
132,224,84294,2,0,P|196:248|264:248,1,105.000004005432
256,44,84635,5,8,0:0:0:0:
249,94,84720,1,0,0:0:0:0:
219,138,84805,1,0,0:0:0:0:
244,179,84890,1,0,0:0:0:0:
248,224,84976,2,0,P|248:296|244:332,1,105.000004005432
448,228,85317,5,8,0:0:0:0:
436,177,85402,1,0,0:0:0:0:
407,133,85487,1,0,0:0:0:0:
364,103,85572,1,0,0:0:0:0:
320,96,85658,2,0,B|264:92|264:92|212:112,1,105.000004005432
64,228,85999,5,8,0:0:0:0:
75,177,86084,1,0,0:0:0:0:
104,133,86169,1,0,0:0:0:0:
147,103,86254,1,0,0:0:0:0:
192,96,86340,2,0,B|248:92|248:92|293:109,1,105.000004005432
376,244,86680,6,0,L|296:224,1,70
412,92,86851,2,0,L|356:100,1,52.5000020027161
264,152,87021,2,0,L|240:156,10,17.500000667572
252,116,87362,2,0,P|208:84|48:84,1,210.000008010865
120,224,87874,1,0,0:0:0:0:
264,284,88044,6,0,B|360:224|352:168|352:168|384:112,1,210.000008010865
224,148,88555,1,0,0:0:0:0:
76,200,88726,6,0,B|104:150|104:150|96:94|192:34,1,210.000008010865,8|0,0:0|0:0,0:0:0:0:
344,224,89237,1,0,0:0:0:0:
204,148,89408,6,0,B|256:80|332:72|332:72|408:124,1,210.000008010865,8|0,0:0|0:0,0:0:0:0:
456,240,89919,1,0,0:0:0:0:
384,100,90090,6,0,B|320:60|212:52|212:52|184:96,1,210.000008010865,8|0,0:0|0:0,0:0:0:0:
304,192,90601,1,0,0:0:0:0:
208,68,90771,6,0,B|116:88|76:136|76:136|76:200,1,210.000008010865,8|0,0:0|0:0,0:0:0:0:
212,276,91283,1,0,0:0:0:0:
72,208,91453,6,0,B|116:120|176:84|176:84|240:84,1,210.000008010865,8|0,0:0|0:0,0:0:0:0:
364,156,91965,1,0,0:0:0:0:
256,268,92135,1,0,0:0:0:0:
206,250,92220,1,0,0:0:0:0:
211,203,92305,1,0,0:0:0:0:
165,185,92390,1,0,0:0:0:0:
160,137,92476,2,0,L|176:120,16,13.125000500679
328,48,92987,5,0,0:0:0:0:
344,236,93158,1,0,0:0:0:0:
168,164,93328,1,0,0:0:0:0:
344,92,93499,5,0,0:0:0:0:
344,144,93584,1,0,0:0:0:0:
344,197,93669,1,0,0:0:0:0:
344,249,93754,1,0,0:0:0:0:
344,292,93840,2,0,L|320:304,9,17.500000667572
140,236,94180,5,8,0:0:0:0:
122,187,94265,1,0,0:0:0:0:
132,136,94350,1,0,0:0:0:0:
168,99,94435,1,0,0:0:0:0:
212,80,94521,2,0,P|264:68|320:84,1,105.000004005432
372,148,94862,5,8,0:0:0:0:
389,196,94947,1,0,0:0:0:0:
379,247,95032,1,0,0:0:0:0:
343,284,95117,1,0,0:0:0:0:
300,304,95203,2,0,P|248:316|192:300,1,105.000004005432
40,148,95544,5,8,0:0:0:0:
73,108,95629,1,0,0:0:0:0:
114,75,95714,1,0,0:0:0:0:
161,51,95799,1,0,0:0:0:0:
204,40,95885,2,0,P|264:28|332:40,1,105.000004005432
472,236,96226,5,8,0:0:0:0:
438,275,96311,1,0,0:0:0:0:
397,308,96396,1,0,0:0:0:0:
350,332,96481,1,0,0:0:0:0:
308,344,96567,2,0,P|248:356|180:344,1,105.000004005432
72,260,96908,5,8,0:0:0:0:
117,233,96993,1,0,0:0:0:0:
162,207,97078,1,0,0:0:0:0:
208,180,97163,1,0,0:0:0:0:
252,160,97249,2,0,B|304:132|304:132|336:96,1,105.000004005432
116,76,97590,6,0,B|168:96|168:96|160:144|160:144|224:152|224:152|264:228,1,210.000008010865
324,280,98101,1,0,0:0:0:0:
324,280,98186,1,0,0:0:0:0:
324,280,98271,1,0,0:0:0:0:
344,80,98442,1,0,0:0:0:0:
164,168,98612,1,0,0:0:0:0:
324,280,98783,1,0,0:0:0:0:
252,112,98953,6,0,P|224:88|196:72,1,70
160,72,99124,2,0,P|108:96|60:180,1,140
280,100,99465,1,0,0:0:0:0:
224,256,99635,6,0,P|252:280|272:292,1,52.5000020027161
312,300,99806,2,0,P|364:276|408:212,1,105.000004005432
216,268,100146,1,0,0:0:0:0:
424,116,100317,6,0,L|352:104,1,70
308,92,100487,2,0,B|228:88|196:76|196:76|172:96,1,140
336,152,100828,1,0,0:0:0:0:
120,252,100999,6,0,L|188:276,1,70
220,276,101169,2,0,B|300:280|332:292|332:292|356:272,1,140
