osu file format v14

[General]
AudioFilename: audio.mp3
AudioLeadIn: 0
PreviewTime: 152789
Countdown: 0
SampleSet: Normal
StackLeniency: 0.7
Mode: 1
LetterboxInBreaks: 0
WidescreenStoryboard: 0

[Editor]
Bookmarks: 21965
DistanceSpacing: 1
BeatDivisor: 8
GridSize: 32
TimelineZoom: 2.2

[Metadata]
Title:Warpath
TitleUnicode:Warpath
Artist:Magnetude
ArtistUnicode:Magnetude
Creator:Jaltzu
Version:Inner Oni
Source:
Tags:electronic instrumental dnb drum and & bass we are lifted music hyperdrive ep fa featured artist mappers' guild mpg mg jonarwhal jonawaga vulkin
BeatmapID:2623776
BeatmapSetID:1262314

[Difficulty]
HPDrainRate:5.5
CircleSize:2
OverallDifficulty:6.5
ApproachRate:10
SliderMultiplier:1.4
SliderTickRate:1

[Events]
//Background and Video events
0,0,"war.jpg",0,-40
//Break Periods
//Storyboard Layer 0 (Background)
//Storyboard Layer 1 (Fail)
//Storyboard Layer 2 (Pass)
//Storyboard Layer 3 (Foreground)
//Storyboard Layer 4 (Overlay)
//Storyboard Sound Samples

[TimingPoints]
205,340.909090909091,4,1,0,60,1,0
11540,-100,4,1,0,40,0,0
21937,-100,4,1,0,60,0,0
22108,-100,4,1,0,50,0,0
24665,-100,4,1,0,60,0,0
24835,-100,4,1,0,50,0,0
27392,-100,4,1,0,60,0,0
27562,-100,4,1,0,50,0,0
30119,-100,4,1,0,60,0,0
30290,-100,4,1,0,50,0,0
32847,-100,4,1,0,60,0,0
33187,-99.009900990099,4,1,0,61,0,0
33358,-98.5221674876847,4,1,0,61,0,0
33528,-98.0392156862745,4,1,0,62,0,0
33869,-97.0873786407767,4,1,0,63,0,0
34040,-96.6183574879227,4,1,0,63,0,0
34210,-96.1538461538461,4,1,0,64,0,0
34551,-95.2380952380952,4,1,0,65,0,0
34722,-94.7867298578199,4,1,0,65,0,0
34892,-94.3396226415094,4,1,0,66,0,0
35233,-93.4579439252336,4,1,0,67,0,0
35403,-93.0232558139535,4,1,0,67,0,0
35574,-92.5925925925926,4,1,0,68,0,0
35915,-91.743119266055,4,1,0,69,0,0
36085,-91.324200913242,4,1,0,69,0,0
36256,-90.9090909090909,4,1,0,70,0,0
36597,-90.0900900900901,4,1,0,71,0,0
36767,-89.6860986547085,4,1,0,71,0,0
36937,-89.2857142857143,4,1,0,72,0,0
37278,-88.4955752212389,4,1,0,73,0,0
37449,-88.1057268722467,4,1,0,73,0,0
37619,-87.719298245614,4,1,0,74,0,0
37875,-87.2090488109046,4,1,0,74,0,0
37989,-86.9565217391304,4,1,0,75,0,0
38131,-86.5800865800866,4,1,0,75,0,0
38301,-86.2068965517241,4,1,0,76,0,0
38642,-85.4700854700855,4,1,0,77,0,0
38812,-85.1063829787234,4,1,0,77,0,0
38983,-84.7457627118644,4,1,0,78,0,0
39324,-84.0336134453781,4,1,0,79,0,0
39494,-83.6820083682008,4,1,0,79,0,0
39665,-83.3333333333333,4,1,0,80,0,0
40006,-82.6446280991736,4,1,0,81,0,0
40176,-82.3045267489712,4,1,0,81,0,0
40347,-81.9672131147541,4,1,0,82,0,0
40687,-81.3008130081301,4,1,0,83,0,0
40858,-80.9716599190283,4,1,0,83,0,0
41028,-80.6451612903226,4,1,0,84,0,0
41369,-80,4,1,0,85,0,0
41540,-79.6812749003984,4,1,0,85,0,0
41710,-79.3650793650794,4,1,0,86,0,0
42051,-78.7401574803149,4,1,0,87,0,0
42222,-78.4313725490196,4,1,0,87,0,0
42392,-78.125,4,1,0,88,0,0
42733,-77.5193798449612,4,1,0,89,0,0
42903,-77.2200772200772,4,1,0,89,0,0
43074,-76.9230769230769,4,1,0,90,0,0
43756,-71.4285714285714,4,1,0,100,0,0
43841,-71.4285714285714,4,1,0,100,0,1
52023,-71.4285714285714,4,1,0,100,0,0
52278,-83.3333333333333,4,1,0,80,0,0
54026,-82.3045267489712,4,1,0,84,0,0
54111,-81.6326530612245,4,1,0,86,0,0
54196,-80.9716599190283,4,1,0,88,0,0
54281,-80,4,1,0,90,0,0
54366,-78.7401574803149,4,1,0,92,0,0
54452,-77.2200772200772,4,1,0,94,0,0
54537,-75.4716981132076,4,1,0,96,0,0
54622,-73.5294117647059,4,1,0,98,0,0
54707,-71.4285714285714,4,1,0,100,0,0
54750,-71.4285714285714,4,1,0,100,0,1
62932,-71.4285714285714,4,1,0,100,0,0
63187,-83.3333333333333,4,1,0,80,0,0
65062,-80.6451612903226,4,1,0,84,0,0
65205,-78.125,4,1,0,88,0,0
65347,-75.7575757575758,4,1,0,92,0,0
65591,-71.4285714285714,4,1,0,100,0,0
65659,-71.4285714285714,4,1,0,100,0,1
81937,-71.4285714285714,4,1,0,90,0,1
82108,-72.7272727272727,4,1,0,80,0,1
82278,-73.351426685249,4,1,0,80,0,1
82342,-74.0740740740741,4,1,0,80,0,1
82449,-75.4716981132076,4,1,0,80,0,1
82619,-76.9230769230769,4,1,0,80,0,1
82790,-78.4313725490196,4,1,0,80,0,1
82960,-80,4,1,0,80,0,1
83131,-81.6326530612245,4,1,0,80,0,1
83301,-83.3333333333333,4,1,0,80,0,1
83429,-84.2105263157895,4,1,0,80,0,1
83514,-85.1063829787234,4,1,0,80,0,1
83642,-86.9565217391304,4,1,0,80,0,1
83812,-88.8888888888889,4,1,0,80,0,1
83983,-90.9090909090909,4,1,0,80,0,1
84111,-91.9540229885057,4,1,0,80,0,1
84175,-92.485549132948,4,1,0,80,0,1
84217,-93.0232558139535,4,1,0,80,0,1
84324,-95.2380952380952,4,1,0,80,0,1
84494,-97.5609756097561,4,1,0,80,0,1
84665,-97.5609756097561,4,1,0,60,0,1
84750,-100,4,1,0,60,0,0
85006,-95.2380952380952,4,1,0,65,0,0
85176,-93.0232558139535,4,1,0,67,0,0
85347,-90.9090909090909,4,1,0,70,0,0
85687,-86.9565217391304,4,1,0,75,0,0
85858,-85.1063829787234,4,1,0,77,0,0
86028,-83.3333333333333,4,1,0,80,0,0
86369,-80,4,1,0,85,0,0
86540,-78.4313725490196,4,1,0,87,0,0
86710,-76.9230769230769,4,1,0,90,0,0
87392,-71.4285714285714,4,1,0,100,0,0
87477,-71.4285714285714,4,1,0,100,0,1
95659,-71.4285714285714,4,1,0,100,0,0
95915,-83.3333333333333,4,1,0,80,0,0
97662,-82.3045267489712,4,1,0,84,0,0
97747,-81.6326530612245,4,1,0,86,0,0
97832,-80.9716599190283,4,1,0,88,0,0
97918,-80,4,1,0,90,0,0
98003,-78.7401574803149,4,1,0,92,0,0
98088,-77.2200772200772,4,1,0,94,0,0
98173,-75.4716981132076,4,1,0,96,0,0
98258,-73.5294117647059,4,1,0,98,0,0
98344,-71.4285714285714,4,1,0,100,0,0
98386,-71.4285714285714,4,1,0,100,0,1
106568,-71.4285714285714,4,1,0,100,0,0
106824,-83.3333333333333,4,1,0,80,0,0
108017,-83.3333333333333,4,1,0,70,0,0
109210,-100,4,1,0,60,0,0
109551,-100,4,1,0,40,0,0
117614,-100,4,1,0,41,0,0
117750,-100,4,1,0,42,0,0
117886,-100,4,1,0,43,0,0
118023,-100,4,1,0,44,0,0
118159,-100,4,1,0,45,0,0
118295,-100,4,1,0,46,0,0
118432,-100,4,1,0,47,0,0
118568,-100,4,1,0,48,0,0
118705,-100,4,1,0,49,0,0
118841,-100,4,1,0,50,0,0
118977,-100,4,1,0,51,0,0
119114,-100,4,1,0,52,0,0
119250,-100,4,1,0,53,0,0
119386,-100,4,1,0,54,0,0
119523,-100,4,1,0,55,0,0
119659,-100,4,1,0,56,0,0
119795,-100,4,1,0,57,0,0
119932,-100,4,1,0,58,0,0
120119,-100,4,1,0,60,0,0
120460,-100,4,1,0,40,0,0
130659,-100,4,1,0,50,0,0
131057,-100,4,1,0,60,0,0
131369,-100,4,1,0,50,0,0
133756,-100,4,1,0,60,0,0
133926,-100,4,1,0,50,0,0
136483,-100,4,1,0,60,0,0
136653,-100,4,1,0,50,0,0
139239,-100,4,1,0,60,0,0
139352,-100,4,1,0,50,0,0
141966,-100,4,1,0,60,0,0
142080,-100,4,1,0,50,0,0
142278,-99.009900990099,4,1,0,61,0,0
142449,-98.5221674876847,4,1,0,61,0,0
142619,-98.0392156862745,4,1,0,62,0,0
142960,-97.0873786407767,4,1,0,63,0,0
143131,-96.6183574879227,4,1,0,63,0,0
143301,-96.1538461538461,4,1,0,64,0,0
143642,-95.2380952380952,4,1,0,65,0,0
143813,-94.7867298578199,4,1,0,65,0,0
143983,-94.3396226415094,4,1,0,66,0,0
144295,-93.6040362060412,4,1,0,66,0,0
144381,-93.4579439252336,4,1,0,67,0,0
144494,-93.0232558139535,4,1,0,67,0,0
144665,-92.5925925925926,4,1,0,68,0,0
145006,-91.743119266055,4,1,0,69,0,0
145176,-91.324200913242,4,1,0,69,0,0
145347,-90.9090909090909,4,1,0,70,0,0
145688,-90.0900900900901,4,1,0,71,0,0
145858,-89.6860986547085,4,1,0,71,0,0
146028,-89.2857142857143,4,1,0,72,0,0
146369,-88.4955752212389,4,1,0,73,0,0
146540,-88.1057268722467,4,1,0,73,0,0
146710,-87.719298245614,4,1,0,74,0,0
146966,-87.2090488109046,4,1,0,74,0,0
147051,-86.9565217391304,4,1,0,75,0,0
147222,-86.5800865800866,4,1,0,75,0,0
147392,-86.2068965517241,4,1,0,76,0,0
147733,-85.4700854700855,4,1,0,77,0,0
147903,-85.1063829787234,4,1,0,77,0,0
148074,-84.7457627118644,4,1,0,78,0,0
148415,-84.0336134453781,4,1,0,79,0,0
148585,-83.6820083682008,4,1,0,79,0,0
148756,-83.3333333333333,4,1,0,80,0,0
149097,-82.6446280991736,4,1,0,81,0,0
149267,-82.3045267489712,4,1,0,81,0,0
149438,-81.9672131147541,4,1,0,82,0,0
149778,-81.3008130081301,4,1,0,83,0,0
149949,-80.9716599190283,4,1,0,83,0,0
150119,-80.6451612903226,4,1,0,84,0,0
150460,-80,4,1,0,85,0,0
150631,-79.6812749003984,4,1,0,85,0,0
150801,-79.3650793650794,4,1,0,86,0,0
151142,-78.7401574803149,4,1,0,87,0,0
151313,-78.4313725490196,4,1,0,87,0,0
151483,-78.125,4,1,0,88,0,0
151824,-77.5193798449612,4,1,0,89,0,0
151994,-77.2200772200772,4,1,0,89,0,0
152165,-76.9230769230769,4,1,0,90,0,0
152847,-71.4285714285714,4,1,0,100,0,0
152932,-71.4285714285714,4,1,0,100,0,1
161114,-71.4285714285714,4,1,0,100,0,0
161369,-83.3333333333333,4,1,0,80,0,0
163457,-80.6451612903226,4,1,0,90,0,0
163543,-78.4313725490196,4,1,0,93,0,0
163628,-76.6283524904215,4,1,0,95,0,0
163713,-74.0740740740741,4,1,0,97,0,0
163798,-71.4285714285714,4,1,0,100,0,0
163841,-71.4285714285714,4,1,0,100,0,1
172023,-71.4285714285714,4,1,0,100,0,0
172236,-83.3333333333333,4,1,0,80,0,0
174366,-80.6451612903226,4,1,0,80,0,0
174452,-78.4313725490196,4,1,0,85,0,0
174537,-76.6283524904215,4,1,0,90,0,0
174622,-74.0740740740741,4,1,0,95,0,0
174707,-71.4285714285714,4,1,0,100,0,0
174750,-71.4285714285714,4,1,0,100,0,1
191071,-71.4285714285714,4,1,0,90,0,1
191369,-74.0740740740741,4,1,0,80,0,1
191710,-76.9230769230769,4,1,0,80,0,1
191881,-78.4313725490196,4,1,0,80,0,1
192051,-80,4,1,0,80,0,1
192222,-81.6326530612245,4,1,0,80,0,1
192392,-83.3333333333333,4,1,0,80,0,1
192520,-84.2105263157895,4,1,0,80,0,1
192605,-85.1063829787234,4,1,0,80,0,1
192733,-86.9565217391304,4,1,0,80,0,1
192903,-88.8888888888889,4,1,0,80,0,1
193074,-90.9090909090909,4,1,0,80,0,1
193223,-91.9540229885057,4,1,0,80,0,1
193266,-92.485549132948,4,1,0,80,0,1
193308,-93.0232558139535,4,1,0,80,0,1
193415,-95.2380952380952,4,1,0,80,0,1
193585,-97.5609756097561,4,1,0,80,0,1
193756,-100,4,1,0,60,0,1
193841,-100,4,1,0,60,0,0
194097,-95.2380952380952,4,1,0,65,0,0
194267,-93.0232558139535,4,1,0,67,0,0
194437,-90.9090909090909,4,1,0,70,0,0
194778,-86.9565217391304,4,1,0,75,0,0
194949,-85.1063829787234,4,1,0,77,0,0
195119,-83.3333333333333,4,1,0,80,0,0
195460,-80,4,1,0,85,0,0
195631,-78.4313725490196,4,1,0,87,0,0
195801,-76.9230769230769,4,1,0,90,0,0
196483,-71.4285714285714,4,1,0,100,0,0
196568,-71.4285714285714,4,1,0,100,0,1
204750,-71.4285714285714,4,1,0,100,0,0
205006,-83.3333333333333,4,1,0,80,0,0
207094,-80.6451612903226,4,1,0,90,0,0
207179,-79.0513833992095,4,1,0,93,0,0
207264,-76.6283524904215,4,1,0,95,0,0
207349,-74.0740740740741,4,1,0,98,0,0
207435,-71.4285714285714,4,1,0,100,0,0
207477,-71.4285714285714,4,1,0,100,0,1
215659,-71.4285714285714,4,1,0,100,0,0
215915,-83.3333333333333,4,1,0,80,0,0
217108,-83.3333333333333,4,1,0,70,0,0
218301,-100,4,1,0,60,0,0

[HitObjects]
256,192,11114,5,4,0:0:0:0:
256,192,11625,1,8,0:0:0:0:
256,192,12136,1,8,0:0:0:0:
256,192,12307,1,0,0:0:0:0:
256,192,12477,1,8,0:0:0:0:
256,192,12648,1,0,0:0:0:0:
256,192,12818,1,8,0:0:0:0:
256,192,12989,1,8,0:0:0:0:
256,192,13159,1,0,0:0:0:0:
256,192,13500,1,8,0:0:0:0:
256,192,13841,1,8,0:0:0:0:
256,192,14011,1,0,0:0:0:0:
256,192,14182,1,8,0:0:0:0:
256,192,14352,1,0,0:0:0:0:
256,192,14864,1,0,0:0:0:0:
256,192,15034,1,0,0:0:0:0:
256,192,15205,1,8,0:0:0:0:
256,192,15375,1,8,0:0:0:0:
256,192,15545,1,0,0:0:0:0:
256,192,15716,1,8,0:0:0:0:
256,192,15886,1,0,0:0:0:0:
256,192,16227,1,8,0:0:0:0:
256,192,16568,1,8,0:0:0:0:
256,192,16739,1,8,0:0:0:0:
256,192,16909,1,0,0:0:0:0:
256,192,17080,1,8,0:0:0:0:
256,192,17591,1,0,0:0:0:0:
256,192,17761,1,8,0:0:0:0:
256,192,17932,1,8,0:0:0:0:
256,192,18102,1,0,0:0:0:0:
256,192,18273,1,0,0:0:0:0:
256,192,18443,1,8,0:0:0:0:
256,192,18614,1,0,0:0:0:0:
256,192,18955,1,8,0:0:0:0:
256,192,19295,1,0,0:0:0:0:
256,192,19466,1,8,0:0:0:0:
256,192,19636,1,0,0:0:0:0:
256,192,19807,1,8,0:0:0:0:
256,192,20318,1,0,0:0:0:0:
256,192,20489,1,0,0:0:0:0:
256,192,20659,1,8,0:0:0:0:
256,192,20830,1,8,0:0:0:0:
256,192,21000,1,0,0:0:0:0:
256,192,21170,1,8,0:0:0:0:
256,192,21341,1,0,0:0:0:0:
256,192,21682,1,8,0:0:0:0:
256,192,22023,5,4,0:0:0:0:
256,192,22534,1,0,0:0:0:0:
256,192,22705,1,8,0:0:0:0:
256,192,22875,1,0,0:0:0:0:
256,192,23045,1,0,0:0:0:0:
256,192,23216,1,8,0:0:0:0:
256,192,23386,1,8,0:0:0:0:
256,192,23557,1,0,0:0:0:0:
256,192,23727,1,0,0:0:0:0:
256,192,23898,1,8,0:0:0:0:
256,192,24068,1,8,0:0:0:0:
256,192,24239,1,8,0:0:0:0:
256,192,24409,1,0,0:0:0:0:
256,192,24580,1,8,0:0:0:0:
256,192,24750,1,4,0:0:0:0:
256,192,25091,1,8,0:0:0:0:
256,192,25261,1,0,0:0:0:0:
256,192,25432,1,8,0:0:0:0:
256,192,25602,1,8,0:0:0:0:
256,192,25773,1,0,0:0:0:0:
256,192,25943,1,8,0:0:0:0:
256,192,26114,1,8,0:0:0:0:
256,192,26284,1,8,0:0:0:0:
256,192,26455,1,0,0:0:0:0:
256,192,26625,1,8,0:0:0:0:
256,192,26795,1,0,0:0:0:0:
256,192,26966,1,0,0:0:0:0:
256,192,27136,1,8,0:0:0:0:
256,192,27307,1,8,0:0:0:0:
256,192,27477,1,4,0:0:0:0:
256,192,27818,1,8,0:0:0:0:
256,192,27989,1,0,0:0:0:0:
256,192,28159,1,8,0:0:0:0:
256,192,28330,1,0,0:0:0:0:
256,192,28500,1,0,0:0:0:0:
256,192,28670,1,8,0:0:0:0:
256,192,28841,1,8,0:0:0:0:
256,192,29011,1,0,0:0:0:0:
256,192,29182,1,8,0:0:0:0:
256,192,29352,1,8,0:0:0:0:
256,192,29523,1,8,0:0:0:0:
256,192,29693,1,0,0:0:0:0:
256,192,29864,1,0,0:0:0:0:
256,192,30034,1,8,0:0:0:0:
256,192,30205,1,4,0:0:0:0:
256,192,30545,1,0,0:0:0:0:
256,192,30716,1,8,0:0:0:0:
256,192,30886,1,8,0:0:0:0:
256,192,31057,1,0,0:0:0:0:
256,192,31227,1,0,0:0:0:0:
256,192,31398,1,8,0:0:0:0:
256,192,31568,1,0,0:0:0:0:
256,192,31739,1,8,0:0:0:0:
256,192,31909,1,8,0:0:0:0:
256,192,32080,1,0,0:0:0:0:
256,192,32250,1,8,0:0:0:0:
256,192,32932,1,4,0:0:0:0:
256,192,33273,1,8,0:0:0:0:
256,192,33443,1,8,0:0:0:0:
256,192,33614,1,0,0:0:0:0:
256,192,33955,1,8,0:0:0:0:
256,192,34125,1,8,0:0:0:0:
256,192,34295,1,0,0:0:0:0:
256,192,34636,1,8,0:0:0:0:
256,192,34807,1,8,0:0:0:0:
256,192,34977,1,0,0:0:0:0:
256,192,35318,1,8,0:0:0:0:
256,192,35489,1,8,0:0:0:0:
256,192,35659,1,0,0:0:0:0:
256,192,36000,1,8,0:0:0:0:
256,192,36170,1,8,0:0:0:0:
256,192,36341,1,0,0:0:0:0:
256,192,36682,1,8,0:0:0:0:
256,192,36852,1,8,0:0:0:0:
256,192,37023,1,0,0:0:0:0:
256,192,37364,1,8,0:0:0:0:
256,192,37534,1,8,0:0:0:0:
256,192,37705,1,0,0:0:0:0:
256,192,37932,1,8,0:0:0:0:
256,192,38045,1,8,0:0:0:0:
256,192,38216,1,8,0:0:0:0:
256,192,38386,1,0,0:0:0:0:
256,192,38727,1,0,0:0:0:0:
256,192,38898,1,8,0:0:0:0:
256,192,39068,1,0,0:0:0:0:
256,192,39409,1,0,0:0:0:0:
256,192,39580,1,8,0:0:0:0:
256,192,39750,1,0,0:0:0:0:
256,192,40091,1,0,0:0:0:0:
256,192,40261,1,8,0:0:0:0:
256,192,40432,1,0,0:0:0:0:
256,192,40773,1,0,0:0:0:0:
256,192,40943,1,8,0:0:0:0:
256,192,41114,1,0,0:0:0:0:
256,192,41455,1,0,0:0:0:0:
256,192,41625,1,8,0:0:0:0:
256,192,41795,1,0,0:0:0:0:
256,192,42136,1,0,0:0:0:0:
256,192,42307,1,8,0:0:0:0:
256,192,42477,1,0,0:0:0:0:
256,192,42818,1,0,0:0:0:0:
256,192,42989,1,8,0:0:0:0:
256,192,43159,1,0,0:0:0:0:
256,192,43841,5,4,0:0:0:0:
256,192,44011,1,0,0:0:0:0:
256,192,44182,1,8,0:0:0:0:
256,192,44267,1,8,0:0:0:0:
256,192,44352,1,0,0:0:0:0:
256,192,44523,1,0,0:0:0:0:
256,192,44693,1,0,0:0:0:0:
256,192,44864,1,8,0:0:0:0:
256,192,44949,1,8,0:0:0:0:
256,192,45034,1,0,0:0:0:0:
256,192,45205,1,0,0:0:0:0:
256,192,45375,1,0,0:0:0:0:
256,192,45545,1,8,0:0:0:0:
256,192,45716,1,0,0:0:0:0:
256,192,45886,1,0,0:0:0:0:
256,192,45972,1,8,0:0:0:0:
256,192,46057,1,0,0:0:0:0:
256,192,46142,1,0,0:0:0:0:
256,192,46227,1,8,0:0:0:0:
256,192,46312,1,0,0:0:0:0:
256,192,46398,1,8,0:0:0:0:
256,192,46483,1,8,0:0:0:0:
256,192,46568,1,0,0:0:0:0:
256,192,46909,1,8,0:0:0:0:
256,192,46994,1,8,0:0:0:0:
256,192,47080,1,0,0:0:0:0:
256,192,47165,1,0,0:0:0:0:
256,192,47250,1,8,0:0:0:0:
256,192,47420,1,0,0:0:0:0:
256,192,47506,1,8,0:0:0:0:
256,192,47591,1,8,0:0:0:0:
256,192,47761,1,8,0:0:0:0:
256,192,47847,1,0,0:0:0:0:
256,192,47932,1,8,0:0:0:0:
256,192,48102,1,0,0:0:0:0:
256,192,48187,1,8,0:0:0:0:
256,192,48230,1,8,0:0:0:0:
256,192,48273,1,8,0:0:0:0:
256,192,48443,1,0,0:0:0:0:
256,192,48614,1,8,0:0:0:0:
256,192,48699,1,0,0:0:0:0:
256,192,48784,1,0,0:0:0:0:
256,192,48869,1,0,0:0:0:0:
256,192,48955,1,8,0:0:0:0:
256,192,49040,1,0,0:0:0:0:
256,192,49125,1,8,0:0:0:0:
256,192,49210,1,8,0:0:0:0:
256,192,49295,1,0,0:0:0:0:
256,192,49466,1,0,0:0:0:0:
256,192,49636,1,8,0:0:0:0:
256,192,49722,1,8,0:0:0:0:
256,192,49807,1,0,0:0:0:0:
256,192,49977,1,0,0:0:0:0:
256,192,50148,1,0,0:0:0:0:
256,192,50318,1,8,0:0:0:0:
256,192,50403,1,8,0:0:0:0:
256,192,50489,1,0,0:0:0:0:
256,192,50659,1,0,0:0:0:0:
256,192,50830,1,0,0:0:0:0:
256,192,51000,1,0,0:0:0:0:
256,192,51085,1,8,0:0:0:0:
256,192,51170,1,0,0:0:0:0:
256,192,51341,1,0,0:0:0:0:
256,192,51426,1,8,0:0:0:0:
256,192,51511,1,0,0:0:0:0:
256,192,51682,1,8,0:0:0:0:
256,192,51767,1,0,0:0:0:0:
256,192,51852,1,8,0:0:0:0:
256,192,51937,1,8,0:0:0:0:
256,192,52023,1,0,0:0:0:0:
256,192,52364,1,8,0:0:0:0:
256,192,52491,1,0,0:0:0:0:
256,192,52619,1,8,0:0:0:0:
256,192,52747,1,0,0:0:0:0:
256,192,52875,1,8,0:0:0:0:
256,192,53003,1,0,0:0:0:0:
256,192,53131,1,8,0:0:0:0:
256,192,53258,1,0,0:0:0:0:
256,192,53386,1,8,0:0:0:0:
256,192,53514,1,0,0:0:0:0:
256,192,53727,1,8,0:0:0:0:
256,192,53898,1,0,0:0:0:0:
256,192,54068,1,0,0:0:0:0:
256,192,54153,1,0,0:0:0:0:
256,192,54239,1,0,0:0:0:0:
256,192,54324,1,0,0:0:0:0:
256,192,54409,1,8,0:0:0:0:
256,192,54494,1,8,0:0:0:0:
256,192,54580,1,8,0:0:0:0:
256,192,54665,1,8,0:0:0:0:
256,192,54750,5,4,0:0:0:0:
256,192,54920,1,0,0:0:0:0:
256,192,55091,1,8,0:0:0:0:
256,192,55176,1,8,0:0:0:0:
256,192,55261,1,0,0:0:0:0:
256,192,55432,1,0,0:0:0:0:
256,192,55602,1,0,0:0:0:0:
256,192,55773,1,8,0:0:0:0:
256,192,55858,1,8,0:0:0:0:
256,192,55943,1,0,0:0:0:0:
256,192,56114,1,0,0:0:0:0:
256,192,56284,1,0,0:0:0:0:
256,192,56455,1,8,0:0:0:0:
256,192,56625,1,0,0:0:0:0:
256,192,56795,1,0,0:0:0:0:
256,192,56881,1,8,0:0:0:0:
256,192,56966,1,0,0:0:0:0:
256,192,57051,1,0,0:0:0:0:
256,192,57136,1,8,0:0:0:0:
256,192,57222,1,0,0:0:0:0:
256,192,57307,1,8,0:0:0:0:
256,192,57392,1,8,0:0:0:0:
256,192,57477,1,0,0:0:0:0:
256,192,57818,1,8,0:0:0:0:
256,192,57903,1,8,0:0:0:0:
256,192,57989,1,0,0:0:0:0:
256,192,58074,1,0,0:0:0:0:
256,192,58159,1,8,0:0:0:0:
256,192,58330,1,0,0:0:0:0:
256,192,58415,1,8,0:0:0:0:
256,192,58500,1,8,0:0:0:0:
256,192,58670,1,8,0:0:0:0:
256,192,58756,1,0,0:0:0:0:
256,192,58841,1,8,0:0:0:0:
256,192,59011,1,0,0:0:0:0:
256,192,59097,1,8,0:0:0:0:
256,192,59139,1,8,0:0:0:0:
256,192,59182,1,8,0:0:0:0:
256,192,59352,1,0,0:0:0:0:
256,192,59523,1,8,0:0:0:0:
256,192,59608,1,0,0:0:0:0:
256,192,59693,1,0,0:0:0:0:
256,192,59778,1,0,0:0:0:0:
256,192,59864,1,8,0:0:0:0:
256,192,59949,1,0,0:0:0:0:
256,192,60034,1,8,0:0:0:0:
256,192,60119,1,8,0:0:0:0:
256,192,60205,1,0,0:0:0:0:
256,192,60375,1,0,0:0:0:0:
256,192,60545,1,8,0:0:0:0:
256,192,60631,1,8,0:0:0:0:
256,192,60716,1,0,0:0:0:0:
256,192,60886,1,0,0:0:0:0:
256,192,61057,1,0,0:0:0:0:
256,192,61227,1,8,0:0:0:0:
256,192,61312,1,8,0:0:0:0:
256,192,61398,1,0,0:0:0:0:
256,192,61568,1,0,0:0:0:0:
256,192,61739,1,0,0:0:0:0:
256,192,61909,1,0,0:0:0:0:
256,192,61994,1,8,0:0:0:0:
256,192,62080,1,0,0:0:0:0:
256,192,62250,1,0,0:0:0:0:
256,192,62335,1,8,0:0:0:0:
256,192,62420,1,0,0:0:0:0:
256,192,62591,1,8,0:0:0:0:
256,192,62676,1,0,0:0:0:0:
256,192,62761,1,8,0:0:0:0:
256,192,62847,1,8,0:0:0:0:
256,192,62932,1,0,0:0:0:0:
256,192,63273,1,8,0:0:0:0:
256,192,63401,1,0,0:0:0:0:
256,192,63528,1,8,0:0:0:0:
256,192,63656,1,0,0:0:0:0:
256,192,63784,1,8,0:0:0:0:
256,192,63912,1,0,0:0:0:0:
256,192,64040,1,8,0:0:0:0:
256,192,64168,1,0,0:0:0:0:
256,192,64295,1,8,0:0:0:0:
256,192,64359,1,8,0:0:0:0:
256,192,64423,1,0,0:0:0:0:
256,192,64636,1,8,0:0:0:0:
256,192,64977,1,0,0:0:0:0:
256,192,65119,1,8,0:0:0:0:
256,192,65261,1,8,0:0:0:0:
256,192,65403,1,8,0:0:0:0:
256,192,65659,5,0,0:0:0:0:
256,192,65830,1,0,0:0:0:0:
256,192,65943,1,8,0:0:0:0:
256,192,66000,1,8,0:0:0:0:
256,192,66170,1,8,0:0:0:0:
256,192,66341,1,8,0:0:0:0:
256,192,66511,1,0,0:0:0:0:
256,192,66682,1,8,0:0:0:0:
256,192,66852,1,8,0:0:0:0:
256,192,66937,1,8,0:0:0:0:
256,192,67023,1,0,0:0:0:0:
256,192,67108,1,8,0:0:0:0:
256,192,67193,1,0,0:0:0:0:
256,192,67364,1,8,0:0:0:0:
256,192,67534,1,8,0:0:0:0:
256,192,67619,1,0,0:0:0:0:
256,192,67705,1,0,0:0:0:0:
256,192,67790,1,8,0:0:0:0:
256,192,67875,1,0,0:0:0:0:
256,192,68045,1,8,0:0:0:0:
256,192,68216,1,0,0:0:0:0:
256,192,68386,1,0,0:0:0:0:
256,192,68557,1,8,0:0:0:0:
256,192,68670,1,8,0:0:0:0:
256,192,68727,1,8,0:0:0:0:
256,192,68898,1,8,0:0:0:0:
256,192,69068,1,8,0:0:0:0:
256,192,69239,1,0,0:0:0:0:
256,192,69409,1,8,0:0:0:0:
256,192,69580,1,0,0:0:0:0:
256,192,69665,1,8,0:0:0:0:
256,192,69750,1,8,0:0:0:0:
256,192,69835,1,0,0:0:0:0:
256,192,69920,1,0,0:0:0:0:
256,192,70091,1,8,0:0:0:0:
256,192,70261,1,0,0:0:0:0:
256,192,70347,1,8,0:0:0:0:
256,192,70432,1,8,0:0:0:0:
256,192,70517,1,8,0:0:0:0:
256,192,70602,1,0,0:0:0:0:
256,192,70773,1,8,0:0:0:0:
256,192,70943,1,0,0:0:0:0:
256,192,71114,1,0,0:0:0:0:
256,192,71284,1,8,0:0:0:0:
256,192,71398,1,8,0:0:0:0:
256,192,71455,1,8,0:0:0:0:
256,192,71625,1,8,0:0:0:0:
256,192,71795,1,8,0:0:0:0:
256,192,71966,1,0,0:0:0:0:
256,192,72136,1,8,0:0:0:0:
256,192,72307,1,8,0:0:0:0:
256,192,72392,1,8,0:0:0:0:
256,192,72477,1,0,0:0:0:0:
256,192,72562,1,0,0:0:0:0:
256,192,72648,1,0,0:0:0:0:
256,192,72818,1,8,0:0:0:0:
256,192,72989,1,0,0:0:0:0:
256,192,73074,1,8,0:0:0:0:
256,192,73159,1,8,0:0:0:0:
256,192,73244,1,8,0:0:0:0:
256,192,73330,1,0,0:0:0:0:
256,192,73500,1,8,0:0:0:0:
256,192,73670,1,8,0:0:0:0:
256,192,73841,1,0,0:0:0:0:
256,192,73926,1,8,0:0:0:0:
256,192,74011,1,0,0:0:0:0:
256,192,74182,1,8,0:0:0:0:
256,192,74352,1,8,0:0:0:0:
256,192,74437,1,8,0:0:0:0:
256,192,74523,1,8,0:0:0:0:
256,192,74608,1,0,0:0:0:0:
256,192,74693,1,0,0:0:0:0:
256,192,74864,1,8,0:0:0:0:
256,192,75034,1,0,0:0:0:0:
256,192,75205,1,0,0:0:0:0:
256,192,75375,1,0,0:0:0:0:
256,192,75460,1,0,0:0:0:0:
256,192,75545,1,8,0:0:0:0:
256,192,75631,1,0,0:0:0:0:
256,192,75716,1,8,0:0:0:0:
256,192,75801,1,8,0:0:0:0:
256,192,75886,1,0,0:0:0:0:
256,192,75972,1,0,0:0:0:0:
256,192,76057,1,8,0:0:0:0:
256,192,76227,1,8,0:0:0:0:
256,192,76312,1,8,0:0:0:0:
256,192,76398,1,0,0:0:0:0:
256,192,76483,1,8,0:0:0:0:
256,192,76568,1,0,0:0:0:0:
256,192,76739,1,0,0:0:0:0:
256,192,76852,1,8,0:0:0:0:
256,192,76909,1,8,0:0:0:0:
256,192,77080,1,8,0:0:0:0:
256,192,77250,1,8,0:0:0:0:
256,192,77420,1,0,0:0:0:0:
256,192,77591,1,8,0:0:0:0:
256,192,77761,1,8,0:0:0:0:
256,192,77847,1,8,0:0:0:0:
256,192,77932,1,0,0:0:0:0:
256,192,78017,1,8,0:0:0:0:
256,192,78102,1,0,0:0:0:0:
256,192,78273,1,8,0:0:0:0:
256,192,78443,1,8,0:0:0:0:
256,192,78528,1,0,0:0:0:0:
256,192,78614,1,0,0:0:0:0:
256,192,78699,1,8,0:0:0:0:
256,192,78784,1,0,0:0:0:0:
256,192,78955,1,8,0:0:0:0:
256,192,79125,1,0,0:0:0:0:
256,192,79295,1,0,0:0:0:0:
256,192,79466,1,8,0:0:0:0:
256,192,79580,1,8,0:0:0:0:
256,192,79636,1,8,0:0:0:0:
256,192,79807,1,8,0:0:0:0:
256,192,79977,1,8,0:0:0:0:
256,192,80148,1,0,0:0:0:0:
256,192,80318,1,8,0:0:0:0:
256,192,80489,1,0,0:0:0:0:
256,192,80574,1,8,0:0:0:0:
256,192,80659,1,8,0:0:0:0:
256,192,80744,1,0,0:0:0:0:
256,192,80830,1,0,0:0:0:0:
256,192,81000,1,8,0:0:0:0:
256,192,81170,1,0,0:0:0:0:
256,192,81256,1,8,0:0:0:0:
256,192,81341,1,8,0:0:0:0:
256,192,81426,1,8,0:0:0:0:
256,192,81511,1,0,0:0:0:0:
256,192,81682,1,8,0:0:0:0:
256,192,81852,1,0,0:0:0:0:
256,192,82023,1,0,0:0:0:0:
256,192,82193,1,0,0:0:0:0:
256,192,82307,1,8,0:0:0:0:
256,192,82364,1,8,0:0:0:0:
256,192,82534,1,8,0:0:0:0:
256,192,82705,1,0,0:0:0:0:
256,192,82875,1,0,0:0:0:0:
256,192,83045,1,8,0:0:0:0:
256,192,83216,1,8,0:0:0:0:
256,192,83386,1,0,0:0:0:0:
256,192,83472,1,8,0:0:0:0:
256,192,83557,1,0,0:0:0:0:
256,192,83727,1,8,0:0:0:0:
256,192,83898,1,8,0:0:0:0:
256,192,84068,1,0,0:0:0:0:
256,192,84153,1,8,0:0:0:0:
256,192,84196,1,0,0:0:0:0:
256,192,84239,1,0,0:0:0:0:
256,192,84409,1,8,0:0:0:0:
256,192,84580,1,0,0:0:0:0:
256,192,84750,1,0,0:0:0:0:
256,192,85091,1,0,0:0:0:0:
256,192,85261,1,8,0:0:0:0:
256,192,85432,1,0,0:0:0:0:
256,192,85773,1,0,0:0:0:0:
256,192,85943,1,8,0:0:0:0:
256,192,86114,1,0,0:0:0:0:
256,192,86455,1,0,0:0:0:0:
256,192,86625,1,8,0:0:0:0:
256,192,86795,1,0,0:0:0:0:
256,192,87477,5,4,0:0:0:0:
256,192,87648,1,0,0:0:0:0:
256,192,87818,1,8,0:0:0:0:
256,192,87903,1,8,0:0:0:0:
256,192,87989,1,0,0:0:0:0:
256,192,88159,1,0,0:0:0:0:
256,192,88330,1,0,0:0:0:0:
256,192,88500,1,8,0:0:0:0:
256,192,88585,1,8,0:0:0:0:
256,192,88670,1,0,0:0:0:0:
256,192,88841,1,0,0:0:0:0:
256,192,89011,1,0,0:0:0:0:
256,192,89182,1,8,0:0:0:0:
256,192,89352,1,0,0:0:0:0:
256,192,89523,1,0,0:0:0:0:
256,192,89608,1,8,0:0:0:0:
256,192,89693,1,0,0:0:0:0:
256,192,89778,1,8,0:0:0:0:
256,192,89864,1,8,0:0:0:0:
256,192,89949,1,0,0:0:0:0:
256,192,90034,1,8,0:0:0:0:
256,192,90119,1,8,0:0:0:0:
256,192,90205,1,0,0:0:0:0:
256,192,90545,1,8,0:0:0:0:
256,192,90631,1,0,0:0:0:0:
256,192,90716,1,0,0:0:0:0:
256,192,90801,1,8,0:0:0:0:
256,192,90886,1,8,0:0:0:0:
256,192,91057,1,8,0:0:0:0:
256,192,91142,1,0,0:0:0:0:
256,192,91227,1,8,0:0:0:0:
256,192,91398,1,0,0:0:0:0:
256,192,91483,1,0,0:0:0:0:
256,192,91568,1,8,0:0:0:0:
256,192,91739,1,0,0:0:0:0:
256,192,91824,1,8,0:0:0:0:
256,192,91866,1,8,0:0:0:0:
256,192,91909,1,8,0:0:0:0:
256,192,92080,1,0,0:0:0:0:
256,192,92250,1,8,0:0:0:0:
256,192,92335,1,8,0:0:0:0:
256,192,92420,1,0,0:0:0:0:
256,192,92506,1,0,0:0:0:0:
256,192,92591,1,8,0:0:0:0:
256,192,92676,1,0,0:0:0:0:
256,192,92761,1,8,0:0:0:0:
256,192,92847,1,8,0:0:0:0:
256,192,92932,1,0,0:0:0:0:
256,192,93102,1,0,0:0:0:0:
256,192,93273,1,8,0:0:0:0:
256,192,93358,1,8,0:0:0:0:
256,192,93443,1,0,0:0:0:0:
256,192,93614,1,0,0:0:0:0:
256,192,93784,1,0,0:0:0:0:
256,192,93955,1,8,0:0:0:0:
256,192,94040,1,8,0:0:0:0:
256,192,94125,1,0,0:0:0:0:
256,192,94295,1,0,0:0:0:0:
256,192,94466,1,0,0:0:0:0:
256,192,94636,1,0,0:0:0:0:
256,192,94722,1,8,0:0:0:0:
256,192,94807,1,0,0:0:0:0:
256,192,94977,1,0,0:0:0:0:
256,192,95062,1,8,0:0:0:0:
256,192,95148,1,0,0:0:0:0:
256,192,95318,1,8,0:0:0:0:
256,192,95403,1,0,0:0:0:0:
256,192,95489,1,0,0:0:0:0:
256,192,95574,1,8,0:0:0:0:
256,192,95659,1,0,0:0:0:0:
256,192,96000,5,8,0:0:0:0:
256,192,96128,1,0,0:0:0:0:
256,192,96256,1,8,0:0:0:0:
256,192,96383,1,0,0:0:0:0:
256,192,96511,1,8,0:0:0:0:
256,192,96639,1,0,0:0:0:0:
256,192,96767,1,8,0:0:0:0:
256,192,96895,1,0,0:0:0:0:
256,192,97023,1,8,0:0:0:0:
256,192,97151,1,0,0:0:0:0:
256,192,97364,1,8,0:0:0:0:
256,192,97534,1,0,0:0:0:0:
256,192,97705,1,0,0:0:0:0:
256,192,97790,1,0,0:0:0:0:
256,192,97875,1,0,0:0:0:0:
256,192,97960,1,0,0:0:0:0:
256,192,98045,1,8,0:0:0:0:
256,192,98131,1,8,0:0:0:0:
256,192,98216,1,8,0:0:0:0:
256,192,98301,1,8,0:0:0:0:
256,192,98386,5,4,0:0:0:0:
256,192,98557,1,0,0:0:0:0:
256,192,98727,1,8,0:0:0:0:
256,192,98812,1,8,0:0:0:0:
256,192,98898,1,0,0:0:0:0:
256,192,99068,1,0,0:0:0:0:
256,192,99239,1,0,0:0:0:0:
256,192,99409,1,8,0:0:0:0:
256,192,99494,1,8,0:0:0:0:
256,192,99580,1,0,0:0:0:0:
256,192,99750,1,0,0:0:0:0:
256,192,99920,1,0,0:0:0:0:
256,192,100091,1,8,0:0:0:0:
256,192,100261,1,0,0:0:0:0:
256,192,100432,1,0,0:0:0:0:
256,192,100517,1,8,0:0:0:0:
256,192,100602,1,0,0:0:0:0:
256,192,100687,1,8,0:0:0:0:
256,192,100773,1,8,0:0:0:0:
256,192,100858,1,0,0:0:0:0:
256,192,100943,1,8,0:0:0:0:
256,192,101028,1,8,0:0:0:0:
256,192,101114,1,0,0:0:0:0:
256,192,101455,1,8,0:0:0:0:
256,192,101540,1,0,0:0:0:0:
256,192,101625,1,0,0:0:0:0:
256,192,101710,1,8,0:0:0:0:
256,192,101795,1,8,0:0:0:0:
256,192,101966,1,8,0:0:0:0:
256,192,102051,1,0,0:0:0:0:
256,192,102136,1,8,0:0:0:0:
256,192,102307,1,0,0:0:0:0:
256,192,102392,1,0,0:0:0:0:
256,192,102477,1,8,0:0:0:0:
256,192,102648,1,0,0:0:0:0:
256,192,102733,1,8,0:0:0:0:
256,192,102776,1,8,0:0:0:0:
256,192,102818,1,8,0:0:0:0:
256,192,102989,1,0,0:0:0:0:
256,192,103159,1,8,0:0:0:0:
256,192,103244,1,8,0:0:0:0:
256,192,103330,1,0,0:0:0:0:
256,192,103415,1,0,0:0:0:0:
256,192,103500,1,8,0:0:0:0:
256,192,103585,1,0,0:0:0:0:
256,192,103670,1,8,0:0:0:0:
256,192,103756,1,8,0:0:0:0:
256,192,103841,1,0,0:0:0:0:
256,192,104011,1,0,0:0:0:0:
256,192,104182,1,8,0:0:0:0:
256,192,104267,1,8,0:0:0:0:
256,192,104352,1,0,0:0:0:0:
256,192,104523,1,0,0:0:0:0:
256,192,104693,1,0,0:0:0:0:
256,192,104864,1,8,0:0:0:0:
256,192,104949,1,8,0:0:0:0:
256,192,105034,1,0,0:0:0:0:
256,192,105205,1,0,0:0:0:0:
256,192,105375,1,0,0:0:0:0:
256,192,105545,1,0,0:0:0:0:
256,192,105631,1,8,0:0:0:0:
256,192,105716,1,0,0:0:0:0:
256,192,105886,1,0,0:0:0:0:
256,192,105972,1,8,0:0:0:0:
256,192,106057,1,0,0:0:0:0:
256,192,106227,1,8,0:0:0:0:
256,192,106312,1,0,0:0:0:0:
256,192,106398,1,0,0:0:0:0:
256,192,106483,1,8,0:0:0:0:
256,192,106568,1,0,0:0:0:0:
256,192,106909,1,8,0:0:0:0:
256,192,107037,1,0,0:0:0:0:
256,192,107165,1,8,0:0:0:0:
256,192,107293,1,0,0:0:0:0:
256,192,107420,1,8,0:0:0:0:
256,192,107548,1,0,0:0:0:0:
256,192,107676,1,8,0:0:0:0:
256,192,107804,1,0,0:0:0:0:
256,192,107932,1,8,0:0:0:0:
256,192,108102,12,0,109125,0:0:0:0:
256,192,109295,5,4,0:0:0:0:
256,192,109636,12,0,113045,0:0:0:0:
256,192,113386,12,0,117136,0:0:0:0:
256,192,117477,12,0,120034,0:0:0:0:
256,192,120205,5,12,0:0:0:0:
256,192,120545,1,0,0:0:0:0:
256,192,120886,1,0,0:0:0:0:
256,192,121057,1,8,0:0:0:0:
256,192,121227,1,0,0:0:0:0:
256,192,121398,1,8,0:0:0:0:
256,192,121568,1,0,0:0:0:0:
256,192,121739,1,0,0:0:0:0:
256,192,121909,1,8,0:0:0:0:
256,192,122080,1,8,0:0:0:0:
256,192,122250,1,0,0:0:0:0:
256,192,122420,1,8,0:0:0:0:
256,192,122591,1,0,0:0:0:0:
256,192,122761,1,8,0:0:0:0:
256,192,122932,1,0,0:0:0:0:
256,192,123273,1,8,0:0:0:0:
256,192,123443,1,8,0:0:0:0:
256,192,123614,1,0,0:0:0:0:
256,192,123784,1,8,0:0:0:0:
256,192,123955,1,0,0:0:0:0:
256,192,124125,1,0,0:0:0:0:
256,192,124295,1,8,0:0:0:0:
256,192,124466,1,0,0:0:0:0:
256,192,124636,1,8,0:0:0:0:
256,192,124807,1,8,0:0:0:0:
256,192,124977,1,0,0:0:0:0:
256,192,125148,1,8,0:0:0:0:
256,192,125318,1,8,0:0:0:0:
256,192,125489,1,0,0:0:0:0:
256,192,125659,1,8,0:0:0:0:
256,192,126000,1,8,0:0:0:0:
256,192,126170,1,0,0:0:0:0:
256,192,126341,1,0,0:0:0:0:
256,192,126511,1,8,0:0:0:0:
256,192,126682,1,8,0:0:0:0:
256,192,126852,1,0,0:0:0:0:
256,192,127023,1,8,0:0:0:0:
256,192,127193,1,0,0:0:0:0:
256,192,127364,1,8,0:0:0:0:
256,192,127534,1,8,0:0:0:0:
256,192,127705,1,0,0:0:0:0:
256,192,127875,1,8,0:0:0:0:
256,192,128045,1,0,0:0:0:0:
256,192,128216,1,0,0:0:0:0:
256,192,128386,1,8,0:0:0:0:
256,192,128727,1,8,0:0:0:0:
256,192,128898,1,0,0:0:0:0:
256,192,129068,1,0,0:0:0:0:
256,192,129239,1,8,0:0:0:0:
256,192,129409,1,8,0:0:0:0:
256,192,129580,1,0,0:0:0:0:
256,192,129750,1,0,0:0:0:0:
256,192,129920,1,0,0:0:0:0:
256,192,130091,1,8,0:0:0:0:
256,192,130261,1,8,0:0:0:0:
256,192,130432,1,0,0:0:0:0:
256,192,130602,1,0,0:0:0:0:
256,192,130773,1,8,0:0:0:0:
256,192,130886,1,8,0:0:0:0:
256,192,131000,1,8,0:0:0:0:
256,192,131114,5,4,0:0:0:0:
256,192,131455,1,0,0:0:0:0:
256,192,131625,1,0,0:0:0:0:
256,192,131795,1,8,0:0:0:0:
256,192,131966,1,0,0:0:0:0:
256,192,132136,1,0,0:0:0:0:
256,192,132307,1,8,0:0:0:0:
256,192,132477,1,8,0:0:0:0:
256,192,132648,1,0,0:0:0:0:
256,192,132818,1,0,0:0:0:0:
256,192,132989,1,8,0:0:0:0:
256,192,133159,1,8,0:0:0:0:
256,192,133330,1,8,0:0:0:0:
256,192,133500,1,0,0:0:0:0:
256,192,133670,1,8,0:0:0:0:
256,192,133841,1,4,0:0:0:0:
256,192,134182,1,8,0:0:0:0:
256,192,134352,1,0,0:0:0:0:
256,192,134523,1,8,0:0:0:0:
256,192,134693,1,8,0:0:0:0:
256,192,134864,1,0,0:0:0:0:
256,192,135034,1,8,0:0:0:0:
256,192,135205,1,8,0:0:0:0:
256,192,135375,1,8,0:0:0:0:
256,192,135546,1,0,0:0:0:0:
256,192,135716,1,8,0:0:0:0:
256,192,135886,1,0,0:0:0:0:
256,192,136057,1,0,0:0:0:0:
256,192,136227,1,8,0:0:0:0:
256,192,136398,1,8,0:0:0:0:
256,192,136568,1,4,0:0:0:0:
256,192,136909,1,8,0:0:0:0:
256,192,137080,1,0,0:0:0:0:
256,192,137250,1,8,0:0:0:0:
256,192,137421,1,0,0:0:0:0:
256,192,137591,1,0,0:0:0:0:
256,192,137761,1,8,0:0:0:0:
256,192,137932,1,8,0:0:0:0:
256,192,138102,1,0,0:0:0:0:
256,192,138273,1,8,0:0:0:0:
256,192,138443,1,0,0:0:0:0:
256,192,138528,1,0,0:0:0:0:
256,192,138614,1,8,0:0:0:0:
256,192,138784,1,0,0:0:0:0:
256,192,138955,1,8,0:0:0:0:
256,192,139068,1,8,0:0:0:0:
256,192,139182,1,8,0:0:0:0:
256,192,139296,1,4,0:0:0:0:
256,192,139636,1,8,0:0:0:0:
256,192,139807,1,0,0:0:0:0:
256,192,139977,1,8,0:0:0:0:
256,192,140148,1,0,0:0:0:0:
256,192,140318,1,8,0:0:0:0:
256,192,140489,1,0,0:0:0:0:
256,192,140574,1,8,0:0:0:0:
256,192,140659,1,8,0:0:0:0:
256,192,141000,1,8,0:0:0:0:
256,192,141171,1,0,0:0:0:0:
256,192,141341,1,8,0:0:0:0:
256,192,141511,1,0,0:0:0:0:
256,192,141682,1,8,0:0:0:0:
256,192,141795,1,8,0:0:0:0:
256,192,141909,1,8,0:0:0:0:
256,192,142023,1,4,0:0:0:0:
256,192,142364,1,8,0:0:0:0:
256,192,142534,1,8,0:0:0:0:
256,192,142705,1,0,0:0:0:0:
256,192,143045,1,8,0:0:0:0:
256,192,143216,1,8,0:0:0:0:
256,192,143386,1,0,0:0:0:0:
256,192,143727,1,8,0:0:0:0:
256,192,143898,1,8,0:0:0:0:
256,192,144068,1,0,0:0:0:0:
256,192,144366,1,8,0:0:0:0:
256,192,144409,1,8,0:0:0:0:
256,192,144580,1,8,0:0:0:0:
256,192,144750,1,0,0:0:0:0:
256,192,145091,1,8,0:0:0:0:
256,192,145261,1,8,0:0:0:0:
256,192,145432,1,0,0:0:0:0:
256,192,145773,1,8,0:0:0:0:
256,192,145943,1,8,0:0:0:0:
256,192,146114,1,0,0:0:0:0:
256,192,146455,1,8,0:0:0:0:
256,192,146625,1,8,0:0:0:0:
256,192,146795,1,0,0:0:0:0:
256,192,147023,1,8,0:0:0:0:
256,192,147136,1,8,0:0:0:0:
256,192,147307,1,8,0:0:0:0:
256,192,147477,1,0,0:0:0:0:
256,192,147818,1,0,0:0:0:0:
256,192,147989,1,8,0:0:0:0:
256,192,148159,1,0,0:0:0:0:
256,192,148500,1,0,0:0:0:0:
256,192,148670,1,8,0:0:0:0:
256,192,148841,1,0,0:0:0:0:
256,192,149182,1,0,0:0:0:0:
256,192,149352,1,8,0:0:0:0:
256,192,149523,1,0,0:0:0:0:
256,192,149864,1,0,0:0:0:0:
256,192,150034,1,8,0:0:0:0:
256,192,150205,1,0,0:0:0:0:
256,192,150545,1,0,0:0:0:0:
256,192,150716,1,8,0:0:0:0:
256,192,150886,1,0,0:0:0:0:
256,192,151227,1,0,0:0:0:0:
256,192,151398,1,8,0:0:0:0:
256,192,151568,1,0,0:0:0:0:
256,192,151909,1,0,0:0:0:0:
256,192,152080,1,8,0:0:0:0:
256,192,152250,1,0,0:0:0:0:
256,192,152932,5,4,0:0:0:0:
256,192,153102,1,0,0:0:0:0:
256,192,153273,1,8,0:0:0:0:
256,192,153358,1,0,0:0:0:0:
256,192,153443,1,8,0:0:0:0:
256,192,153614,1,8,0:0:0:0:
256,192,153784,1,0,0:0:0:0:
256,192,153955,1,8,0:0:0:0:
256,192,154040,1,0,0:0:0:0:
256,192,154125,1,8,0:0:0:0:
256,192,154295,1,0,0:0:0:0:
256,192,154466,1,8,0:0:0:0:
256,192,154636,1,8,0:0:0:0:
256,192,154807,1,0,0:0:0:0:
256,192,154977,1,0,0:0:0:0:
256,192,155119,1,8,0:0:0:0:
256,192,155261,1,8,0:0:0:0:
256,192,155403,1,8,0:0:0:0:
256,192,155659,1,12,0:0:0:0:
256,192,156000,1,8,0:0:0:0:
256,192,156085,1,8,0:0:0:0:
256,192,156170,1,0,0:0:0:0:
256,192,156256,1,0,0:0:0:0:
256,192,156341,1,8,0:0:0:0:
256,192,156511,1,0,0:0:0:0:
256,192,156597,1,8,0:0:0:0:
256,192,156682,1,8,0:0:0:0:
256,192,156852,1,8,0:0:0:0:
256,192,157023,1,8,0:0:0:0:
256,192,157108,1,0,0:0:0:0:
256,192,157193,1,0,0:0:0:0:
256,192,157278,1,8,0:0:0:0:
256,192,157321,1,8,0:0:0:0:
256,192,157364,1,8,0:0:0:0:
256,192,157534,1,0,0:0:0:0:
256,192,157705,1,8,0:0:0:0:
256,192,157875,1,0,0:0:0:0:
256,192,158045,1,8,0:0:0:0:
256,192,158131,1,0,0:0:0:0:
256,192,158216,1,8,0:0:0:0:
256,192,158301,1,8,0:0:0:0:
256,192,158386,1,0,0:0:0:0:
256,192,158557,1,0,0:0:0:0:
256,192,158727,1,8,0:0:0:0:
256,192,158812,1,0,0:0:0:0:
256,192,158898,1,8,0:0:0:0:
256,192,159068,1,8,0:0:0:0:
256,192,159239,1,0,0:0:0:0:
256,192,159409,1,8,0:0:0:0:
256,192,159494,1,0,0:0:0:0:
256,192,159580,1,8,0:0:0:0:
256,192,159750,1,0,0:0:0:0:
256,192,159920,1,8,0:0:0:0:
256,192,160091,1,8,0:0:0:0:
256,192,160176,1,0,0:0:0:0:
256,192,160261,1,0,0:0:0:0:
256,192,160432,1,0,0:0:0:0:
256,192,160517,1,8,0:0:0:0:
256,192,160602,1,0,0:0:0:0:
256,192,160687,1,0,0:0:0:0:
256,192,160773,1,8,0:0:0:0:
256,192,160858,1,8,0:0:0:0:
256,192,160943,1,0,0:0:0:0:
256,192,161028,1,8,0:0:0:0:
256,192,161114,1,0,0:0:0:0:
256,192,161455,1,8,0:0:0:0:
256,192,161582,1,0,0:0:0:0:
256,192,161710,1,8,0:0:0:0:
256,192,161838,1,0,0:0:0:0:
256,192,161966,1,8,0:0:0:0:
256,192,162136,1,8,0:0:0:0:
256,192,162477,1,8,0:0:0:0:
256,192,162605,1,0,0:0:0:0:
256,192,162733,1,8,0:0:0:0:
256,192,162861,1,0,0:0:0:0:
256,192,162989,1,8,0:0:0:0:
256,192,163116,1,0,0:0:0:0:
256,192,163244,1,8,0:0:0:0:
256,192,163372,1,0,0:0:0:0:
256,192,163500,1,8,0:0:0:0:
256,192,163585,1,8,0:0:0:0:
256,192,163670,1,8,0:0:0:0:
256,192,163756,1,8,0:0:0:0:
256,192,163841,5,4,0:0:0:0:
256,192,164011,1,0,0:0:0:0:
256,192,164182,1,8,0:0:0:0:
256,192,164267,1,0,0:0:0:0:
256,192,164352,1,8,0:0:0:0:
256,192,164523,1,8,0:0:0:0:
256,192,164693,1,0,0:0:0:0:
256,192,164864,1,8,0:0:0:0:
256,192,164949,1,0,0:0:0:0:
256,192,165034,1,8,0:0:0:0:
256,192,165205,1,0,0:0:0:0:
256,192,165375,1,8,0:0:0:0:
256,192,165545,1,8,0:0:0:0:
256,192,165716,1,0,0:0:0:0:
256,192,165801,1,8,0:0:0:0:
256,192,165886,1,8,0:0:0:0:
256,192,165972,1,8,0:0:0:0:
256,192,166057,1,0,0:0:0:0:
256,192,166142,1,0,0:0:0:0:
256,192,166227,1,8,0:0:0:0:
256,192,166341,1,0,0:0:0:0:
256,192,166455,1,0,0:0:0:0:
256,192,166568,1,12,0:0:0:0:
256,192,166909,1,0,0:0:0:0:
256,192,166994,1,0,0:0:0:0:
256,192,167080,1,8,0:0:0:0:
256,192,167165,1,0,0:0:0:0:
256,192,167250,1,8,0:0:0:0:
256,192,167420,1,0,0:0:0:0:
256,192,167506,1,8,0:0:0:0:
256,192,167591,1,8,0:0:0:0:
256,192,167761,1,0,0:0:0:0:
256,192,167932,1,8,0:0:0:0:
256,192,168102,1,0,0:0:0:0:
256,192,168187,1,8,0:0:0:0:
256,192,168230,1,8,0:0:0:0:
256,192,168273,1,8,0:0:0:0:
256,192,168443,1,0,0:0:0:0:
256,192,168614,1,8,0:0:0:0:
256,192,168699,1,0,0:0:0:0:
256,192,168784,1,0,0:0:0:0:
256,192,168869,1,0,0:0:0:0:
256,192,168955,1,8,0:0:0:0:
256,192,169040,1,0,0:0:0:0:
256,192,169125,1,8,0:0:0:0:
256,192,169210,1,8,0:0:0:0:
256,192,169295,1,0,0:0:0:0:
256,192,169466,1,0,0:0:0:0:
256,192,169636,1,8,0:0:0:0:
256,192,169722,1,0,0:0:0:0:
256,192,169807,1,8,0:0:0:0:
256,192,169977,1,8,0:0:0:0:
256,192,170148,1,0,0:0:0:0:
256,192,170318,1,8,0:0:0:0:
256,192,170403,1,0,0:0:0:0:
256,192,170489,1,8,0:0:0:0:
256,192,170659,1,0,0:0:0:0:
256,192,170830,1,8,0:0:0:0:
256,192,171000,1,8,0:0:0:0:
256,192,171085,1,0,0:0:0:0:
256,192,171170,1,0,0:0:0:0:
256,192,171341,1,0,0:0:0:0:
256,192,171426,1,8,0:0:0:0:
256,192,171511,1,0,0:0:0:0:
256,192,171597,1,0,0:0:0:0:
256,192,171682,1,8,0:0:0:0:
256,192,171767,1,0,0:0:0:0:
256,192,171852,1,8,0:0:0:0:
256,192,171937,1,8,0:0:0:0:
256,192,172023,1,0,0:0:0:0:
256,192,172364,1,8,0:0:0:0:
256,192,172491,1,0,0:0:0:0:
256,192,172619,1,8,0:0:0:0:
256,192,172747,1,0,0:0:0:0:
256,192,172875,1,8,0:0:0:0:
256,192,173045,1,8,0:0:0:0:
256,192,173386,1,8,0:0:0:0:
256,192,173514,1,0,0:0:0:0:
256,192,173642,1,8,0:0:0:0:
256,192,173770,1,0,0:0:0:0:
256,192,173898,1,8,0:0:0:0:
256,192,174026,1,0,0:0:0:0:
256,192,174153,1,8,0:0:0:0:
256,192,174281,1,0,0:0:0:0:
256,192,174409,1,8,0:0:0:0:
256,192,174494,1,8,0:0:0:0:
256,192,174580,1,8,0:0:0:0:
256,192,174665,1,8,0:0:0:0:
256,192,174750,5,4,0:0:0:0:
256,192,174920,1,0,0:0:0:0:
256,192,175091,1,8,0:0:0:0:
256,192,175176,1,0,0:0:0:0:
256,192,175261,1,0,0:0:0:0:
256,192,175432,1,0,0:0:0:0:
256,192,175517,1,8,0:0:0:0:
256,192,175602,1,0,0:0:0:0:
256,192,175773,1,8,0:0:0:0:
256,192,175943,1,8,0:0:0:0:
256,192,176114,1,0,0:0:0:0:
256,192,176199,1,8,0:0:0:0:
256,192,176284,1,0,0:0:0:0:
256,192,176369,1,0,0:0:0:0:
256,192,176455,1,8,0:0:0:0:
256,192,176625,1,8,0:0:0:0:
256,192,176795,1,0,0:0:0:0:
256,192,176881,1,8,0:0:0:0:
256,192,176923,1,8,0:0:0:0:
256,192,176966,1,0,0:0:0:0:
256,192,177136,1,8,0:0:0:0:
256,192,177307,1,8,0:0:0:0:
256,192,177392,1,8,0:0:0:0:
256,192,177477,1,0,0:0:0:0:
256,192,177648,1,0,0:0:0:0:
256,192,177818,1,8,0:0:0:0:
256,192,177903,1,0,0:0:0:0:
256,192,177989,1,0,0:0:0:0:
256,192,178159,1,0,0:0:0:0:
256,192,178244,1,8,0:0:0:0:
256,192,178330,1,0,0:0:0:0:
256,192,178500,1,8,0:0:0:0:
256,192,178670,1,8,0:0:0:0:
256,192,178841,1,0,0:0:0:0:
256,192,178926,1,8,0:0:0:0:
256,192,179011,1,8,0:0:0:0:
256,192,179097,1,0,0:0:0:0:
256,192,179182,1,8,0:0:0:0:
256,192,179352,1,8,0:0:0:0:
256,192,179523,1,0,0:0:0:0:
256,192,179608,1,8,0:0:0:0:
256,192,179693,1,0,0:0:0:0:
256,192,179778,1,0,0:0:0:0:
256,192,179864,1,8,0:0:0:0:
256,192,179949,1,0,0:0:0:0:
256,192,180034,1,8,0:0:0:0:
256,192,180119,1,8,0:0:0:0:
256,192,180205,1,0,0:0:0:0:
256,192,180375,1,0,0:0:0:0:
256,192,180545,1,8,0:0:0:0:
256,192,180631,1,0,0:0:0:0:
256,192,180716,1,0,0:0:0:0:
256,192,180886,1,0,0:0:0:0:
256,192,180972,1,8,0:0:0:0:
256,192,181057,1,0,0:0:0:0:
256,192,181227,1,8,0:0:0:0:
256,192,181398,1,8,0:0:0:0:
256,192,181568,1,0,0:0:0:0:
256,192,181653,1,0,0:0:0:0:
256,192,181739,1,8,0:0:0:0:
256,192,181824,1,0,0:0:0:0:
256,192,181909,1,8,0:0:0:0:
256,192,182080,1,8,0:0:0:0:
256,192,182250,1,0,0:0:0:0:
256,192,182335,1,8,0:0:0:0:
256,192,182378,1,8,0:0:0:0:
256,192,182420,1,0,0:0:0:0:
256,192,182591,1,8,0:0:0:0:
256,192,182761,1,8,0:0:0:0:
256,192,182847,1,8,0:0:0:0:
256,192,182932,1,0,0:0:0:0:
256,192,183102,1,0,0:0:0:0:
256,192,183273,1,8,0:0:0:0:
256,192,183443,1,0,0:0:0:0:
256,192,183528,1,0,0:0:0:0:
256,192,183614,1,8,0:0:0:0:
256,192,183699,1,0,0:0:0:0:
256,192,183784,1,0,0:0:0:0:
256,192,183955,1,8,0:0:0:0:
256,192,184125,1,8,0:0:0:0:
256,192,184295,1,0,0:0:0:0:
256,192,184381,1,0,0:0:0:0:
256,192,184466,1,8,0:0:0:0:
256,192,184551,1,0,0:0:0:0:
256,192,184636,1,8,0:0:0:0:
256,192,184722,1,0,0:0:0:0:
256,192,184807,1,8,0:0:0:0:
256,192,184892,1,8,0:0:0:0:
256,192,184977,1,0,0:0:0:0:
256,192,185062,1,0,0:0:0:0:
256,192,185148,1,8,0:0:0:0:
256,192,185318,1,8,0:0:0:0:
256,192,185403,1,8,0:0:0:0:
256,192,185489,1,0,0:0:0:0:
256,192,185574,1,8,0:0:0:0:
256,192,185659,1,0,0:0:0:0:
256,192,185830,1,0,0:0:0:0:
256,192,186000,1,8,0:0:0:0:
256,192,186085,1,0,0:0:0:0:
256,192,186170,1,0,0:0:0:0:
256,192,186341,1,0,0:0:0:0:
256,192,186426,1,8,0:0:0:0:
256,192,186511,1,0,0:0:0:0:
256,192,186682,1,8,0:0:0:0:
256,192,186852,1,8,0:0:0:0:
256,192,187023,1,0,0:0:0:0:
256,192,187108,1,8,0:0:0:0:
256,192,187193,1,0,0:0:0:0:
256,192,187278,1,0,0:0:0:0:
256,192,187364,1,8,0:0:0:0:
256,192,187534,1,8,0:0:0:0:
256,192,187705,1,0,0:0:0:0:
256,192,187790,1,8,0:0:0:0:
256,192,187832,1,8,0:0:0:0:
256,192,187875,1,0,0:0:0:0:
256,192,188045,1,8,0:0:0:0:
256,192,188216,1,8,0:0:0:0:
256,192,188301,1,8,0:0:0:0:
256,192,188386,1,0,0:0:0:0:
256,192,188557,1,0,0:0:0:0:
256,192,188727,1,8,0:0:0:0:
256,192,188812,1,0,0:0:0:0:
256,192,188898,1,0,0:0:0:0:
256,192,189068,1,0,0:0:0:0:
256,192,189153,1,8,0:0:0:0:
256,192,189239,1,0,0:0:0:0:
256,192,189409,1,8,0:0:0:0:
256,192,189580,1,8,0:0:0:0:
256,192,189750,1,0,0:0:0:0:
256,192,189835,1,8,0:0:0:0:
256,192,189920,1,8,0:0:0:0:
256,192,190006,1,0,0:0:0:0:
256,192,190091,1,8,0:0:0:0:
256,192,190261,1,0,0:0:0:0:
256,192,190432,1,0,0:0:0:0:
256,192,190517,1,8,0:0:0:0:
256,192,190602,1,0,0:0:0:0:
256,192,190687,1,0,0:0:0:0:
256,192,190773,1,8,0:0:0:0:
256,192,190858,1,0,0:0:0:0:
256,192,190943,1,8,0:0:0:0:
256,192,191028,1,8,0:0:0:0:
256,192,191114,1,0,0:0:0:0:
256,192,191455,1,8,0:0:0:0:
256,192,191795,1,0,0:0:0:0:
256,192,191966,1,0,0:0:0:0:
256,192,192136,1,8,0:0:0:0:
256,192,192307,1,8,0:0:0:0:
256,192,192477,1,0,0:0:0:0:
256,192,192562,1,0,0:0:0:0:
256,192,192648,1,8,0:0:0:0:
256,192,192818,1,8,0:0:0:0:
256,192,192989,1,8,0:0:0:0:
256,192,193159,1,0,0:0:0:0:
256,192,193244,1,8,0:0:0:0:
256,192,193287,1,0,0:0:0:0:
256,192,193330,1,0,0:0:0:0:
256,192,193500,1,8,0:0:0:0:
256,192,193670,1,0,0:0:0:0:
256,192,193841,1,0,0:0:0:0:
256,192,194182,1,0,0:0:0:0:
256,192,194352,1,8,0:0:0:0:
256,192,194523,1,0,0:0:0:0:
256,192,194864,1,0,0:0:0:0:
256,192,195034,1,8,0:0:0:0:
256,192,195205,1,0,0:0:0:0:
256,192,195545,1,0,0:0:0:0:
256,192,195716,1,8,0:0:0:0:
256,192,195886,1,0,0:0:0:0:
256,192,196568,5,4,0:0:0:0:
256,192,196739,1,0,0:0:0:0:
256,192,196909,1,8,0:0:0:0:
256,192,196994,1,0,0:0:0:0:
256,192,197080,1,8,0:0:0:0:
256,192,197250,1,8,0:0:0:0:
256,192,197420,1,0,0:0:0:0:
256,192,197591,1,8,0:0:0:0:
256,192,197676,1,0,0:0:0:0:
256,192,197761,1,8,0:0:0:0:
256,192,197932,1,0,0:0:0:0:
256,192,198102,1,8,0:0:0:0:
256,192,198273,1,8,0:0:0:0:
256,192,198443,1,0,0:0:0:0:
256,192,198614,1,0,0:0:0:0:
256,192,198756,1,8,0:0:0:0:
256,192,198898,1,8,0:0:0:0:
256,192,199040,1,8,0:0:0:0:
256,192,199295,1,12,0:0:0:0:
256,192,199636,1,8,0:0:0:0:
256,192,199722,1,8,0:0:0:0:
256,192,199807,1,0,0:0:0:0:
256,192,199892,1,0,0:0:0:0:
256,192,199977,1,8,0:0:0:0:
256,192,200148,1,0,0:0:0:0:
256,192,200233,1,8,0:0:0:0:
256,192,200318,1,8,0:0:0:0:
256,192,200489,1,8,0:0:0:0:
256,192,200659,1,8,0:0:0:0:
256,192,200744,1,0,0:0:0:0:
256,192,200830,1,0,0:0:0:0:
256,192,200915,1,8,0:0:0:0:
256,192,200957,1,8,0:0:0:0:
256,192,201000,1,8,0:0:0:0:
256,192,201170,1,0,0:0:0:0:
256,192,201341,1,8,0:0:0:0:
256,192,201511,1,0,0:0:0:0:
256,192,201682,1,8,0:0:0:0:
256,192,201767,1,0,0:0:0:0:
256,192,201852,1,8,0:0:0:0:
256,192,201937,1,8,0:0:0:0:
256,192,202023,1,0,0:0:0:0:
256,192,202193,1,0,0:0:0:0:
256,192,202364,1,8,0:0:0:0:
256,192,202449,1,0,0:0:0:0:
256,192,202534,1,8,0:0:0:0:
256,192,202705,1,8,0:0:0:0:
256,192,202875,1,0,0:0:0:0:
256,192,203045,1,8,0:0:0:0:
256,192,203131,1,0,0:0:0:0:
256,192,203216,1,8,0:0:0:0:
256,192,203386,1,0,0:0:0:0:
256,192,203557,1,8,0:0:0:0:
256,192,203727,1,8,0:0:0:0:
256,192,203812,1,8,0:0:0:0:
256,192,203898,1,0,0:0:0:0:
256,192,203983,1,8,0:0:0:0:
256,192,204068,1,0,0:0:0:0:
256,192,204153,1,8,0:0:0:0:
256,192,204239,1,8,0:0:0:0:
256,192,204324,1,0,0:0:0:0:
256,192,204409,1,8,0:0:0:0:
256,192,204580,1,8,0:0:0:0:
256,192,204665,1,8,0:0:0:0:
256,192,204750,1,0,0:0:0:0:
256,192,205091,1,8,0:0:0:0:
256,192,205219,1,0,0:0:0:0:
256,192,205347,1,8,0:0:0:0:
256,192,205474,1,0,0:0:0:0:
256,192,205602,1,8,0:0:0:0:
256,192,205773,1,8,0:0:0:0:
256,192,206114,1,8,0:0:0:0:
256,192,206241,1,0,0:0:0:0:
256,192,206369,1,8,0:0:0:0:
256,192,206497,1,0,0:0:0:0:
256,192,206625,1,8,0:0:0:0:
256,192,206753,1,0,0:0:0:0:
256,192,206881,1,8,0:0:0:0:
256,192,207008,1,0,0:0:0:0:
256,192,207136,1,8,0:0:0:0:
256,192,207222,1,8,0:0:0:0:
256,192,207307,1,8,0:0:0:0:
256,192,207392,1,8,0:0:0:0:
256,192,207477,5,4,0:0:0:0:
256,192,207648,1,0,0:0:0:0:
256,192,207818,1,8,0:0:0:0:
256,192,207903,1,0,0:0:0:0:
256,192,207989,1,8,0:0:0:0:
256,192,208159,1,8,0:0:0:0:
256,192,208330,1,0,0:0:0:0:
256,192,208500,1,8,0:0:0:0:
256,192,208585,1,0,0:0:0:0:
256,192,208670,1,8,0:0:0:0:
256,192,208841,1,0,0:0:0:0:
256,192,209011,1,8,0:0:0:0:
256,192,209182,1,8,0:0:0:0:
256,192,209352,1,0,0:0:0:0:
256,192,209437,1,0,0:0:0:0:
256,192,209523,1,8,0:0:0:0:
256,192,209608,1,8,0:0:0:0:
256,192,209693,1,0,0:0:0:0:
256,192,209778,1,8,0:0:0:0:
256,192,209864,1,8,0:0:0:0:
256,192,209977,1,0,0:0:0:0:
256,192,210091,1,0,0:0:0:0:
256,192,210205,1,12,0:0:0:0:
256,192,210545,1,0,0:0:0:0:
256,192,210631,1,0,0:0:0:0:
256,192,210716,1,8,0:0:0:0:
256,192,210801,1,0,0:0:0:0:
256,192,210886,1,8,0:0:0:0:
256,192,211057,1,0,0:0:0:0:
256,192,211142,1,8,0:0:0:0:
256,192,211227,1,8,0:0:0:0:
256,192,211398,1,0,0:0:0:0:
256,192,211568,1,8,0:0:0:0:
256,192,211739,1,0,0:0:0:0:
256,192,211824,1,8,0:0:0:0:
256,192,211866,1,8,0:0:0:0:
256,192,211909,1,8,0:0:0:0:
256,192,212080,1,0,0:0:0:0:
256,192,212250,1,8,0:0:0:0:
256,192,212335,1,8,0:0:0:0:
256,192,212420,1,0,0:0:0:0:
256,192,212506,1,8,0:0:0:0:
256,192,212591,1,8,0:0:0:0:
256,192,212676,1,0,0:0:0:0:
256,192,212761,1,8,0:0:0:0:
256,192,212847,1,8,0:0:0:0:
256,192,212932,1,0,0:0:0:0:
256,192,213102,1,0,0:0:0:0:
256,192,213273,1,8,0:0:0:0:
256,192,213358,1,0,0:0:0:0:
256,192,213443,1,8,0:0:0:0:
256,192,213614,1,8,0:0:0:0:
256,192,213784,1,0,0:0:0:0:
256,192,213955,1,8,0:0:0:0:
256,192,214040,1,0,0:0:0:0:
256,192,214125,1,8,0:0:0:0:
256,192,214295,1,0,0:0:0:0:
256,192,214466,1,8,0:0:0:0:
256,192,214636,1,8,0:0:0:0:
256,192,214722,1,8,0:0:0:0:
256,192,214807,1,0,0:0:0:0:
256,192,214892,1,8,0:0:0:0:
256,192,214977,1,0,0:0:0:0:
256,192,215062,1,8,0:0:0:0:
256,192,215148,1,8,0:0:0:0:
256,192,215233,1,0,0:0:0:0:
256,192,215318,1,8,0:0:0:0:
256,192,215488,1,8,0:0:0:0:
256,192,215573,1,8,0:0:0:0:
256,192,215659,1,0,0:0:0:0:
256,192,216000,1,8,0:0:0:0:
256,192,216128,1,0,0:0:0:0:
256,192,216256,1,8,0:0:0:0:
256,192,216383,1,0,0:0:0:0:
256,192,216511,1,8,0:0:0:0:
256,192,216639,1,0,0:0:0:0:
256,192,216767,1,8,0:0:0:0:
256,192,216895,1,0,0:0:0:0:
256,192,217023,1,8,0:0:0:0:
256,192,217193,12,0,218216,0:0:0:0:
256,192,218386,5,4,0:0:0:0:
