osu file format v14

[General]
AudioFilename: audio.mp3
AudioLeadIn: 0
PreviewTime: 152789
Countdown: 0
SampleSet: Normal
StackLeniency: 0.7
Mode: 1
LetterboxInBreaks: 0
WidescreenStoryboard: 0

[Editor]
Bookmarks: 21965
DistanceSpacing: 0.8
BeatDivisor: 4
GridSize: 32
TimelineZoom: 2.2

[Metadata]
Title:Warpath
TitleUnicode:Warpath
Artist:Magnetude
ArtistUnicode:Magnetude
Creator:Jaltzu
Version:Futsuu
Source:
Tags:electronic instrumental dnb drum and & bass we are lifted music hyperdrive ep fa featured artist mappers' guild mpg mg jonarwhal jonawaga vulkin
BeatmapID:2624786
BeatmapSetID:1262314

[Difficulty]
HPDrainRate:7
CircleSize:2
OverallDifficulty:4
ApproachRate:10
SliderMultiplier:1.4
SliderTickRate:1

[Events]
//Background and Video events
0,0,"war.jpg",0,-40
//Break Periods
//Storyboard Layer 0 (Background)
//Storyboard Layer 1 (Fail)
//Storyboard Layer 2 (Pass)
//Storyboard Layer 3 (Foreground)
//Storyboard Layer 4 (Overlay)
//Storyboard Sound Samples

[TimingPoints]
205,340.909090909091,4,1,0,60,1,0
11540,-100,4,1,0,40,0,0
21937,-100,4,1,0,60,0,0
22108,-100,4,1,0,50,0,0
24665,-100,4,1,0,60,0,0
24835,-100,4,1,0,50,0,0
27392,-100,4,1,0,60,0,0
27562,-100,4,1,0,50,0,0
30119,-100,4,1,0,60,0,0
30290,-100,4,1,0,50,0,0
32847,-100,4,1,0,60,0,0
33187,-100,4,1,0,61,0,0
33358,-100,4,1,0,61,0,0
33528,-100,4,1,0,62,0,0
33869,-100,4,1,0,63,0,0
34040,-100,4,1,0,63,0,0
34210,-100,4,1,0,64,0,0
34551,-100,4,1,0,65,0,0
34722,-100,4,1,0,65,0,0
34892,-100,4,1,0,66,0,0
35233,-100,4,1,0,67,0,0
35403,-100,4,1,0,67,0,0
35574,-100,4,1,0,68,0,0
35915,-100,4,1,0,69,0,0
36085,-100,4,1,0,69,0,0
36256,-100,4,1,0,70,0,0
36597,-100,4,1,0,71,0,0
36767,-100,4,1,0,71,0,0
36937,-100,4,1,0,72,0,0
37278,-100,4,1,0,73,0,0
37449,-100,4,1,0,73,0,0
37619,-100,4,1,0,74,0,0
37960,-100,4,1,0,75,0,0
38131,-100,4,1,0,75,0,0
38301,-100,4,1,0,76,0,0
38642,-100,4,1,0,77,0,0
38812,-100,4,1,0,77,0,0
38983,-100,4,1,0,78,0,0
39324,-100,4,1,0,79,0,0
39494,-100,4,1,0,79,0,0
39665,-100,4,1,0,80,0,0
40006,-100,4,1,0,81,0,0
40176,-100,4,1,0,81,0,0
40347,-100,4,1,0,82,0,0
40687,-100,4,1,0,83,0,0
40858,-100,4,1,0,83,0,0
41028,-100,4,1,0,84,0,0
41369,-100,4,1,0,85,0,0
41540,-100,4,1,0,85,0,0
41710,-100,4,1,0,86,0,0
42051,-100,4,1,0,87,0,0
42222,-100,4,1,0,87,0,0
42392,-100,4,1,0,88,0,0
42733,-100,4,1,0,89,0,0
42903,-100,4,1,0,89,0,0
43074,-100,4,1,0,90,0,0
43756,-95.2380952380952,4,1,0,100,0,0
43841,-95.2380952380952,4,1,0,100,0,1
52023,-95.2380952380952,4,1,0,100,0,0
52278,-100,4,1,0,80,0,0
54026,-100,4,1,0,84,0,0
54366,-100,4,1,0,92,0,0
54537,-97.5609756097561,4,1,0,96,0,0
54707,-95.2380952380952,4,1,0,100,0,0
54750,-95.2380952380952,4,1,0,100,0,1
62932,-95.2380952380952,4,1,0,100,0,0
63187,-100,4,1,0,80,0,0
65045,-100,4,1,0,84,0,0
65182,-100,4,1,0,88,0,0
65318,-100,4,1,0,92,0,0
65455,-100,4,1,0,96,0,0
65591,-95.2380952380952,4,1,0,100,0,0
65659,-95.2380952380952,4,1,0,100,0,1
81937,-100,4,1,0,90,0,1
82619,-100,4,1,0,80,0,1
84750,-100,4,1,0,60,0,0
85006,-100,4,1,0,65,0,0
85347,-100,4,1,0,70,0,0
85687,-100,4,1,0,75,0,0
86028,-100,4,1,0,80,0,0
86369,-100,4,1,0,85,0,0
86710,-100,4,1,0,90,0,0
87392,-95.2380952380952,4,1,0,100,0,0
87477,-95.2380952380952,4,1,0,100,0,1
95659,-95.2380952380952,4,1,0,100,0,0
95915,-100,4,1,0,80,0,0
97662,-100,4,1,0,84,0,0
98003,-100,4,1,0,92,0,0
98173,-97.5609756097561,4,1,0,96,0,0
98344,-95.2380952380952,4,1,0,100,0,0
98386,-95.2380952380952,4,1,0,100,0,1
106568,-95.2380952380952,4,1,0,100,0,0
106824,-100,4,1,0,80,0,0
108017,-100,4,1,0,70,0,0
109210,-100,4,1,0,60,0,0
109551,-100,4,1,0,40,0,0
117614,-100,4,1,0,41,0,0
117750,-100,4,1,0,42,0,0
117886,-100,4,1,0,43,0,0
118023,-100,4,1,0,44,0,0
118159,-100,4,1,0,45,0,0
118295,-100,4,1,0,46,0,0
118432,-100,4,1,0,47,0,0
118568,-100,4,1,0,48,0,0
118705,-100,4,1,0,49,0,0
118841,-100,4,1,0,50,0,0
118977,-100,4,1,0,51,0,0
119114,-100,4,1,0,52,0,0
119250,-100,4,1,0,53,0,0
119386,-100,4,1,0,54,0,0
119523,-100,4,1,0,55,0,0
119659,-100,4,1,0,56,0,0
119795,-100,4,1,0,57,0,0
119932,-100,4,1,0,58,0,0
120119,-100,4,1,0,60,0,0
120460,-100,4,1,0,40,0,0
130659,-100,4,1,0,50,0,0
131057,-100,4,1,0,60,0,0
131369,-100,4,1,0,50,0,0
133756,-100,4,1,0,60,0,0
133926,-100,4,1,0,50,0,0
136483,-100,4,1,0,60,0,0
136653,-100,4,1,0,50,0,0
139239,-100,4,1,0,60,0,0
139352,-100,4,1,0,50,0,0
141966,-100,4,1,0,60,0,0
142278,-99.6677740863787,4,1,0,61,0,0
142619,-100,4,1,0,62,0,0
142960,-100,4,1,0,63,0,0
143301,-100,4,1,0,64,0,0
143642,-100,4,1,0,65,0,0
143983,-100,4,1,0,66,0,0
144381,-100,4,1,0,67,0,0
144665,-100,4,1,0,68,0,0
145006,-100,4,1,0,69,0,0
145347,-100,4,1,0,70,0,0
145688,-100,4,1,0,71,0,0
145858,-100,4,1,0,71,0,0
146028,-100,4,1,0,72,0,0
146369,-100,4,1,0,73,0,0
146710,-100,4,1,0,74,0,0
147051,-100,4,1,0,75,0,0
147392,-100,4,1,0,76,0,0
147733,-100,4,1,0,77,0,0
148074,-100,4,1,0,78,0,0
148415,-100,4,1,0,79,0,0
148756,-100,4,1,0,80,0,0
149097,-100,4,1,0,81,0,0
149267,-100,4,1,0,81,0,0
149438,-100,4,1,0,82,0,0
149778,-100,4,1,0,83,0,0
150119,-100,4,1,0,84,0,0
150460,-100,4,1,0,85,0,0
150801,-100,4,1,0,86,0,0
151142,-100,4,1,0,87,0,0
151483,-100,4,1,0,88,0,0
151824,-100,4,1,0,89,0,0
152165,-100,4,1,0,90,0,0
152847,-95.2380952380952,4,1,0,100,0,0
152932,-95.2380952380952,4,1,0,100,0,1
161114,-95.2380952380952,4,1,0,100,0,0
161369,-100,4,1,0,80,0,0
163457,-100,4,1,0,90,0,0
163628,-97.5609756097561,4,1,0,95,0,0
163798,-95.2380952380952,4,1,0,100,0,0
163841,-95.2380952380952,4,1,0,100,0,1
172023,-95.2380952380952,4,1,0,100,0,0
172236,-100,4,1,0,80,0,0
174136,-100,4,1,0,82,0,0
174205,-100,4,1,0,84,0,0
174273,-100,4,1,0,86,0,0
174341,-100,4,1,0,88,0,0
174409,-100,4,1,0,90,0,0
174477,-100,4,1,0,92,0,0
174545,-100,4,1,0,94,0,0
174693,-95.2380952380952,4,1,0,100,0,0
174750,-95.2380952380952,4,1,0,100,0,1
191028,-95.2380952380952,4,1,0,90,0,1
191710,-100,4,1,0,80,0,1
193756,-100,4,1,0,60,0,1
193841,-100,4,1,0,60,0,0
194097,-100,4,1,0,65,0,0
194437,-100,4,1,0,70,0,0
194778,-100,4,1,0,75,0,0
195119,-100,4,1,0,80,0,0
195460,-100,4,1,0,85,0,0
195801,-100,4,1,0,90,0,0
196483,-95.2380952380952,4,1,0,100,0,0
196568,-95.2380952380952,4,1,0,100,0,1
204750,-95.2380952380952,4,1,0,100,0,0
205006,-100,4,1,0,80,0,0
207094,-100,4,1,0,90,0,0
207264,-97.5609756097561,4,1,0,95,0,0
207435,-95.2380952380952,4,1,0,100,0,0
207477,-95.2380952380952,4,1,0,100,0,1
215659,-95.2380952380952,4,1,0,100,0,0
215915,-100,4,1,0,80,0,0
217108,-100,4,1,0,70,0,0
218301,-100,4,1,0,60,0,0

[HitObjects]
256,192,11114,5,4,0:0:0:0:
256,192,11625,1,8,0:0:0:0:
256,192,12136,1,0,0:0:0:0:
256,192,12477,1,8,0:0:0:0:
256,192,13159,1,8,0:0:0:0:
256,192,13841,1,0,0:0:0:0:
256,192,14523,1,8,0:0:0:0:
256,192,15205,1,8,0:0:0:0:
256,192,15545,1,0,0:0:0:0:
256,192,16227,1,8,0:0:0:0:
256,192,16568,1,0,0:0:0:0:
256,192,17591,1,0,0:0:0:0:
256,192,17932,1,8,0:0:0:0:
256,192,18614,1,0,0:0:0:0:
256,192,19295,1,8,0:0:0:0:
256,192,19977,1,0,0:0:0:0:
256,192,20659,1,8,0:0:0:0:
256,192,20830,12,8,21682,0:0:0:0:
256,192,22023,5,4,0:0:0:0:
256,192,22705,1,8,0:0:0:0:
256,192,23045,1,8,0:0:0:0:
256,192,23386,1,0,0:0:0:0:
256,192,23557,1,8,0:0:0:0:
256,192,23727,1,0,0:0:0:0:
256,192,24068,1,8,0:0:0:0:
256,192,24409,1,8,0:0:0:0:
256,192,24750,1,4,0:0:0:0:
256,192,25432,1,8,0:0:0:0:
256,192,25773,1,0,0:0:0:0:
256,192,26114,1,8,0:0:0:0:
256,192,26284,1,8,0:0:0:0:
256,192,26455,1,0,0:0:0:0:
256,192,26795,1,8,0:0:0:0:
256,192,27136,1,8,0:0:0:0:
256,192,27477,1,4,0:0:0:0:
256,192,28159,1,8,0:0:0:0:
256,192,28500,1,0,0:0:0:0:
256,192,28841,1,8,0:0:0:0:
256,192,29011,1,0,0:0:0:0:
256,192,29182,1,0,0:0:0:0:
256,192,29523,1,8,0:0:0:0:
256,192,29864,1,8,0:0:0:0:
256,192,30205,1,4,0:0:0:0:
256,192,30886,1,8,0:0:0:0:
256,192,31227,1,0,0:0:0:0:
256,192,31398,1,8,0:0:0:0:
256,192,31568,1,0,0:0:0:0:
256,192,31909,1,0,0:0:0:0:
256,192,32250,1,8,0:0:0:0:
256,192,32932,1,4,0:0:0:0:
256,192,33273,1,8,0:0:0:0:
256,192,33614,1,0,0:0:0:0:
256,192,33955,1,8,0:0:0:0:
256,192,34295,1,0,0:0:0:0:
256,192,34636,1,8,0:0:0:0:
256,192,34977,1,0,0:0:0:0:
256,192,35318,1,8,0:0:0:0:
256,192,35659,1,0,0:0:0:0:
256,192,36000,1,8,0:0:0:0:
256,192,36341,1,0,0:0:0:0:
256,192,36682,1,8,0:0:0:0:
256,192,37023,1,0,0:0:0:0:
256,192,37364,1,8,0:0:0:0:
256,192,37705,1,0,0:0:0:0:
256,192,38045,1,8,0:0:0:0:
256,192,38386,1,0,0:0:0:0:
256,192,38727,1,0,0:0:0:0:
256,192,39068,1,0,0:0:0:0:
256,192,39409,1,0,0:0:0:0:
256,192,39750,1,0,0:0:0:0:
256,192,40091,1,0,0:0:0:0:
256,192,40432,1,0,0:0:0:0:
256,192,40773,1,0,0:0:0:0:
256,192,41114,1,0,0:0:0:0:
256,192,41455,1,0,0:0:0:0:
256,192,41795,1,0,0:0:0:0:
256,192,42136,1,0,0:0:0:0:
256,192,42477,1,0,0:0:0:0:
256,192,42818,1,0,0:0:0:0:
256,192,43159,1,0,0:0:0:0:
256,192,43841,5,4,0:0:0:0:
256,192,44182,1,8,0:0:0:0:
256,192,44352,1,0,0:0:0:0:
256,192,44523,1,0,0:0:0:0:
256,192,44864,1,8,0:0:0:0:
256,192,45034,1,0,0:0:0:0:
256,192,45205,1,0,0:0:0:0:
256,192,45545,1,8,0:0:0:0:
256,192,45886,1,0,0:0:0:0:
256,192,46057,1,0,0:0:0:0:
256,192,46227,1,8,0:0:0:0:
256,192,46909,1,8,0:0:0:0:
256,192,47080,1,0,0:0:0:0:
256,192,47250,1,8,0:0:0:0:
256,192,47591,1,0,0:0:0:0:
256,192,47761,1,0,0:0:0:0:
256,192,47932,1,8,0:0:0:0:
256,192,48273,1,8,0:0:0:0:
256,192,48443,1,0,0:0:0:0:
256,192,48614,1,0,0:0:0:0:
256,192,48955,1,8,0:0:0:0:
256,192,49295,1,0,0:0:0:0:
256,192,49636,1,8,0:0:0:0:
256,192,49807,1,0,0:0:0:0:
256,192,49977,1,0,0:0:0:0:
256,192,50318,1,8,0:0:0:0:
256,192,50489,1,0,0:0:0:0:
256,192,50659,1,0,0:0:0:0:
256,192,51000,1,8,0:0:0:0:
256,192,51341,1,8,0:0:0:0:
256,192,51511,1,0,0:0:0:0:
256,192,51682,1,8,0:0:0:0:
256,192,52023,1,0,0:0:0:0:
256,192,52364,1,8,0:0:0:0:
256,192,53045,1,8,0:0:0:0:
256,192,53727,1,8,0:0:0:0:
256,192,54068,1,0,0:0:0:0:
256,192,54409,1,8,0:0:0:0:
256,192,54580,1,8,0:0:0:0:
256,192,54750,5,4,0:0:0:0:
256,192,55091,1,8,0:0:0:0:
256,192,55261,1,0,0:0:0:0:
256,192,55432,1,0,0:0:0:0:
256,192,55773,1,8,0:0:0:0:
256,192,55943,1,0,0:0:0:0:
256,192,56114,1,0,0:0:0:0:
256,192,56455,1,8,0:0:0:0:
256,192,56795,1,0,0:0:0:0:
256,192,56966,1,0,0:0:0:0:
256,192,57136,1,8,0:0:0:0:
256,192,57818,1,8,0:0:0:0:
256,192,57989,1,0,0:0:0:0:
256,192,58159,1,8,0:0:0:0:
256,192,58500,1,0,0:0:0:0:
256,192,58670,1,0,0:0:0:0:
256,192,58841,1,8,0:0:0:0:
256,192,59182,1,8,0:0:0:0:
256,192,59352,1,0,0:0:0:0:
256,192,59523,1,0,0:0:0:0:
256,192,59864,1,8,0:0:0:0:
256,192,60205,1,0,0:0:0:0:
256,192,60545,1,8,0:0:0:0:
256,192,60716,1,0,0:0:0:0:
256,192,60886,1,0,0:0:0:0:
256,192,61227,1,8,0:0:0:0:
256,192,61398,1,0,0:0:0:0:
256,192,61568,1,0,0:0:0:0:
256,192,61909,1,8,0:0:0:0:
256,192,62250,1,8,0:0:0:0:
256,192,62420,1,0,0:0:0:0:
256,192,62591,1,8,0:0:0:0:
256,192,62932,1,0,0:0:0:0:
256,192,63273,1,8,0:0:0:0:
256,192,63955,1,8,0:0:0:0:
256,192,64295,1,0,0:0:0:0:
256,192,64977,12,0,65489,0:0:0:0:
256,192,65659,5,4,0:0:0:0:
256,192,66341,1,0,0:0:0:0:
256,192,66682,1,8,0:0:0:0:
256,192,66852,1,8,0:0:0:0:
256,192,67193,1,0,0:0:0:0:
256,192,67364,1,8,0:0:0:0:
256,192,67534,1,8,0:0:0:0:
256,192,67875,1,0,0:0:0:0:
256,192,68045,1,8,0:0:0:0:
256,192,68386,1,0,0:0:0:0:
256,192,68727,1,8,0:0:0:0:
256,192,68898,1,8,0:0:0:0:
256,192,69068,1,8,0:0:0:0:
256,192,69409,1,0,0:0:0:0:
256,192,69580,1,8,0:0:0:0:
256,192,69920,1,0,0:0:0:0:
256,192,70091,1,0,0:0:0:0:
256,192,70261,1,8,0:0:0:0:
256,192,70602,1,8,0:0:0:0:
256,192,70773,1,0,0:0:0:0:
256,192,71114,1,0,0:0:0:0:
256,192,71455,1,8,0:0:0:0:
256,192,71625,1,8,0:0:0:0:
256,192,71795,1,0,0:0:0:0:
256,192,72136,1,0,0:0:0:0:
256,192,72307,1,8,0:0:0:0:
256,192,72648,1,0,0:0:0:0:
256,192,72818,1,8,0:0:0:0:
256,192,72989,1,0,0:0:0:0:
256,192,73330,1,0,0:0:0:0:
256,192,73500,1,8,0:0:0:0:
256,192,73841,1,0,0:0:0:0:
256,192,74182,1,8,0:0:0:0:
256,192,74864,1,8,0:0:0:0:
256,192,75205,1,0,0:0:0:0:
256,192,75545,1,8,0:0:0:0:
256,192,75716,1,8,0:0:0:0:
256,192,75886,1,0,0:0:0:0:
256,192,76057,1,0,0:0:0:0:
256,192,76227,1,8,0:0:0:0:
256,192,76568,1,4,0:0:0:0:
256,192,77250,1,0,0:0:0:0:
256,192,77591,1,8,0:0:0:0:
256,192,77761,1,8,0:0:0:0:
256,192,78102,1,0,0:0:0:0:
256,192,78273,1,8,0:0:0:0:
256,192,78443,1,8,0:0:0:0:
256,192,78784,1,0,0:0:0:0:
256,192,78955,1,8,0:0:0:0:
256,192,79295,1,0,0:0:0:0:
256,192,79636,1,8,0:0:0:0:
256,192,79807,1,8,0:0:0:0:
256,192,79977,1,8,0:0:0:0:
256,192,80318,1,0,0:0:0:0:
256,192,80489,1,8,0:0:0:0:
256,192,80830,1,0,0:0:0:0:
256,192,81000,1,0,0:0:0:0:
256,192,81170,1,8,0:0:0:0:
256,192,81511,1,8,0:0:0:0:
256,192,81682,1,0,0:0:0:0:
256,192,82023,1,0,0:0:0:0:
256,192,82705,1,0,0:0:0:0:
256,192,83386,1,0,0:0:0:0:
256,192,83727,1,8,0:0:0:0:
256,192,83898,1,8,0:0:0:0:
256,192,84239,1,0,0:0:0:0:
256,192,84409,1,0,0:0:0:0:
256,192,84750,1,0,0:0:0:0:
256,192,85091,1,8,0:0:0:0:
256,192,85432,1,0,0:0:0:0:
256,192,85773,1,8,0:0:0:0:
256,192,86114,1,0,0:0:0:0:
256,192,86455,1,8,0:0:0:0:
256,192,86795,1,0,0:0:0:0:
256,192,87477,5,4,0:0:0:0:
256,192,87818,1,8,0:0:0:0:
256,192,87989,1,0,0:0:0:0:
256,192,88159,1,0,0:0:0:0:
256,192,88500,1,8,0:0:0:0:
256,192,88670,1,0,0:0:0:0:
256,192,88841,1,0,0:0:0:0:
256,192,89182,1,8,0:0:0:0:
256,192,89523,1,0,0:0:0:0:
256,192,89693,1,8,0:0:0:0:
256,192,89864,1,8,0:0:0:0:
256,192,90545,1,8,0:0:0:0:
256,192,90716,1,0,0:0:0:0:
256,192,90886,1,8,0:0:0:0:
256,192,91227,1,0,0:0:0:0:
256,192,91398,1,0,0:0:0:0:
256,192,91568,1,8,0:0:0:0:
256,192,91909,1,8,0:0:0:0:
256,192,92080,1,8,0:0:0:0:
256,192,92250,1,0,0:0:0:0:
256,192,92591,1,8,0:0:0:0:
256,192,92932,1,0,0:0:0:0:
256,192,93273,1,8,0:0:0:0:
256,192,93443,1,0,0:0:0:0:
256,192,93614,1,0,0:0:0:0:
256,192,93955,1,8,0:0:0:0:
256,192,94125,1,0,0:0:0:0:
256,192,94295,1,0,0:0:0:0:
256,192,94636,1,8,0:0:0:0:
256,192,94977,1,8,0:0:0:0:
256,192,95148,1,0,0:0:0:0:
256,192,95318,1,8,0:0:0:0:
256,192,95659,1,0,0:0:0:0:
256,192,96000,1,8,0:0:0:0:
256,192,96682,1,8,0:0:0:0:
256,192,97364,1,8,0:0:0:0:
256,192,97705,1,0,0:0:0:0:
256,192,98045,1,8,0:0:0:0:
256,192,98216,1,8,0:0:0:0:
256,192,98386,1,4,0:0:0:0:
256,192,98727,1,8,0:0:0:0:
256,192,98898,1,0,0:0:0:0:
256,192,99068,1,0,0:0:0:0:
256,192,99409,1,8,0:0:0:0:
256,192,99580,1,0,0:0:0:0:
256,192,99750,1,0,0:0:0:0:
256,192,100091,1,8,0:0:0:0:
256,192,100432,1,0,0:0:0:0:
256,192,100602,1,8,0:0:0:0:
256,192,100773,1,8,0:0:0:0:
256,192,101455,1,8,0:0:0:0:
256,192,101625,1,0,0:0:0:0:
256,192,101795,1,8,0:0:0:0:
256,192,102136,1,0,0:0:0:0:
256,192,102307,1,0,0:0:0:0:
256,192,102477,1,8,0:0:0:0:
256,192,102818,1,8,0:0:0:0:
256,192,102989,1,8,0:0:0:0:
256,192,103159,1,0,0:0:0:0:
256,192,103500,1,8,0:0:0:0:
256,192,103841,1,0,0:0:0:0:
256,192,104182,1,8,0:0:0:0:
256,192,104352,1,0,0:0:0:0:
256,192,104523,1,0,0:0:0:0:
256,192,104864,1,8,0:0:0:0:
256,192,105034,1,0,0:0:0:0:
256,192,105205,1,0,0:0:0:0:
256,192,105545,1,8,0:0:0:0:
256,192,105886,1,8,0:0:0:0:
256,192,106057,1,0,0:0:0:0:
256,192,106227,1,8,0:0:0:0:
256,192,106568,1,0,0:0:0:0:
256,192,106909,1,8,0:0:0:0:
256,192,107591,1,8,0:0:0:0:
256,192,107932,1,0,0:0:0:0:
256,192,108102,12,0,108955,0:0:0:0:
256,192,109295,5,4,0:0:0:0:
256,192,109636,12,0,112705,0:0:0:0:
256,192,113386,12,0,116795,0:0:0:0:
256,192,117477,12,0,120034,0:0:0:0:
256,192,120205,5,12,0:0:0:0:
256,192,120545,1,0,0:0:0:0:
256,192,121057,1,8,0:0:0:0:
256,192,121909,1,8,0:0:0:0:
256,192,122420,1,8,0:0:0:0:
256,192,122932,1,0,0:0:0:0:
256,192,123273,1,8,0:0:0:0:
256,192,123784,1,8,0:0:0:0:
256,192,124636,1,8,0:0:0:0:
256,192,125148,1,8,0:0:0:0:
256,192,125659,1,0,0:0:0:0:
256,192,126000,1,8,0:0:0:0:
256,192,126511,1,8,0:0:0:0:
256,192,127364,1,8,0:0:0:0:
256,192,127875,1,8,0:0:0:0:
256,192,128386,1,0,0:0:0:0:
256,192,128727,1,8,0:0:0:0:
256,192,129068,1,0,0:0:0:0:
256,192,129239,12,0,130432,0:0:0:0:
256,192,130773,5,8,0:0:0:0:
256,192,131114,1,4,0:0:0:0:
256,192,131795,1,8,0:0:0:0:
256,192,132476,1,0,0:0:0:0:
256,192,133158,1,8,0:0:0:0:
256,192,133840,1,4,0:0:0:0:
256,192,134522,1,8,0:0:0:0:
256,192,135204,1,8,0:0:0:0:
256,192,135885,1,8,0:0:0:0:
256,192,136227,1,8,0:0:0:0:
256,192,136567,1,4,0:0:0:0:
256,192,137249,1,8,0:0:0:0:
256,192,137931,1,8,0:0:0:0:
256,192,138272,1,0,0:0:0:0:
256,192,138613,1,8,0:0:0:0:
256,192,138954,1,8,0:0:0:0:
256,192,139125,1,8,0:0:0:0:
256,192,139295,1,4,0:0:0:0:
256,192,139976,1,8,0:0:0:0:
256,192,140318,1,0,0:0:0:0:
256,192,140658,1,8,0:0:0:0:
256,192,141340,1,8,0:0:0:0:
256,192,141682,1,8,0:0:0:0:
256,192,142022,1,4,0:0:0:0:
256,192,142363,1,8,0:0:0:0:
256,192,142704,1,0,0:0:0:0:
256,192,143045,1,8,0:0:0:0:
256,192,143385,1,0,0:0:0:0:
256,192,143726,1,8,0:0:0:0:
256,192,144067,1,0,0:0:0:0:
256,192,144408,1,8,0:0:0:0:
256,192,144749,1,0,0:0:0:0:
256,192,145090,1,8,0:0:0:0:
256,192,145431,1,0,0:0:0:0:
256,192,145772,1,8,0:0:0:0:
256,192,146113,1,0,0:0:0:0:
256,192,146454,1,8,0:0:0:0:
256,192,146795,1,0,0:0:0:0:
256,192,147135,1,8,0:0:0:0:
256,192,147476,1,0,0:0:0:0:
256,192,147817,1,0,0:0:0:0:
256,192,148158,1,0,0:0:0:0:
256,192,148499,1,0,0:0:0:0:
256,192,148840,1,0,0:0:0:0:
256,192,149181,1,0,0:0:0:0:
256,192,149522,1,0,0:0:0:0:
256,192,149863,1,0,0:0:0:0:
256,192,150204,1,0,0:0:0:0:
256,192,150545,1,0,0:0:0:0:
256,192,150885,1,0,0:0:0:0:
256,192,151226,1,0,0:0:0:0:
256,192,151567,1,0,0:0:0:0:
256,192,151908,1,0,0:0:0:0:
256,192,152249,1,0,0:0:0:0:
256,192,152932,5,4,0:0:0:0:
256,192,153273,1,8,0:0:0:0:
256,192,153443,1,8,0:0:0:0:
256,192,153614,1,0,0:0:0:0:
256,192,153955,1,8,0:0:0:0:
256,192,154125,1,8,0:0:0:0:
256,192,154295,1,0,0:0:0:0:
256,192,154636,1,8,0:0:0:0:
256,192,154977,1,0,0:0:0:0:
256,192,155659,1,4,0:0:0:0:
256,192,156000,1,8,0:0:0:0:
256,192,156170,1,0,0:0:0:0:
256,192,156341,1,0,0:0:0:0:
256,192,156682,1,8,0:0:0:0:
256,192,157023,1,0,0:0:0:0:
256,192,157364,1,8,0:0:0:0:
256,192,157534,1,0,0:0:0:0:
256,192,157705,1,8,0:0:0:0:
256,192,158045,1,8,0:0:0:0:
256,192,158386,1,0,0:0:0:0:
256,192,158727,1,8,0:0:0:0:
256,192,158898,1,8,0:0:0:0:
256,192,159068,1,0,0:0:0:0:
256,192,159409,1,8,0:0:0:0:
256,192,159580,1,8,0:0:0:0:
256,192,159750,1,0,0:0:0:0:
256,192,160091,1,8,0:0:0:0:
256,192,160432,1,0,0:0:0:0:
256,192,160602,1,0,0:0:0:0:
256,192,160773,1,8,0:0:0:0:
256,192,161114,1,0,0:0:0:0:
256,192,161455,1,8,0:0:0:0:
256,192,162136,1,8,0:0:0:0:
256,192,162818,1,8,0:0:0:0:
256,192,163500,1,8,0:0:0:0:
256,192,163670,1,8,0:0:0:0:
256,192,163841,5,4,0:0:0:0:
256,192,164182,1,8,0:0:0:0:
256,192,164352,1,8,0:0:0:0:
256,192,164523,1,0,0:0:0:0:
256,192,164864,1,8,0:0:0:0:
256,192,165034,1,8,0:0:0:0:
256,192,165205,1,0,0:0:0:0:
256,192,165545,1,8,0:0:0:0:
256,192,165886,1,0,0:0:0:0:
256,192,166568,1,4,0:0:0:0:
256,192,166909,1,0,0:0:0:0:
256,192,167080,1,8,0:0:0:0:
256,192,167250,1,8,0:0:0:0:
256,192,167591,1,0,0:0:0:0:
256,192,167761,1,0,0:0:0:0:
256,192,167932,1,8,0:0:0:0:
256,192,168273,1,8,0:0:0:0:
256,192,168443,1,0,0:0:0:0:
256,192,168614,1,0,0:0:0:0:
256,192,168955,1,8,0:0:0:0:
256,192,169295,1,0,0:0:0:0:
256,192,169636,1,8,0:0:0:0:
256,192,169807,1,8,0:0:0:0:
256,192,169977,1,0,0:0:0:0:
256,192,170318,1,8,0:0:0:0:
256,192,170489,1,8,0:0:0:0:
256,192,170659,1,0,0:0:0:0:
256,192,171000,1,8,0:0:0:0:
256,192,171341,1,0,0:0:0:0:
256,192,171511,1,0,0:0:0:0:
256,192,171682,1,8,0:0:0:0:
256,192,172023,1,0,0:0:0:0:
256,192,172364,1,8,0:0:0:0:
256,192,173045,1,8,0:0:0:0:
256,192,173386,1,0,0:0:0:0:
256,192,174068,12,0,174580,0:0:0:0:
256,192,174750,5,4,0:0:0:0:
256,192,175432,1,0,0:0:0:0:
256,192,175773,1,8,0:0:0:0:
256,192,175943,1,8,0:0:0:0:
256,192,176284,1,0,0:0:0:0:
256,192,176455,1,8,0:0:0:0:
256,192,176625,1,8,0:0:0:0:
256,192,176966,1,0,0:0:0:0:
256,192,177136,1,8,0:0:0:0:
256,192,177477,1,0,0:0:0:0:
256,192,177818,1,8,0:0:0:0:
256,192,178159,1,0,0:0:0:0:
256,192,178500,1,0,0:0:0:0:
256,192,178670,1,8,0:0:0:0:
256,192,179011,1,0,0:0:0:0:
256,192,179182,1,0,0:0:0:0:
256,192,179352,1,8,0:0:0:0:
256,192,179693,1,0,0:0:0:0:
256,192,179864,1,8,0:0:0:0:
256,192,180034,1,8,0:0:0:0:
256,192,180205,1,0,0:0:0:0:
256,192,180545,1,8,0:0:0:0:
256,192,180886,1,0,0:0:0:0:
256,192,181227,1,0,0:0:0:0:
256,192,181398,1,8,0:0:0:0:
256,192,181739,1,0,0:0:0:0:
256,192,181909,1,8,0:0:0:0:
256,192,182080,1,0,0:0:0:0:
256,192,182420,1,0,0:0:0:0:
256,192,182591,1,8,0:0:0:0:
256,192,182932,1,0,0:0:0:0:
256,192,183273,1,8,0:0:0:0:
256,192,183955,1,8,0:0:0:0:
256,192,184295,1,0,0:0:0:0:
256,192,184636,1,0,0:0:0:0:
256,192,184807,1,8,0:0:0:0:
256,192,184977,1,0,0:0:0:0:
256,192,185148,1,0,0:0:0:0:
256,192,185318,1,8,0:0:0:0:
256,192,185659,1,4,0:0:0:0:
256,192,186341,1,0,0:0:0:0:
256,192,186682,1,8,0:0:0:0:
256,192,186852,1,8,0:0:0:0:
256,192,187193,1,0,0:0:0:0:
256,192,187364,1,8,0:0:0:0:
256,192,187534,1,8,0:0:0:0:
256,192,187875,1,0,0:0:0:0:
256,192,188045,1,8,0:0:0:0:
256,192,188386,1,0,0:0:0:0:
256,192,188727,1,8,0:0:0:0:
256,192,189068,1,0,0:0:0:0:
256,192,189409,1,0,0:0:0:0:
256,192,189580,1,8,0:0:0:0:
256,192,189920,1,0,0:0:0:0:
256,192,190091,1,0,0:0:0:0:
256,192,190261,1,8,0:0:0:0:
256,192,190602,1,0,0:0:0:0:
256,192,190773,1,8,0:0:0:0:
256,192,190943,1,8,0:0:0:0:
256,192,191114,1,0,0:0:0:0:
256,192,191795,1,0,0:0:0:0:
256,192,192477,1,0,0:0:0:0:
256,192,192818,1,8,0:0:0:0:
256,192,192989,1,8,0:0:0:0:
256,192,193330,1,0,0:0:0:0:
256,192,193500,1,0,0:0:0:0:
256,192,193841,1,0,0:0:0:0:
256,192,194182,1,8,0:0:0:0:
256,192,194523,1,0,0:0:0:0:
256,192,194864,1,8,0:0:0:0:
256,192,195205,1,0,0:0:0:0:
256,192,195545,1,8,0:0:0:0:
256,192,195886,1,0,0:0:0:0:
256,192,196568,5,4,0:0:0:0:
256,192,196909,1,8,0:0:0:0:
256,192,197080,1,8,0:0:0:0:
256,192,197250,1,0,0:0:0:0:
256,192,197591,1,8,0:0:0:0:
256,192,197761,1,8,0:0:0:0:
256,192,197932,1,0,0:0:0:0:
256,192,198273,1,8,0:0:0:0:
256,192,198614,1,0,0:0:0:0:
256,192,199295,1,4,0:0:0:0:
256,192,199636,1,8,0:0:0:0:
256,192,199807,1,0,0:0:0:0:
256,192,199977,1,0,0:0:0:0:
256,192,200318,1,8,0:0:0:0:
256,192,200659,1,0,0:0:0:0:
256,192,201000,1,8,0:0:0:0:
256,192,201170,1,0,0:0:0:0:
256,192,201341,1,8,0:0:0:0:
256,192,201682,1,8,0:0:0:0:
256,192,202023,1,0,0:0:0:0:
256,192,202364,1,8,0:0:0:0:
256,192,202534,1,8,0:0:0:0:
256,192,202705,1,0,0:0:0:0:
256,192,203045,1,8,0:0:0:0:
256,192,203216,1,8,0:0:0:0:
256,192,203386,1,0,0:0:0:0:
256,192,203727,1,8,0:0:0:0:
256,192,204068,1,0,0:0:0:0:
256,192,204239,1,0,0:0:0:0:
256,192,204409,1,8,0:0:0:0:
256,192,204750,1,0,0:0:0:0:
256,192,205091,1,8,0:0:0:0:
256,192,205773,1,8,0:0:0:0:
256,192,206455,1,8,0:0:0:0:
256,192,207136,1,8,0:0:0:0:
256,192,207307,1,8,0:0:0:0:
256,192,207477,1,4,0:0:0:0:
256,192,207818,1,8,0:0:0:0:
256,192,207989,1,8,0:0:0:0:
256,192,208159,1,0,0:0:0:0:
256,192,208500,1,8,0:0:0:0:
256,192,208670,1,8,0:0:0:0:
256,192,208841,1,0,0:0:0:0:
256,192,209182,1,8,0:0:0:0:
256,192,209523,1,0,0:0:0:0:
256,192,210205,1,4,0:0:0:0:
256,192,210545,1,0,0:0:0:0:
256,192,210716,1,8,0:0:0:0:
256,192,210886,1,8,0:0:0:0:
256,192,211227,1,0,0:0:0:0:
256,192,211398,1,0,0:0:0:0:
256,192,211568,1,8,0:0:0:0:
256,192,211909,1,8,0:0:0:0:
256,192,212080,1,8,0:0:0:0:
256,192,212250,1,0,0:0:0:0:
256,192,212591,1,8,0:0:0:0:
256,192,212932,1,0,0:0:0:0:
256,192,213273,1,8,0:0:0:0:
256,192,213443,1,8,0:0:0:0:
256,192,213614,1,0,0:0:0:0:
256,192,213955,1,8,0:0:0:0:
256,192,214125,1,8,0:0:0:0:
256,192,214295,1,0,0:0:0:0:
256,192,214636,1,8,0:0:0:0:
256,192,214977,1,0,0:0:0:0:
256,192,215148,1,0,0:0:0:0:
256,192,215318,1,8,0:0:0:0:
256,192,215659,1,0,0:0:0:0:
256,192,216000,1,8,0:0:0:0:
256,192,216682,1,8,0:0:0:0:
256,192,217023,1,0,0:0:0:0:
256,192,217193,12,0,218045,0:0:0:0:
256,192,218386,5,4,0:0:0:0:
