osu file format v14

[General]
AudioFilename: audio.mp3
AudioLeadIn: 0
PreviewTime: 88301
Countdown: 0
SampleSet: Normal
StackLeniency: 0.6
Mode: 0
LetterboxInBreaks: 0
WidescreenStoryboard: 1

[Editor]
DistanceSpacing: 1.2
BeatDivisor: 4
GridSize: 4
TimelineZoom: 4.100001

[Metadata]
Title:Signals
TitleUnicode:Signals
Artist:Magnetude
ArtistUnicode:Magnetude
Creator:Firebool
Version:1 MHz
Source:
Tags:RAMM311D ram records english drum and bass dnb neurofunk adioni m3gB3g Xenjes
BeatmapID:1939838
BeatmapSetID:850972

[Difficulty]
HPDrainRate:6
CircleSize:3.8
OverallDifficulty:8
ApproachRate:9
SliderMultiplier:1.7
SliderTickRate:1

[Events]
//Background and Video events
0,0,"Digital Spaceship Sun.jpg",0,0
//Break Periods
//Storyboard Layer 0 (Background)
//Storyboard Layer 1 (Fail)
//Storyboard Layer 2 (Pass)
//Storyboard Layer 3 (Foreground)
//Storyboard Sound Samples

[TimingPoints]
22095,344.827586206897,4,2,1,30,1,0
22439,-100,4,2,1,30,0,0
22612,-100,4,2,1,30,0,0
22784,-100,4,2,1,30,0,0
22957,-100,4,2,1,30,0,0
23474,-200,4,2,1,30,0,0
23732,-200,4,2,1,5,0,0
23819,-200,4,2,1,30,0,0
24077,-125,4,2,1,5,0,0
24163,-166.666666666667,4,2,1,30,0,0
24422,-166.666666666667,4,2,1,5,0,0
24508,-250,4,2,1,30,0,0
24767,-250,4,2,1,5,0,0
24853,-100,4,2,1,30,0,0
25888,-125,4,2,1,30,0,0
26232,-200,4,2,1,30,0,0
26491,-200,4,2,1,5,0,0
26577,-200,4,2,1,30,0,0
26836,-200,4,2,1,5,0,0
26922,-200,4,2,1,30,0,0
27181,-166.666666666667,4,2,1,5,0,0
27267,-250,4,2,1,30,0,0
27526,-250,4,2,1,5,0,0
27612,-50,4,2,1,20,0,0
27957,-83.3333333333333,4,2,1,5,0,0
28043,-100,4,2,1,30,0,0
28991,-200,4,2,1,30,0,0
29250,-200,4,2,1,5,0,0
29336,-200,4,2,1,30,0,0
29594,-200,4,2,1,5,0,0
29681,-166.666666666667,4,2,1,30,0,0
29939,-166.666666666667,4,2,1,5,0,0
30026,-250,4,2,1,30,0,0
30284,-250,4,2,1,5,0,0
30370,-100,4,2,1,20,0,0
30715,-100,4,2,1,5,0,0
30801,-100,4,2,1,30,0,0
33129,-83.3333333333333,4,2,1,30,0,0
33646,-100,4,2,1,30,0,0
34508,-100,4,2,1,30,0,0
34767,-100,4,2,1,5,0,0
34853,-125,4,2,1,30,0,0
35112,-125,4,2,1,5,0,0
35198,-166.666666666667,4,2,1,30,0,0
35457,-166.666666666667,4,2,1,5,0,0
35543,-250,4,2,1,30,0,0
35888,-100,4,2,1,30,0,0
36750,-125,4,2,1,30,0,0
36922,-100,4,2,1,30,0,0
37267,-100,4,2,1,30,0,0
37526,-100,4,2,1,5,0,0
37612,-125,4,2,1,30,0,0
37870,-125,4,2,1,5,0,0
37957,-166.666666666667,4,2,1,30,0,0
38215,-166.666666666667,4,2,1,5,0,0
38301,-250,4,2,1,30,0,0
38646,-50,4,2,1,20,0,0
38905,-83.3333333333333,4,2,1,5,0,0
39163,-83.3333333333333,4,2,1,30,0,0
40026,-100,4,2,1,30,0,0
40284,-100,4,2,1,5,0,0
40370,-125,4,2,1,25,0,0
40629,-125,4,2,1,5,0,0
40715,-166.666666666667,4,2,1,20,0,0
40974,-166.666666666667,4,2,1,5,0,0
41060,-250,4,2,1,15,0,0
41319,-250,4,2,1,5,0,0
41405,-83.3333333333333,4,2,1,30,0,0
41750,-83.3333333333333,4,1,1,5,0,0
41922,-83.3333333333333,4,1,1,30,0,0
42095,-83.3333333333333,4,1,1,5,0,0
42267,-83.3333333333333,4,1,1,30,0,0
42439,-83.3333333333333,4,1,1,5,0,0
42612,-83.3333333333333,4,1,1,30,0,0
42784,-83.3333333333333,4,1,1,5,0,0
42957,-83.3333333333333,4,1,1,30,0,0
43129,-83.3333333333333,4,1,1,5,0,0
43301,-100,4,1,1,15,0,0
43474,-83.3333333333333,4,1,1,5,0,0
43560,-133.333333333333,4,1,1,10,0,0
43819,-133.333333333333,4,1,1,5,0,0
43991,-250,4,1,1,30,0,0
44163,-100,4,1,1,30,0,0
44422,-100,4,1,1,5,0,0
44508,-100,4,1,1,30,0,0
47181,-100,4,1,1,5,0,0
47267,-100,4,1,1,30,0,0
48388,-100,4,1,1,5,0,0
48474,-100,4,1,1,30,0,0
49939,-100,4,1,1,5,0,0
50026,-100,4,1,1,30,0,0
52698,-100,4,1,1,5,0,0
52784,-100,4,1,1,30,0,0
53819,-100,4,1,1,30,0,0
54853,-50,4,1,1,30,0,0
54939,-100,4,1,1,5,0,0
55026,-50,4,1,1,30,0,0
55198,-90.9090909090909,4,1,1,30,0,0
55457,-90.9090909090909,4,1,1,5,0,0
55543,-90.9090909090909,4,1,1,30,0,0
56146,-90.9090909090909,4,1,1,5,0,0
56232,-90.9090909090909,4,1,1,30,0,0
57439,-90.9090909090909,4,1,1,5,0,0
57526,-90.9090909090909,4,1,1,30,0,0
57870,-90.9090909090909,4,1,1,30,0,0
58215,-90.9090909090909,4,1,1,5,0,0
58301,-90.9090909090909,4,1,1,30,0,0
58905,-90.9090909090909,4,1,1,5,0,0
58991,-90.9090909090909,4,1,1,30,0,0
59595,-90.9090909090909,4,1,1,5,0,0
59681,-90.9090909090909,4,1,1,30,0,0
66232,-50,4,1,1,60,0,1
66491,-66.6666666666667,4,1,1,5,0,1
66577,-66.6666666666667,4,1,1,60,0,1
71146,-66.6666666666667,4,1,1,30,0,1
71232,-66.6666666666667,4,1,1,60,0,1
71405,-66.6666666666667,4,1,1,5,0,1
71491,-66.6666666666667,4,1,1,60,0,1
71663,-66.6666666666667,4,1,1,30,0,1
71750,-66.6666666666667,4,1,1,60,0,1
77267,-50,4,1,1,60,0,1
77612,-66.6666666666667,4,1,1,60,0,1
82181,-66.6666666666667,4,1,1,30,0,1
82267,-66.6666666666667,4,1,1,60,0,1
82439,-66.6666666666667,4,3,90,5,0,1
82526,-66.6666666666667,4,3,1,60,0,1
82698,-66.6666666666667,4,1,1,30,0,1
82784,-50,4,1,1,60,0,1
83129,-66.6666666666667,4,1,1,60,0,1
87612,-66.6666666666667,4,3,90,60,0,1
87957,-66.6666666666667,4,1,1,60,0,1
88301,-83.3333333333333,4,2,1,60,0,0
90715,-83.3333333333333,4,2,1,60,0,0
90888,-83.3333333333333,4,2,1,60,0,0
93043,-83.3333333333333,4,2,1,60,0,0
93129,-83.3333333333333,4,2,1,60,0,0
101750,-83.3333333333333,4,2,1,60,0,0
101922,-83.3333333333333,4,2,1,60,0,0
107612,-90.9090909090909,4,2,1,60,0,0
110370,-50,4,1,1,60,0,1
110629,-76.9230769230769,4,1,1,5,0,1
110715,-76.9230769230769,4,1,1,60,0,1
113129,-50,4,1,1,60,0,1
113388,-76.9230769230769,4,1,1,5,0,1
113474,-76.9230769230769,4,1,1,60,0,1
115198,-50,4,3,90,60,0,1
115715,-76.9230769230769,4,1,1,60,0,1
115888,-50,4,1,1,60,0,1
116146,-50,4,1,1,5,0,1
116232,-76.9230769230769,4,1,1,60,0,1
118646,-50,4,1,1,60,0,1
118905,-50,4,1,1,5,0,1
118991,-76.9230769230769,4,1,1,60,0,1
121405,-50,4,1,1,60,0,1
121663,-50,4,1,1,5,0,1
121750,-76.9230769230769,4,1,1,60,0,1
124163,-50,4,1,1,60,0,1
124422,-76.9230769230769,4,1,1,5,0,1
124508,-76.9230769230769,4,1,1,60,0,1
126232,-50,4,3,90,60,0,1
126750,-50,4,3,90,30,0,1
126922,-50,4,1,1,60,0,1
127181,-76.9230769230769,4,1,1,5,0,1
127267,-76.9230769230769,4,1,1,60,0,1
129681,-50,4,1,1,60,0,1
129939,-76.9230769230769,4,1,1,5,0,1
130026,-76.9230769230769,4,1,1,60,0,1
132439,-76.9230769230769,4,2,1,60,0,0
142784,-100,4,2,1,60,0,0
143129,-133.333333333333,4,2,1,60,0,0
143474,-71.4285714285714,4,2,1,60,0,0
154163,-62.5,4,2,1,60,0,0
154508,-62.5,4,3,90,60,0,0

[Colours]
Combo1 : 1,158,175
Combo2 : 206,0,0
Combo3 : 128,128,255
Combo4 : 255,0,128

[HitObjects]
57,111,22094,6,0,B|100:85|146:107|195:131|233:111,1,170,4|0,2:0|2:0,0:0:0:0:
337,91,22612,1,2,2:0:0:0:
353,98,22784,2,0,L|335:185,1,85,0|0,2:0|2:0,0:0:0:0:
275,241,23129,2,0,L|292:328,1,85,0|0,2:0|2:0,2:2:0:0:
412,336,23474,6,0,L|434:228,3,85,2|0|0|0,2:0|2:0|2:0|2:0,2:2:0:0:
303,330,24853,2,0,B|260:304|213:326|165:350|127:330,1,170,2|0,2:0|2:0,2:2:0:0:
38,219,25370,2,0,P|45:273|65:306,1,85,2|0,2:0|2:0,2:2:0:0:
125,242,25715,2,0,P|118:188|98:155,1,85,0|0,2:0|2:0,2:2:0:0:
35,65,26060,1,0,2:0:0:0:
154,7,26232,6,0,L|132:115,3,85,2|0|0|0,2:0|2:0|2:0|2:0,2:2:0:0:
267,22,27612,6,0,B|331:5|381:-8|460:7|506:95|454:142|346:89,1,340,4|0,2:0|2:0,2:2:0:0:
254,117,28129,2,0,L|272:235,1,85,2|0,2:0|2:0,2:2:0:0:
367,176,28474,2,0,L|349:294,1,85,0|0,2:0|2:0,2:2:0:0:
303,316,28819,1,0,2:0:0:0:
420,355,28991,6,0,L|436:257,3,85,2|0|0|0,2:0|2:0|2:0|2:0,2:2:0:0:
354,260,30370,6,0,L|384:77,1,170,2|0,2:0|2:0,2:2:0:0:
469,57,30888,2,0,P|398:8|316:24,1,170,2|0,2:0|2:0,2:2:0:0:
250,224,31577,1,0,2:0:0:0:
274,111,31750,5,2,2:0:0:0:
256,192,31836,12,4,33129,2:0:0:0:
31,166,33474,5,0,2:0:0:0:
112,48,33646,1,0,2:0:0:0:
154,154,33819,1,0,2:0:0:0:
152,162,33905,1,2,2:0:0:0:
150,170,33991,1,0,2:0:0:0:
149,179,34077,1,0,2:0:0:0:
147,187,34163,1,0,2:0:0:0:
69,276,34336,1,0,2:0:0:0:
167,363,34508,6,0,P|250:353|290:308,1,127.5,2|0,2:0|0:0,2:2:0:0:
271,375,34853,2,0,P|318:339|327:297,1,102,0|0,2:0|0:0,0:0:0:0:
367,333,35198,2,0,P|384:291|374:261,1,76.4999976654053,0|0,2:0|0:0,0:0:0:0:
429,248,35543,5,0,2:0:0:0:
430,236,35629,1,0,2:0:0:0:
428,224,35715,1,0,2:0:0:0:
422,214,35801,1,0,2:0:0:0:
414,205,35888,6,0,P|402:160|415:122,2,85,2|0|0,2:0|2:0|2:0,2:2:0:0:
322,69,36405,2,0,P|333:109|321:149,1,85,2|0,2:0|2:0,2:2:0:0:
236,12,36750,2,0,P|224:52|236:92,1,68,0|0,2:0|2:0,2:2:0:0:
233,89,37008,1,0,2:0:0:0:
236,101,37094,1,0,2:0:0:0:
237,114,37180,1,0,2:0:0:0:
236,126,37267,6,0,P|164:143|99:124,1,127.5,2|0,2:0|0:0,0:0:0:0:
28,171,37612,2,0,P|81:158|129:172,1,102,0|0,2:0|0:0,0:0:0:0:
210,211,37957,2,0,P|170:220|134:209,1,76.4999976654053,0|0,2:0|0:0,0:0:0:0:
56,256,38301,5,0,2:0:0:0:
71,249,38387,1,0,2:0:0:0:
88,246,38473,1,0,2:0:0:0:
105,247,38559,1,0,2:0:0:0:
121,252,38646,6,0,B|229:268|245:336|156:382|81:379|11:343|-6:293,1,340,4|0,2:0|2:0,2:2:0:0:
29,81,39163,2,0,P|39:141|20:188,1,101.999996887207,2|0,2:0|2:0,0:0:0:0:
146,21,39508,2,0,P|136:81|155:128,1,101.999996887207,0|0,2:0|2:0,2:2:0:0:
160,128,39767,1,0,2:0:0:0:
174,135,39853,1,0,2:0:0:0:
189,139,39939,1,0,2:0:0:0:
204,140,40026,5,2,2:0:0:0:
245,55,40198,1,0,2:0:0:0:
290,130,40370,5,0,2:0:0:0:
322,62,40542,1,0,2:0:0:0:
362,122,40715,5,0,2:0:0:0:
387,67,40887,1,0,2:0:0:0:
422,114,41060,5,0,2:0:0:0:
442,70,41232,1,0,2:0:0:0:
466,221,41405,5,2,2:0:0:0:
463,239,41577,2,0,P|428:235|463:234,1,101.999996887207,0|0,3:0|3:0,3:3:0:0:
362,357,41922,2,0,P|358:322|357:357,1,101.999996887207,0|0,3:0|3:0,3:3:0:0:
237,256,42267,2,0,P|272:255|237:248,1,101.999996887207,0|0,3:0|3:0,3:3:0:0:
162,332,42612,6,0,P|166:367|167:332,1,101.999996887207,0|0,3:0|3:0,3:3:0:0:
61,287,42957,2,0,P|26:291|61:292,1,101.999996887207,0|0,3:0|3:0,3:3:0:0:
141,205,43301,2,0,P|172:208|141:209,1,85,0|0,3:0|3:0,3:3:0:0:
55,136,43646,2,0,P|31:137|55:140,1,63.7500024318696,0|0,3:0|3:0,0:0:0:0:
123,28,43991,1,0,3:0:0:0:
138,66,44163,6,0,B|182:96|226:69|269:44|315:69,1,170,4|8,0:0|0:0,0:0:0:0:
456,18,44681,1,0,0:0:0:0:
464,28,44767,2,2,P|449:75|455:116,1,85
486,142,45026,2,0,P|501:189|495:230,1,85,0|8,0:0|0:0,0:0:0:0:
378,277,45370,1,0,0:0:0:0:
498,353,45543,6,0,B|461:344|428:348|428:348|377:375|327:346,1,170,0|8,0:0|0:0,0:0:0:0:
220,169,46060,1,0,0:0:0:0:
210,176,46146,2,2,L|229:272,1,85
265,283,46405,2,0,L|284:379,1,85,0|8,0:0|0:0,0:0:0:0:
318,146,46750,1,0,3:0:0:0:
248,50,46922,6,0,P|159:31|81:59,1,170,0|8,0:0|0:0,0:0:0:0:
24,196,47439,1,0,0:0:0:0:
32,206,47526,2,2,P|83:215|120:209,1,85
142,173,47784,2,0,P|184:168|225:177,1,85,0|8,0:0|0:0,0:0:0:0:
352,235,48129,1,0,0:0:0:0:
437,131,48301,6,0,B|413:195|466:224|422:291|422:291|433:311,1,170,0|8,0:0|0:0,0:0:0:0:
502,357,48819,1,0,0:0:0:0:
472,359,48905,1,2,0:0:0:0:
444,369,48991,1,0,0:0:0:0:
414,371,49077,1,2,0:0:0:0:
386,364,49163,1,0,0:0:0:0:
358,354,49250,1,2,0:0:0:0:
328,351,49336,1,8,0:0:0:0:
210,315,49508,1,0,0:0:0:0:
96,362,49681,6,0,P|46:289|48:210,1,170,0|8,0:0|0:0,0:0:0:0:
113,28,50198,1,0,0:0:0:0:
123,35,50284,2,2,L|104:131,1,85
146,150,50543,2,0,L|127:246,1,85,0|8,0:0|0:0,0:0:0:0:
236,86,50888,1,0,0:0:0:0:
369,27,51060,6,2,B|392:65|343:101|343:101|358:108|358:108|320:151|343:184,1,170,0|8,0:0|0:0,0:0:0:0:
453,157,51577,1,0,0:0:0:0:
467,162,51663,2,2,P|477:213|460:251,1,85
501,280,51922,2,0,P|489:320|499:360,1,85,0|8,0:0|0:0,0:0:0:0:
376,319,52267,1,0,0:0:0:0:
265,373,52439,6,0,B|185:372|159:346|159:346|122:355|94:349,1,170,0|8,0:0|0:0,0:0:0:0:
42,244,52957,1,0,0:0:0:0:
56,249,53043,1,0,0:0:0:0:
70,254,53129,2,0,P|80:203|63:165,1,85,2|2,0:0|0:0,0:0:0:0:
16,36,53474,2,0,P|6:87|23:125,1,85,8|0,0:0|0:0,0:0:0:0:
171,82,53819,6,2,L|104:76,2,56.6666666666667
295,25,54163,6,2,L|238:30,2,56.6666666666667,10|2|2,0:0|0:0|0:0,0:0:0:0:
449,108,54508,5,0,0:0:0:0:
473,74,54594,1,0,0:0:0:0:
463,33,54680,1,0,0:0:0:0:
427,13,54766,1,0,0:0:0:0:
389,27,54853,6,0,P|365:69|377:113,1,85,10|0,3:0|0:0,0:0:0:0:
431,184,55026,2,0,P|455:142|443:98,1,85,2|0,3:0|0:0,0:0:0:0:
344,196,55198,6,2,L|369:343,1,140.25000428009,2|0,3:0|0:0,3:3:0:0:
448,352,55543,1,8,0:0:0:0:
287,119,55801,1,0,0:0:0:0:
276,125,55888,6,0,L|251:272,1,140.25000428009,2|0,0:0|0:0,0:0:0:0:
172,281,56233,1,8,0:0:0:0:
32,346,56491,1,0,0:0:0:0:
43,340,56577,6,0,L|68:193,1,140.25000428009,2|0,0:0|0:0,0:0:0:0:
13,123,56923,1,8,0:0:0:0:
31,29,57095,1,2,0:0:0:0:
115,76,57267,6,0,P|170:84|212:72,1,93.5000028533936,2|0,0:0|0:0,0:0:0:0:
220,37,57526,2,0,P|265:27|311:35,1,93.5000028533936,2|0,0:0|0:0,0:0:0:0:
339,70,57784,1,2,0:0:0:0:
497,22,57957,6,0,B|475:51|491:94|508:140|483:167,1,140.25000428009,0|2,0:0|0:0,0:0:0:0:
448,226,58301,1,8,0:0:0:0:
349,343,58560,1,0,0:0:0:0:
359,336,58646,6,0,B|381:307|365:264|348:218|373:191,1,140.25000428009,2|0,0:0|0:0,0:0:0:0:
408,132,58990,1,8,0:0:0:0:
244,148,59250,1,0,0:0:0:0:
235,157,59336,2,0,P|162:171|87:161,1,140.25000428009,2|0,0:0|0:0,0:0:0:0:
33,109,59681,1,8,0:0:0:0:
143,54,59853,1,2,0:0:0:0:
97,163,60026,5,0,3:0:0:0:
95,209,60140,5,0,3:0:0:0:
106,254,60255,5,0,3:0:0:0:
37,276,60370,5,0,3:0:0:0:
35,322,60485,5,0,3:0:0:0:
22,366,60599,5,0,3:0:0:0:
256,192,60715,12,8,64853,0:0:0:0:
279,282,65112,5,0,0:0:0:0:
286,293,65198,1,8,0:0:0:0:
399,353,65457,5,0,0:0:0:0:
391,364,65543,1,8,3:0:0:0:
425,367,65629,1,0,3:0:0:0:
460,366,65715,1,0,3:0:0:0:
495,359,65801,1,2,3:0:0:0:
471,312,65887,1,8,3:0:0:0:
352,155,66232,6,0,B|303:130|219:118|168:152|145:215|157:252|215:262|282:218,1,340,4|8,0:0|0:0,0:0:0:0:
432,167,66750,2,0,P|427:124|406:94,1,63.7500024318696,2|0,0:0|0:0,0:0:0:0:
349,72,66922,2,0,P|315:45|278:38,1,63.7500024318696
223,56,67095,1,0,0:0:0:0:
47,19,67267,6,0,L|71:97,1,63.7500024318696,8|0,0:0|0:0,0:0:0:0:
33,150,67439,2,0,L|57:228,1,63.7500024318696,2|0,0:0|0:0,0:0:0:0:
131,234,67612,2,0,P|143:305|110:356,1,127.500004863739,0|0,0:0|0:0,0:0:0:0:
133,223,67957,2,0,L|271:241,1,127.500004863739,8|2,0:0|0:0,0:0:0:0:
459,281,68301,5,8,3:0:0:0:
470,310,68387,1,0,3:0:0:0:
464,341,68473,1,0,3:0:0:0:
443,363,68559,1,0,3:0:0:0:
412,371,68645,1,2,3:0:0:0:
383,360,68732,1,0,3:0:0:0:
363,335,68818,1,8,3:0:0:0:
361,304,68904,1,0,3:0:0:0:
376,276,68991,6,0,B|421:216|372:153|372:153|321:88|346:33,1,255.000009727478,4|8,0:0|0:0,0:0:0:0:
480,64,69508,2,0,P|441:74|404:73,1,63.7500024318696,2|0,0:0|0:0,0:0:0:0:
342,41,69681,2,0,P|310:42|279:51,1,63.7500024318696,0|0,0:0|0:0,0:0:0:0:
225,112,69853,1,0,0:0:0:0:
281,255,70026,6,0,L|266:327,1,63.7500024318696,8|0,0:0|0:0,0:0:0:0:
179,359,70198,2,0,L|194:287,1,63.7500024318696,2|0,0:0|0:0,0:0:0:0:
206,221,70370,2,0,P|130:206|72:216,1,127.500004863739,0|0,0:0|0:0,0:0:0:0:
0,265,70715,2,0,L|27:128,1,127.500004863739,8|0,0:0|0:0,0:0:0:0:
22,101,70974,6,0,P|93:100|151:89,1,127.500004863739,10|0,3:0|3:0,3:3:0:0:
172,60,71232,2,0,P|101:61|43:72,1,127.500004863739,10|0,3:0|3:0,3:3:0:0:
22,101,71491,2,0,P|93:100|151:89,1,127.500004863739,10|0,3:3|3:0,3:3:0:0:
173,60,71750,6,0,B|222:24|296:54|296:54|370:83|424:50,1,255.000009727478,4|8,0:0|0:0,0:0:0:0:
469,129,72267,2,0,P|436:148|402:157,1,63.7500024318696,2|0,0:0|0:0,0:0:0:0:
333,161,72439,2,0,P|296:155|271:146,1,63.7500024318696,0|0,0:0|0:0,0:0:0:0:
194,162,72612,1,0,0:0:0:0:
44,211,72784,6,0,P|77:230|111:239,1,63.7500024318696,8|0,0:0|0:0,0:0:0:0:
180,243,72956,2,0,P|217:237|242:228,1,63.7500024318696,2|0,0:0|0:0,0:0:0:0:
314,259,73129,2,0,P|394:263|450:243,1,127.500004863739,0|0,0:0|0:0,0:0:0:0:
488,168,73474,2,0,L|471:312,1,127.500004863739,8|2,0:0|0:0,0:0:0:0:
467,313,73732,1,0,0:0:0:0:
462,331,73819,5,8,3:0:0:0:
434,345,73905,1,0,3:0:0:0:
402,350,73991,1,0,3:0:0:0:
370,347,74077,1,0,3:0:0:0:
339,340,74163,1,8,3:0:0:0:
296,326,74249,1,0,3:0:0:0:
252,323,74336,1,2,3:0:0:0:
208,330,74421,1,0,3:0:0:0:
172,347,74508,6,0,B|122:339|83:364|83:364|32:389|-28:387|-34:315|2:305,1,255.000009727478,4|8,0:0|0:0,0:0:0:0:
156,259,75026,2,0,P|155:213|140:181,1,63.7500024318696,2|0,0:0|0:0,0:0:0:0:
108,134,75198,2,0,P|85:94|55:74,1,63.7500024318696,0|0,0:0|0:0,0:0:0:0:
16,31,75370,1,0,0:0:0:0:
175,45,75543,6,0,L|249:35,1,63.7500024318696,8|0,0:0|0:0,0:0:0:0:
304,77,75715,2,0,L|367:85,1,63.7500024318696,2|0,0:0|0:0,0:0:0:0:
431,34,75888,2,0,P|448:94|420:152,1,127.500004863739,0|0,0:0|0:0,0:0:0:0:
361,196,76232,2,0,P|334:252|351:312,1,127.500004863739,8|2,0:0|0:0,0:0:0:0:
381,345,76491,1,0,0:0:0:0:
381,345,76577,5,2,0:0:0:0:
267,174,76750,1,2,0:0:0:0:
239,299,76922,1,2,0:0:0:0:
121,368,77095,1,2,0:0:0:0:
104,196,77267,6,0,B|46:198|0:227|11:284|22:308|60:316|105:301|133:289|176:259|194:184,1,340,4|8,0:0|0:0,0:0:0:0:
84,39,77784,2,0,P|123:49|158:46,1,63.7500024318696,0|0,0:0|0:0,0:0:0:0:
196,108,77957,2,0,P|234:97|263:77,1,63.7500024318696,2|0,0:0|0:0,0:0:0:0:
332,83,78129,1,0,0:0:0:0:
481,26,78301,6,0,L|468:91,1,63.7500024318696,8|0,0:0|0:0,0:0:0:0:
435,156,78474,2,0,L|422:221,1,63.7500024318696,2|0,0:0|0:0,0:0:0:0:
450,287,78646,2,0,P|426:355|369:368,1,127.500004863739,2|0,0:0|0:0,0:0:0:0:
302,304,78991,2,0,L|168:325,1,127.500004863739,8|2,0:0|3:0,0:0:0:0:
156,322,79250,1,2,3:0:0:0:
137,323,79336,5,0,3:0:0:0:
119,326,79422,1,0,3:0:0:0:
101,333,79508,1,2,3:0:0:0:
84,342,79595,1,0,3:0:0:0:
68,353,79681,5,10,3:0:0:0:
45,330,79767,1,2,3:0:0:0:
33,301,79853,1,0,3:0:0:0:
32,269,79939,1,0,3:0:0:0:
43,239,80026,6,0,B|68:210|70:181|70:181|103:122|65:69|65:69|48:23|69:-12,1,255.000009727478,4|8,0:0|0:0,0:0:0:0:
6,128,80543,2,0,L|75:121,1,63.7500024318696,0|0,0:0|0:0,0:0:0:0:
136,161,80715,2,0,L|205:154,1,63.7500024318696,2|0,0:0|0:0,0:0:0:0:
261,103,80888,1,0,0:0:0:0:
380,20,81060,6,0,P|391:55|390:96,1,63.7500024318696,8|0,0:0|0:0,0:0:0:0:
347,147,81232,2,0,P|348:178|358:208,1,63.7500024318696,2|0,0:0|0:0,0:0:0:0:
431,258,81405,2,0,P|375:290|311:278,1,127.500004863739,2|0,0:0|0:0,0:0:0:0:
220,226,81750,2,0,L|252:360,1,127.500004863739,8|2,0:0|0:0,0:0:0:0:
221,361,82008,6,0,P|146:371|91:354,1,127.500004863739,2|0,3:0|3:0,3:3:0:0:
45,320,82267,2,0,P|120:310|175:327,1,127.500004863739,2|0,3:0|3:0,3:3:0:0:
221,361,82526,2,0,P|146:371|91:354,1,127.500004863739,10|0,3:3|3:0,3:3:0:0:
46,322,82784,6,0,B|114:272|74:177|74:177|27:71|92:12,1,340,4|8,0:0|0:0,0:0:0:0:
152,99,83301,2,0,P|188:107|220:103,1,63.7500024318696,0|0,0:0|0:0,0:0:0:0:
235,180,83474,2,0,P|270:168|295:149,1,63.7500024318696,2|0,0:0|0:0,0:0:0:0:
347,208,83646,1,0,0:0:0:0:
400,35,83819,6,0,P|408:71|404:103,1,63.7500024318696,8|0,0:0|0:0,0:0:0:0:
481,118,83992,2,0,P|469:153|450:178,1,63.7500024318696,2|0,0:0|0:0,0:0:0:0:
509,230,84163,2,0,P|467:287|406:300,1,127.500004863739,2|0,0:0|0:0,0:0:0:0:
329,365,84508,2,0,L|281:236,1,127.500004863739,8|2,0:0|0:0,0:0:0:0:
230,113,84853,6,0,L|198:196,2,85.0000032424928,2|2|2,3:0|3:0|3:0,0:0:0:0:
307,81,85198,5,2,3:0:0:0:
321,41,85312,5,2,3:0:0:0:
336,1,85427,5,2,3:0:0:0:
251,7,85543,6,0,B|184:11|184:11|141:7|96:40|96:40|46:56|-2:42,1,255.000009727478,4|8,0:0|0:0,0:0:0:0:
7,121,86060,2,0,P|42:125|82:121,1,63.7500024318696,0|0,0:0|0:0,0:0:0:0:
121,183,86232,2,0,P|156:179|196:183,1,63.7500024318696,2|0,0:0|0:0,0:0:0:0:
246,234,86405,1,0,0:0:0:0:
339,113,86577,6,0,L|326:190,1,63.7500024318696,8|0,0:0|0:0,0:0:0:0:
368,243,86750,2,0,L|355:320,1,63.7500024318696,2|0,0:0|0:0,0:0:0:0:
425,373,86922,2,0,L|446:237,1,127.500004863739,2|0,0:0|0:0,0:0:0:0:
314,368,87267,2,0,P|243:375|182:348,1,127.500004863739,8|2,0:0|0:0,0:0:0:0:
170,341,87525,1,0,0:0:0:0:
146,331,87611,1,2,0:0:0:0:
12,113,87785,5,2,0:0:0:0:
101,207,87957,1,2,0:0:0:0:
227,179,88129,1,2,0:0:0:0:
95,31,88301,6,0,B|124:13|172:34|222:57|256:36,1,152.999995330811,4|0,2:0|2:0,2:3:0:0:
316,27,88646,1,8,2:0:0:0:
413,226,88905,1,0,2:0:0:0:
427,236,88991,2,0,P|461:191|461:140,1,101.999996887207,2|0,2:0|2:0,2:0:0:0:
494,25,89336,2,0,L|486:131,1,101.999996887207,8|2,2:0|2:0,2:0:0:0:
490,319,89681,6,0,P|398:333|342:300,1,152.999995330811,4|0,2:0|2:0,2:3:0:0:
321,232,90026,1,8,2:0:0:0:
120,360,90284,1,2,2:0:0:0:
140,349,90370,1,2,2:0:0:0:
170,355,90456,1,0,2:0:0:0:
201,355,90542,1,0,2:0:0:0:
231,351,90628,1,2,2:0:0:0:
250,332,90715,1,8,2:0:0:0:
21,203,90888,1,0,2:0:0:0:
19,356,91060,6,0,L|116:221,1,152.999995330811,4|0,2:0|2:0,2:3:0:0:
156,171,91405,1,8,2:0:0:0:
41,36,91663,1,0,2:0:0:0:
28,48,91750,2,0,P|83:68|130:51,1,101.999996887207,2|0,2:0|2:0,2:0:0:0:
223,0,92095,2,0,L|202:102,1,101.999996887207,8|2,2:0|2:0,2:0:0:0:
227,230,92439,6,0,B|270:258|307:233|346:210|380:228,1,152.999995330811,4|0,2:0|2:0,2:3:0:0:
444,261,92784,1,8,2:0:0:0:
372,72,93043,1,8,2:0:0:0:
391,91,93130,1,2,2:0:0:0:
421,95,93216,1,0,2:0:0:0:
452,95,93302,1,0,2:0:0:0:
482,89,93388,1,2,2:0:0:0:
502,100,93474,1,10,2:0:0:0:
291,22,93646,1,0,2:0:0:0:
266,124,93819,6,0,P|181:145|103:127,1,152.999995330811,4|0,2:0|2:0,2:3:0:0:
53,88,94163,1,8,2:0:0:0:
61,306,94422,1,0,2:0:0:0:
41,313,94508,2,0,P|24:249|40:204,1,101.999996887207,2|0,2:0|2:0,2:3:0:0:
205,245,94853,2,0,L|88:262,1,101.999996887207,8|2,2:0|2:0,2:0:0:0:
222,361,95198,6,0,B|279:353|279:353|343:378|390:350,1,152.999995330811,4|0,2:0|2:0,2:3:0:0:
445,329,95543,1,8,2:0:0:0:
353,115,95801,1,2,2:0:0:0:
364,135,95887,1,2,2:0:0:0:
358,165,95973,1,0,2:0:0:0:
358,196,96059,1,0,2:0:0:0:
362,226,96145,1,2,2:0:0:0:
381,245,96232,1,8,2:0:0:0:
457,87,96405,1,0,2:0:0:0:
302,27,96577,6,0,P|269:100|287:190,1,152.999995330811,4|0,2:0|2:0,2:3:0:0:
275,248,96922,1,8,2:0:0:0:
99,322,97181,1,0,2:0:0:0:
86,339,97267,2,0,P|151:357|194:345,1,101.999996887207,2|0,2:0|2:0,2:0:0:0:
58,187,97612,2,0,L|25:287,1,101.999996887207,8|2,2:0|2:0,2:0:0:0:
149,257,97957,6,0,L|198:107,1,152.999995330811,4|0,2:0|2:0,2:3:0:0:
221,37,98301,1,8,2:0:0:0:
306,99,98474,1,2,2:0:0:0:
325,105,98560,1,0,2:0:0:0:
345,110,98646,6,0,P|372:117|400:115,1,50.9999984436036,10|0,2:0|2:0,2:3:0:0:
488,22,98819,2,0,P|468:41|456:67,1,50.9999984436036,0|2,2:0|2:0,2:3:0:0:
493,189,98991,2,0,P|485:162|469:138,2,50.9999984436036,0|0|2,2:0|2:0|2:0,2:3:0:0:
486,318,99336,6,0,B|396:289|425:335|330:312,1,152.999995330811,4|0,2:0|2:0,2:3:0:0:
264,341,99681,1,8,2:0:0:0:
174,193,99939,1,0,2:0:0:0:
160,182,100026,2,0,P|140:240|152:282,1,101.999996887207,2|0,2:0|2:0,2:0:0:0:
73,365,100370,2,0,L|47:259,1,101.999996887207,8|2,2:0|2:0,2:0:0:0:
16,55,100715,6,0,B|-10:118|15:184|15:184|27:155,1,152.999995330811,4|0,2:0|2:0,2:3:0:0:
87,124,101060,1,8,2:0:0:0:
321,29,101319,1,2,2:0:0:0:
301,40,101405,1,2,2:0:0:0:
271,34,101491,1,0,2:0:0:0:
240,34,101577,1,0,2:0:0:0:
210,38,101663,1,2,2:0:0:0:
191,57,101750,1,8,2:0:0:0:
260,198,101922,1,0,2:0:0:0:
191,336,102095,6,0,P|247:347|347:333,1,152.999995330811,4|0,2:0|2:0,2:3:0:0:
409,297,102439,1,8,2:0:0:0:
422,97,102698,1,0,2:0:0:0:
431,82,102784,2,0,P|461:131|464:181,1,101.999996887207,2|0,2:0|2:0,2:3:0:0:
315,134,103129,2,0,L|344:17,1,101.999996887207,8|2,2:0|2:0,2:0:0:0:
288,217,103474,6,0,B|201:236|220:192|130:219,1,152.999995330811,4|0,2:0|2:0,2:3:0:0:
72,262,103819,1,8,2:0:0:0:
49,46,104077,1,2,2:0:0:0:
38,66,104163,1,2,2:0:0:0:
44,96,104249,1,0,2:0:0:0:
44,126,104335,1,0,2:0:0:0:
40,157,104421,1,2,2:0:0:0:
21,176,104508,1,8,2:0:0:0:
140,33,104681,1,0,2:0:0:0:
220,205,104853,6,0,P|212:134|231:50,1,152.999995330811,4|0,2:0|2:0,2:3:0:0:
300,26,105198,1,8,2:0:0:0:
348,167,105370,1,2,2:0:0:0:
476,205,105543,6,0,P|484:134|465:50,1,152.999995330811,2|2,2:0|2:0,2:0:0:0:
396,26,105888,1,8,2:0:0:0:
348,167,106060,1,0,2:0:0:0:
220,129,106233,6,0,P|212:200|231:284,1,152.999995330811,4|0,2:0|2:0,2:3:0:0:
300,308,106578,1,8,2:0:0:0:
348,167,106750,1,2,2:0:0:0:
476,129,106923,6,0,P|484:200|465:284,1,152.999995330811,2|2,2:0|2:0,2:0:0:0:
396,308,107268,1,8,2:0:0:0:
348,167,107439,1,0,2:0:0:0:
300,26,107612,6,0,P|241:38|194:35,1,93.5000028533936,4|0,2:0|2:0,2:3:0:0:
42,83,107957,2,0,P|101:71|148:74,1,93.5000028533936,8|2,2:0|2:0,2:0:0:0:
282,120,108301,5,2,2:0:0:0:
258,118,108387,1,0,2:0:0:0:
235,120,108473,1,0,2:0:0:0:
212,124,108559,1,2,2:0:0:0:
189,131,108645,1,8,2:0:0:0:
124,189,108819,1,0,2:0:0:0:
186,353,108991,6,2,L|199:237,1,93.5000028533936,2|2,2:0|2:0,2:2:0:0:
330,102,109681,5,2,2:0:0:0:
357,129,109767,1,2,2:0:0:0:
330,155,109853,1,2,2:0:0:0:
304,129,109939,1,2,2:0:0:0:
431,197,110370,6,0,B|388:256|386:322|424:392|471:377|514:365|495:297,1,255,0|0,0:0|0:0,0:0:0:0:
493,256,110715,1,8,0:0:0:0:
480,81,110888,2,0,P|450:92|412:97,1,55.2499974708558,0|0,0:0|0:0,0:0:0:0:
369,30,111060,2,0,P|341:35|316:45,1,55.2499974708558,2|0,0:0|0:0,0:0:0:0:
266,111,111232,1,0,0:0:0:0:
175,238,111405,6,0,L|202:181,1,55.2499974708558,8|0,0:0|0:0,0:0:0:0:
153,122,111577,2,0,L|180:65,1,55.2499974708558,2|0,0:0|0:0,0:0:0:0:
122,6,111750,2,0,L|72:110,1,110.499994941712,2|0,0:0|0:0,0:0:0:0:
0,193,112095,2,0,P|62:181|110:197,1,110.499994941712,2|2,0:0|0:0,0:0:0:0:
92,211,112353,1,0,0:0:0:0:
82,231,112439,5,0,3:0:0:0:
78,253,112525,1,0,3:0:0:0:
79,275,112611,1,2,3:0:0:0:
86,296,112698,1,0,3:0:0:0:
98,311,112784,5,2,3:0:0:0:
123,265,112870,1,2,3:0:0:0:
176,264,112956,1,2,3:0:0:0:
202,310,113042,1,2,3:0:0:0:
176,355,113129,6,0,B|232:380|305:349|305:349|376:320|427:348,1,255,6|0,0:0|0:0,0:0:0:0:
497,370,113474,1,8,0:0:0:0:
498,188,113646,6,0,P|464:190|432:203,1,55.2499974708558,0|0,0:0|0:0,0:0:0:0:
368,189,113819,2,0,P|339:207|318:234,1,55.2499974708558,2|0,0:0|0:0,0:0:0:0:
255,254,113991,1,0,0:0:0:0:
398,323,114163,6,0,L|403:261,1,55.2499974708558,8|0,0:0|0:0,0:0:0:0:
444,196,114336,2,0,L|448:140,1,55.2499974708558,2|0,0:0|0:0,0:0:0:0:
490,69,114508,2,0,P|428:47|368:45,1,110.499994941712,2|0,0:0|0:0,0:0:0:0:
263,15,114853,2,0,L|312:121,1,110.499994941712,2|2,0:0|0:0,0:0:0:0:
246,197,115198,6,0,B|156:247|38:171|0:112|-5:17|74:-17|158:-34|217:68|165:126,1,510
0,262,115888,6,0,B|52:240|124:281|124:281|194:319|244:299,1,255,4|0,0:0|0:0,0:0:0:0:
318,271,116232,1,8,0:0:0:0:
425,359,116405,2,0,P|440:328|442:297,1,55.2499974708558,0|0,0:0|0:0,0:0:0:0:
438,231,116577,2,0,P|435:196|421:168,1,55.2499974708558,2|0,0:0|0:0,0:0:0:0:
389,111,116750,1,0,0:0:0:0:
296,17,116922,6,0,P|296:48|286:84,1,55.2499974708558,8|0,0:0|0:0,0:0:0:0:
223,111,117095,2,0,P|217:137|217:165,1,55.2499974708558,2|0,0:0|0:0,0:0:0:0:
271,234,117267,2,0,P|207:248|156:229,1,110.499994941712,2|0,0:0|0:0,0:0:0:0:
40,203,117612,2,0,L|62:313,1,110.499994941712,2|2,0:0|0:0,0:0:0:0:
81,330,117870,1,0,0:0:0:0:
105,343,117956,5,0,3:0:0:0:
132,350,118042,1,0,3:0:0:0:
160,349,118128,1,2,3:0:0:0:
186,341,118215,1,0,3:0:0:0:
210,327,118301,1,2,3:0:0:0:
257,300,118387,1,2,3:0:0:0:
311,290,118473,1,2,3:0:0:0:
366,298,118559,1,2,3:0:0:0:
414,324,118646,6,0,B|476:264|511:174|466:142|437:103|361:221,1,255,6|0,0:0|0:0,0:0:0:0:
336,203,118991,1,8,0:0:0:0:
185,103,119163,2,0,P|217:113|259:111,1,55.2499974708558,0|0,0:0|0:0,0:0:0:0:
316,119,119336,2,0,P|348:111|384:88,1,55.2499974708558,2|0,0:0|0:0,0:0:0:0:
434,60,119508,1,0,0:0:0:0:
325,16,119681,6,0,P|293:6|251:8,1,55.2499974708558,8|0,0:0|0:0,0:0:0:0:
194,0,119854,2,0,P|161:7|125:30,1,55.2499974708558,2|0,0:0|0:0,0:0:0:0:
76,59,120026,2,0,P|98:110|88:166,1,110.499994941712,2|0,0:0|0:0,0:0:0:0:
1,263,120370,2,0,L|115:237,1,110.499994941712,8|0,0:0|0:0,0:0:0:0:
151,248,120629,1,0,0:0:0:0:
151,248,120715,1,2,0:0:0:0:
97,327,120888,5,2,3:0:0:0:
245,288,121060,1,2,3:0:0:0:
329,167,121232,1,2,3:0:0:0:
195,363,121405,6,0,B|251:388|299:359|299:359|380:312|444:345,1,255,4|0,0:0|0:0,0:0:0:0:
506,379,121750,1,8,0:0:0:0:
399,251,121922,2,0,P|396:218|403:182,1,55.2499974708558,0|0,0:0|0:0,0:0:0:0:
424,124,122095,2,0,P|437:93|461:66,1,55.2499974708558,2|0,0:0|0:0,0:0:0:0:
506,21,122267,1,0,0:0:0:0:
363,65,122439,6,0,P|335:84|301:96,1,55.2499974708558,8|0,0:0|0:0,0:0:0:0:
240,106,122612,2,0,P|206:108|170:101,1,55.2499974708558,2|0,0:0|0:0,0:0:0:0:
109,86,122784,2,0,P|85:147|98:200,1,110.499994941712,2|0,0:0|0:0,0:0:0:0:
52,365,123129,2,0,L|33:240,1,110.499994941712,8|2,0:0|0:0,0:0:0:0:
54,265,123387,1,0,0:0:0:0:
75,271,123473,5,0,3:0:0:0:
97,273,123559,1,0,3:0:0:0:
119,270,123645,1,2,3:0:0:0:
140,263,123732,1,0,3:0:0:0:
156,255,123819,1,8,3:0:0:0:
199,230,123905,1,2,3:0:0:0:
247,220,123991,1,0,3:0:0:0:
296,224,124077,1,0,3:0:0:0:
342,243,124163,6,0,P|416:269|421:139,1,255,6|0,0:0|0:0,0:0:0:0:
349,124,124508,1,8,0:0:0:0:
243,350,124681,2,0,P|231:320|230:291,1,55.2499974708558,0|0,0:0|0:0,0:0:0:0:
247,220,124853,2,0,P|244:192|233:167,1,55.2499974708558,2|0,0:0|0:0,0:0:0:0:
174,116,125026,1,0,0:0:0:0:
38,34,125198,6,0,P|68:46|97:47,1,55.2499974708558,8|0,0:0|0:0,0:0:0:0:
168,30,125370,2,0,P|195:32|220:43,1,55.2499974708558,2|0,0:0|0:0,0:0:0:0:
272,103,125543,2,0,P|333:117|383:99,1,110.499994941712,2|0,0:0|0:0,0:0:0:0:
478,32,125888,2,0,L|472:148,1,110.499994941712,10|2,0:0|0:0,0:0:0:0:
409,361,126232,6,0,B|335:361|250:296|235:209|235:209|319:184|414:215|462:293,1,510,2|0,0:0|0:0,0:0:0:0:
280,356,126922,6,0,B|237:325|147:355|147:355|67:382|24:363,1,255,4|0,0:0|0:0,0:0:0:0:
2,298,127267,1,8,0:0:0:0:
0,171,127439,2,0,P|29:177|60:177,1,55.2499974708558,0|0,0:0|0:0,0:0:0:0:
132,176,127612,2,0,P|160:166|186:151,1,55.2499974708558,2|0,0:0|0:0,0:0:0:0:
231,91,127784,1,0,0:0:0:0:
34,30,127957,6,0,L|50:89,1,55.2499974708558,8|0,0:0|0:0,0:0:0:0:
117,122,128129,2,0,L|133:181,1,55.2499974708558,2|0,0:0|0:0,0:0:0:0:
89,251,128301,2,0,P|160:256|195:235,1,110.499994941712,2|0,0:0|0:0,0:0:0:0:
298,165,128646,2,0,L|279:287,1,110.499994941712,10|2,0:0|0:0,0:0:0:0:
302,291,128905,1,0,0:0:0:0:
327,303,128991,5,0,3:0:0:0:
354,308,129077,1,0,3:0:0:0:
381,308,129163,1,2,3:0:0:0:
408,300,129250,1,0,3:0:0:0:
432,287,129336,5,8,3:0:0:0:
418,240,129422,1,2,3:0:0:0:
415,190,129508,1,0,3:0:0:0:
423,141,129594,1,0,3:0:0:0:
441,95,129681,6,0,B|402:47|321:73|321:73|246:99|193:60,1,255,6|0,0:0|0:0,0:0:0:0:
138,18,130026,1,8,0:0:0:0:
15,145,130198,2,0,P|50:154|77:150,1,55.2499974708558,0|0,0:0|0:0,0:0:0:0:
145,140,130370,2,0,P|172:138|198:147,1,55.2499974708558,2|0,0:0|0:0,0:0:0:0:
255,202,130543,1,0,0:0:0:0:
311,351,130715,6,0,L|322:288,1,55.2499974708558,8|0,0:0|0:0,0:0:0:0:
384,245,130888,2,0,L|395:182,1,55.2499974708558,2|0,0:0|0:0,0:0:0:0:
457,139,131060,2,0,L|478:22,1,110.499994941712,2|0,0:0|0:0,0:0:0:0:
371,73,131405,2,0,P|310:97|251:90,1,110.499994941712,8|2,0:0|0:0,0:0:0:0:
250,90,131663,1,0,0:0:0:0:
234,85,131750,6,0,P|208:77|164:75,1,55.2499974708558,2|0,3:0|3:0,0:0:0:0:
6,123,131922,2,0,P|32:131|76:133,1,55.2499974708558,0|2,3:0|3:0,0:0:0:0:
89,204,132095,2,0,P|112:190|145:161,1,55.2499974708558,2|0,3:0|3:0,0:0:0:0:
151,4,132267,2,0,P|127:17|94:46,1,55.2499974708558,2|0,3:0|3:0,0:0:0:0:
12,267,132439,6,0,P|88:300|174:256,1,165.749992412568,4|0,2:0|2:0,2:3:0:0:
206,196,132784,1,8,2:0:0:0:
270,358,133043,1,0,2:0:0:0:
278,364,133129,2,0,P|293:308|286:253,1,110.499994941712,6|0,2:0|2:0,2:3:0:0:
330,129,133474,2,0,L|340:248,1,110.499994941712,8|2,2:0|2:0,2:0:0:0:
411,58,133819,6,0,P|315:36|251:59,1,165.749992412568,4|0,2:0|2:0,2:3:0:0:
206,122,134163,1,8,2:0:0:0:
46,252,134422,5,2,0:0:0:0:
77,265,134508,1,2,0:0:0:0:
109,265,134594,1,0,0:0:0:0:
139,251,134680,1,0,0:0:0:0:
161,227,134766,1,2,0:0:0:0:
171,195,134853,1,8,0:0:0:0:
38,343,135026,1,0,2:0:0:0:
188,334,135198,6,0,B|257:328|257:328|305:302|378:317,1,165.749992412568,4|0,2:0|2:0,2:3:0:0:
423,343,135543,1,8,2:0:0:0:
328,132,135801,1,0,2:0:0:0:
319,127,135888,2,0,P|308:187|331:238,1,110.499994941712,6|0,2:0|2:0,2:3:0:0:
435,141,136232,2,0,L|453:26,1,110.499994941712,8|2,2:0|2:0,2:0:0:0:
257,15,136577,6,0,L|230:184,1,165.749992412568,4|0,2:0|2:0,2:3:0:0:
221,256,136922,1,8,2:0:0:0:
125,344,137181,6,0,L|112:282,1,55.2499974708558,2|0,2:0|2:0,2:3:0:0:
33,200,137353,1,0,2:0:0:0:
28,211,137439,2,0,L|41:273,1,55.2499974708558,2|0,2:0|2:0,2:3:0:0:
99,128,137612,1,8,2:0:0:0:
94,139,137698,2,0,L|107:201,1,55.2499974708558,2|0,2:0|2:0,2:3:0:0:
165,56,137871,1,0,2:0:0:0:
160,67,137957,6,0,P|256:85|328:58,1,165.749992412568,4|0,2:0|2:0,2:3:0:0:
385,25,138301,1,8,2:0:0:0:
314,177,138560,1,0,2:0:0:0:
309,185,138646,2,0,P|364:199|420:189,1,110.499994941712,6|0,2:0|2:0,2:3:0:0:
497,111,138991,2,0,L|488:230,1,110.499994941712,8|2,2:0|2:0,2:0:0:0:
483,353,139336,6,0,B|420:368|331:316|319:339,1,165.749992412568,4|0,2:0|2:0,2:3:0:0:
247,367,139681,1,8,2:0:0:0:
109,229,139939,5,2,0:0:0:0:
140,241,140025,1,2,0:0:0:0:
162,264,140111,1,0,0:0:0:0:
174,295,140197,1,0,0:0:0:0:
172,327,140283,1,2,0:0:0:0:
157,357,140370,1,8,0:0:0:0:
21,209,140543,1,0,2:0:0:0:
74,81,140715,6,0,P|171:106|244:93,1,165.749992412568,4|0,2:0|2:0,2:3:0:0:
301,50,141060,1,8,2:0:0:0:
447,30,141232,1,0,2:0:0:0:
456,25,141319,1,0,2:0:0:0:
465,20,141405,2,0,P|482:78|469:129,1,110.499994941712,6|0,2:0|2:0,2:3:0:0:
364,185,141750,2,0,L|489:176,1,110.499994941712,8|2,2:0|2:0,2:0:0:0:
340,268,142095,6,0,L|166:280,1,165.749992412568,4|0,2:0|2:0,2:3:0:0:
96,287,142439,1,8,2:0:0:0:
244,190,142612,1,2,2:0:0:0:
244,190,142698,1,0,2:0:0:0:
244,190,142784,1,2,2:0:0:0:
210,355,142957,1,0,2:0:0:0:
141,104,143129,2,0,P|86:115|30:102,1,95.6250036478044,10|0,2:0|2:0,2:0:0:0:
7,44,143474,6,0,P|93:22|184:43,1,178.499994552612,4|0,2:0|2:0,2:3:0:0:
239,92,143819,1,8,2:0:0:0:
359,254,144077,1,0,2:0:0:0:
367,264,144163,2,0,P|297:284|244:276,1,118.999996368408,6|0,2:0|2:0,2:0:0:0:
454,204,144508,2,0,L|440:327,1,118.999996368408,8|2,2:0|2:0,2:0:0:0:
306,202,144853,6,0,L|326:17,1,178.499994552612,4|0,2:0|2:0,2:3:0:0:
401,11,145198,1,8,2:0:0:0:
240,60,145457,1,2,2:0:0:0:
232,46,145543,1,2,2:0:0:0:
197,53,145629,1,0,2:0:0:0:
162,48,145715,1,0,2:0:0:0:
131,31,145801,1,2,2:0:0:0:
105,73,145888,1,8,2:0:0:0:
210,174,146060,1,0,2:0:0:0:
26,246,146232,6,0,B|77:214|142:226|142:226|164:253|197:257,1,178.499994552612,4|0,2:0|2:0,2:3:0:0:
263,293,146577,1,8,2:0:0:0:
459,234,146836,1,0,2:0:0:0:
471,237,146922,2,0,P|482:303|451:357,1,118.999996368408,6|0,2:0|2:0,2:0:0:0:
339,259,147267,2,0,L|381:141,1,118.999996368408,8|2,2:0|2:0,2:0:0:0:
489,48,147612,6,0,B|385:22|407:62|307:46,1,178.499994552612,4|0,2:0|2:0,2:3:0:0:
235,27,147957,1,8,2:0:0:0:
250,179,148215,6,0,L|263:108,1,59.4999981842042,2|0,2:0|2:0,2:3:0:0:
164,256,148388,1,0,2:0:0:0:
157,247,148474,2,0,L|170:176,1,59.4999981842042,2|0,2:0|2:0,2:3:0:0:
71,324,148646,1,8,2:0:0:0:
64,315,148732,2,0,L|77:244,1,59.4999981842042,2|0,2:0|2:0,2:3:0:0:
173,354,148905,1,0,2:0:0:0:
179,363,148991,6,0,B|247:367|247:367|326:352|326:352|366:355,1,178.499994552612,4|0,2:0|2:0,2:3:0:0:
435,372,149336,1,8,2:0:0:0:
312,216,149595,1,0,2:0:0:0:
306,206,149681,2,0,P|371:191|431:205,1,118.999996368408,6|0,2:0|2:0,2:0:0:0:
500,112,150026,2,0,L|376:87,1,118.999996368408,8|2,2:0|2:0,2:0:0:0:
229,6,150370,6,0,P|216:71|231:131,1,118.999996368408,6|0,2:0|2:0,2:0:0:0:
236,143,150629,1,0,2:0:0:0:
246,165,150715,1,10,2:0:0:0:
144,281,150888,1,2,2:0:0:0:
273,343,151060,6,0,P|286:278|271:218,1,118.999996368408,2|0,2:0|2:0,2:0:0:0:
265,205,151319,1,2,2:0:0:0:
255,183,151405,1,8,2:0:0:0:
358,68,151577,1,0,2:0:0:0:
229,6,151750,6,0,P|137:-9|53:18,1,178.499994552612,4|0,2:0|2:0,2:3:0:0:
11,78,152095,1,8,2:0:0:0:
186,151,152267,1,2,2:0:0:0:
183,162,152353,1,0,2:0:0:0:
180,173,152439,2,0,P|119:189|61:184,1,118.999996368408,6|0,2:0|2:0,2:0:0:0:
11,329,152784,2,0,L|38:208,1,118.999996368408,8|2,2:0|2:0,2:0:0:0:
283,94,153129,6,0,L|242:275,1,178.499994552612,4|0,2:0|2:0,2:3:0:0:
261,344,153474,1,8,2:0:0:0:
461,199,153646,1,0,0:0:0:0:
471,195,153732,1,0,2:0:0:0:
478,188,153819,5,8,2:0:0:0:
458,167,153905,1,0,2:0:0:0:
429,166,153991,1,2,2:0:0:0:
407,185,154077,1,0,2:0:0:0:
404,214,154163,1,8,2:0:0:0:
427,79,154336,1,2,2:0:0:0:
482,351,154508,1,12,2:0:0:0:
