osu file format v14

[General]
AudioFilename: audio.mp3
AudioLeadIn: 0
PreviewTime: 88301
Countdown: 0
SampleSet: Soft
StackLeniency: 0.4
Mode: 0
LetterboxInBreaks: 0
WidescreenStoryboard: 0

[Editor]
DistanceSpacing: 1
BeatDivisor: 4
GridSize: 32
TimelineZoom: 1.600003

[Metadata]
Title:Signals
TitleUnicode:Signals
Artist:Magnetude
ArtistUnicode:Magnetude
Creator:Firebool
Version:1 KHz
Source:
Tags:RAMM311D ram records english drum and bass dnb neurofunk adioni m3gB3g Xenjes
BeatmapID:1841108
BeatmapSetID:850972

[Difficulty]
HPDrainRate:4
CircleSize:3
OverallDifficulty:5
ApproachRate:6
SliderMultiplier:1.2
SliderTickRate:1

[Events]
//Background and Video events
0,0,"Digital Spaceship Sun.jpg",0,0
//Break Periods
//Storyboard Layer 0 (Background)
//Storyboard Layer 1 (Fail)
//Storyboard Layer 2 (Pass)
//Storyboard Layer 3 (Foreground)
//Storyboard Sound Samples

[TimingPoints]
22095,344.827586206897,4,1,0,30,1,0
22267,-100,4,2,1,20,0,0
22612,-100,4,2,1,30,0,0
23129,-100,4,2,1,20,0,0
23474,-100,4,2,1,30,0,0
23819,-100,4,2,1,20,0,0
24163,-100,4,2,1,10,0,0
24508,-100,4,2,1,5,0,0
24853,-100,4,2,1,30,0,0
25198,-100,4,2,1,15,0,0
25370,-100,4,2,1,30,0,0
25715,-100,4,2,1,15,0,0
26232,-100,4,2,1,30,0,0
26577,-100,4,2,1,20,0,0
26922,-100,4,2,1,10,0,0
27267,-100,4,2,1,5,0,0
27612,-100,4,2,1,20,0,0
28129,-100,4,2,1,20,0,0
28474,-100,4,2,1,10,0,0
28819,-100,4,2,1,5,0,0
28991,-100,4,2,1,30,0,0
29336,-100,4,2,1,20,0,0
29681,-100,4,2,1,10,0,0
30026,-100,4,2,1,5,0,0
30370,-100,4,2,1,30,0,0
30715,-100,4,2,1,15,0,0
30888,-100,4,2,1,30,0,0
31232,-100,4,2,1,15,0,0
31577,-100,4,2,1,15,0,0
31750,-100,4,2,1,30,0,0
33129,-100,4,2,1,40,0,0
33646,-100,4,2,1,30,0,0
34853,-100,4,2,1,20,0,0
35198,-100,4,2,1,10,0,0
35888,-100,4,2,1,40,0,0
36405,-100,4,2,1,30,0,0
37612,-100,4,2,1,20,0,0
37957,-100,4,2,1,10,0,0
38646,-100,4,2,1,40,0,0
39163,-100,4,2,1,40,0,0
39508,-100,4,2,1,30,0,0
40370,-100,4,2,1,20,0,0
41405,-100,4,1,0,30,0,0
41577,-100,4,3,1,40,0,0
43301,-100,4,3,1,40,0,0
43560,-100,4,3,1,30,0,0
43905,-100,4,3,1,10,0,0
44163,-100,4,1,0,55,0,0
54853,-100,4,1,0,55,0,0
54982,-100,4,1,0,5,0,0
55026,-100,4,1,0,55,0,0
55155,-100,4,1,0,5,0,0
55198,-100,4,1,0,60,0,0
60715,-100,4,1,0,65,0,0
66232,-100,4,3,1,60,0,1
71146,-100,4,3,1,5,0,1
71232,-100,4,3,1,60,0,1
71405,-100,4,3,1,5,0,1
71491,-100,4,3,1,60,0,1
71577,-100,4,3,1,5,0,1
71750,-100,4,3,1,60,0,1
76922,-100,4,3,1,50,0,1
77267,-100,4,3,1,60,0,1
82181,-100,4,3,1,5,0,1
82267,-100,4,3,1,60,0,1
82439,-100,4,3,1,5,0,1
82526,-100,4,3,1,60,0,1
82698,-100,4,3,1,5,0,1
82784,-100,4,3,1,60,0,1
83474,-100,4,3,1,60,0,1
88301,-100,4,1,0,60,0,0
98646,-100,4,1,0,60,0,0
98819,-100,4,1,0,5,0,0
98905,-100,4,1,0,60,0,0
99077,-100,4,1,0,5,0,0
99163,-100,4,1,0,60,0,0
99250,-100,4,1,0,5,0,0
99336,-100,4,1,0,60,0,0
107612,-100,4,1,0,50,0,0
110370,-100,4,1,1,60,0,1
113474,-100,4,1,1,60,0,1
115198,-100,4,1,1,60,0,1
115801,-100,4,1,1,5,0,1
115888,-100,4,1,1,60,0,1
117957,-100,4,1,1,45,0,1
118301,-100,4,1,1,55,0,1
118646,-100,4,1,1,60,0,1
118991,-100,4,1,1,60,0,1
120888,-100,4,1,1,60,0,1
121405,-100,4,1,1,60,0,1
121750,-100,4,1,1,60,0,1
124163,-100,4,1,1,60,0,1
124422,-100,4,1,1,5,0,1
124508,-100,4,1,1,60,0,1
126232,-100,4,1,1,60,0,1
126836,-100,4,1,1,5,0,1
126922,-100,4,1,1,60,0,1
127181,-100,4,1,1,5,0,1
127267,-100,4,1,1,60,0,1
129681,-100,4,1,1,60,0,1
129939,-100,4,1,1,5,0,1
130026,-100,4,1,1,60,0,1
132439,-100,4,1,0,60,0,0
137181,-100,4,1,0,60,0,0
137957,-100,4,1,0,60,0,0
143129,-100,4,1,0,60,0,0
143388,-100,4,1,0,5,0,0
143474,-100,4,1,0,65,0,0
143732,-100,4,1,0,5,0,0
143819,-100,4,1,0,65,0,0
148215,-100,4,1,0,65,0,0
151060,-100,4,1,0,65,0,0

[Colours]
Combo1 : 1,158,175
Combo2 : 206,0,0
Combo3 : 128,128,255
Combo4 : 255,0,128

[HitObjects]
49,56,22094,6,0,B|171:110|340:-6|465:56,1,420,0|0,2:0|2:0,2:0:0:0:
473,113,23474,1,0,0:0:0:0:
464,228,24853,6,0,B|341:282|172:165|47:228,1,420,0|0,0:0|2:0,2:0:0:0:
40,285,26233,1,0,0:0:0:0:
424,345,27612,6,0,B|457:300|470:248|451:177|403:162|342:159|293:207|293:207|243:256|180:224,1,420,4|0,2:0|2:0,2:0:0:0:
140,196,28991,1,0,0:0:0:0:
323,45,30370,6,0,B|419:-2|498:13|525:68|515:133|451:196|409:114|301:137,1,420,4|0,2:0|2:0,2:0:0:0:
252,155,31750,1,0,0:0:0:0:
117,275,33129,6,0,B|101:307|38:315|38:315|70:348|147:357|194:317|194:317|241:277|307:286|352:323,1,420,0|0,2:0|2:0,2:0:0:0:
391,348,34508,1,0,0:0:0:0:
46,70,35888,6,0,B|70:51|104:46|122:55|137:79|206:39|206:39|168:105|201:176|269:194|341:167,1,420,0|0,2:0|2:0,2:0:0:0:
393,144,37267,1,0,0:0:0:0:
425,260,38646,6,0,B|380:241|314:279|314:279|323:238|323:238|235:304|124:291|89:214,1,420,4|0,2:0|2:0,2:0:0:0:
69,165,40026,1,0,2:0:0:0:
180,370,41577,6,0,L|309:347,2,120,0|0|0,3:0|3:0|3:0,3:0:0:0:
218,256,42612,1,0,0:0:0:0:
332,218,42957,2,0,L|305:95,2,120,0|0|0,3:0|3:0|3:0,3:0:0:0:
199,339,44163,6,0,P|141:350|84:334,1,120,0|8,0:0|0:0,0:0:0:0:
38,255,44767,2,0,B|0:199|35:131|35:131|19:97,1,150,0|8,0:0|0:0,0:0:0:0:
100,19,45543,2,0,B|113:90|113:90|130:123|118:162,1,120,0|8,0:0|0:0,0:0:0:0:
127,196,46060,1,0,0:0:0:0:
182,219,46232,2,0,P|249:222|305:201,1,120,2|8,0:0|0:0,0:0:0:0:
265,88,46922,6,0,P|330:77|393:91,1,120,0|8,0:0|0:0,0:0:0:0:
446,22,47526,2,0,B|472:83|472:83|447:174,1,150,0|8,0:0|0:0,0:0:0:0:
444,283,48301,2,0,L|379:281,1,60
334,247,48646,2,0,L|269:245,1,60,8|0,0:0|0:0,0:0:0:0:
222,219,48991,2,0,L|191:356,1,120,2|8,0:0|0:0,0:0:0:0:
81,374,49681,6,0,P|98:293|87:236,1,120,0|8,0:0|0:0,0:0:0:0:
17,207,50284,2,0,B|-7:187|-7:187|53:189|100:147,1,150,0|8,0:0|0:0,0:0:0:0:
144,35,51060,2,0,B|159:69|159:69|198:101|196:157,1,120,0|8,0:0|0:0,0:0:0:0:
233,187,51577,1,0,0:0:0:0:
293,182,51750,2,0,P|360:173|401:134,1,120,2|8,0:0|0:0,0:0:0:0:
484,56,52439,6,0,P|495:114|478:171,1,120,0|8,0:0|0:0,0:0:0:0:
471,261,53043,2,0,B|431:277|345:273|345:273|368:292,1,150,0|8,0:0|0:0,0:0:0:0:
276,371,53819,6,0,B|225:332|161:357|161:357|94:381|40:341,1,240,2|8,0:0|0:0,0:0:0:0:
0,235,54853,1,2,0:0:0:0:
113,273,55198,6,0,L|148:149,1,120,0|2,0:0|0:0,0:0:0:0:
238,80,55888,1,0,0:0:0:0:
333,11,56232,1,2,0:0:0:0:
348,128,56577,1,0,0:0:0:0:
363,247,56922,1,2,0:0:0:0:
378,366,57267,1,0,0:0:0:0:
117,171,57957,5,0,0:0:0:0:
188,74,58301,1,2,0:0:0:0:
304,43,58646,1,0,0:0:0:0:
420,73,58991,1,2,0:0:0:0:
501,161,59336,1,0,0:0:0:0:
512,280,59681,1,2,0:0:0:0:
428,366,60026,6,0,B|394:349|350:373|350:373|367:335|367:335|297:379|236:359,1,240,2|0,0:0|0:0,0:0:0:0:
256,192,60888,12,0,65543,0:0:0:0:
466,156,66232,5,0,0:0:0:0:
404,50,66577,2,0,L|336:58,1,60,8|0,0:0|0:0,0:0:0:0:
288,34,66922,1,0,0:0:0:0:
170,57,67267,2,0,L|102:65,1,60,8|0,0:0|0:0,0:0:0:0:
69,107,67612,1,0,0:0:0:0:
174,165,67957,2,0,L|242:157,1,60,8|0,0:0|0:0,0:0:0:0:
286,130,68301,6,0,B|327:165|327:197|327:197|362:159|403:155|448:167|478:205,1,240,2|0,0:0|0:0,0:0:0:0:
456,314,69336,6,0,L|382:301,1,60,8|0,0:0|0:0,0:0:0:0:
355,347,69681,1,0,0:0:0:0:
273,258,70026,2,0,L|199:245,1,60,8|0,0:0|0:0,0:0:0:0:
172,290,70370,1,0,0:0:0:0:
58,251,70715,2,0,L|-16:238,1,60,8|0,0:0|0:0,0:0:0:0:
22,184,71060,6,0,B|86:142|86:142|114:180|114:180|180:159|244:188,1,240,2|0,0:0|0:0,0:0:0:0:
306,273,72095,6,0,P|328:249|342:210,1,60,8|0,0:0|0:0,0:0:0:0:
334,164,72439,1,0,0:0:0:0:
430,92,72784,2,0,P|438:124|430:164,1,60,8|0,0:0|0:0,0:0:0:0:
442,210,73129,1,0,0:0:0:0:
393,319,73474,2,0,P|369:341|330:355,1,60,8|0,0:0|0:0,0:0:0:0:
284,361,73819,6,0,B|237:311|237:311|142:361|142:361|86:298,1,240,2|0,0:0|0:0,0:0:0:0:
168,215,74853,6,0,P|172:183|168:147,1,60,8|0,0:0|0:0,0:0:0:0:
155,97,75198,1,0,0:0:0:0:
51,157,75543,2,0,P|47:189|51:224,1,60,8|0,0:0|0:0,0:0:0:0:
71,272,75888,1,0,0:0:0:0:
142,368,76232,2,0,P|174:372|210:368,1,60,8|0,0:0|0:0,0:0:0:0:
241,324,76577,6,0,B|333:312|333:312|389:348|389:348|469:340,1,240,2|0,0:0|0:0,0:0:0:0:
503,224,77612,6,0,L|435:216,1,60,8|0,0:0|0:0,0:0:0:0:
400,174,77957,1,0,0:0:0:0:
280,164,78301,2,0,L|212:156,1,60,8|0,0:0|0:0,0:0:0:0:
175,196,78646,1,0,0:0:0:0:
67,143,78991,2,0,L|-1:135,1,60,8|0,0:0|0:0,0:0:0:0:
3,75,79336,6,0,B|64:76|86:40|86:40|125:77|125:77|167:41|215:57,1,240,2|0,0:0|0:0,0:0:0:0:
328,42,80370,6,0,P|328:78|320:106,1,60,8|0,0:0|0:0,0:0:0:0:
268,129,80715,1,0,0:0:0:0:
379,173,81060,2,0,P|379:209|371:237,1,60,8|0,0:0|0:0,0:0:0:0:
326,270,81405,1,0,0:0:0:0:
387,373,81750,2,0,P|416:379|446:379,1,60,8|0,0:0|0:0,0:0:0:0:
476,327,82095,6,0,B|510:262|510:262|509:165|509:165|468:109,1,240,2|0,0:0|0:0,0:0:0:0:
379,28,83129,6,0,L|311:36,1,60,8|0,0:0|0:0,0:0:0:0:
287,85,83474,1,0,0:0:0:0:
351,186,83819,2,0,L|283:194,1,60,8|0,0:0|0:0,0:0:0:0:
267,247,84163,1,0,0:0:0:0:
344,339,84508,2,0,L|276:347,1,60,8|0,0:0|0:0,0:0:0:0:
237,358,84853,6,0,B|157:382|157:382|57:366|57:366|1:322,1,240,2|0,0:0|0:0,0:0:0:0:
30,237,85888,6,0,L|78:279,1,60,8|0,0:0|0:0,0:0:0:0:
133,293,86232,1,0,0:0:0:0:
248,258,86577,2,0,L|260:194,1,60,8|0,0:0|0:0,0:0:0:0:
245,141,86921,1,0,0:0:0:0:
160,55,87267,2,0,L|98:75,1,60,8|0,0:0|0:0,0:0:0:0:
60,117,87611,1,0,0:0:0:0:
10,248,88301,5,8,0:0:0:0:
218,100,88991,1,8,0:0:0:0:
234,279,89508,1,0,0:0:0:0:
240,338,89681,2,0,P|299:340|380:328,1,120,8|0,0:0|3:0,0:0:0:0:
408,298,90198,1,0,0:0:0:0:
449,254,90370,2,0,B|412:197|412:197|357:164,1,120,2|0,0:0|3:0,0:0:0:0:
227,237,91060,5,8,0:0:0:0:
218,0,91750,1,8,0:0:0:0:
64,94,92267,1,0,0:0:0:0:
14,124,92439,2,0,L|27:199,1,60,8|0,0:0|0:0,0:0:0:0:
69,222,92784,2,0,L|79:281,1,60,0|0,3:0|0:0,0:0:0:0:
117,327,93129,2,0,B|181:342|181:342|241:327,1,120,2|0,0:0|3:0,0:0:0:0:
349,284,93819,5,8,0:0:0:0:
120,212,94508,1,8,0:0:0:0:
295,169,95026,1,0,0:0:0:0:
352,151,95198,1,8,0:0:0:0:
321,267,95543,1,0,3:0:0:0:
270,299,95715,1,0,0:0:0:0:
218,330,95888,2,0,P|153:348|98:335,1,120,2|0,0:0|3:0,0:0:0:0:
154,228,96577,5,8,0:0:0:0:
388,176,97267,1,8,0:0:0:0:
213,131,97784,1,0,0:0:0:0:
154,118,97957,1,8,0:0:0:0:
249,45,98301,1,0,3:0:0:0:
308,26,98474,1,0,0:0:0:0:
368,11,98646,6,2,B|435:35|435:35|455:81|495:119|495:119|501:193,1,240,2|8,0:0|0:0,0:0:0:0:
250,241,100026,1,8,0:0:0:0:
420,297,100543,1,0,0:0:0:0:
477,316,100715,1,8,0:0:0:0:
353,109,101405,2,0,L|326:162,2,60,2|0|0,0:0|0:0|0:0,0:0:0:0:
385,225,102095,5,8,0:0:0:0:
479,4,102784,1,8,0:0:0:0:
300,26,103301,1,0,0:0:0:0:
241,36,103474,1,8,0:0:0:0:
385,225,104163,2,0,L|414:160,2,60,2|0|0,0:0|0:0|0:0,0:0:0:0:
382,90,104853,5,8,0:0:0:0:
188,232,105543,1,8,0:0:0:0:
38,44,106232,5,8,3:0:0:0:
272,95,106922,1,8,3:0:0:0:
102,166,107612,6,0,P|86:242|99:296,1,120,2|0,0:0|0:0,0:0:0:0:
168,376,108301,2,0,P|184:300|171:246,1,120,2|0,0:0|0:0,0:0:0:0:
271,185,108991,6,0,L|257:261,1,60,2|0,0:0|0:0,0:0:0:0:
116,134,109681,2,0,L|130:210,1,60,2|0,0:0|0:0,0:0:0:0:
190,38,110370,5,4,0:0:0:0:
315,41,110715,2,0,L|353:110,1,60,8|0,0:0|0:0,0:0:0:0:
373,143,111060,1,0,0:0:0:0:
313,246,111405,2,0,L|237:246,1,60,8|0,0:0|0:0,0:0:0:0:
194,246,111749,1,0,0:0:0:0:
134,142,112094,1,8,0:0:0:0:
35,64,112439,6,0,B|76:26|110:11|143:37|143:37|183:20|218:39|240:80|246:108,1,240,2|4,0:0|0:0,0:0:0:0:
134,142,113474,6,0,L|98:207,1,60,8|0,0:0|0:0,0:0:0:0:
76,247,113819,1,0,0:0:0:0:
131,352,114163,2,0,L|204:352,1,60,8|0,0:0|0:0,0:0:0:0:
251,352,114508,1,0,0:0:0:0:
329,261,114853,1,8,0:0:0:0:
245,182,115198,6,0,P|155:207|243:249,1,240,2|4,0:0|0:0,0:0:0:0:
330,346,116232,6,0,L|377:303,1,60,8|0,0:0|0:0,0:0:0:0:
414,261,116577,1,0,0:0:0:0:
302,225,116922,2,0,L|349:182,1,60,8|0,0:0|0:0,0:0:0:0:
398,153,117267,1,0,0:0:0:0:
291,101,117612,1,8,0:0:0:0:
379,20,117957,6,0,B|302:16|302:16|198:28|198:28|128:24,1,240,2|4,0:0|0:0,0:0:0:0:
53,107,118991,6,0,L|79:177,1,60,8|0,0:0|0:0,0:0:0:0:
98,222,119336,1,0,0:0:0:0:
176,126,119681,2,0,L|202:196,1,60,8|0,0:0|0:0,0:0:0:0:
220,240,120026,1,0,0:0:0:0:
298,143,120370,1,8,0:0:0:0:
398,209,120715,6,0,B|518:216|518:216|503:172|504:125|504:125|455:123,1,240,2|4,0:0|0:0,0:0:0:0:
380,50,121750,6,0,L|329:105,1,60,8|0,0:0|0:0,0:0:0:0:
298,143,122095,1,0,0:0:0:0:
216,230,122439,2,0,L|165:285,1,60,8|0,0:0|0:0,0:0:0:0:
135,319,122784,1,0,0:0:0:0:
61,224,123129,1,8,0:0:0:0:
136,133,123474,6,0,B|193:103|248:144|248:144|303:102|365:135,1,240,2|4,0:0|0:0,0:0:0:0:
470,83,124508,6,0,L|411:48,1,60,8|0,0:0|0:0,0:0:0:0:
365,23,124853,1,0,0:0:0:0:
249,55,125198,2,0,L|190:20,1,60,8|0,0:0|0:0,0:0:0:0:
141,1,125543,1,0,0:0:0:0:
39,65,125888,1,8,0:0:0:0:
53,183,126232,6,0,P|155:234|254:170,1,240,2|4,0:0|0:0,0:0:0:0:
307,65,127267,6,0,L|343:137,1,60,8|0,0:0|0:0,0:0:0:0:
362,172,127612,1,0,0:0:0:0:
416,279,127957,2,0,L|342:274,1,60,8|0,0:0|0:0,0:0:0:0:
296,273,128301,1,0,0:0:0:0:
176,261,128646,1,8,0:0:0:0:
188,380,128991,6,0,B|121:354|47:366|47:366|60:330|34:297|34:297|77:292,1,240,2|4,0:0|0:0,0:0:0:0:
176,261,130026,6,0,L|159:193,1,60,8|0,0:0|0:0,0:0:0:0:
145,143,130370,1,0,0:0:0:0:
207,38,130715,2,0,L|266:25,1,60,8|0,0:0|0:0,0:0:0:0:
326,8,131060,1,0,0:0:0:0:
439,59,131405,1,8,0:0:0:0:
481,171,131750,6,0,B|397:136|325:191|325:191|289:154|306:124,1,240,2|8,0:0|0:0,0:0:0:0:
92,25,133129,1,8,0:0:0:0:
107,204,133646,1,0,0:0:0:0:
112,258,133819,1,8,0:0:0:0:
217,201,134163,1,0,3:0:0:0:
272,176,134336,1,0,0:0:0:0:
329,157,134508,2,0,B|339:223|339:223|323:283,1,120,2|0,0:0|3:0,0:0:0:0:
224,340,135198,5,8,0:0:0:0:
454,274,135888,1,8,0:0:0:0:
223,208,136577,2,0,P|287:211|349:179,1,120,8|2,0:0|0:0,0:0:0:0:
386,112,137181,6,2,B|350:40|305:5|246:20|204:56|214:111|247:134|287:103,1,270,2|8,0:0|0:0,0:0:0:0:
29,153,138647,1,8,0:0:0:0:
206,182,139163,1,0,0:0:0:0:
265,194,139337,1,8,0:0:0:0:
151,332,139853,1,0,0:0:0:0:
99,367,140026,2,0,B|39:380|-2:350|-2:350|26:320,1,120,2|0,0:0|3:0,0:0:0:0:
91,219,140715,5,8,0:0:0:0:
330,240,141405,1,8,0:0:0:0:
256,75,141922,1,0,0:0:0:0:
230,21,142095,1,8,0:0:0:0:
346,48,142439,1,0,3:0:0:0:
401,71,142612,1,0,0:0:0:0:
454,98,142784,2,0,P|449:165|424:215,1,120,2|0,0:0|3:0,0:0:0:0:
283,200,143474,5,8,0:0:0:0:
510,276,144164,1,8,0:0:0:0:
336,322,144681,1,0,0:0:0:0:
277,337,144853,2,0,L|258:265,1,60,8|0,0:0|0:0,0:0:0:0:
207,252,145198,2,0,L|188:180,1,60,0|0,3:0|0:0,0:0:0:0:
150,149,145543,2,0,P|82:160|41:203,1,120,2|0,0:0|3:0,0:0:0:0:
33,74,146232,5,8,0:0:0:0:
31,314,146922,1,8,0:0:0:0:
237,191,147612,2,0,P|301:182|368:187,1,120,8|2,0:0|0:0,0:0:0:0:
431,233,148215,6,2,B|492:177|492:177|395:102|395:102|449:50,1,270,2|8,0:0|0:0,0:0:0:0:
327,278,149681,1,8,0:0:0:0:
286,102,150198,1,0,0:0:0:0:
268,45,150371,1,8,0:0:0:0:
183,203,150888,1,0,0:0:0:0:
152,255,151060,2,0,B|89:237|52:188,1,120,2|0,0:0|3:0,0:0:0:0:
17,75,151750,5,8,0:0:0:0:
62,310,152440,1,8,0:0:0:0:
282,208,153129,2,0,P|217:218|152:187,1,120,2|0,0:0|0:0,0:0:0:0:
231,97,153819,2,0,P|295:86|360:117,1,120,2|0,0:0|0:0,0:0:0:0:
403,209,154508,1,12,0:0:0:0:
