osu file format v14

[General]
AudioFilename: audio.mp3
AudioLeadIn: 0
PreviewTime: 76411
Countdown: 0
SampleSet: Normal
StackLeniency: 0.7
Mode: 1
LetterboxInBreaks: 0
WidescreenStoryboard: 0

[Editor]
Bookmarks: 11042,21951,38314,109223,131042,141951,147405,152860,218314
DistanceSpacing: 0.8
BeatDivisor: 2
GridSize: 32
TimelineZoom: 2.2

[Metadata]
Title:Scorn
TitleUnicode:Scorn
Artist:Magnetude
ArtistUnicode:Magnetude
Creator:Jaltzu
Version:Muzukashii
Source:
Tags:electronic instrumental dnb drum and & bass english we are lifted music hyperdrive ep featured artist fa mappers' guild mpg mg
BeatmapID:3004575
BeatmapSetID:1461882

[Difficulty]
HPDrainRate:7
CircleSize:2
OverallDifficulty:5
ApproachRate:10
SliderMultiplier:1.4
SliderTickRate:1

[Events]
//Background and Video events
0,0,"crusi.jpg",0,40
//Break Periods
//Storyboard Layer 0 (Background)
//Storyboard Layer 1 (Fail)
//Storyboard Layer 2 (Pass)
//Storyboard Layer 3 (Foreground)
//Storyboard Layer 4 (Overlay)
//Storyboard Sound Samples

[TimingPoints]
133,340.909090909091,4,1,0,50,1,0
133,-105.263157894737,4,1,0,50,0,0
10956,-105.263157894737,4,1,0,60,0,0
21865,-100,4,1,0,70,0,0
43598,-95.2380952380952,4,1,0,90,0,0
43769,-95.2380952380952,4,1,0,90,0,1
46411,-100,4,1,0,90,0,1
49167,-95.2380952380952,4,1,0,90,0,1
51865,-100,4,1,0,90,0,1
54167,-99.009900990099,4,1,0,90,0,1
54280,-98.0392156862745,4,1,0,90,0,1
54394,-97.0873786407767,4,1,0,90,0,1
54508,-96.1538461538461,4,1,0,90,0,1
54621,-95.2380952380952,4,1,0,90,0,1
57320,-100,4,1,0,90,0,1
60076,-95.2380952380952,4,1,0,90,0,1
62803,-100,4,1,0,90,0,1
63499,-95.2380952380952,4,1,0,90,0,1
64905,-95.2380952380952,4,1,0,90,0,0
65502,-100,4,1,0,90,0,0
76496,-95.2380952380952,4,1,0,90,0,1
85956,-100,4,1,0,70,0,1
86042,-100,4,1,0,70,0,0
86169,-100,4,1,0,72,0,0
86340,-100,4,1,0,74,0,0
86510,-100,4,1,0,76,0,0
86681,-100,4,1,0,78,0,0
87363,-90.9090909090909,4,1,0,90,0,0
87405,-95.2380952380952,4,1,0,90,0,1
90431,-100,4,1,0,90,0,1
92803,-95.2380952380952,4,1,0,90,0,1
95871,-100,4,1,0,90,0,1
97803,-99.009900990099,4,1,0,90,0,1
97917,-98.0392156862745,4,1,0,90,0,1
98030,-97.0873786407767,4,1,0,90,0,1
98144,-96.1538461538461,4,1,0,90,0,1
98258,-95.2380952380952,4,1,0,90,0,1
101340,-100,4,1,0,90,0,1
103712,-95.2380952380952,4,1,0,90,0,1
107860,-95.2380952380952,4,1,0,90,0,0
108115,-97.5609756097561,4,1,0,70,0,0
108627,-101.26582278481,4,1,0,40,0,0
109138,-105.263157894737,4,1,0,50,0,0
119408,-105.263157894737,4,1,0,52,0,0
119579,-105.263157894737,4,1,0,54,0,0
119749,-105.263157894737,4,1,0,56,0,0
119919,-105.263157894737,4,1,0,58,0,0
120090,-105.263157894737,4,1,0,60,0,0
120559,-105.263157894737,4,1,0,50,0,0
124863,-105.263157894737,4,1,0,52,0,0
125033,-105.263157894737,4,1,0,54,0,0
125204,-105.263157894737,4,1,0,56,0,0
125374,-105.263157894737,4,1,0,58,0,0
125544,-105.263157894737,4,1,0,60,0,0
126013,-105.263157894737,4,1,0,50,0,0
128101,-105.263157894737,4,1,0,52,0,0
128272,-105.263157894737,4,1,0,53,0,0
128442,-105.263157894737,4,1,0,54,0,0
128613,-105.263157894737,4,1,0,55,0,0
128783,-105.263157894737,4,1,0,56,0,0
128954,-105.263157894737,4,1,0,57,0,0
129294,-105.263157894737,4,1,0,59,0,0
129465,-105.263157894737,4,1,0,60,0,0
130956,-100,4,1,0,70,0,0
152775,-95.2380952380952,4,1,0,90,0,0
152860,-95.2380952380952,4,1,0,90,0,1
155502,-100,4,1,0,90,0,1
158258,-95.2380952380952,4,1,0,90,0,1
160956,-100,4,1,0,90,0,1
163258,-99.009900990099,4,1,0,90,0,1
163371,-98.0392156862745,4,1,0,90,0,1
163485,-97.0873786407767,4,1,0,90,0,1
163598,-96.1538461538461,4,1,0,90,0,1
163712,-95.2380952380952,4,1,0,90,0,1
166411,-100,4,1,0,90,0,1
169167,-95.2380952380952,4,1,0,90,0,1
171894,-100,4,1,0,90,0,1
172590,-95.2380952380952,4,1,0,90,0,1
173996,-95.2380952380952,4,1,0,90,0,0
174635,-100,4,1,0,90,0,0
185587,-90.9090909090909,4,1,0,90,0,1
190644,-95.2380952380952,4,1,0,90,0,1
195047,-100,4,1,0,70,0,1
195133,-100,4,1,0,70,0,0
195260,-100,4,1,0,72,0,0
195431,-100,4,1,0,74,0,0
195601,-100,4,1,0,76,0,0
195772,-100,4,1,0,78,0,0
196454,-95.2380952380952,4,1,0,90,0,0
196496,-95.2380952380952,4,1,0,90,0,1
199138,-100,4,1,0,90,0,1
201894,-95.2380952380952,4,1,0,90,0,1
204593,-100,4,1,0,90,0,1
206894,-99.009900990099,4,1,0,90,0,1
207008,-98.0392156862745,4,1,0,90,0,1
207121,-97.0873786407767,4,1,0,90,0,1
207235,-96.1538461538461,4,1,0,90,0,1
207348,-95.2380952380952,4,1,0,90,0,1
210047,-100,4,1,0,90,0,1
212803,-95.2380952380952,4,1,0,90,0,1
215843,-95.2380952380952,4,1,0,90,0,1
216951,-95.2380952380952,4,1,0,90,0,0
217206,-97.5609756097561,4,1,0,70,0,0
217718,-101.26582278481,4,1,0,40,0,0
218229,-105.263157894737,4,1,0,45,0,0
228627,-105.263157894737,4,1,0,60,0,0
229138,-105.263157894737,4,1,0,50,0,0
237064,-105.263157894737,4,1,0,51,0,0
237235,-105.263157894737,4,1,0,52,0,0
237405,-105.263157894737,4,1,0,53,0,0
237576,-105.263157894737,4,1,0,54,0,0
237746,-105.263157894737,4,1,0,55,0,0
237917,-105.263157894737,4,1,0,56,0,0
238087,-105.263157894737,4,1,0,57,0,0
238258,-105.263157894737,4,1,0,58,0,0
238428,-105.263157894737,4,1,0,59,0,0
238598,-105.263157894737,4,1,0,60,0,0

[HitObjects]
256,192,133,5,8,0:0:0:0:
256,192,473,1,0,0:0:0:0:
256,192,814,1,8,0:0:0:0:
256,192,1155,1,8,0:0:0:0:
256,192,1496,1,8,0:0:0:0:
256,192,1837,1,0,0:0:0:0:
256,192,2178,1,8,0:0:0:0:
256,192,2519,1,8,0:0:0:0:
256,192,2860,1,0,0:0:0:0:
256,192,3542,1,8,0:0:0:0:
256,192,3883,1,0,0:0:0:0:
256,192,4223,1,8,0:0:0:0:
256,192,4564,1,0,0:0:0:0:
256,192,4905,1,8,0:0:0:0:
256,192,5587,1,8,0:0:0:0:
256,192,5928,1,8,0:0:0:0:
256,192,6269,1,0,0:0:0:0:
256,192,6610,1,8,0:0:0:0:
256,192,6951,1,8,0:0:0:0:
256,192,7292,1,8,0:0:0:0:
256,192,7633,1,0,0:0:0:0:
256,192,7973,1,8,0:0:0:0:
256,192,8314,1,0,0:0:0:0:
256,192,8996,1,0,0:0:0:0:
256,192,9337,1,0,0:0:0:0:
256,192,9678,1,8,0:0:0:0:
256,192,10019,1,0,0:0:0:0:
256,192,10360,1,8,0:0:0:0:
256,192,11042,1,4,0:0:0:0:
256,192,11553,1,8,0:0:0:0:
256,192,11723,1,0,0:0:0:0:
256,192,12064,1,8,0:0:0:0:
256,192,12405,1,0,0:0:0:0:
256,192,12746,1,0,0:0:0:0:
256,192,13087,1,8,0:0:0:0:
256,192,13428,1,0,0:0:0:0:
256,192,13769,1,0,0:0:0:0:
256,192,14280,1,8,0:0:0:0:
256,192,14451,1,0,0:0:0:0:
256,192,14792,1,8,0:0:0:0:
256,192,15133,1,0,0:0:0:0:
256,192,15303,1,0,0:0:0:0:
256,192,15473,1,8,0:0:0:0:
256,192,15814,1,0,0:0:0:0:
256,192,16155,1,8,0:0:0:0:
256,192,16496,1,0,0:0:0:0:
256,192,17008,1,8,0:0:0:0:
256,192,17178,1,0,0:0:0:0:
256,192,17519,1,8,0:0:0:0:
256,192,17860,1,8,0:0:0:0:
256,192,18201,1,0,0:0:0:0:
256,192,18542,1,0,0:0:0:0:
256,192,18883,1,8,0:0:0:0:
256,192,19223,1,0,0:0:0:0:
256,192,19735,1,8,0:0:0:0:
256,192,19905,1,0,0:0:0:0:
256,192,20246,1,8,0:0:0:0:
256,192,20587,1,0,0:0:0:0:
256,192,20758,1,0,0:0:0:0:
256,192,20928,1,8,0:0:0:0:
256,192,21269,1,0,0:0:0:0:
256,192,21610,1,8,0:0:0:0:
256,192,21951,5,4,0:0:0:0:
256,192,22462,1,0,0:0:0:0:
256,192,22633,1,8,0:0:0:0:
256,192,22973,1,0,0:0:0:0:
256,192,23314,1,0,0:0:0:0:
256,192,23485,1,8,0:0:0:0:
256,192,23655,1,8,0:0:0:0:
256,192,23826,1,0,0:0:0:0:
256,192,23996,1,0,0:0:0:0:
256,192,24337,1,8,0:0:0:0:
256,192,24678,1,4,0:0:0:0:
256,192,25189,1,0,0:0:0:0:
256,192,25360,1,8,0:0:0:0:
256,192,25701,1,0,0:0:0:0:
256,192,26042,1,0,0:0:0:0:
256,192,26212,1,0,0:0:0:0:
256,192,26383,1,8,0:0:0:0:
256,192,26553,1,0,0:0:0:0:
256,192,26723,1,8,0:0:0:0:
256,192,27064,1,0,0:0:0:0:
256,192,27405,1,4,0:0:0:0:
256,192,27917,1,0,0:0:0:0:
256,192,28087,1,8,0:0:0:0:
256,192,28428,1,8,0:0:0:0:
256,192,28769,1,0,0:0:0:0:
256,192,28939,1,0,0:0:0:0:
256,192,29110,1,8,0:0:0:0:
256,192,29280,1,0,0:0:0:0:
256,192,29451,1,0,0:0:0:0:
256,192,29792,1,8,0:0:0:0:
256,192,30133,1,4,0:0:0:0:
256,192,30644,1,0,0:0:0:0:
256,192,30814,1,8,0:0:0:0:
256,192,31155,1,8,0:0:0:0:
256,192,31496,1,0,0:0:0:0:
256,192,31667,1,0,0:0:0:0:
256,192,31837,1,8,0:0:0:0:
256,192,32008,1,0,0:0:0:0:
256,192,32178,1,8,0:0:0:0:
256,192,32519,1,0,0:0:0:0:
256,192,32860,1,4,0:0:0:0:
256,192,33371,1,0,0:0:0:0:
256,192,33542,1,8,0:0:0:0:
256,192,33883,1,0,0:0:0:0:
256,192,34223,1,0,0:0:0:0:
256,192,34394,1,8,0:0:0:0:
256,192,34564,1,8,0:0:0:0:
256,192,34735,1,0,0:0:0:0:
256,192,34905,1,0,0:0:0:0:
256,192,35246,1,8,0:0:0:0:
256,192,35587,1,4,0:0:0:0:
256,192,36098,1,0,0:0:0:0:
256,192,36269,1,8,0:0:0:0:
256,192,36610,1,0,0:0:0:0:
256,192,36951,1,0,0:0:0:0:
256,192,37121,1,0,0:0:0:0:
256,192,37292,1,8,0:0:0:0:
256,192,37462,1,0,0:0:0:0:
256,192,37633,1,8,0:0:0:0:
256,192,37973,1,0,0:0:0:0:
256,192,38314,1,8,0:0:0:0:
256,192,38826,1,0,0:0:0:0:
256,192,38996,1,8,0:0:0:0:
256,192,39337,1,0,0:0:0:0:
256,192,39678,1,0,0:0:0:0:
256,192,39848,1,8,0:0:0:0:
256,192,40019,1,8,0:0:0:0:
256,192,40189,1,0,0:0:0:0:
256,192,40360,1,8,0:0:0:0:
256,192,40701,1,0,0:0:0:0:
256,192,41042,1,4,0:0:0:0:
256,192,41383,1,8,0:0:0:0:
256,192,41553,12,8,43087,0:0:0:0:
256,192,43769,5,4,0:0:0:0:
256,192,44110,1,8,0:0:0:0:
256,192,44280,1,0,0:0:0:0:
256,192,44365,1,0,0:0:0:0:
256,192,44451,1,0,0:0:0:0:
256,192,44621,1,0,0:0:0:0:
256,192,44792,1,8,0:0:0:0:
256,192,45303,1,0,0:0:0:0:
256,192,45473,1,8,0:0:0:0:
256,192,45644,1,8,0:0:0:0:
256,192,45729,1,8,0:0:0:0:
256,192,45814,1,8,0:0:0:0:
256,192,45985,1,0,0:0:0:0:
256,192,46155,1,8,0:0:0:0:
256,192,46496,1,4,0:0:0:0:
256,192,46837,1,12,0:0:0:0:
256,192,47008,1,0,0:0:0:0:
256,192,47178,1,8,0:0:0:0:
256,192,47405,1,0,0:0:0:0:
256,192,47519,1,12,0:0:0:0:
256,192,47689,1,0,0:0:0:0:
256,192,47860,1,8,0:0:0:0:
256,192,48087,1,0,0:0:0:0:
256,192,48201,1,12,0:0:0:0:
256,192,48371,1,0,0:0:0:0:
256,192,48542,1,8,0:0:0:0:
256,192,48769,1,0,0:0:0:0:
256,192,48883,1,8,0:0:0:0:
256,192,49223,1,4,0:0:0:0:
256,192,49564,1,8,0:0:0:0:
256,192,49735,1,8,0:0:0:0:
256,192,49820,1,8,0:0:0:0:
256,192,49905,1,8,0:0:0:0:
256,192,50076,1,0,0:0:0:0:
256,192,50246,1,8,0:0:0:0:
256,192,50758,1,0,0:0:0:0:
256,192,50928,1,8,0:0:0:0:
256,192,51098,1,0,0:0:0:0:
256,192,51184,1,0,0:0:0:0:
256,192,51269,1,0,0:0:0:0:
256,192,51439,1,0,0:0:0:0:
256,192,51610,1,8,0:0:0:0:
256,192,51951,1,4,0:0:0:0:
256,192,52292,1,12,0:0:0:0:
256,192,52746,1,8,0:0:0:0:
256,192,52860,1,0,0:0:0:0:
256,192,52973,1,12,0:0:0:0:
256,192,53428,1,8,0:0:0:0:
256,192,53542,1,0,0:0:0:0:
256,192,53655,1,12,0:0:0:0:
256,192,54110,1,0,0:0:0:0:
256,192,54223,1,0,0:0:0:0:
256,192,54337,1,8,0:0:0:0:
256,192,54451,1,8,0:0:0:0:
256,192,54678,1,4,0:0:0:0:
256,192,55019,1,8,0:0:0:0:
256,192,55189,1,0,0:0:0:0:
256,192,55275,1,0,0:0:0:0:
256,192,55360,1,0,0:0:0:0:
256,192,55530,1,0,0:0:0:0:
256,192,55701,1,8,0:0:0:0:
256,192,56212,1,0,0:0:0:0:
256,192,56383,1,8,0:0:0:0:
256,192,56553,1,8,0:0:0:0:
256,192,56638,1,8,0:0:0:0:
256,192,56723,1,8,0:0:0:0:
256,192,56894,1,0,0:0:0:0:
256,192,57064,1,8,0:0:0:0:
256,192,57405,1,4,0:0:0:0:
256,192,57746,1,12,0:0:0:0:
256,192,57917,1,0,0:0:0:0:
256,192,58087,1,8,0:0:0:0:
256,192,58314,1,0,0:0:0:0:
256,192,58428,1,12,0:0:0:0:
256,192,58598,1,0,0:0:0:0:
256,192,58769,1,8,0:0:0:0:
256,192,58996,1,0,0:0:0:0:
256,192,59110,1,12,0:0:0:0:
256,192,59280,1,0,0:0:0:0:
256,192,59451,1,8,0:0:0:0:
256,192,59678,1,0,0:0:0:0:
256,192,59792,1,8,0:0:0:0:
256,192,60133,1,4,0:0:0:0:
256,192,60473,1,8,0:0:0:0:
256,192,60644,1,8,0:0:0:0:
256,192,60729,1,8,0:0:0:0:
256,192,60814,1,8,0:0:0:0:
256,192,60985,1,0,0:0:0:0:
256,192,61155,1,8,0:0:0:0:
256,192,61667,1,0,0:0:0:0:
256,192,61837,1,8,0:0:0:0:
256,192,62008,1,0,0:0:0:0:
256,192,62093,1,0,0:0:0:0:
256,192,62178,1,0,0:0:0:0:
256,192,62348,1,0,0:0:0:0:
256,192,62519,1,8,0:0:0:0:
256,192,62860,5,4,0:0:0:0:
256,192,63201,1,4,0:0:0:0:
256,192,63542,1,12,0:0:0:0:
256,192,63883,1,0,0:0:0:0:
256,192,64053,1,12,0:0:0:0:
256,192,64394,1,12,0:0:0:0:
256,192,64735,1,0,0:0:0:0:
256,192,64905,1,12,0:0:0:0:
256,192,65587,5,4,0:0:0:0:
256,192,65928,1,8,0:0:0:0:
256,192,66098,1,0,0:0:0:0:
256,192,66269,1,0,0:0:0:0:
256,192,66439,1,0,0:0:0:0:
256,192,66610,1,8,0:0:0:0:
256,192,66780,1,8,0:0:0:0:
256,192,66951,1,0,0:0:0:0:
256,192,67292,1,8,0:0:0:0:
256,192,67462,1,8,0:0:0:0:
256,192,67633,1,0,0:0:0:0:
256,192,67803,1,0,0:0:0:0:
256,192,67973,1,8,0:0:0:0:
256,192,68314,1,4,0:0:0:0:
256,192,68655,1,8,0:0:0:0:
256,192,68826,1,0,0:0:0:0:
256,192,68996,1,8,0:0:0:0:
256,192,69167,1,0,0:0:0:0:
256,192,69337,1,8,0:0:0:0:
256,192,69508,1,8,0:0:0:0:
256,192,69678,1,0,0:0:0:0:
256,192,70019,1,8,0:0:0:0:
256,192,70189,1,0,0:0:0:0:
256,192,70360,1,0,0:0:0:0:
256,192,71042,1,4,0:0:0:0:
256,192,71383,1,8,0:0:0:0:
256,192,71553,1,0,0:0:0:0:
256,192,71723,1,0,0:0:0:0:
256,192,71894,1,0,0:0:0:0:
256,192,72064,1,8,0:0:0:0:
256,192,72235,1,8,0:0:0:0:
256,192,72405,1,0,0:0:0:0:
256,192,72746,1,8,0:0:0:0:
256,192,72917,1,8,0:0:0:0:
256,192,73087,1,0,0:0:0:0:
256,192,73258,1,0,0:0:0:0:
256,192,73428,1,8,0:0:0:0:
256,192,73769,1,4,0:0:0:0:
256,192,74110,1,8,0:0:0:0:
256,192,74280,1,8,0:0:0:0:
256,192,74451,1,0,0:0:0:0:
256,192,74621,1,0,0:0:0:0:
256,192,74792,1,8,0:0:0:0:
256,192,74962,1,8,0:0:0:0:
256,192,75133,1,0,0:0:0:0:
256,192,75303,1,0,0:0:0:0:
256,192,75473,1,8,0:0:0:0:
256,192,75644,1,8,0:0:0:0:
256,192,75814,1,8,0:0:0:0:
256,192,76496,5,4,0:0:0:0:
256,192,76837,1,8,0:0:0:0:
256,192,77008,1,8,0:0:0:0:
256,192,77093,1,8,0:0:0:0:
256,192,77178,1,8,0:0:0:0:
256,192,77348,1,0,0:0:0:0:
256,192,77519,1,8,0:0:0:0:
256,192,77860,1,0,0:0:0:0:
256,192,78030,1,0,0:0:0:0:
256,192,78201,1,8,0:0:0:0:
256,192,78371,1,0,0:0:0:0:
256,192,78456,1,0,0:0:0:0:
256,192,78542,1,0,0:0:0:0:
256,192,78712,1,0,0:0:0:0:
256,192,78883,1,8,0:0:0:0:
256,192,79223,1,4,0:0:0:0:
256,192,79564,1,8,0:0:0:0:
256,192,79735,1,0,0:0:0:0:
256,192,79820,1,0,0:0:0:0:
256,192,79905,1,0,0:0:0:0:
256,192,80076,1,0,0:0:0:0:
256,192,80246,1,8,0:0:0:0:
256,192,80587,1,8,0:0:0:0:
256,192,80758,1,0,0:0:0:0:
256,192,80928,1,8,0:0:0:0:
256,192,81098,1,8,0:0:0:0:
256,192,81184,1,8,0:0:0:0:
256,192,81269,1,8,0:0:0:0:
256,192,81951,1,4,0:0:0:0:
256,192,82292,1,8,0:0:0:0:
256,192,82462,1,8,0:0:0:0:
256,192,82547,1,8,0:0:0:0:
256,192,82633,1,8,0:0:0:0:
256,192,82803,1,0,0:0:0:0:
256,192,82973,1,8,0:0:0:0:
256,192,83314,1,0,0:0:0:0:
256,192,83485,1,0,0:0:0:0:
256,192,83655,1,8,0:0:0:0:
256,192,83826,1,0,0:0:0:0:
256,192,83911,1,0,0:0:0:0:
256,192,83996,1,0,0:0:0:0:
256,192,84167,1,0,0:0:0:0:
256,192,84337,1,8,0:0:0:0:
256,192,84678,1,4,0:0:0:0:
256,192,85019,1,8,0:0:0:0:
256,192,85189,1,0,0:0:0:0:
256,192,85360,1,8,0:0:0:0:
256,192,85445,1,8,0:0:0:0:
256,192,85530,1,8,0:0:0:0:
256,192,85701,1,8,0:0:0:0:
256,192,86042,1,0,0:0:0:0:
256,192,86212,1,0,0:0:0:0:
256,192,86383,1,8,0:0:0:0:
256,192,86553,1,8,0:0:0:0:
256,192,86723,1,0,0:0:0:0:
256,192,87405,5,4,0:0:0:0:
256,192,87746,1,8,0:0:0:0:
256,192,87917,1,0,0:0:0:0:
256,192,88002,1,0,0:0:0:0:
256,192,88087,1,0,0:0:0:0:
256,192,88258,1,0,0:0:0:0:
256,192,88428,1,8,0:0:0:0:
256,192,88939,1,0,0:0:0:0:
256,192,89110,1,8,0:0:0:0:
256,192,89280,1,0,0:0:0:0:
256,192,89365,1,0,0:0:0:0:
256,192,89451,1,0,0:0:0:0:
256,192,89621,1,0,0:0:0:0:
256,192,89792,1,8,0:0:0:0:
256,192,90133,1,4,0:0:0:0:
256,192,90473,1,12,0:0:0:0:
256,192,90814,1,0,0:0:0:0:
256,192,90900,1,0,0:0:0:0:
256,192,90985,1,0,0:0:0:0:
256,192,91155,1,12,0:0:0:0:
256,192,91496,1,0,0:0:0:0:
256,192,91581,1,0,0:0:0:0:
256,192,91667,1,0,0:0:0:0:
256,192,91837,1,12,0:0:0:0:
256,192,92178,1,0,0:0:0:0:
256,192,92263,1,0,0:0:0:0:
256,192,92348,1,0,0:0:0:0:
256,192,92519,1,12,0:0:0:0:
256,192,92860,1,4,0:0:0:0:
256,192,93201,1,8,0:0:0:0:
256,192,93371,1,8,0:0:0:0:
256,192,93456,1,8,0:0:0:0:
256,192,93542,1,8,0:0:0:0:
256,192,93712,1,0,0:0:0:0:
256,192,93883,1,8,0:0:0:0:
256,192,94394,1,0,0:0:0:0:
256,192,94564,1,8,0:0:0:0:
256,192,94735,1,8,0:0:0:0:
256,192,94820,1,8,0:0:0:0:
256,192,94905,1,8,0:0:0:0:
256,192,95076,1,0,0:0:0:0:
256,192,95246,1,8,0:0:0:0:
256,192,95587,1,4,0:0:0:0:
256,192,95928,1,12,0:0:0:0:
256,192,96383,1,0,0:0:0:0:
256,192,96496,1,0,0:0:0:0:
256,192,96610,1,12,0:0:0:0:
256,192,97064,1,0,0:0:0:0:
256,192,97178,1,0,0:0:0:0:
256,192,97292,1,12,0:0:0:0:
256,192,97746,1,0,0:0:0:0:
256,192,97860,1,0,0:0:0:0:
256,192,97973,1,8,0:0:0:0:
256,192,98087,1,8,0:0:0:0:
256,192,98314,1,4,0:0:0:0:
256,192,98655,1,8,0:0:0:0:
256,192,98826,1,0,0:0:0:0:
256,192,98911,1,0,0:0:0:0:
256,192,98996,1,0,0:0:0:0:
256,192,99167,1,0,0:0:0:0:
256,192,99337,1,8,0:0:0:0:
256,192,99848,1,0,0:0:0:0:
256,192,100019,1,8,0:0:0:0:
256,192,100189,1,0,0:0:0:0:
256,192,100275,1,0,0:0:0:0:
256,192,100360,1,0,0:0:0:0:
256,192,100530,1,0,0:0:0:0:
256,192,100701,1,8,0:0:0:0:
256,192,101042,1,4,0:0:0:0:
256,192,101383,1,12,0:0:0:0:
256,192,101723,1,8,0:0:0:0:
256,192,101809,1,8,0:0:0:0:
256,192,101894,1,8,0:0:0:0:
256,192,102064,1,12,0:0:0:0:
256,192,102405,1,8,0:0:0:0:
256,192,102490,1,8,0:0:0:0:
256,192,102576,1,8,0:0:0:0:
256,192,102746,1,12,0:0:0:0:
256,192,103087,1,8,0:0:0:0:
256,192,103172,1,8,0:0:0:0:
256,192,103258,1,8,0:0:0:0:
256,192,103428,1,8,0:0:0:0:
256,192,103769,1,4,0:0:0:0:
256,192,104110,1,8,0:0:0:0:
256,192,104280,1,8,0:0:0:0:
256,192,104365,1,8,0:0:0:0:
256,192,104451,1,8,0:0:0:0:
256,192,104621,1,0,0:0:0:0:
256,192,104792,1,8,0:0:0:0:
256,192,105303,1,0,0:0:0:0:
256,192,105473,1,8,0:0:0:0:
256,192,105644,1,8,0:0:0:0:
256,192,105729,1,8,0:0:0:0:
256,192,105814,1,8,0:0:0:0:
256,192,105985,1,0,0:0:0:0:
256,192,106155,1,8,0:0:0:0:
256,192,106496,1,4,0:0:0:0:
256,192,106837,1,12,0:0:0:0:
256,192,107093,1,0,0:0:0:0:
256,192,107348,1,12,0:0:0:0:
256,192,107604,1,0,0:0:0:0:
256,192,107860,1,12,0:0:0:0:
256,192,108201,1,8,0:0:0:0:
256,192,108712,1,8,0:0:0:0:
256,192,109223,5,4,0:0:0:0:
256,192,109735,1,0,0:0:0:0:
256,192,109905,1,8,0:0:0:0:
256,192,110246,1,0,0:0:0:0:
256,192,110587,1,8,0:0:0:0:
256,192,110758,1,8,0:0:0:0:
256,192,111098,1,0,0:0:0:0:
256,192,111269,1,8,0:0:0:0:
256,192,111439,1,0,0:0:0:0:
256,192,111951,1,0,0:0:0:0:
256,192,112462,1,0,0:0:0:0:
256,192,112633,1,8,0:0:0:0:
256,192,112973,1,0,0:0:0:0:
256,192,113314,1,8,0:0:0:0:
256,192,113826,1,0,0:0:0:0:
256,192,113996,1,8,0:0:0:0:
256,192,114167,1,0,0:0:0:0:
256,192,114337,1,8,0:0:0:0:
256,192,114678,1,0,0:0:0:0:
256,192,115189,1,0,0:0:0:0:
256,192,115360,1,8,0:0:0:0:
256,192,115701,1,0,0:0:0:0:
256,192,116042,1,8,0:0:0:0:
256,192,116212,1,8,0:0:0:0:
256,192,116553,1,0,0:0:0:0:
256,192,116723,1,8,0:0:0:0:
256,192,116894,1,0,0:0:0:0:
256,192,117405,1,0,0:0:0:0:
256,192,117917,1,0,0:0:0:0:
256,192,118087,1,8,0:0:0:0:
256,192,118428,1,0,0:0:0:0:
256,192,118769,1,8,0:0:0:0:
256,192,119280,1,0,0:0:0:0:
256,192,119451,1,8,0:0:0:0:
256,192,119621,1,0,0:0:0:0:
256,192,119792,1,8,0:0:0:0:
256,192,119962,1,8,0:0:0:0:
256,192,120133,1,4,0:0:0:0:
256,192,120644,1,0,0:0:0:0:
256,192,120814,1,8,0:0:0:0:
256,192,121155,1,0,0:0:0:0:
256,192,121496,1,8,0:0:0:0:
256,192,121667,1,8,0:0:0:0:
256,192,122008,1,0,0:0:0:0:
256,192,122178,1,8,0:0:0:0:
256,192,122348,1,0,0:0:0:0:
256,192,122860,1,0,0:0:0:0:
256,192,123371,1,0,0:0:0:0:
256,192,123542,1,8,0:0:0:0:
256,192,123883,1,0,0:0:0:0:
256,192,124223,1,8,0:0:0:0:
256,192,124735,1,0,0:0:0:0:
256,192,124905,1,8,0:0:0:0:
256,192,125076,1,0,0:0:0:0:
256,192,125246,1,8,0:0:0:0:
256,192,125417,1,8,0:0:0:0:
256,192,125587,1,0,0:0:0:0:
256,192,126098,1,0,0:0:0:0:
256,192,126269,1,8,0:0:0:0:
256,192,126610,1,0,0:0:0:0:
256,192,126951,1,8,0:0:0:0:
256,192,127121,1,8,0:0:0:0:
256,192,127462,1,0,0:0:0:0:
256,192,127633,1,8,0:0:0:0:
256,192,127803,1,0,0:0:0:0:
256,192,128314,1,0,0:0:0:0:
256,192,128826,1,0,0:0:0:0:
256,192,128996,1,8,0:0:0:0:
256,192,129337,1,0,0:0:0:0:
256,192,131042,5,12,0:0:0:0:
256,192,131553,1,0,0:0:0:0:
256,192,131723,1,8,0:0:0:0:
256,192,132064,1,0,0:0:0:0:
256,192,132405,1,0,0:0:0:0:
256,192,132576,1,0,0:0:0:0:
256,192,132746,1,8,0:0:0:0:
256,192,132917,1,0,0:0:0:0:
256,192,133087,1,8,0:0:0:0:
256,192,133428,1,0,0:0:0:0:
256,192,133769,1,0,0:0:0:0:
256,192,134280,1,0,0:0:0:0:
256,192,134451,1,8,0:0:0:0:
256,192,134792,1,0,0:0:0:0:
256,192,135133,1,0,0:0:0:0:
256,192,135303,1,8,0:0:0:0:
256,192,135473,1,8,0:0:0:0:
256,192,135644,1,0,0:0:0:0:
256,192,135814,1,8,0:0:0:0:
256,192,136155,1,0,0:0:0:0:
256,192,136496,1,8,0:0:0:0:
256,192,137008,1,0,0:0:0:0:
256,192,137178,1,8,0:0:0:0:
256,192,137519,1,0,0:0:0:0:
256,192,137860,1,0,0:0:0:0:
256,192,138030,1,0,0:0:0:0:
256,192,138201,1,8,0:0:0:0:
256,192,138371,1,0,0:0:0:0:
256,192,138542,1,8,0:0:0:0:
256,192,138883,1,0,0:0:0:0:
256,192,139223,1,8,0:0:0:0:
256,192,139735,1,0,0:0:0:0:
256,192,139905,1,8,0:0:0:0:
256,192,140246,1,0,0:0:0:0:
256,192,140587,1,0,0:0:0:0:
256,192,140758,1,8,0:0:0:0:
256,192,140928,1,8,0:0:0:0:
256,192,141098,1,0,0:0:0:0:
256,192,141269,1,8,0:0:0:0:
256,192,141439,1,0,0:0:0:0:
256,192,141610,1,8,0:0:0:0:
256,192,141951,1,4,0:0:0:0:
256,192,142462,1,0,0:0:0:0:
256,192,142633,1,8,0:0:0:0:
256,192,142973,1,0,0:0:0:0:
256,192,143314,1,0,0:0:0:0:
256,192,143485,1,8,0:0:0:0:
256,192,143655,1,8,0:0:0:0:
256,192,143826,1,0,0:0:0:0:
256,192,143996,1,0,0:0:0:0:
256,192,144337,1,0,0:0:0:0:
256,192,144678,1,0,0:0:0:0:
256,192,145189,1,0,0:0:0:0:
256,192,145360,1,8,0:0:0:0:
256,192,145701,1,0,0:0:0:0:
256,192,146042,1,0,0:0:0:0:
256,192,146212,1,8,0:0:0:0:
256,192,146383,1,8,0:0:0:0:
256,192,146553,1,0,0:0:0:0:
256,192,146723,1,8,0:0:0:0:
256,192,146894,1,8,0:0:0:0:
256,192,147064,1,0,0:0:0:0:
256,192,147405,1,0,0:0:0:0:
256,192,147917,1,0,0:0:0:0:
256,192,148087,1,8,0:0:0:0:
256,192,148428,1,0,0:0:0:0:
256,192,148769,1,0,0:0:0:0:
256,192,148939,1,8,0:0:0:0:
256,192,149110,1,8,0:0:0:0:
256,192,149280,1,0,0:0:0:0:
256,192,149451,1,8,0:0:0:0:
256,192,150133,1,4,0:0:0:0:
256,192,150473,1,8,0:0:0:0:
256,192,150644,12,8,152178,0:0:0:0:
256,192,152860,5,4,0:0:0:0:
256,192,153201,1,8,0:0:0:0:
256,192,153371,1,0,0:0:0:0:
256,192,153456,1,0,0:0:0:0:
256,192,153542,1,0,0:0:0:0:
256,192,153712,1,0,0:0:0:0:
256,192,153883,1,8,0:0:0:0:
256,192,154394,1,8,0:0:0:0:
256,192,154564,1,8,0:0:0:0:
256,192,154735,1,0,0:0:0:0:
256,192,154820,1,0,0:0:0:0:
256,192,154905,1,0,0:0:0:0:
256,192,155076,1,0,0:0:0:0:
256,192,155246,1,8,0:0:0:0:
256,192,155587,1,4,0:0:0:0:
256,192,155928,1,12,0:0:0:0:
256,192,156098,1,8,0:0:0:0:
256,192,156269,1,0,0:0:0:0:
256,192,156496,1,0,0:0:0:0:
256,192,156610,1,12,0:0:0:0:
256,192,156780,1,8,0:0:0:0:
256,192,156951,1,4,0:0:0:0:
256,192,157292,1,12,0:0:0:0:
256,192,157462,1,8,0:0:0:0:
256,192,157633,1,0,0:0:0:0:
256,192,157860,1,0,0:0:0:0:
256,192,157973,1,8,0:0:0:0:
256,192,158314,1,4,0:0:0:0:
256,192,158655,1,8,0:0:0:0:
256,192,158826,1,8,0:0:0:0:
256,192,158911,1,8,0:0:0:0:
256,192,158996,1,8,0:0:0:0:
256,192,159167,1,0,0:0:0:0:
256,192,159337,1,8,0:0:0:0:
256,192,159848,1,8,0:0:0:0:
256,192,160019,1,8,0:0:0:0:
256,192,160189,1,0,0:0:0:0:
256,192,160275,1,0,0:0:0:0:
256,192,160360,1,0,0:0:0:0:
256,192,160530,1,0,0:0:0:0:
256,192,160701,1,8,0:0:0:0:
256,192,161042,1,4,0:0:0:0:
256,192,161383,1,12,0:0:0:0:
256,192,161837,1,0,0:0:0:0:
256,192,161951,1,0,0:0:0:0:
256,192,162064,1,12,0:0:0:0:
256,192,162405,1,4,0:0:0:0:
256,192,162746,1,12,0:0:0:0:
256,192,163201,1,0,0:0:0:0:
256,192,163314,1,0,0:0:0:0:
256,192,163428,1,8,0:0:0:0:
256,192,163542,1,8,0:0:0:0:
256,192,163769,1,4,0:0:0:0:
256,192,164110,1,8,0:0:0:0:
256,192,164280,1,0,0:0:0:0:
256,192,164365,1,0,0:0:0:0:
256,192,164451,1,0,0:0:0:0:
256,192,164621,1,0,0:0:0:0:
256,192,164792,1,8,0:0:0:0:
256,192,165303,1,8,0:0:0:0:
256,192,165473,1,8,0:0:0:0:
256,192,165644,1,0,0:0:0:0:
256,192,165729,1,0,0:0:0:0:
256,192,165814,1,0,0:0:0:0:
256,192,165985,1,0,0:0:0:0:
256,192,166155,1,8,0:0:0:0:
256,192,166496,1,4,0:0:0:0:
256,192,166837,1,12,0:0:0:0:
256,192,167008,1,8,0:0:0:0:
256,192,167178,1,0,0:0:0:0:
256,192,167405,1,0,0:0:0:0:
256,192,167519,1,12,0:0:0:0:
256,192,167689,1,8,0:0:0:0:
256,192,167860,1,0,0:0:0:0:
256,192,168087,1,0,0:0:0:0:
256,192,168201,1,12,0:0:0:0:
256,192,168371,1,8,0:0:0:0:
256,192,168542,1,0,0:0:0:0:
256,192,168769,1,0,0:0:0:0:
256,192,168883,1,8,0:0:0:0:
256,192,169223,1,4,0:0:0:0:
256,192,169564,1,8,0:0:0:0:
256,192,169735,1,0,0:0:0:0:
256,192,169820,1,0,0:0:0:0:
256,192,169905,1,0,0:0:0:0:
256,192,170076,1,0,0:0:0:0:
256,192,170246,1,8,0:0:0:0:
256,192,170758,1,8,0:0:0:0:
256,192,170928,1,8,0:0:0:0:
256,192,171098,1,0,0:0:0:0:
256,192,171184,1,0,0:0:0:0:
256,192,171269,1,0,0:0:0:0:
256,192,171439,1,0,0:0:0:0:
256,192,171610,1,8,0:0:0:0:
256,192,171951,1,4,0:0:0:0:
256,192,172292,1,4,0:0:0:0:
256,192,172633,1,12,0:0:0:0:
256,192,172973,1,0,0:0:0:0:
256,192,173144,1,12,0:0:0:0:
256,192,173485,1,12,0:0:0:0:
256,192,173826,1,0,0:0:0:0:
256,192,173996,1,12,0:0:0:0:
256,192,174678,5,4,0:0:0:0:
256,192,175019,1,8,0:0:0:0:
256,192,175189,1,0,0:0:0:0:
256,192,175360,1,0,0:0:0:0:
256,192,175530,1,8,0:0:0:0:
256,192,175701,1,8,0:0:0:0:
256,192,175871,1,0,0:0:0:0:
256,192,176042,1,0,0:0:0:0:
256,192,176383,1,8,0:0:0:0:
256,192,176553,1,0,0:0:0:0:
256,192,176723,1,0,0:0:0:0:
256,192,176894,1,0,0:0:0:0:
256,192,177064,1,8,0:0:0:0:
256,192,177405,1,4,0:0:0:0:
256,192,177746,1,8,0:0:0:0:
256,192,177917,1,8,0:0:0:0:
256,192,178087,1,0,0:0:0:0:
256,192,178258,1,8,0:0:0:0:
256,192,178428,1,8,0:0:0:0:
256,192,178598,1,8,0:0:0:0:
256,192,178769,1,0,0:0:0:0:
256,192,179110,1,8,0:0:0:0:
256,192,179280,1,8,0:0:0:0:
256,192,179451,1,0,0:0:0:0:
256,192,180133,1,4,0:0:0:0:
256,192,180473,1,8,0:0:0:0:
256,192,180644,1,0,0:0:0:0:
256,192,180814,1,0,0:0:0:0:
256,192,180985,1,8,0:0:0:0:
256,192,181155,1,8,0:0:0:0:
256,192,181326,1,0,0:0:0:0:
256,192,181496,1,0,0:0:0:0:
256,192,181837,1,8,0:0:0:0:
256,192,182008,1,0,0:0:0:0:
256,192,182178,1,0,0:0:0:0:
256,192,182348,1,0,0:0:0:0:
256,192,182519,1,8,0:0:0:0:
256,192,182860,1,4,0:0:0:0:
256,192,183201,1,8,0:0:0:0:
256,192,183371,1,8,0:0:0:0:
256,192,183542,1,0,0:0:0:0:
256,192,183712,1,0,0:0:0:0:
256,192,183883,1,8,0:0:0:0:
256,192,184053,1,8,0:0:0:0:
256,192,184223,1,0,0:0:0:0:
256,192,184394,1,0,0:0:0:0:
256,192,184564,1,8,0:0:0:0:
256,192,184735,1,8,0:0:0:0:
256,192,184905,1,8,0:0:0:0:
256,192,185587,5,4,0:0:0:0:
256,192,185928,1,8,0:0:0:0:
256,192,186098,1,8,0:0:0:0:
256,192,186184,1,8,0:0:0:0:
256,192,186269,1,8,0:0:0:0:
256,192,186439,1,0,0:0:0:0:
256,192,186610,1,8,0:0:0:0:
256,192,186951,1,0,0:0:0:0:
256,192,187121,1,0,0:0:0:0:
256,192,187292,1,8,0:0:0:0:
256,192,187462,1,0,0:0:0:0:
256,192,187547,1,0,0:0:0:0:
256,192,187633,1,0,0:0:0:0:
256,192,187803,1,0,0:0:0:0:
256,192,187973,1,8,0:0:0:0:
256,192,188314,1,4,0:0:0:0:
256,192,188655,1,8,0:0:0:0:
256,192,188826,1,0,0:0:0:0:
256,192,188911,1,0,0:0:0:0:
256,192,188996,1,0,0:0:0:0:
256,192,189167,1,0,0:0:0:0:
256,192,189337,1,8,0:0:0:0:
256,192,189678,1,8,0:0:0:0:
256,192,189848,1,0,0:0:0:0:
256,192,190019,1,8,0:0:0:0:
256,192,190189,1,8,0:0:0:0:
256,192,190275,1,8,0:0:0:0:
256,192,190360,1,8,0:0:0:0:
256,192,191042,1,4,0:0:0:0:
256,192,191383,1,8,0:0:0:0:
256,192,191553,1,8,0:0:0:0:
256,192,191638,1,8,0:0:0:0:
256,192,191723,1,8,0:0:0:0:
256,192,191894,1,0,0:0:0:0:
256,192,192064,1,8,0:0:0:0:
256,192,192405,1,0,0:0:0:0:
256,192,192576,1,0,0:0:0:0:
256,192,192746,1,8,0:0:0:0:
256,192,192917,1,0,0:0:0:0:
256,192,193002,1,0,0:0:0:0:
256,192,193087,1,0,0:0:0:0:
256,192,193258,1,0,0:0:0:0:
256,192,193428,1,8,0:0:0:0:
256,192,193769,1,4,0:0:0:0:
256,192,194110,1,8,0:0:0:0:
256,192,194280,1,0,0:0:0:0:
256,192,194451,1,8,0:0:0:0:
256,192,194536,1,8,0:0:0:0:
256,192,194621,1,8,0:0:0:0:
256,192,194792,1,8,0:0:0:0:
256,192,195133,1,0,0:0:0:0:
256,192,195303,1,0,0:0:0:0:
256,192,195473,1,8,0:0:0:0:
256,192,195644,1,8,0:0:0:0:
256,192,195814,1,0,0:0:0:0:
256,192,196496,5,4,0:0:0:0:
256,192,196837,1,8,0:0:0:0:
256,192,197008,1,0,0:0:0:0:
256,192,197093,1,0,0:0:0:0:
256,192,197178,1,0,0:0:0:0:
256,192,197348,1,0,0:0:0:0:
256,192,197519,1,8,0:0:0:0:
256,192,198030,1,8,0:0:0:0:
256,192,198201,1,8,0:0:0:0:
256,192,198371,1,8,0:0:0:0:
256,192,198456,1,8,0:0:0:0:
256,192,198542,1,8,0:0:0:0:
256,192,198712,1,0,0:0:0:0:
256,192,198883,1,8,0:0:0:0:
256,192,199223,1,4,0:0:0:0:
256,192,199564,1,12,0:0:0:0:
256,192,199905,1,0,0:0:0:0:
256,192,199990,1,0,0:0:0:0:
256,192,200076,1,0,0:0:0:0:
256,192,200246,1,12,0:0:0:0:
256,192,200587,1,0,0:0:0:0:
256,192,200672,1,0,0:0:0:0:
256,192,200758,1,0,0:0:0:0:
256,192,200928,1,12,0:0:0:0:
256,192,201269,1,0,0:0:0:0:
256,192,201354,1,0,0:0:0:0:
256,192,201439,1,0,0:0:0:0:
256,192,201610,1,12,0:0:0:0:
256,192,201951,1,4,0:0:0:0:
256,192,202292,1,8,0:0:0:0:
256,192,202462,1,8,0:0:0:0:
256,192,202547,1,8,0:0:0:0:
256,192,202633,1,8,0:0:0:0:
256,192,202803,1,0,0:0:0:0:
256,192,202973,1,8,0:0:0:0:
256,192,203485,1,8,0:0:0:0:
256,192,203655,1,8,0:0:0:0:
256,192,203826,1,0,0:0:0:0:
256,192,203911,1,0,0:0:0:0:
256,192,203996,1,0,0:0:0:0:
256,192,204167,1,0,0:0:0:0:
256,192,204337,1,8,0:0:0:0:
256,192,204678,1,4,0:0:0:0:
256,192,205019,1,12,0:0:0:0:
256,192,205473,1,0,0:0:0:0:
256,192,205587,1,0,0:0:0:0:
256,192,205701,1,12,0:0:0:0:
256,192,206155,1,0,0:0:0:0:
256,192,206269,1,0,0:0:0:0:
256,192,206383,1,12,0:0:0:0:
256,192,206837,1,0,0:0:0:0:
256,192,206951,1,0,0:0:0:0:
256,192,207064,1,8,0:0:0:0:
256,192,207178,1,8,0:0:0:0:
256,192,207405,1,4,0:0:0:0:
256,192,207746,1,8,0:0:0:0:
256,192,207917,1,0,0:0:0:0:
256,192,208002,1,0,0:0:0:0:
256,192,208087,1,0,0:0:0:0:
256,192,208258,1,0,0:0:0:0:
256,192,208428,1,8,0:0:0:0:
256,192,208939,1,8,0:0:0:0:
256,192,209110,1,8,0:0:0:0:
256,192,209280,1,8,0:0:0:0:
256,192,209365,1,8,0:0:0:0:
256,192,209451,1,8,0:0:0:0:
256,192,209621,1,0,0:0:0:0:
256,192,209792,1,8,0:0:0:0:
256,192,210133,1,4,0:0:0:0:
256,192,210473,1,12,0:0:0:0:
256,192,210814,1,8,0:0:0:0:
256,192,210900,1,8,0:0:0:0:
256,192,210985,1,8,0:0:0:0:
256,192,211155,1,12,0:0:0:0:
256,192,211496,1,8,0:0:0:0:
256,192,211581,1,8,0:0:0:0:
256,192,211667,1,8,0:0:0:0:
256,192,211837,1,12,0:0:0:0:
256,192,212178,1,8,0:0:0:0:
256,192,212263,1,8,0:0:0:0:
256,192,212348,1,8,0:0:0:0:
256,192,212519,1,12,0:0:0:0:
256,192,212860,1,4,0:0:0:0:
256,192,213201,1,8,0:0:0:0:
256,192,213371,1,8,0:0:0:0:
256,192,213456,1,8,0:0:0:0:
256,192,213542,1,8,0:0:0:0:
256,192,213712,1,0,0:0:0:0:
256,192,213883,1,8,0:0:0:0:
256,192,214394,1,8,0:0:0:0:
256,192,214564,1,8,0:0:0:0:
256,192,214735,1,0,0:0:0:0:
256,192,214820,1,0,0:0:0:0:
256,192,214905,1,0,0:0:0:0:
256,192,215076,1,0,0:0:0:0:
256,192,215246,1,8,0:0:0:0:
256,192,215587,1,4,0:0:0:0:
256,192,215928,1,12,0:0:0:0:
256,192,216184,1,0,0:0:0:0:
256,192,216439,1,12,0:0:0:0:
256,192,216695,1,0,0:0:0:0:
256,192,216951,1,12,0:0:0:0:
256,192,217292,1,8,0:0:0:0:
256,192,217803,1,8,0:0:0:0:
256,192,218314,5,4,0:0:0:0:
256,192,219337,1,8,0:0:0:0:
256,192,220360,1,0,0:0:0:0:
256,192,223769,1,8,0:0:0:0:
256,192,224792,1,0,0:0:0:0:
256,192,225814,1,8,0:0:0:0:
256,192,228712,1,8,0:0:0:0:
256,192,228883,1,8,0:0:0:0:
256,192,229053,1,8,0:0:0:0:
256,192,229223,1,4,0:0:0:0:
256,192,230246,1,8,0:0:0:0:
256,192,231269,1,0,0:0:0:0:
256,192,234678,1,8,0:0:0:0:
256,192,235701,1,8,0:0:0:0:
256,192,236723,1,0,0:0:0:0:
256,192,236894,12,0,238769,0:0:0:0:
