osu file format v14

[General]
AudioFilename: audio.mp3
AudioLeadIn: 0
PreviewTime: 76411
Countdown: 0
SampleSet: Normal
StackLeniency: 0.7
Mode: 1
LetterboxInBreaks: 0
WidescreenStoryboard: 0

[Editor]
Bookmarks: 11042,21951,38314,109223,131042,152860,218314
DistanceSpacing: 0.8
BeatDivisor: 4
GridSize: 32
TimelineZoom: 2.2

[Metadata]
Title:Scorn
TitleUnicode:Scorn
Artist:Magnetude
ArtistUnicode:Magnetude
Creator:Jaltzu
Version:Hateful Oni
Source:
Tags:electronic instrumental dnb drum and & bass english we are lifted music hyperdrive ep featured artist fa mappers' guild mpg mg
BeatmapID:3003344
BeatmapSetID:1461882

[Difficulty]
HPDrainRate:6
CircleSize:2
OverallDifficulty:6.5
ApproachRate:10
SliderMultiplier:1.4
SliderTickRate:1

[Events]
//Background and Video events
0,0,"crusi.jpg",0,40
//Break Periods
//Storyboard Layer 0 (Background)
//Storyboard Layer 1 (Fail)
//Storyboard Layer 2 (Pass)
//Storyboard Layer 3 (Foreground)
//Storyboard Layer 4 (Overlay)
//Storyboard Sound Samples

[TimingPoints]
133,340.909090909091,4,1,0,50,1,0
133,-125,4,1,0,50,0,0
10956,-111.111111111111,4,1,0,60,0,0
17817,-110.619469026549,4,1,0,60,0,0
17945,-110.132158590308,4,1,0,60,0,0
18115,-109.649122807018,4,1,0,60,0,0
18286,-109.170305676856,4,1,0,60,0,0
18456,-108.695652173913,4,1,0,60,0,0
18627,-108.225108225108,4,1,0,60,0,0
18797,-107.758620689655,4,1,0,60,0,0
18968,-107.296137339056,4,1,0,60,0,0
19138,-106.837606837607,4,1,0,60,0,0
19309,-106.382978723404,4,1,0,60,0,0
19479,-105.932203389831,4,1,0,60,0,0
19650,-105.485232067511,4,1,0,60,0,0
19820,-105.042016806723,4,1,0,60,0,0
19990,-104.602510460251,4,1,0,60,0,0
20161,-104.166666666667,4,1,0,60,0,0
20331,-103.734439834025,4,1,0,60,0,0
20502,-103.305785123967,4,1,0,60,0,0
20672,-102.880658436214,4,1,0,60,0,0
20843,-102.459016393443,4,1,0,60,0,0
21013,-102.040816326531,4,1,0,60,0,0
21184,-101.626016260163,4,1,0,60,0,0
21354,-101.214574898785,4,1,0,60,0,0
21525,-100.806451612903,4,1,0,60,0,0
21695,-100.401606425703,4,1,0,60,0,0
21865,-100,4,1,0,70,0,0
38442,-99.502487562189,4,1,0,70,0,0
38613,-99.009900990099,4,1,0,70,0,0
38783,-98.5221674876847,4,1,0,70,0,0
38954,-98.0392156862745,4,1,0,70,0,0
39124,-97.5609756097561,4,1,0,70,0,0
39294,-97.0873786407767,4,1,0,70,0,0
39380,-96.8523002421307,4,1,0,70,0,0
39465,-96.6183574879227,4,1,0,70,0,0
39635,-96.1538461538461,4,1,0,70,0,0
39806,-95.6937799043062,4,1,0,70,0,0
39976,-95.2380952380952,4,1,0,70,0,0
40147,-94.7867298578199,4,1,0,70,0,0
40317,-94.3396226415094,4,1,0,70,0,0
40402,-94.1176470588235,4,1,0,70,0,0
40488,-93.8967136150235,4,1,0,70,0,0
40658,-93.4579439252336,4,1,0,70,0,0
40829,-93.0232558139535,4,1,0,70,0,0
40999,-92.5925925925926,4,1,0,70,0,0
41169,-92.1658986175115,4,1,0,70,0,0
41255,-91.9540229885057,4,1,0,70,0,0
41319,-91.7957544463569,4,1,0,70,0,0
41361,-91.743119266055,4,1,0,70,0,0
41510,-91.324200913242,4,1,0,70,0,0
41638,-90.9090909090909,4,1,0,70,0,0
43598,-83.3333333333333,4,1,0,90,0,0
43769,-83.3333333333333,4,1,0,90,0,1
45686,-84.0336134453782,4,1,0,90,0,1
45772,-84.7457627118644,4,1,0,90,0,1
45857,-85.4700854700855,4,1,0,90,0,1
45942,-86.2068965517241,4,1,0,90,0,1
46027,-86.9565217391304,4,1,0,90,0,1
46113,-87.719298245614,4,1,0,90,0,1
46212,-88.7547705689181,4,1,0,90,0,1
46326,-89.8230485942693,4,1,0,90,0,1
46439,-90.9090909090909,4,1,0,90,0,1
46752,-83.3333333333333,4,1,0,90,0,1
46965,-86.2068965517241,4,1,0,90,0,1
47050,-87.719298245614,4,1,0,90,0,1
47135,-89.2857142857143,4,1,0,90,0,1
47221,-90.9090909090909,4,1,0,90,0,1
47462,-83.3333333333333,4,1,0,90,0,1
47647,-86.2068965517241,4,1,0,90,0,1
47732,-87.719298245614,4,1,0,90,0,1
47817,-89.2857142857143,4,1,0,90,0,1
47902,-90.9090909090909,4,1,0,90,0,1
48144,-83.3333333333333,4,1,0,90,0,1
48329,-86.2068965517241,4,1,0,90,0,1
48414,-87.719298245614,4,1,0,90,0,1
48499,-89.2857142857143,4,1,0,90,0,1
48584,-90.9090909090909,4,1,0,90,0,1
48840,-88.8888888888889,4,1,0,90,0,1
48939,-86.9565217391304,4,1,0,90,0,1
49053,-85.1063829787234,4,1,0,90,0,1
49167,-83.3333333333333,4,1,0,90,0,1
51141,-84.0336134453782,4,1,0,90,0,1
51226,-84.7457627118644,4,1,0,90,0,1
51311,-85.4700854700855,4,1,0,90,0,1
51397,-86.2068965517241,4,1,0,90,0,1
51482,-86.9565217391304,4,1,0,90,0,1
51567,-87.719298245614,4,1,0,90,0,1
51667,-88.7547705689181,4,1,0,90,0,1
51780,-89.8230485942693,4,1,0,90,0,1
51894,-90.9090909090909,4,1,0,90,0,1
52235,-83.3333333333333,4,1,0,90,0,1
52348,-85.7118368046627,4,1,0,90,0,1
52462,-88.2378893496868,4,1,0,90,0,1
52576,-90.9090909090909,4,1,0,90,0,1
52917,-83.3333333333333,4,1,0,90,0,1
53030,-85.7118368046627,4,1,0,90,0,1
53144,-88.2378893496868,4,1,0,90,0,1
53258,-90.9090909090909,4,1,0,90,0,1
53598,-83.3333333333333,4,1,0,90,0,1
53712,-85.7118368046627,4,1,0,90,0,1
53826,-88.2378893496868,4,1,0,90,0,1
53939,-90.9090909090909,4,1,0,90,0,1
54110,-88.8888888888889,4,1,0,90,0,1
54195,-87.9120879120879,4,1,0,90,0,1
54309,-86.9565217391304,4,1,0,90,0,1
54422,-85.7118368046627,4,1,0,90,0,1
54479,-85.1063829787234,4,1,0,90,0,1
54536,-84.5094228006423,4,1,0,90,0,1
54650,-83.3333333333333,4,1,0,90,0,1
56596,-84.0336134453782,4,1,0,90,0,1
56681,-84.7457627118644,4,1,0,90,0,1
56766,-85.4700854700855,4,1,0,90,0,1
56851,-86.2068965517241,4,1,0,90,0,1
56936,-86.9565217391304,4,1,0,90,0,1
57022,-87.719298245614,4,1,0,90,0,1
57121,-88.7547705689181,4,1,0,90,0,1
57235,-89.8230485942693,4,1,0,90,0,1
57348,-90.9090909090909,4,1,0,90,0,1
57704,-83.3333333333333,4,1,0,90,0,1
57874,-86.2068965517241,4,1,0,90,0,1
57959,-87.719298245614,4,1,0,90,0,1
58044,-89.2857142857143,4,1,0,90,0,1
58130,-90.9090909090909,4,1,0,90,0,1
58371,-83.3333333333333,4,1,0,90,0,1
58556,-86.2068965517241,4,1,0,90,0,1
58641,-87.719298245614,4,1,0,90,0,1
58726,-89.2857142857143,4,1,0,90,0,1
58811,-90.9090909090909,4,1,0,90,0,1
59053,-83.3333333333333,4,1,0,90,0,1
59238,-86.2068965517241,4,1,0,90,0,1
59323,-87.719298245614,4,1,0,90,0,1
59408,-89.2857142857143,4,1,0,90,0,1
59493,-90.9090909090909,4,1,0,90,0,1
59735,-88.8888888888889,4,1,0,90,0,1
59848,-86.9565217391304,4,1,0,90,0,1
59962,-85.1063829787234,4,1,0,90,0,1
60076,-83.3333333333333,4,1,0,90,0,1
62050,-84.0336134453782,4,1,0,90,0,1
62135,-84.7457627118644,4,1,0,90,0,1
62221,-85.4700854700855,4,1,0,90,0,1
62306,-86.2068965517241,4,1,0,90,0,1
62391,-86.9565217391304,4,1,0,90,0,1
62476,-87.719298245614,4,1,0,90,0,1
62576,-88.7547705689181,4,1,0,90,0,1
62689,-89.8230485942693,4,1,0,90,0,1
62803,-90.9090909090909,4,1,0,90,0,1
62988,-86.9565217391304,4,1,0,90,0,1
63158,-90.9090909090909,4,1,0,90,0,1
63329,-86.9565217391304,4,1,0,90,0,1
63499,-83.3333333333333,4,1,0,90,0,1
63669,-86.9565217391304,4,1,0,90,0,1
63755,-88.8888888888889,4,1,0,90,0,1
63840,-90.9090909090909,4,1,0,90,0,1
64010,-83.3333333333333,4,1,0,90,0,1
64181,-90.9090909090909,4,1,0,90,0,1
64351,-83.3333333333333,4,1,0,90,0,1
64522,-86.9565217391304,4,1,0,90,0,1
64607,-88.8888888888889,4,1,0,90,0,1
64692,-90.9090909090909,4,1,0,90,0,1
64905,-83.3333333333333,4,1,0,90,0,0
65161,-90.9090909090909,4,1,0,80,0,0
65544,-83.3333333333333,4,1,0,90,0,0
65672,-90.9090909090909,4,1,0,90,0,0
67917,-83.3333333333333,4,1,0,90,0,0
68030,-85.7118368046627,4,1,0,90,0,0
68144,-88.2378893496868,4,1,0,90,0,0
68258,-90.9090909090909,4,1,0,90,0,0
70758,-88.2378893496868,4,1,0,90,0,0
70871,-85.7118368046627,4,1,0,90,0,0
70985,-83.3333333333333,4,1,0,90,0,0
71127,-90.9090909090909,4,1,0,90,0,0
73371,-83.3333333333333,4,1,0,90,0,0
73485,-85.7118368046627,4,1,0,90,0,0
73598,-88.2378893496868,4,1,0,90,0,0
73712,-90.9090909090909,4,1,0,90,0,0
76496,-83.3333333333333,4,1,0,90,0,1
78243,-84.5094228006423,4,1,0,90,0,1
78329,-85.7118368046627,4,1,0,90,0,1
78414,-86.9565217391304,4,1,0,90,0,1
78499,-88.2378893496868,4,1,0,90,0,1
78584,-89.5495656846064,4,1,0,90,0,1
78669,-90.9090909090909,4,1,0,90,0,1
78939,-88.2378893496868,4,1,0,90,0,1
79053,-85.7118368046627,4,1,0,90,0,1
79167,-83.3333333333333,4,1,0,90,0,1
80971,-84.5094228006423,4,1,0,90,0,1
81056,-85.7118368046627,4,1,0,90,0,1
81141,-86.9565217391304,4,1,0,90,0,1
81226,-88.2378893496868,4,1,0,90,0,1
81311,-89.5495656846064,4,1,0,90,0,1
81397,-90.9090909090909,4,1,0,90,0,1
81667,-88.2378893496868,4,1,0,90,0,1
81780,-85.7118368046627,4,1,0,90,0,1
81894,-83.3333333333333,4,1,0,90,0,1
83698,-84.5094228006423,4,1,0,90,0,1
83783,-85.7118368046627,4,1,0,90,0,1
83868,-86.9565217391304,4,1,0,90,0,1
83954,-88.2378893496868,4,1,0,90,0,1
84039,-89.5495656846064,4,1,0,90,0,1
84124,-90.9090909090909,4,1,0,90,0,1
84394,-88.2378893496868,4,1,0,90,0,1
84508,-85.7118368046627,4,1,0,90,0,1
84621,-83.3333333333333,4,1,0,90,0,1
85956,-90.9090909090909,4,1,0,70,0,1
86042,-90.9090909090909,4,1,0,70,0,0
86169,-89.8876404494382,4,1,0,72,0,0
86340,-88.8888888888889,4,1,0,74,0,0
86510,-87.9120879120879,4,1,0,76,0,0
86681,-86.9565217391304,4,1,0,78,0,0
87022,-86.9565217391304,4,1,0,80,0,0
87107,-86.0215053763441,4,1,0,80,0,0
87192,-85.1063829787234,4,1,0,80,0,0
87277,-84.2105263157895,4,1,0,80,0,0
87363,-83.3333333333333,4,1,0,90,0,0
87405,-83.3333333333333,4,1,0,90,0,1
89323,-84.0336134453781,4,1,0,90,0,1
89408,-84.7457627118644,4,1,0,90,0,1
89493,-85.4700854700855,4,1,0,90,0,1
89579,-86.2068965517241,4,1,0,90,0,1
89664,-86.9565217391304,4,1,0,90,0,1
89749,-87.719298245614,4,1,0,90,0,1
89848,-88.7547705689181,4,1,0,90,0,1
89962,-89.8230485942693,4,1,0,90,0,1
90076,-90.9090909090909,4,1,0,90,0,1
90431,-83.3333333333333,4,1,0,90,0,1
90601,-85.7118368046627,4,1,0,90,0,1
90686,-86.9565217391304,4,1,0,90,0,1
90772,-88.2378893496868,4,1,0,90,0,1
90857,-89.5495656846064,4,1,0,90,0,1
90942,-90.9090909090909,4,1,0,90,0,1
91113,-83.3333333333333,4,1,0,90,0,1
91283,-85.7118368046627,4,1,0,90,0,1
91368,-86.9565217391304,4,1,0,90,0,1
91454,-88.2378893496868,4,1,0,90,0,1
91539,-89.5495656846064,4,1,0,90,0,1
91624,-90.9090909090909,4,1,0,90,0,1
91794,-83.3333333333333,4,1,0,90,0,1
91965,-85.7118368046627,4,1,0,90,0,1
92050,-86.9565217391304,4,1,0,90,0,1
92135,-88.2378893496868,4,1,0,90,0,1
92221,-89.5495656846064,4,1,0,90,0,1
92306,-90.9090909090909,4,1,0,90,0,1
92576,-88.2378893496868,4,1,0,90,0,1
92689,-85.7118368046627,4,1,0,90,0,1
92803,-83.3333333333333,4,1,0,90,0,1
94777,-84.0336134453781,4,1,0,90,0,1
94863,-84.7457627118644,4,1,0,90,0,1
94948,-85.4700854700855,4,1,0,90,0,1
95033,-86.2068965517241,4,1,0,90,0,1
95118,-86.9565217391304,4,1,0,90,0,1
95204,-87.719298245614,4,1,0,90,0,1
95303,-88.7547705689181,4,1,0,90,0,1
95417,-89.8230485942693,4,1,0,90,0,1
95530,-90.9090909090909,4,1,0,90,0,1
95871,-83.3333333333333,4,1,0,90,0,1
95985,-85.7118368046627,4,1,0,90,0,1
96098,-88.2378893496868,4,1,0,90,0,1
96212,-90.9090909090909,4,1,0,90,0,1
96553,-83.3333333333333,4,1,0,90,0,1
96667,-85.6898029134533,4,1,0,90,0,1
96780,-88.2378893496868,4,1,0,90,0,1
96894,-90.9090909090909,4,1,0,90,0,1
97235,-83.3333333333333,4,1,0,90,0,1
97348,-85.7118368046627,4,1,0,90,0,1
97462,-88.2378893496868,4,1,0,90,0,1
97576,-90.9090909090909,4,1,0,90,0,1
97746,-88.8888888888889,4,1,0,90,0,1
97831,-87.9120879120879,4,1,0,90,0,1
97945,-86.9565217391304,4,1,0,90,0,1
98059,-85.7118368046627,4,1,0,90,0,1
98115,-85.1063829787234,4,1,0,90,0,1
98172,-84.5094228006423,4,1,0,90,0,1
98286,-83.3333333333333,4,1,0,90,0,1
100232,-84.0336134453781,4,1,0,90,0,1
100317,-84.7457627118644,4,1,0,90,0,1
100402,-85.4700854700855,4,1,0,90,0,1
100488,-86.2068965517241,4,1,0,90,0,1
100573,-86.9565217391304,4,1,0,90,0,1
100658,-87.719298245614,4,1,0,90,0,1
100758,-88.7547705689181,4,1,0,90,0,1
100871,-89.8230485942693,4,1,0,90,0,1
100985,-90.9090909090909,4,1,0,90,0,1
101340,-83.3333333333333,4,1,0,90,0,1
101510,-85.7118368046627,4,1,0,90,0,1
101596,-86.9565217391304,4,1,0,90,0,1
101681,-88.2378893496868,4,1,0,90,0,1
101766,-89.5495656846064,4,1,0,90,0,1
101851,-90.9090909090909,4,1,0,90,0,1
102022,-83.3333333333333,4,1,0,90,0,1
102192,-85.7118368046627,4,1,0,90,0,1
102277,-86.9565217391304,4,1,0,90,0,1
102363,-88.2378893496868,4,1,0,90,0,1
102448,-89.5495656846064,4,1,0,90,0,1
102533,-90.9090909090909,4,1,0,90,0,1
102704,-83.3333333333333,4,1,0,90,0,1
102874,-85.7118368046627,4,1,0,90,0,1
102959,-86.9565217391304,4,1,0,90,0,1
103044,-88.2378893496868,4,1,0,90,0,1
103130,-89.5495656846064,4,1,0,90,0,1
103215,-90.9090909090909,4,1,0,90,0,1
103485,-88.2378893496868,4,1,0,90,0,1
103598,-85.7118368046627,4,1,0,90,0,1
103712,-83.3333333333333,4,1,0,90,0,1
105686,-84.0336134453781,4,1,0,90,0,1
105772,-84.7457627118644,4,1,0,90,0,1
105857,-85.4700854700855,4,1,0,90,0,1
105942,-86.2068965517241,4,1,0,90,0,1
106027,-86.9565217391304,4,1,0,90,0,1
106113,-87.719298245614,4,1,0,90,0,1
106212,-88.7547705689181,4,1,0,90,0,1
106326,-89.8230485942693,4,1,0,90,0,1
106496,-90.9090909090909,4,1,0,90,0,1
106752,-83.3333333333333,4,1,0,90,0,1
107008,-90.9090909090909,4,1,0,90,0,1
107263,-83.3333333333333,4,1,0,90,0,1
107519,-90.9090909090909,4,1,0,90,0,1
107860,-83.3333333333333,4,1,0,90,0,0
108115,-90.9090909090909,4,1,0,70,0,0
108286,-95.2380952380952,4,1,0,60,0,0
108456,-100,4,1,0,50,0,0
108627,-105.263157894737,4,1,0,40,0,0
109138,-125,4,1,0,50,0,0
119408,-121.951219512195,4,1,0,52,0,0
119579,-119.047619047619,4,1,0,54,0,0
119749,-116.279069767442,4,1,0,56,0,0
119919,-113.636363636364,4,1,0,58,0,0
120090,-111.111111111111,4,1,0,60,0,0
120559,-125,4,1,0,50,0,0
124863,-121.951219512195,4,1,0,52,0,0
125033,-119.047619047619,4,1,0,54,0,0
125204,-116.279069767442,4,1,0,56,0,0
125374,-113.636363636364,4,1,0,58,0,0
125544,-111.111111111111,4,1,0,60,0,0
126013,-125,4,1,0,50,0,0
128101,-121.951219512195,4,1,0,52,0,0
128272,-120.481927710843,4,1,0,53,0,0
128442,-119.047619047619,4,1,0,54,0,0
128613,-117.647058823529,4,1,0,55,0,0
128783,-116.279069767442,4,1,0,56,0,0
128954,-114.942528735632,4,1,0,57,0,0
129294,-112.359550561798,4,1,0,59,0,0
129465,-111.111111111111,4,1,0,60,0,0
130956,-100,4,1,0,70,0,0
147533,-99.502487562189,4,1,0,70,0,0
147704,-99.009900990099,4,1,0,70,0,0
147874,-98.5221674876847,4,1,0,70,0,0
148044,-98.0392156862745,4,1,0,70,0,0
148215,-97.5609756097561,4,1,0,70,0,0
148385,-97.0873786407767,4,1,0,70,0,0
148726,-96.1538461538461,4,1,0,70,0,0
148897,-95.6937799043062,4,1,0,70,0,0
149067,-95.2380952380952,4,1,0,70,0,0
149238,-94.7867298578199,4,1,0,70,0,0
149408,-94.3396226415094,4,1,0,70,0,0
149579,-93.8967136150235,4,1,0,70,0,0
149749,-93.4579439252336,4,1,0,70,0,0
149919,-93.0232558139535,4,1,0,70,0,0
150090,-92.5925925925926,4,1,0,70,0,0
150260,-92.1658986175115,4,1,0,70,0,0
150346,-91.9540229885057,4,1,0,70,0,0
150409,-91.7957544463569,4,1,0,70,0,0
150452,-91.743119266055,4,1,0,70,0,0
150601,-91.324200913242,4,1,0,70,0,0
150772,-90.9090909090909,4,1,0,70,0,0
152775,-83.3333333333333,4,1,0,90,0,0
152860,-83.3333333333333,4,1,0,90,0,1
154777,-84.0336134453781,4,1,0,90,0,1
154863,-84.7457627118644,4,1,0,90,0,1
154948,-85.4700854700855,4,1,0,90,0,1
155033,-86.2068965517241,4,1,0,90,0,1
155118,-86.9565217391304,4,1,0,90,0,1
155204,-87.719298245614,4,1,0,90,0,1
155303,-88.7547705689181,4,1,0,90,0,1
155417,-89.8230485942693,4,1,0,90,0,1
155530,-90.9090909090909,4,1,0,90,0,1
155885,-83.3333333333333,4,1,0,90,0,1
156056,-86.2068965517241,4,1,0,90,0,1
156141,-87.719298245614,4,1,0,90,0,1
156226,-89.2857142857143,4,1,0,90,0,1
156311,-90.9090909090909,4,1,0,90,0,1
156567,-83.3333333333333,4,1,0,90,0,1
156738,-86.9565217391304,4,1,0,90,0,1
156823,-88.8888888888889,4,1,0,90,0,1
156908,-90.9090909090909,4,1,0,90,0,1
157249,-83.3333333333333,4,1,0,90,0,1
157419,-86.2068965517241,4,1,0,90,0,1
157505,-87.719298245614,4,1,0,90,0,1
157590,-89.2857142857143,4,1,0,90,0,1
157675,-90.9090909090909,4,1,0,90,0,1
157917,-88.8888888888889,4,1,0,90,0,1
158030,-86.9565217391304,4,1,0,90,0,1
158144,-84.3881856540084,4,1,0,90,0,1
158258,-83.3333333333333,4,1,0,90,0,1
160232,-84.0336134453781,4,1,0,90,0,1
160317,-84.7457627118644,4,1,0,90,0,1
160402,-85.4700854700855,4,1,0,90,0,1
160488,-86.2068965517241,4,1,0,90,0,1
160573,-86.9565217391304,4,1,0,90,0,1
160658,-87.719298245614,4,1,0,90,0,1
160758,-88.7547705689181,4,1,0,90,0,1
160871,-89.8230485942693,4,1,0,90,0,1
160985,-90.9090909090909,4,1,0,90,0,1
161326,-83.3333333333333,4,1,0,90,0,1
161439,-85.7118368046627,4,1,0,90,0,1
161553,-88.2378893496868,4,1,0,90,0,1
161667,-90.9090909090909,4,1,0,90,0,1
162008,-83.3333333333333,4,1,0,90,0,1
162121,-85.7118368046627,4,1,0,90,0,1
162235,-88.2378893496868,4,1,0,90,0,1
162348,-90.9090909090909,4,1,0,90,0,1
162689,-83.3333333333333,4,1,0,90,0,1
162803,-85.7118368046627,4,1,0,90,0,1
162917,-88.2378893496868,4,1,0,90,0,1
163030,-90.9090909090909,4,1,0,90,0,1
163201,-88.8888888888889,4,1,0,90,0,1
163286,-87.9120879120879,4,1,0,90,0,1
163400,-86.9565217391304,4,1,0,90,0,1
163513,-85.7118368046627,4,1,0,90,0,1
163570,-85.1063829787234,4,1,0,90,0,1
163627,-84.5094228006423,4,1,0,90,0,1
163740,-83.3333333333333,4,1,0,90,0,1
165686,-84.0336134453781,4,1,0,90,0,1
165772,-84.7457627118644,4,1,0,90,0,1
165857,-85.4700854700855,4,1,0,90,0,1
165942,-86.2068965517241,4,1,0,90,0,1
166027,-86.9565217391304,4,1,0,90,0,1
166113,-87.719298245614,4,1,0,90,0,1
166212,-88.7547705689181,4,1,0,90,0,1
166326,-89.8230485942693,4,1,0,90,0,1
166439,-90.9090909090909,4,1,0,90,0,1
166794,-83.3333333333333,4,1,0,90,0,1
166965,-86.2068965517241,4,1,0,90,0,1
167050,-87.719298245614,4,1,0,90,0,1
167135,-89.2857142857143,4,1,0,90,0,1
167221,-90.9090909090909,4,1,0,90,0,1
167476,-83.3333333333333,4,1,0,90,0,1
167647,-86.2068965517241,4,1,0,90,0,1
167732,-87.719298245614,4,1,0,90,0,1
167817,-89.2857142857143,4,1,0,90,0,1
167902,-90.9090909090909,4,1,0,90,0,1
168158,-83.3333333333333,4,1,0,90,0,1
168329,-86.2068965517241,4,1,0,90,0,1
168414,-87.719298245614,4,1,0,90,0,1
168499,-89.2857142857143,4,1,0,90,0,1
168584,-90.9090909090909,4,1,0,90,0,1
168826,-88.8888888888889,4,1,0,90,0,1
168939,-86.9565217391304,4,1,0,90,0,1
169053,-85.1063829787234,4,1,0,90,0,1
169167,-83.3333333333333,4,1,0,90,0,1
171141,-84.0336134453781,4,1,0,90,0,1
171226,-84.7457627118644,4,1,0,90,0,1
171311,-85.4700854700855,4,1,0,90,0,1
171397,-86.2068965517241,4,1,0,90,0,1
171482,-86.9565217391304,4,1,0,90,0,1
171567,-87.719298245614,4,1,0,90,0,1
171667,-88.7547705689181,4,1,0,90,0,1
171780,-89.8230485942693,4,1,0,90,0,1
171894,-90.9090909090909,4,1,0,90,0,1
172079,-86.9565217391304,4,1,0,90,0,1
172249,-90.9090909090909,4,1,0,90,0,1
172419,-86.9565217391304,4,1,0,90,0,1
172590,-83.3333333333333,4,1,0,90,0,1
172760,-86.9565217391304,4,1,0,90,0,1
172846,-88.8888888888889,4,1,0,90,0,1
172931,-90.9090909090909,4,1,0,90,0,1
173101,-83.3333333333333,4,1,0,90,0,1
173272,-90.9090909090909,4,1,0,90,0,1
173442,-83.3333333333333,4,1,0,90,0,1
173613,-86.9565217391304,4,1,0,90,0,1
173698,-88.8888888888889,4,1,0,90,0,1
173783,-90.9090909090909,4,1,0,90,0,1
173996,-83.3333333333333,4,1,0,90,0,0
174252,-90.9090909090909,4,1,0,80,0,0
174635,-83.3333333333333,4,1,0,90,0,0
174763,-90.9090909090909,4,1,0,90,0,0
177008,-83.3333333333333,4,1,0,90,0,0
177121,-85.7118368046627,4,1,0,90,0,0
177235,-88.2378893496868,4,1,0,90,0,0
177348,-90.9090909090909,4,1,0,90,0,0
179848,-88.2378893496868,4,1,0,90,0,0
179962,-85.7118368046627,4,1,0,90,0,0
180076,-83.3333333333333,4,1,0,90,0,0
180218,-90.9090909090909,4,1,0,90,0,0
182462,-83.3333333333333,4,1,0,90,0,0
182576,-85.7118368046627,4,1,0,90,0,0
182689,-88.2378893496868,4,1,0,90,0,0
182803,-90.9090909090909,4,1,0,90,0,0
185587,-83.3333333333333,4,1,0,90,0,1
187334,-84.5094228006423,4,1,0,90,0,1
187419,-85.7118368046627,4,1,0,90,0,1
187505,-86.9565217391304,4,1,0,90,0,1
187590,-88.2378893496868,4,1,0,90,0,1
187675,-89.5495656846064,4,1,0,90,0,1
187760,-90.9090909090909,4,1,0,90,0,1
187917,-90.9090909090909,4,1,0,90,0,1
188030,-88.2378893496868,4,1,0,90,0,1
188144,-85.7118368046627,4,1,0,90,0,1
188258,-83.3333333333333,4,1,0,90,0,1
190061,-84.5094228006423,4,1,0,90,0,1
190147,-85.7118368046627,4,1,0,90,0,1
190232,-86.9565217391304,4,1,0,90,0,1
190317,-88.2378893496868,4,1,0,90,0,1
190402,-89.5495656846064,4,1,0,90,0,1
190488,-90.9090909090909,4,1,0,90,0,1
190758,-88.2378893496868,4,1,0,90,0,1
190871,-85.7118368046627,4,1,0,90,0,1
190985,-83.3333333333333,4,1,0,90,0,1
192789,-84.5094228006423,4,1,0,90,0,1
192874,-85.7118368046627,4,1,0,90,0,1
192959,-86.9565217391304,4,1,0,90,0,1
193044,-88.2378893496868,4,1,0,90,0,1
193130,-89.5495656846064,4,1,0,90,0,1
193215,-90.9090909090909,4,1,0,90,0,1
193485,-88.2378893496868,4,1,0,90,0,1
193598,-85.7118368046627,4,1,0,90,0,1
193712,-83.3333333333333,4,1,0,90,0,1
195047,-90.9090909090909,4,1,0,70,0,1
195133,-90.9090909090909,4,1,0,70,0,0
195260,-89.8876404494382,4,1,0,72,0,0
195431,-88.8888888888889,4,1,0,74,0,0
195601,-87.9120879120879,4,1,0,76,0,0
195772,-86.9565217391304,4,1,0,78,0,0
196113,-86.9565217391304,4,1,0,80,0,0
196198,-86.0215053763441,4,1,0,80,0,0
196283,-85.1063829787234,4,1,0,80,0,0
196368,-84.2105263157895,4,1,0,80,0,0
196454,-83.3333333333333,4,1,0,90,0,0
196496,-83.3333333333333,4,1,0,90,0,1
198414,-84.0336134453781,4,1,0,90,0,1
198499,-84.7457627118644,4,1,0,90,0,1
198584,-85.4700854700855,4,1,0,90,0,1
198669,-86.2068965517241,4,1,0,90,0,1
198755,-86.9565217391304,4,1,0,90,0,1
198840,-87.719298245614,4,1,0,90,0,1
198939,-88.7547705689181,4,1,0,90,0,1
199053,-89.8230485942693,4,1,0,90,0,1
199167,-90.9090909090909,4,1,0,90,0,1
199522,-83.3333333333333,4,1,0,90,0,1
199692,-85.7118368046627,4,1,0,90,0,1
199777,-86.9565217391304,4,1,0,90,0,1
199863,-88.2378893496868,4,1,0,90,0,1
199948,-89.5495656846064,4,1,0,90,0,1
200033,-90.9090909090909,4,1,0,90,0,1
200204,-83.3333333333333,4,1,0,90,0,1
200374,-85.7118368046627,4,1,0,90,0,1
200459,-86.9565217391304,4,1,0,90,0,1
200544,-88.2378893496868,4,1,0,90,0,1
200630,-89.5495656846064,4,1,0,90,0,1
200715,-90.9090909090909,4,1,0,90,0,1
200885,-83.3333333333333,4,1,0,90,0,1
201056,-85.7118368046627,4,1,0,90,0,1
201141,-86.9565217391304,4,1,0,90,0,1
201226,-88.2378893496868,4,1,0,90,0,1
201311,-89.5495656846064,4,1,0,90,0,1
201397,-90.9090909090909,4,1,0,90,0,1
201667,-88.2378893496868,4,1,0,90,0,1
201780,-85.7118368046627,4,1,0,90,0,1
201894,-83.3333333333333,4,1,0,90,0,1
203868,-84.0336134453781,4,1,0,90,0,1
203954,-84.7457627118644,4,1,0,90,0,1
204039,-85.4700854700855,4,1,0,90,0,1
204124,-86.2068965517241,4,1,0,90,0,1
204209,-86.9565217391304,4,1,0,90,0,1
204294,-87.719298245614,4,1,0,90,0,1
204394,-88.7547705689181,4,1,0,90,0,1
204508,-89.8230485942693,4,1,0,90,0,1
204621,-90.9090909090909,4,1,0,90,0,1
204962,-83.3333333333333,4,1,0,90,0,1
205076,-85.7118368046627,4,1,0,90,0,1
205189,-88.2378893496868,4,1,0,90,0,1
205303,-90.9090909090909,4,1,0,90,0,1
205644,-83.3333333333333,4,1,0,90,0,1
205758,-85.7118368046627,4,1,0,90,0,1
205871,-88.2378893496868,4,1,0,90,0,1
205985,-90.9090909090909,4,1,0,90,0,1
206326,-83.3333333333333,4,1,0,90,0,1
206439,-85.7118368046627,4,1,0,90,0,1
206553,-88.2378893496868,4,1,0,90,0,1
206667,-90.9090909090909,4,1,0,90,0,1
206837,-88.8888888888889,4,1,0,90,0,1
206922,-87.9120879120879,4,1,0,90,0,1
207036,-86.9565217391304,4,1,0,90,0,1
207150,-85.7118368046627,4,1,0,90,0,1
207206,-85.1063829787234,4,1,0,90,0,1
207263,-84.5094228006423,4,1,0,90,0,1
207377,-83.3333333333333,4,1,0,90,0,1
209323,-84.0336134453781,4,1,0,90,0,1
209408,-84.7457627118644,4,1,0,90,0,1
209493,-85.4700854700855,4,1,0,90,0,1
209579,-86.2068965517241,4,1,0,90,0,1
209664,-86.9565217391304,4,1,0,90,0,1
209749,-87.719298245614,4,1,0,90,0,1
209848,-88.7547705689181,4,1,0,90,0,1
209962,-89.8230485942693,4,1,0,90,0,1
210076,-90.9090909090909,4,1,0,90,0,1
210431,-83.3333333333333,4,1,0,90,0,1
210601,-85.7118368046627,4,1,0,90,0,1
210686,-86.9565217391304,4,1,0,90,0,1
210772,-88.2378893496868,4,1,0,90,0,1
210857,-89.5495656846064,4,1,0,90,0,1
210942,-90.9090909090909,4,1,0,90,0,1
211113,-83.3333333333333,4,1,0,90,0,1
211283,-85.7118368046627,4,1,0,90,0,1
211368,-86.9565217391304,4,1,0,90,0,1
211454,-88.2378893496868,4,1,0,90,0,1
211539,-89.5495656846064,4,1,0,90,0,1
211624,-90.9090909090909,4,1,0,90,0,1
211794,-83.3333333333333,4,1,0,90,0,1
211965,-85.7118368046627,4,1,0,90,0,1
212050,-86.9565217391304,4,1,0,90,0,1
212135,-88.2378893496868,4,1,0,90,0,1
212221,-89.5495656846064,4,1,0,90,0,1
212306,-90.9090909090909,4,1,0,90,0,1
212576,-88.2378893496868,4,1,0,90,0,1
212689,-85.7118368046627,4,1,0,90,0,1
212803,-83.3333333333333,4,1,0,90,0,1
214777,-84.0336134453781,4,1,0,90,0,1
214863,-84.7457627118644,4,1,0,90,0,1
214948,-85.4700854700855,4,1,0,90,0,1
215033,-86.2068965517241,4,1,0,90,0,1
215118,-86.9565217391304,4,1,0,90,0,1
215204,-87.719298245614,4,1,0,90,0,1
215303,-88.7547705689181,4,1,0,90,0,1
215417,-89.8230485942693,4,1,0,90,0,1
215530,-90.9090909090909,4,1,0,90,0,1
215843,-83.3333333333333,4,1,0,90,0,1
216098,-90.9090909090909,4,1,0,90,0,1
216354,-83.3333333333333,4,1,0,90,0,1
216610,-90.9090909090909,4,1,0,90,0,1
216951,-83.3333333333333,4,1,0,90,0,0
217206,-90.9090909090909,4,1,0,70,0,0
217377,-95.2380952380952,4,1,0,60,0,0
217547,-100,4,1,0,50,0,0
217718,-105.263157894737,4,1,0,40,0,0
218229,-125,4,1,0,45,0,0
228627,-111.111111111111,4,1,0,60,0,0
228797,-115.380177685474,4,1,0,60,0,0
228968,-120.004800192008,4,1,0,60,0,0
229138,-125,4,1,0,50,0,0
237064,-125,4,1,0,51,0,0
237235,-125,4,1,0,52,0,0
237405,-125,4,1,0,53,0,0
237576,-125,4,1,0,54,0,0
237746,-125,4,1,0,55,0,0
237917,-125,4,1,0,56,0,0
238087,-125,4,1,0,57,0,0
238258,-125,4,1,0,58,0,0
238428,-125,4,1,0,59,0,0
238598,-125,4,1,0,60,0,0

[HitObjects]
256,192,133,5,8,0:0:0:0:
256,192,473,1,0,0:0:0:0:
256,192,814,1,0,0:0:0:0:
256,192,985,1,8,0:0:0:0:
256,192,1155,1,0,0:0:0:0:
256,192,1326,1,8,0:0:0:0:
256,192,1667,1,0,0:0:0:0:
256,192,1837,1,8,0:0:0:0:
256,192,2008,1,0,0:0:0:0:
256,192,2093,1,8,0:0:0:0:
256,192,2178,1,8,0:0:0:0:
256,192,2348,1,8,0:0:0:0:
256,192,2519,1,0,0:0:0:0:
256,192,2689,1,0,0:0:0:0:
256,192,2860,1,8,0:0:0:0:
256,192,3201,1,0,0:0:0:0:
256,192,3542,1,0,0:0:0:0:
256,192,3712,1,8,0:0:0:0:
256,192,3883,1,0,0:0:0:0:
256,192,4053,1,0,0:0:0:0:
256,192,4394,1,8,0:0:0:0:
256,192,4564,1,0,0:0:0:0:
256,192,4735,1,0,0:0:0:0:
256,192,4820,1,0,0:0:0:0:
256,192,4905,1,8,0:0:0:0:
256,192,5076,1,8,0:0:0:0:
256,192,5246,1,0,0:0:0:0:
256,192,5417,1,0,0:0:0:0:
256,192,5587,1,8,0:0:0:0:
256,192,5928,1,8,0:0:0:0:
256,192,6269,1,0,0:0:0:0:
256,192,6439,1,8,0:0:0:0:
256,192,6610,1,0,0:0:0:0:
256,192,6780,1,8,0:0:0:0:
256,192,7121,1,8,0:0:0:0:
256,192,7292,1,0,0:0:0:0:
256,192,7462,1,0,0:0:0:0:
256,192,7547,1,8,0:0:0:0:
256,192,7633,1,0,0:0:0:0:
256,192,7803,1,8,0:0:0:0:
256,192,7973,1,8,0:0:0:0:
256,192,8144,1,0,0:0:0:0:
256,192,8314,1,8,0:0:0:0:
256,192,8655,1,8,0:0:0:0:
256,192,8996,1,0,0:0:0:0:
256,192,9167,1,8,0:0:0:0:
256,192,9337,1,0,0:0:0:0:
256,192,9508,1,0,0:0:0:0:
256,192,9848,1,8,0:0:0:0:
256,192,10019,1,0,0:0:0:0:
256,192,10189,1,0,0:0:0:0:
256,192,10275,1,0,0:0:0:0:
256,192,10360,1,8,0:0:0:0:
256,192,10530,1,8,0:0:0:0:
256,192,10701,1,0,0:0:0:0:
256,192,10871,1,0,0:0:0:0:
256,192,11042,5,12,0:0:0:0:
256,192,11212,1,0,0:0:0:0:
256,192,11383,1,0,0:0:0:0:
256,192,11553,1,8,0:0:0:0:
256,192,11723,1,0,0:0:0:0:
256,192,11894,1,0,0:0:0:0:
256,192,12064,1,8,0:0:0:0:
256,192,12235,1,0,0:0:0:0:
256,192,12576,1,0,0:0:0:0:
256,192,12746,1,8,0:0:0:0:
256,192,12917,1,8,0:0:0:0:
256,192,13087,1,0,0:0:0:0:
256,192,13258,1,8,0:0:0:0:
256,192,13428,1,0,0:0:0:0:
256,192,13598,1,0,0:0:0:0:
256,192,13769,1,0,0:0:0:0:
256,192,13939,1,8,0:0:0:0:
256,192,14110,1,0,0:0:0:0:
256,192,14280,1,8,0:0:0:0:
256,192,14451,1,0,0:0:0:0:
256,192,14621,1,0,0:0:0:0:
256,192,14792,1,8,0:0:0:0:
256,192,15133,1,0,0:0:0:0:
256,192,15303,1,0,0:0:0:0:
256,192,15473,1,8,0:0:0:0:
256,192,15644,1,8,0:0:0:0:
256,192,15814,1,0,0:0:0:0:
256,192,15985,1,8,0:0:0:0:
256,192,16155,1,8,0:0:0:0:
256,192,16326,1,0,0:0:0:0:
256,192,16496,1,0,0:0:0:0:
256,192,16667,1,8,0:0:0:0:
256,192,16837,1,0,0:0:0:0:
256,192,17008,1,8,0:0:0:0:
256,192,17178,1,8,0:0:0:0:
256,192,17348,1,0,0:0:0:0:
256,192,17519,1,8,0:0:0:0:
256,192,17689,1,0,0:0:0:0:
256,192,18030,1,0,0:0:0:0:
256,192,18201,1,0,0:0:0:0:
256,192,18371,1,8,0:0:0:0:
256,192,18542,1,8,0:0:0:0:
256,192,18712,1,0,0:0:0:0:
256,192,18883,1,8,0:0:0:0:
256,192,19053,1,8,0:0:0:0:
256,192,19223,1,0,0:0:0:0:
256,192,19394,1,8,0:0:0:0:
256,192,19564,1,0,0:0:0:0:
256,192,19735,1,8,0:0:0:0:
256,192,19905,1,8,0:0:0:0:
256,192,20076,1,0,0:0:0:0:
256,192,20246,1,8,0:0:0:0:
256,192,20587,1,0,0:0:0:0:
256,192,20758,1,0,0:0:0:0:
256,192,20928,1,8,0:0:0:0:
256,192,21098,1,0,0:0:0:0:
256,192,21269,1,0,0:0:0:0:
256,192,21439,1,0,0:0:0:0:
256,192,21610,1,8,0:0:0:0:
256,192,21780,1,8,0:0:0:0:
256,192,21951,5,4,0:0:0:0:
256,192,22121,1,8,0:0:0:0:
256,192,22462,1,0,0:0:0:0:
256,192,22633,1,8,0:0:0:0:
256,192,22803,1,8,0:0:0:0:
256,192,22973,1,0,0:0:0:0:
256,192,23144,1,8,0:0:0:0:
256,192,23314,1,0,0:0:0:0:
256,192,23485,1,0,0:0:0:0:
256,192,23655,1,8,0:0:0:0:
256,192,23826,1,0,0:0:0:0:
256,192,23996,1,0,0:0:0:0:
256,192,24167,1,8,0:0:0:0:
256,192,24337,1,8,0:0:0:0:
256,192,24508,1,0,0:0:0:0:
256,192,24678,1,4,0:0:0:0:
256,192,24848,1,8,0:0:0:0:
256,192,25189,1,0,0:0:0:0:
256,192,25360,1,8,0:0:0:0:
256,192,25530,1,8,0:0:0:0:
256,192,25701,1,0,0:0:0:0:
256,192,25871,1,8,0:0:0:0:
256,192,26042,1,0,0:0:0:0:
256,192,26212,1,8,0:0:0:0:
256,192,26383,1,8,0:0:0:0:
256,192,26553,1,0,0:0:0:0:
256,192,26723,1,8,0:0:0:0:
256,192,26894,1,8,0:0:0:0:
256,192,27064,1,0,0:0:0:0:
256,192,27235,1,8,0:0:0:0:
256,192,27405,1,4,0:0:0:0:
256,192,27576,1,8,0:0:0:0:
256,192,27917,1,0,0:0:0:0:
256,192,28087,1,8,0:0:0:0:
256,192,28258,1,0,0:0:0:0:
256,192,28428,1,8,0:0:0:0:
256,192,28598,1,8,0:0:0:0:
256,192,28769,1,0,0:0:0:0:
256,192,28939,1,8,0:0:0:0:
256,192,29110,1,8,0:0:0:0:
256,192,29280,1,0,0:0:0:0:
256,192,29451,1,8,0:0:0:0:
256,192,29621,1,0,0:0:0:0:
256,192,29792,1,8,0:0:0:0:
256,192,29962,1,8,0:0:0:0:
256,192,30133,1,4,0:0:0:0:
256,192,30303,1,0,0:0:0:0:
256,192,30644,1,0,0:0:0:0:
256,192,30814,1,8,0:0:0:0:
256,192,30985,1,8,0:0:0:0:
256,192,31155,1,0,0:0:0:0:
256,192,31326,1,8,0:0:0:0:
256,192,31496,1,0,0:0:0:0:
256,192,31667,1,0,0:0:0:0:
256,192,31837,1,8,0:0:0:0:
256,192,32008,1,0,0:0:0:0:
256,192,32178,1,8,0:0:0:0:
256,192,32348,1,8,0:0:0:0:
256,192,32519,1,0,0:0:0:0:
256,192,32689,1,8,0:0:0:0:
256,192,32860,1,4,0:0:0:0:
256,192,33030,1,8,0:0:0:0:
256,192,33371,1,0,0:0:0:0:
256,192,33542,1,8,0:0:0:0:
256,192,33712,1,0,0:0:0:0:
256,192,33883,1,0,0:0:0:0:
256,192,34053,1,8,0:0:0:0:
256,192,34223,1,0,0:0:0:0:
256,192,34394,1,8,0:0:0:0:
256,192,34564,1,8,0:0:0:0:
256,192,34735,1,8,0:0:0:0:
256,192,34905,1,0,0:0:0:0:
256,192,35076,1,8,0:0:0:0:
256,192,35246,1,8,0:0:0:0:
256,192,35417,1,0,0:0:0:0:
256,192,35587,1,4,0:0:0:0:
256,192,35758,1,8,0:0:0:0:
256,192,36098,1,0,0:0:0:0:
256,192,36269,1,8,0:0:0:0:
256,192,36439,1,0,0:0:0:0:
256,192,36610,1,8,0:0:0:0:
256,192,36780,1,8,0:0:0:0:
256,192,36951,1,0,0:0:0:0:
256,192,37121,1,8,0:0:0:0:
256,192,37292,1,8,0:0:0:0:
256,192,37462,1,0,0:0:0:0:
256,192,37633,1,8,0:0:0:0:
256,192,37718,1,8,0:0:0:0:
256,192,37803,1,0,0:0:0:0:
256,192,37973,1,8,0:0:0:0:
256,192,38144,1,8,0:0:0:0:
256,192,38314,1,4,0:0:0:0:
256,192,38485,1,8,0:0:0:0:
256,192,38655,1,8,0:0:0:0:
256,192,38826,1,8,0:0:0:0:
256,192,38996,1,0,0:0:0:0:
256,192,39167,1,8,0:0:0:0:
256,192,39337,1,8,0:0:0:0:
256,192,39422,1,8,0:0:0:0:
256,192,39508,1,8,0:0:0:0:
256,192,39678,1,0,0:0:0:0:
256,192,39848,1,0,0:0:0:0:
256,192,40019,1,8,0:0:0:0:
256,192,40189,1,0,0:0:0:0:
256,192,40360,1,0,0:0:0:0:
256,192,40445,1,0,0:0:0:0:
256,192,40530,1,8,0:0:0:0:
256,192,40701,1,8,0:0:0:0:
256,192,40871,1,0,0:0:0:0:
256,192,41042,1,4,0:0:0:0:
256,192,41212,1,0,0:0:0:0:
256,192,41297,1,0,0:0:0:0:
256,192,41340,1,8,0:0:0:0:
256,192,41383,1,8,0:0:0:0:
256,192,41553,1,0,0:0:0:0:
256,192,41723,12,0,43428,0:0:0:0:
256,192,43769,5,4,0:0:0:0:
256,192,43939,1,0,0:0:0:0:
256,192,44025,1,0,0:0:0:0:
256,192,44110,1,8,0:0:0:0:
256,192,44280,1,0,0:0:0:0:
256,192,44365,1,0,0:0:0:0:
256,192,44451,1,8,0:0:0:0:
256,192,44536,1,8,0:0:0:0:
256,192,44621,1,8,0:0:0:0:
256,192,44706,1,0,0:0:0:0:
256,192,44792,1,8,0:0:0:0:
256,192,44962,1,8,0:0:0:0:
256,192,45133,1,0,0:0:0:0:
256,192,45303,1,0,0:0:0:0:
256,192,45388,1,8,0:0:0:0:
256,192,45473,1,8,0:0:0:0:
256,192,45644,1,8,0:0:0:0:
256,192,45729,1,0,0:0:0:0:
256,192,45814,1,8,0:0:0:0:
256,192,45900,1,8,0:0:0:0:
256,192,45985,1,8,0:0:0:0:
256,192,46070,1,0,0:0:0:0:
256,192,46155,1,8,0:0:0:0:
256,192,46269,1,8,0:0:0:0:
256,192,46383,1,8,0:0:0:0:
256,192,46496,1,4,0:0:0:0:
256,192,46837,1,12,0:0:0:0:
256,192,47008,1,8,0:0:0:0:
256,192,47093,1,8,0:0:0:0:
256,192,47178,1,8,0:0:0:0:
256,192,47263,1,0,0:0:0:0:
256,192,47405,1,0,0:0:0:0:
256,192,47519,1,12,0:0:0:0:
256,192,47689,1,8,0:0:0:0:
256,192,47775,1,8,0:0:0:0:
256,192,47860,1,8,0:0:0:0:
256,192,47945,1,0,0:0:0:0:
256,192,48087,1,0,0:0:0:0:
256,192,48201,1,12,0:0:0:0:
256,192,48371,1,8,0:0:0:0:
256,192,48456,1,8,0:0:0:0:
256,192,48542,1,8,0:0:0:0:
256,192,48627,1,0,0:0:0:0:
256,192,48769,1,0,0:0:0:0:
256,192,48883,1,8,0:0:0:0:
256,192,48996,1,8,0:0:0:0:
256,192,49110,1,8,0:0:0:0:
256,192,49223,1,4,0:0:0:0:
256,192,49394,1,8,0:0:0:0:
256,192,49479,1,0,0:0:0:0:
256,192,49564,1,8,0:0:0:0:
256,192,49735,1,8,0:0:0:0:
256,192,49820,1,0,0:0:0:0:
256,192,49905,1,8,0:0:0:0:
256,192,49990,1,8,0:0:0:0:
256,192,50076,1,8,0:0:0:0:
256,192,50161,1,0,0:0:0:0:
256,192,50246,1,8,0:0:0:0:
256,192,50417,1,8,0:0:0:0:
256,192,50587,1,0,0:0:0:0:
256,192,50758,1,0,0:0:0:0:
256,192,50843,1,8,0:0:0:0:
256,192,50928,1,8,0:0:0:0:
256,192,51098,1,8,0:0:0:0:
256,192,51184,1,0,0:0:0:0:
256,192,51269,1,0,0:0:0:0:
256,192,51354,1,8,0:0:0:0:
256,192,51439,1,0,0:0:0:0:
256,192,51525,1,0,0:0:0:0:
256,192,51610,1,8,0:0:0:0:
256,192,51723,1,8,0:0:0:0:
256,192,51837,1,8,0:0:0:0:
256,192,51951,1,4,0:0:0:0:
256,192,52292,1,12,0:0:0:0:
256,192,52405,1,0,0:0:0:0:
256,192,52519,1,8,0:0:0:0:
256,192,52633,1,0,0:0:0:0:
256,192,52803,1,0,0:0:0:0:
256,192,52888,1,0,0:0:0:0:
256,192,52973,1,12,0:0:0:0:
256,192,53087,1,0,0:0:0:0:
256,192,53201,1,8,0:0:0:0:
256,192,53314,1,0,0:0:0:0:
256,192,53485,1,0,0:0:0:0:
256,192,53570,1,0,0:0:0:0:
256,192,53655,1,12,0:0:0:0:
256,192,53769,1,0,0:0:0:0:
256,192,53883,1,8,0:0:0:0:
256,192,53996,1,0,0:0:0:0:
256,192,54167,1,0,0:0:0:0:
256,192,54252,1,0,0:0:0:0:
256,192,54337,1,8,0:0:0:0:
256,192,54451,1,0,0:0:0:0:
256,192,54508,1,0,0:0:0:0:
256,192,54564,1,8,0:0:0:0:
256,192,54678,1,4,0:0:0:0:
256,192,54848,1,0,0:0:0:0:
256,192,54934,1,0,0:0:0:0:
256,192,55019,1,8,0:0:0:0:
256,192,55189,1,0,0:0:0:0:
256,192,55275,1,0,0:0:0:0:
256,192,55360,1,8,0:0:0:0:
256,192,55445,1,8,0:0:0:0:
256,192,55530,1,0,0:0:0:0:
256,192,55615,1,0,0:0:0:0:
256,192,55701,1,8,0:0:0:0:
256,192,55871,1,8,0:0:0:0:
256,192,56042,1,0,0:0:0:0:
256,192,56212,1,0,0:0:0:0:
256,192,56297,1,8,0:0:0:0:
256,192,56383,1,8,0:0:0:0:
256,192,56553,1,8,0:0:0:0:
256,192,56638,1,0,0:0:0:0:
256,192,56723,1,8,0:0:0:0:
256,192,56809,1,8,0:0:0:0:
256,192,56894,1,0,0:0:0:0:
256,192,56979,1,0,0:0:0:0:
256,192,57064,1,8,0:0:0:0:
256,192,57178,1,8,0:0:0:0:
256,192,57292,1,8,0:0:0:0:
256,192,57405,1,4,0:0:0:0:
256,192,57746,1,12,0:0:0:0:
256,192,57917,1,8,0:0:0:0:
256,192,58002,1,0,0:0:0:0:
256,192,58087,1,8,0:0:0:0:
256,192,58172,1,8,0:0:0:0:
256,192,58314,1,0,0:0:0:0:
256,192,58428,1,12,0:0:0:0:
256,192,58598,1,8,0:0:0:0:
256,192,58684,1,0,0:0:0:0:
256,192,58769,1,8,0:0:0:0:
256,192,58854,1,8,0:0:0:0:
256,192,58996,1,0,0:0:0:0:
256,192,59110,1,12,0:0:0:0:
256,192,59280,1,8,0:0:0:0:
256,192,59365,1,0,0:0:0:0:
256,192,59451,1,8,0:0:0:0:
256,192,59536,1,8,0:0:0:0:
256,192,59678,1,0,0:0:0:0:
256,192,59792,1,8,0:0:0:0:
256,192,59905,1,8,0:0:0:0:
256,192,60019,1,8,0:0:0:0:
256,192,60133,1,4,0:0:0:0:
256,192,60303,1,8,0:0:0:0:
256,192,60388,1,0,0:0:0:0:
256,192,60473,1,8,0:0:0:0:
256,192,60644,1,8,0:0:0:0:
256,192,60729,1,0,0:0:0:0:
256,192,60814,1,0,0:0:0:0:
256,192,60900,1,0,0:0:0:0:
256,192,60985,1,8,0:0:0:0:
256,192,61070,1,0,0:0:0:0:
256,192,61155,1,8,0:0:0:0:
256,192,61326,1,8,0:0:0:0:
256,192,61496,1,0,0:0:0:0:
256,192,61667,1,0,0:0:0:0:
256,192,61752,1,8,0:0:0:0:
256,192,61837,1,8,0:0:0:0:
256,192,62008,1,8,0:0:0:0:
256,192,62093,1,0,0:0:0:0:
256,192,62178,1,8,0:0:0:0:
256,192,62263,1,0,0:0:0:0:
256,192,62348,1,0,0:0:0:0:
256,192,62434,1,0,0:0:0:0:
256,192,62519,1,8,0:0:0:0:
256,192,62633,1,8,0:0:0:0:
256,192,62746,1,8,0:0:0:0:
256,192,62860,1,4,0:0:0:0:
256,192,63030,1,8,0:0:0:0:
256,192,63201,1,4,0:0:0:0:
256,192,63371,1,8,0:0:0:0:
256,192,63542,1,12,0:0:0:0:
256,192,63712,1,0,0:0:0:0:
256,192,63797,1,8,0:0:0:0:
256,192,63883,1,0,0:0:0:0:
256,192,64053,1,12,0:0:0:0:
256,192,64223,1,0,0:0:0:0:
256,192,64394,1,12,0:0:0:0:
256,192,64564,1,0,0:0:0:0:
256,192,64650,1,8,0:0:0:0:
256,192,64735,1,0,0:0:0:0:
256,192,64905,1,12,0:0:0:0:
256,192,65246,1,8,0:0:0:0:
256,192,65289,1,8,0:0:0:0:
256,192,65417,1,8,0:0:0:0:
256,192,65459,1,8,0:0:0:0:
256,192,65587,5,4,0:0:0:0:
256,192,65758,1,0,0:0:0:0:
256,192,65843,1,0,0:0:0:0:
256,192,65928,1,8,0:0:0:0:
256,192,66098,1,0,0:0:0:0:
256,192,66184,1,8,0:0:0:0:
256,192,66269,1,0,0:0:0:0:
256,192,66439,1,8,0:0:0:0:
256,192,66525,1,0,0:0:0:0:
256,192,66610,1,8,0:0:0:0:
256,192,66780,1,8,0:0:0:0:
256,192,66865,1,8,0:0:0:0:
256,192,66951,1,0,0:0:0:0:
256,192,67036,1,8,0:0:0:0:
256,192,67121,1,0,0:0:0:0:
256,192,67292,1,8,0:0:0:0:
256,192,67462,1,8,0:0:0:0:
256,192,67633,1,0,0:0:0:0:
256,192,67803,1,0,0:0:0:0:
256,192,67973,1,8,0:0:0:0:
256,192,68087,1,8,0:0:0:0:
256,192,68201,1,8,0:0:0:0:
256,192,68314,1,4,0:0:0:0:
256,192,68485,1,0,0:0:0:0:
256,192,68570,1,0,0:0:0:0:
256,192,68655,1,8,0:0:0:0:
256,192,68826,1,8,0:0:0:0:
256,192,68911,1,8,0:0:0:0:
256,192,68996,1,0,0:0:0:0:
256,192,69167,1,0,0:0:0:0:
256,192,69252,1,8,0:0:0:0:
256,192,69337,1,8,0:0:0:0:
256,192,69508,1,8,0:0:0:0:
256,192,69678,1,0,0:0:0:0:
256,192,69763,1,8,0:0:0:0:
256,192,69848,1,8,0:0:0:0:
256,192,69934,1,0,0:0:0:0:
256,192,70019,1,8,0:0:0:0:
256,192,70189,1,8,0:0:0:0:
256,192,70360,1,0,0:0:0:0:
256,192,70445,1,8,0:0:0:0:
256,192,70530,1,0,0:0:0:0:
256,192,70701,1,8,0:0:0:0:
256,192,70814,1,8,0:0:0:0:
256,192,70928,1,8,0:0:0:0:
256,192,71042,1,4,0:0:0:0:
256,192,71212,1,0,0:0:0:0:
256,192,71297,1,8,0:0:0:0:
256,192,71383,1,8,0:0:0:0:
256,192,71553,1,8,0:0:0:0:
256,192,71638,1,0,0:0:0:0:
256,192,71723,1,0,0:0:0:0:
256,192,71894,1,0,0:0:0:0:
256,192,71979,1,0,0:0:0:0:
256,192,72064,1,8,0:0:0:0:
256,192,72235,1,0,0:0:0:0:
256,192,72320,1,8,0:0:0:0:
256,192,72405,1,8,0:0:0:0:
256,192,72490,1,0,0:0:0:0:
256,192,72576,1,0,0:0:0:0:
256,192,72746,1,8,0:0:0:0:
256,192,72917,1,0,0:0:0:0:
256,192,73087,1,0,0:0:0:0:
256,192,73258,1,0,0:0:0:0:
256,192,73428,1,8,0:0:0:0:
256,192,73542,1,8,0:0:0:0:
256,192,73655,1,8,0:0:0:0:
256,192,73769,1,4,0:0:0:0:
256,192,73939,1,0,0:0:0:0:
256,192,74110,1,8,0:0:0:0:
256,192,74280,1,8,0:0:0:0:
256,192,74451,1,0,0:0:0:0:
256,192,74493,1,0,0:0:0:0:
256,192,74621,1,0,0:0:0:0:
256,192,74664,1,0,0:0:0:0:
256,192,74792,1,8,0:0:0:0:
256,192,74834,1,8,0:0:0:0:
256,192,74962,1,8,0:0:0:0:
256,192,75005,1,8,0:0:0:0:
256,192,75133,1,0,0:0:0:0:
256,192,75175,1,0,0:0:0:0:
256,192,75303,1,0,0:0:0:0:
256,192,75346,1,0,0:0:0:0:
256,192,75473,1,8,0:0:0:0:
256,192,75516,1,8,0:0:0:0:
256,192,75644,1,8,0:0:0:0:
256,192,75686,1,8,0:0:0:0:
256,192,75814,1,8,0:0:0:0:
256,192,76155,1,8,0:0:0:0:
256,192,76326,1,8,0:0:0:0:
256,192,76496,5,4,0:0:0:0:
256,192,76667,1,8,0:0:0:0:
256,192,76752,1,0,0:0:0:0:
256,192,76837,1,8,0:0:0:0:
256,192,77008,1,0,0:0:0:0:
256,192,77093,1,0,0:0:0:0:
256,192,77178,1,0,0:0:0:0:
256,192,77263,1,8,0:0:0:0:
256,192,77348,1,0,0:0:0:0:
256,192,77434,1,0,0:0:0:0:
256,192,77519,1,8,0:0:0:0:
256,192,77689,1,8,0:0:0:0:
256,192,77860,1,0,0:0:0:0:
256,192,78030,1,0,0:0:0:0:
256,192,78201,1,8,0:0:0:0:
256,192,78286,1,8,0:0:0:0:
256,192,78371,1,8,0:0:0:0:
256,192,78456,1,0,0:0:0:0:
256,192,78542,1,8,0:0:0:0:
256,192,78627,1,8,0:0:0:0:
256,192,78712,1,0,0:0:0:0:
256,192,78883,1,8,0:0:0:0:
256,192,78996,1,8,0:0:0:0:
256,192,79110,1,8,0:0:0:0:
256,192,79223,1,4,0:0:0:0:
256,192,79394,1,0,0:0:0:0:
256,192,79564,1,8,0:0:0:0:
256,192,79735,1,8,0:0:0:0:
256,192,79820,1,0,0:0:0:0:
256,192,79905,1,0,0:0:0:0:
256,192,79990,1,8,0:0:0:0:
256,192,80076,1,8,0:0:0:0:
256,192,80161,1,0,0:0:0:0:
256,192,80246,1,8,0:0:0:0:
256,192,80417,1,8,0:0:0:0:
256,192,80587,1,0,0:0:0:0:
256,192,80758,1,0,0:0:0:0:
256,192,80928,1,8,0:0:0:0:
256,192,81013,1,0,0:0:0:0:
256,192,81098,1,0,0:0:0:0:
256,192,81184,1,0,0:0:0:0:
256,192,81269,1,8,0:0:0:0:
256,192,81354,1,8,0:0:0:0:
256,192,81439,1,0,0:0:0:0:
256,192,81610,1,8,0:0:0:0:
256,192,81723,1,8,0:0:0:0:
256,192,81837,1,8,0:0:0:0:
256,192,81951,1,4,0:0:0:0:
256,192,82121,1,8,0:0:0:0:
256,192,82206,1,0,0:0:0:0:
256,192,82292,1,8,0:0:0:0:
256,192,82462,1,8,0:0:0:0:
256,192,82547,1,0,0:0:0:0:
256,192,82633,1,8,0:0:0:0:
256,192,82718,1,8,0:0:0:0:
256,192,82803,1,8,0:0:0:0:
256,192,82888,1,0,0:0:0:0:
256,192,82973,1,8,0:0:0:0:
256,192,83144,1,8,0:0:0:0:
256,192,83314,1,0,0:0:0:0:
256,192,83485,1,0,0:0:0:0:
256,192,83655,1,8,0:0:0:0:
256,224,83740,1,8,0:0:0:0:
256,224,83826,1,0,0:0:0:0:
256,224,83911,1,0,0:0:0:0:
256,224,83996,1,8,0:0:0:0:
256,192,84081,1,8,0:0:0:0:
256,192,84167,1,0,0:0:0:0:
256,192,84337,1,8,0:0:0:0:
256,192,84451,1,8,0:0:0:0:
256,192,84564,1,8,0:0:0:0:
256,192,84678,1,4,0:0:0:0:
256,192,84848,1,0,0:0:0:0:
256,192,85019,1,8,0:0:0:0:
256,192,85189,1,8,0:0:0:0:
256,192,85275,1,0,0:0:0:0:
256,192,85360,1,0,0:0:0:0:
256,192,85445,1,8,0:0:0:0:
256,192,85530,1,8,0:0:0:0:
256,192,85701,1,8,0:0:0:0:
256,192,85871,1,8,0:0:0:0:
256,192,86042,1,0,0:0:0:0:
256,192,86212,1,0,0:0:0:0:
256,192,86383,1,8,0:0:0:0:
256,192,86553,1,0,0:0:0:0:
256,192,86723,1,8,0:0:0:0:
256,192,87064,1,8,0:0:0:0:
256,192,87150,1,8,0:0:0:0:
256,192,87235,1,8,0:0:0:0:
256,192,87320,1,8,0:0:0:0:
256,192,87405,5,4,0:0:0:0:
256,192,87576,1,0,0:0:0:0:
256,192,87661,1,0,0:0:0:0:
256,192,87746,1,8,0:0:0:0:
256,192,87917,1,0,0:0:0:0:
256,192,88002,1,0,0:0:0:0:
256,192,88087,1,8,0:0:0:0:
256,192,88172,1,8,0:0:0:0:
256,192,88258,1,0,0:0:0:0:
256,192,88343,1,8,0:0:0:0:
256,192,88428,1,8,0:0:0:0:
256,192,88598,1,8,0:0:0:0:
256,192,88769,1,0,0:0:0:0:
256,192,88939,1,0,0:0:0:0:
256,192,89025,1,8,0:0:0:0:
256,192,89110,1,8,0:0:0:0:
256,192,89280,1,8,0:0:0:0:
256,192,89365,1,8,0:0:0:0:
256,192,89451,1,0,0:0:0:0:
256,192,89536,1,8,0:0:0:0:
256,192,89621,1,8,0:0:0:0:
256,192,89706,1,0,0:0:0:0:
256,192,89792,1,8,0:0:0:0:
256,192,89905,1,8,0:0:0:0:
256,192,90019,1,8,0:0:0:0:
256,192,90133,1,4,0:0:0:0:
256,192,90473,1,12,0:0:0:0:
256,192,90644,1,8,0:0:0:0:
256,192,90729,1,8,0:0:0:0:
256,192,90814,1,0,0:0:0:0:
256,192,90900,1,8,0:0:0:0:
256,192,90985,1,0,0:0:0:0:
256,192,91155,1,12,0:0:0:0:
256,192,91326,1,8,0:0:0:0:
256,192,91411,1,8,0:0:0:0:
256,192,91496,1,0,0:0:0:0:
256,192,91581,1,8,0:0:0:0:
256,192,91667,1,0,0:0:0:0:
256,192,91837,1,12,0:0:0:0:
256,192,92008,1,8,0:0:0:0:
256,192,92093,1,8,0:0:0:0:
256,192,92178,1,0,0:0:0:0:
256,192,92263,1,8,0:0:0:0:
256,192,92348,1,0,0:0:0:0:
256,192,92519,1,8,0:0:0:0:
256,192,92633,1,8,0:0:0:0:
256,192,92746,1,8,0:0:0:0:
256,192,92860,1,4,0:0:0:0:
256,192,93030,1,8,0:0:0:0:
256,192,93115,1,0,0:0:0:0:
256,192,93201,1,8,0:0:0:0:
256,192,93371,1,8,0:0:0:0:
256,192,93456,1,0,0:0:0:0:
256,192,93542,1,8,0:0:0:0:
256,192,93627,1,8,0:0:0:0:
256,192,93712,1,0,0:0:0:0:
256,192,93797,1,8,0:0:0:0:
256,192,93883,1,8,0:0:0:0:
256,192,94053,1,8,0:0:0:0:
256,192,94223,1,0,0:0:0:0:
256,192,94394,1,0,0:0:0:0:
256,192,94479,1,8,0:0:0:0:
256,192,94564,1,8,0:0:0:0:
256,192,94735,1,8,0:0:0:0:
256,192,94820,1,8,0:0:0:0:
256,192,94905,1,0,0:0:0:0:
256,192,94990,1,8,0:0:0:0:
256,192,95076,1,0,0:0:0:0:
256,192,95161,1,0,0:0:0:0:
256,192,95246,1,8,0:0:0:0:
256,192,95360,1,8,0:0:0:0:
256,192,95473,1,8,0:0:0:0:
256,192,95587,1,4,0:0:0:0:
256,192,95928,1,12,0:0:0:0:
256,192,96042,1,0,0:0:0:0:
256,192,96155,1,0,0:0:0:0:
256,192,96269,1,8,0:0:0:0:
256,192,96439,1,0,0:0:0:0:
256,192,96525,1,0,0:0:0:0:
256,192,96610,1,12,0:0:0:0:
256,192,96723,1,0,0:0:0:0:
256,192,96837,1,0,0:0:0:0:
256,192,96951,1,8,0:0:0:0:
256,192,97121,1,0,0:0:0:0:
256,192,97206,1,0,0:0:0:0:
256,192,97292,1,12,0:0:0:0:
256,192,97405,1,0,0:0:0:0:
256,192,97519,1,0,0:0:0:0:
256,192,97633,1,8,0:0:0:0:
256,192,97803,1,0,0:0:0:0:
256,192,97888,1,0,0:0:0:0:
256,192,97973,1,8,0:0:0:0:
256,192,98087,1,0,0:0:0:0:
256,192,98144,1,0,0:0:0:0:
256,192,98201,1,8,0:0:0:0:
256,192,98314,1,4,0:0:0:0:
256,192,98485,1,0,0:0:0:0:
256,192,98570,1,0,0:0:0:0:
256,192,98655,1,8,0:0:0:0:
256,192,98826,1,0,0:0:0:0:
256,192,98911,1,0,0:0:0:0:
256,192,98996,1,0,0:0:0:0:
256,192,99081,1,8,0:0:0:0:
256,192,99167,1,8,0:0:0:0:
256,192,99252,1,0,0:0:0:0:
256,192,99337,1,8,0:0:0:0:
256,192,99508,1,8,0:0:0:0:
256,192,99678,1,0,0:0:0:0:
256,192,99848,1,0,0:0:0:0:
256,192,99934,1,8,0:0:0:0:
256,192,100019,1,8,0:0:0:0:
256,192,100189,1,8,0:0:0:0:
256,192,100275,1,0,0:0:0:0:
256,192,100360,1,0,0:0:0:0:
256,192,100445,1,8,0:0:0:0:
256,192,100530,1,8,0:0:0:0:
256,192,100615,1,0,0:0:0:0:
256,192,100701,1,8,0:0:0:0:
256,192,100814,1,8,0:0:0:0:
256,192,100928,1,8,0:0:0:0:
256,192,101042,1,4,0:0:0:0:
256,192,101383,1,12,0:0:0:0:
256,192,101553,1,8,0:0:0:0:
256,192,101638,1,0,0:0:0:0:
256,192,101723,1,8,0:0:0:0:
256,192,101809,1,8,0:0:0:0:
256,192,101894,1,0,0:0:0:0:
256,192,102064,1,12,0:0:0:0:
256,192,102235,1,8,0:0:0:0:
256,192,102320,1,0,0:0:0:0:
256,192,102405,1,8,0:0:0:0:
256,192,102490,1,8,0:0:0:0:
256,192,102576,1,0,0:0:0:0:
256,192,102746,1,12,0:0:0:0:
256,192,102917,1,8,0:0:0:0:
256,192,103002,1,0,0:0:0:0:
256,192,103087,1,8,0:0:0:0:
256,192,103172,1,8,0:0:0:0:
256,192,103258,1,0,0:0:0:0:
256,192,103428,1,8,0:0:0:0:
256,192,103542,1,8,0:0:0:0:
256,192,103655,1,8,0:0:0:0:
256,192,103769,1,4,0:0:0:0:
256,192,103939,1,8,0:0:0:0:
256,192,104025,1,0,0:0:0:0:
256,192,104110,1,8,0:0:0:0:
256,192,104280,1,0,0:0:0:0:
256,192,104365,1,0,0:0:0:0:
256,192,104451,1,8,0:0:0:0:
256,192,104536,1,0,0:0:0:0:
256,192,104621,1,0,0:0:0:0:
256,192,104706,1,8,0:0:0:0:
256,192,104792,1,8,0:0:0:0:
256,192,104962,1,8,0:0:0:0:
256,192,105133,1,0,0:0:0:0:
256,192,105303,1,0,0:0:0:0:
256,192,105388,1,8,0:0:0:0:
256,192,105473,1,8,0:0:0:0:
256,192,105644,1,8,0:0:0:0:
256,192,105729,1,0,0:0:0:0:
256,192,105814,1,8,0:0:0:0:
256,192,105900,1,8,0:0:0:0:
256,192,105985,1,0,0:0:0:0:
256,192,106070,1,0,0:0:0:0:
256,192,106155,1,8,0:0:0:0:
256,192,106269,1,8,0:0:0:0:
256,192,106383,1,8,0:0:0:0:
256,192,106496,1,4,0:0:0:0:
256,192,106837,1,12,0:0:0:0:
256,192,107093,1,0,0:0:0:0:
256,192,107348,1,12,0:0:0:0:
256,192,107604,1,0,0:0:0:0:
256,192,107860,1,12,0:0:0:0:
256,192,108201,1,8,0:0:0:0:
256,192,108371,1,0,0:0:0:0:
256,192,108542,1,0,0:0:0:0:
256,192,108712,1,8,0:0:0:0:
256,192,109223,5,4,0:0:0:0:
256,192,109735,1,0,0:0:0:0:
256,192,109905,1,8,0:0:0:0:
256,192,110246,1,0,0:0:0:0:
256,192,110417,1,8,0:0:0:0:
256,192,110587,1,0,0:0:0:0:
256,192,110758,1,8,0:0:0:0:
256,192,111098,1,0,0:0:0:0:
256,192,111269,1,8,0:0:0:0:
256,192,111439,1,0,0:0:0:0:
256,192,111610,1,0,0:0:0:0:
256,192,111951,1,0,0:0:0:0:
256,192,112121,1,8,0:0:0:0:
256,192,112462,1,0,0:0:0:0:
256,192,112633,1,8,0:0:0:0:
256,192,112803,1,8,0:0:0:0:
256,192,112973,1,0,0:0:0:0:
256,192,113314,1,0,0:0:0:0:
256,192,113485,1,8,0:0:0:0:
256,192,113655,1,0,0:0:0:0:
256,192,113826,1,0,0:0:0:0:
256,192,113996,1,8,0:0:0:0:
256,192,114167,1,0,0:0:0:0:
256,192,114337,1,8,0:0:0:0:
256,192,114678,1,0,0:0:0:0:
256,192,115189,1,0,0:0:0:0:
256,192,115360,1,8,0:0:0:0:
256,192,115701,1,0,0:0:0:0:
256,192,115871,1,8,0:0:0:0:
256,192,116042,1,0,0:0:0:0:
256,192,116212,1,0,0:0:0:0:
256,192,116553,1,0,0:0:0:0:
256,192,116723,1,8,0:0:0:0:
256,192,116894,1,0,0:0:0:0:
256,192,117064,1,8,0:0:0:0:
256,192,117405,1,0,0:0:0:0:
256,192,117576,1,8,0:0:0:0:
256,192,117917,1,0,0:0:0:0:
256,192,118087,1,8,0:0:0:0:
256,192,118258,1,8,0:0:0:0:
256,192,118428,1,0,0:0:0:0:
256,192,118769,1,0,0:0:0:0:
256,192,118939,1,8,0:0:0:0:
256,192,119110,1,0,0:0:0:0:
256,192,119280,1,0,0:0:0:0:
256,192,119451,1,8,0:0:0:0:
256,192,119621,1,0,0:0:0:0:
256,192,119792,1,8,0:0:0:0:
256,192,119962,1,8,0:0:0:0:
256,192,120133,1,0,0:0:0:0:
256,192,120644,1,0,0:0:0:0:
256,192,120814,1,8,0:0:0:0:
256,192,121155,1,0,0:0:0:0:
256,192,121326,1,8,0:0:0:0:
256,192,121496,1,8,0:0:0:0:
256,192,121667,1,8,0:0:0:0:
256,192,121837,1,0,0:0:0:0:
256,192,122008,1,0,0:0:0:0:
256,192,122178,1,8,0:0:0:0:
256,192,122348,1,0,0:0:0:0:
256,192,122689,1,8,0:0:0:0:
256,192,122860,1,0,0:0:0:0:
256,192,123030,1,8,0:0:0:0:
256,192,123201,1,0,0:0:0:0:
256,192,123371,1,0,0:0:0:0:
256,192,123542,1,8,0:0:0:0:
256,192,123883,1,0,0:0:0:0:
256,192,124053,1,8,0:0:0:0:
256,192,124223,1,0,0:0:0:0:
256,192,124394,1,8,0:0:0:0:
256,192,124564,1,0,0:0:0:0:
256,192,124735,1,0,0:0:0:0:
256,192,124905,1,8,0:0:0:0:
256,192,125076,1,0,0:0:0:0:
256,192,125246,1,8,0:0:0:0:
256,192,125417,1,8,0:0:0:0:
256,192,125587,1,0,0:0:0:0:
256,192,126098,1,0,0:0:0:0:
256,192,126269,1,8,0:0:0:0:
256,192,126610,1,0,0:0:0:0:
256,192,126780,1,8,0:0:0:0:
256,192,126951,1,0,0:0:0:0:
256,192,127121,1,8,0:0:0:0:
256,192,127292,1,8,0:0:0:0:
256,192,127462,1,0,0:0:0:0:
256,192,127633,1,8,0:0:0:0:
256,192,127803,1,0,0:0:0:0:
256,192,128144,1,8,0:0:0:0:
256,192,128314,1,0,0:0:0:0:
256,192,128485,1,8,0:0:0:0:
256,192,128655,1,8,0:0:0:0:
256,192,128826,1,0,0:0:0:0:
256,192,128996,1,8,0:0:0:0:
256,192,129337,1,0,0:0:0:0:
256,192,129508,1,8,0:0:0:0:
256,192,131042,5,12,0:0:0:0:
256,192,131383,1,8,0:0:0:0:
256,192,131553,1,0,0:0:0:0:
256,192,131723,1,8,0:0:0:0:
256,192,131894,1,8,0:0:0:0:
256,192,132064,1,0,0:0:0:0:
256,192,132405,1,0,0:0:0:0:
256,192,132576,1,8,0:0:0:0:
256,192,132746,1,8,0:0:0:0:
256,192,132917,1,0,0:0:0:0:
256,192,133087,1,8,0:0:0:0:
256,192,133258,1,0,0:0:0:0:
256,192,133428,1,8,0:0:0:0:
256,192,133598,1,8,0:0:0:0:
256,192,133769,1,4,0:0:0:0:
256,192,134110,1,8,0:0:0:0:
256,192,134280,1,0,0:0:0:0:
256,192,134451,1,8,0:0:0:0:
256,192,134621,1,8,0:0:0:0:
256,192,134792,1,0,0:0:0:0:
256,192,135133,1,0,0:0:0:0:
256,192,135303,1,0,0:0:0:0:
256,192,135473,1,8,0:0:0:0:
256,192,135644,1,0,0:0:0:0:
256,192,135814,1,8,0:0:0:0:
256,192,135985,1,0,0:0:0:0:
256,192,136155,1,8,0:0:0:0:
256,192,136496,1,4,0:0:0:0:
256,192,136837,1,8,0:0:0:0:
256,192,137008,1,0,0:0:0:0:
256,192,137178,1,8,0:0:0:0:
256,192,137348,1,8,0:0:0:0:
256,192,137519,1,0,0:0:0:0:
256,192,137860,1,0,0:0:0:0:
256,192,138030,1,0,0:0:0:0:
256,192,138201,1,8,0:0:0:0:
256,192,138371,1,0,0:0:0:0:
256,192,138542,1,8,0:0:0:0:
256,192,138712,1,0,0:0:0:0:
256,192,138883,1,0,0:0:0:0:
256,192,139053,1,8,0:0:0:0:
256,192,139223,1,4,0:0:0:0:
256,192,139564,1,8,0:0:0:0:
256,192,139735,1,0,0:0:0:0:
256,192,139905,1,8,0:0:0:0:
256,192,140076,1,8,0:0:0:0:
256,192,140246,1,0,0:0:0:0:
256,192,140417,1,8,0:0:0:0:
256,192,140587,1,8,0:0:0:0:
256,192,140758,1,0,0:0:0:0:
256,192,140928,1,8,0:0:0:0:
256,192,141098,1,0,0:0:0:0:
256,192,141269,1,8,0:0:0:0:
256,192,141439,1,0,0:0:0:0:
256,192,141610,1,8,0:0:0:0:
256,192,141780,1,8,0:0:0:0:
256,192,141951,1,4,0:0:0:0:
256,192,142292,1,0,0:0:0:0:
256,192,142462,1,0,0:0:0:0:
256,192,142633,1,8,0:0:0:0:
256,192,142803,1,8,0:0:0:0:
256,192,142973,1,0,0:0:0:0:
256,192,143144,1,8,0:0:0:0:
256,192,143314,1,8,0:0:0:0:
256,192,143485,1,0,0:0:0:0:
256,192,143655,1,8,0:0:0:0:
256,192,143826,1,0,0:0:0:0:
256,192,143996,1,8,0:0:0:0:
256,192,144081,1,8,0:0:0:0:
256,192,144167,1,0,0:0:0:0:
256,192,144337,1,8,0:0:0:0:
256,192,144508,1,0,0:0:0:0:
256,192,144593,1,0,0:0:0:0:
256,192,144678,1,8,0:0:0:0:
256,192,144848,1,0,0:0:0:0:
256,192,145019,1,8,0:0:0:0:
256,192,145189,1,0,0:0:0:0:
256,192,145360,1,8,0:0:0:0:
256,192,145445,1,0,0:0:0:0:
256,192,145530,1,8,0:0:0:0:
256,192,145701,1,8,0:0:0:0:
256,192,145871,1,0,0:0:0:0:
256,192,145956,1,8,0:0:0:0:
256,192,146042,1,8,0:0:0:0:
256,192,146127,1,0,0:0:0:0:
256,192,146212,1,8,0:0:0:0:
256,192,146383,1,8,0:0:0:0:
256,192,146553,1,0,0:0:0:0:
256,192,146723,1,8,0:0:0:0:
256,192,146894,1,0,0:0:0:0:
256,192,146979,1,8,0:0:0:0:
256,192,147064,1,8,0:0:0:0:
256,192,147235,1,8,0:0:0:0:
256,192,147405,1,4,0:0:0:0:
256,192,147576,1,8,0:0:0:0:
256,192,147746,1,0,0:0:0:0:
256,192,147917,1,0,0:0:0:0:
256,192,148087,1,8,0:0:0:0:
256,192,148258,1,0,0:0:0:0:
256,192,148428,1,8,0:0:0:0:
256,192,148769,1,0,0:0:0:0:
256,192,148939,1,8,0:0:0:0:
256,192,149110,1,8,0:0:0:0:
256,192,149280,1,0,0:0:0:0:
256,192,149451,1,8,0:0:0:0:
256,192,149621,1,0,0:0:0:0:
256,192,149792,1,8,0:0:0:0:
256,192,149962,1,0,0:0:0:0:
256,192,150133,1,4,0:0:0:0:
256,192,150303,1,0,0:0:0:0:
256,192,150388,1,0,0:0:0:0:
256,192,150431,1,8,0:0:0:0:
256,192,150473,1,8,0:0:0:0:
256,192,150644,1,0,0:0:0:0:
256,192,150814,12,8,152518,0:0:0:0:
256,192,152860,5,4,0:0:0:0:
256,192,153030,1,0,0:0:0:0:
256,192,153115,1,0,0:0:0:0:
256,192,153201,1,8,0:0:0:0:
256,192,153371,1,0,0:0:0:0:
256,192,153456,1,0,0:0:0:0:
256,192,153542,1,8,0:0:0:0:
256,192,153627,1,8,0:0:0:0:
256,192,153712,1,8,0:0:0:0:
256,192,153797,1,0,0:0:0:0:
256,192,153883,1,8,0:0:0:0:
256,192,154053,1,8,0:0:0:0:
256,192,154223,1,0,0:0:0:0:
256,192,154394,1,8,0:0:0:0:
256,192,154479,1,0,0:0:0:0:
256,192,154564,1,8,0:0:0:0:
256,192,154735,1,8,0:0:0:0:
256,192,154820,1,0,0:0:0:0:
256,192,154905,1,8,0:0:0:0:
256,192,154990,1,8,0:0:0:0:
256,192,155076,1,8,0:0:0:0:
256,192,155161,1,0,0:0:0:0:
256,192,155246,1,8,0:0:0:0:
256,192,155360,1,8,0:0:0:0:
256,192,155473,1,8,0:0:0:0:
256,192,155587,1,4,0:0:0:0:
256,192,155928,1,12,0:0:0:0:
256,192,156098,1,8,0:0:0:0:
256,192,156184,1,0,0:0:0:0:
256,192,156269,1,8,0:0:0:0:
256,192,156354,1,0,0:0:0:0:
256,192,156496,1,0,0:0:0:0:
256,192,156610,1,12,0:0:0:0:
256,192,156780,1,8,0:0:0:0:
256,192,156865,1,8,0:0:0:0:
256,192,156951,1,4,0:0:0:0:
256,192,157292,1,12,0:0:0:0:
256,192,157462,1,8,0:0:0:0:
256,192,157547,1,0,0:0:0:0:
256,192,157633,1,8,0:0:0:0:
256,192,157718,1,0,0:0:0:0:
256,192,157860,1,0,0:0:0:0:
256,192,157973,1,8,0:0:0:0:
256,192,158087,1,8,0:0:0:0:
256,192,158201,1,8,0:0:0:0:
256,192,158314,1,4,0:0:0:0:
256,192,158485,1,8,0:0:0:0:
256,192,158570,1,0,0:0:0:0:
256,192,158655,1,8,0:0:0:0:
256,192,158826,1,8,0:0:0:0:
256,192,158911,1,0,0:0:0:0:
256,192,158996,1,8,0:0:0:0:
256,192,159081,1,8,0:0:0:0:
256,192,159167,1,8,0:0:0:0:
256,192,159252,1,0,0:0:0:0:
256,192,159337,1,8,0:0:0:0:
256,192,159508,1,8,0:0:0:0:
256,192,159678,1,0,0:0:0:0:
256,192,159848,1,0,0:0:0:0:
256,192,159934,1,8,0:0:0:0:
256,192,160019,1,8,0:0:0:0:
256,192,160189,1,8,0:0:0:0:
256,192,160275,1,0,0:0:0:0:
256,192,160360,1,0,0:0:0:0:
256,192,160445,1,8,0:0:0:0:
256,192,160530,1,0,0:0:0:0:
256,192,160615,1,0,0:0:0:0:
256,192,160701,1,8,0:0:0:0:
256,192,160814,1,8,0:0:0:0:
256,192,160928,1,8,0:0:0:0:
256,192,161042,1,4,0:0:0:0:
256,192,161383,1,12,0:0:0:0:
256,192,161496,1,0,0:0:0:0:
256,192,161610,1,8,0:0:0:0:
256,192,161723,1,8,0:0:0:0:
256,192,161894,1,0,0:0:0:0:
256,192,161979,1,0,0:0:0:0:
256,192,162064,1,12,0:0:0:0:
256,192,162178,1,0,0:0:0:0:
256,192,162292,1,8,0:0:0:0:
256,192,162405,1,4,0:0:0:0:
256,192,162746,1,12,0:0:0:0:
256,192,162860,1,0,0:0:0:0:
256,192,162973,1,8,0:0:0:0:
256,192,163087,1,8,0:0:0:0:
256,192,163258,1,0,0:0:0:0:
256,192,163343,1,0,0:0:0:0:
256,192,163428,1,8,0:0:0:0:
256,192,163542,1,0,0:0:0:0:
256,192,163598,1,0,0:0:0:0:
256,192,163655,1,8,0:0:0:0:
256,192,163769,1,4,0:0:0:0:
256,192,163939,1,0,0:0:0:0:
256,192,164025,1,0,0:0:0:0:
256,192,164110,1,8,0:0:0:0:
256,192,164280,1,0,0:0:0:0:
256,192,164365,1,0,0:0:0:0:
256,192,164451,1,8,0:0:0:0:
256,192,164536,1,8,0:0:0:0:
256,192,164621,1,0,0:0:0:0:
256,192,164706,1,0,0:0:0:0:
256,192,164792,1,8,0:0:0:0:
256,192,164962,1,8,0:0:0:0:
256,192,165133,1,0,0:0:0:0:
256,192,165303,1,8,0:0:0:0:
256,192,165388,1,0,0:0:0:0:
256,192,165473,1,8,0:0:0:0:
256,192,165644,1,8,0:0:0:0:
256,192,165729,1,0,0:0:0:0:
256,192,165814,1,8,0:0:0:0:
256,192,165900,1,8,0:0:0:0:
256,192,165985,1,0,0:0:0:0:
256,192,166070,1,0,0:0:0:0:
256,192,166155,1,8,0:0:0:0:
256,192,166269,1,8,0:0:0:0:
256,192,166383,1,8,0:0:0:0:
256,192,166496,1,4,0:0:0:0:
256,192,166837,1,12,0:0:0:0:
256,192,167008,1,0,0:0:0:0:
256,192,167093,1,0,0:0:0:0:
256,192,167178,1,8,0:0:0:0:
256,192,167263,1,0,0:0:0:0:
256,192,167405,1,0,0:0:0:0:
256,192,167519,1,12,0:0:0:0:
256,192,167689,1,0,0:0:0:0:
256,192,167775,1,0,0:0:0:0:
256,192,167860,1,8,0:0:0:0:
256,192,167945,1,0,0:0:0:0:
256,192,168087,1,0,0:0:0:0:
256,192,168201,1,12,0:0:0:0:
256,192,168371,1,0,0:0:0:0:
256,192,168456,1,0,0:0:0:0:
256,192,168542,1,8,0:0:0:0:
256,192,168627,1,0,0:0:0:0:
256,192,168769,1,0,0:0:0:0:
256,192,168883,1,8,0:0:0:0:
256,192,168996,1,8,0:0:0:0:
256,192,169110,1,8,0:0:0:0:
256,192,169223,1,4,0:0:0:0:
256,192,169394,1,8,0:0:0:0:
256,192,169479,1,0,0:0:0:0:
256,192,169564,1,8,0:0:0:0:
256,192,169735,1,8,0:0:0:0:
256,192,169820,1,0,0:0:0:0:
256,192,169905,1,0,0:0:0:0:
256,192,169990,1,0,0:0:0:0:
256,192,170076,1,8,0:0:0:0:
256,192,170161,1,0,0:0:0:0:
256,192,170246,1,8,0:0:0:0:
256,192,170417,1,8,0:0:0:0:
256,192,170587,1,0,0:0:0:0:
256,192,170758,1,0,0:0:0:0:
256,192,170843,1,8,0:0:0:0:
256,192,170928,1,8,0:0:0:0:
256,192,171098,1,8,0:0:0:0:
256,192,171184,1,0,0:0:0:0:
256,192,171269,1,8,0:0:0:0:
256,192,171354,1,0,0:0:0:0:
256,192,171439,1,0,0:0:0:0:
256,192,171525,1,0,0:0:0:0:
256,192,171610,1,8,0:0:0:0:
256,192,171723,1,8,0:0:0:0:
256,192,171837,1,8,0:0:0:0:
256,192,171951,1,4,0:0:0:0:
256,192,172121,1,8,0:0:0:0:
256,192,172292,1,4,0:0:0:0:
256,192,172462,1,8,0:0:0:0:
256,192,172633,1,12,0:0:0:0:
256,192,172803,1,0,0:0:0:0:
256,192,172888,1,8,0:0:0:0:
256,192,172973,1,0,0:0:0:0:
256,192,173144,1,12,0:0:0:0:
256,192,173314,1,0,0:0:0:0:
256,192,173485,1,12,0:0:0:0:
256,192,173655,1,0,0:0:0:0:
256,192,173740,1,8,0:0:0:0:
256,192,173826,1,0,0:0:0:0:
256,192,173996,1,12,0:0:0:0:
256,192,174337,1,8,0:0:0:0:
256,192,174380,1,8,0:0:0:0:
256,192,174508,1,8,0:0:0:0:
256,192,174550,1,8,0:0:0:0:
256,192,174678,5,4,0:0:0:0:
256,192,174848,1,8,0:0:0:0:
256,192,174934,1,0,0:0:0:0:
256,192,175019,1,8,0:0:0:0:
256,192,175189,1,0,0:0:0:0:
256,192,175275,1,8,0:0:0:0:
256,192,175360,1,0,0:0:0:0:
256,192,175530,1,0,0:0:0:0:
256,192,175615,1,0,0:0:0:0:
256,192,175701,1,8,0:0:0:0:
256,192,175871,1,0,0:0:0:0:
256,192,175956,1,8,0:0:0:0:
256,192,176042,1,8,0:0:0:0:
256,192,176127,1,8,0:0:0:0:
256,192,176212,1,0,0:0:0:0:
256,192,176383,1,8,0:0:0:0:
256,192,176553,1,8,0:0:0:0:
256,192,176723,1,0,0:0:0:0:
256,192,176894,1,0,0:0:0:0:
256,192,177064,1,8,0:0:0:0:
256,192,177178,1,8,0:0:0:0:
256,192,177292,1,8,0:0:0:0:
256,192,177405,1,4,0:0:0:0:
256,192,177576,1,0,0:0:0:0:
256,192,177661,1,8,0:0:0:0:
256,192,177746,1,8,0:0:0:0:
256,192,177917,1,8,0:0:0:0:
256,192,178002,1,0,0:0:0:0:
256,192,178087,1,0,0:0:0:0:
256,192,178258,1,8,0:0:0:0:
256,192,178343,1,0,0:0:0:0:
256,192,178428,1,8,0:0:0:0:
256,192,178598,1,0,0:0:0:0:
256,192,178684,1,8,0:0:0:0:
256,192,178769,1,0,0:0:0:0:
256,192,178854,1,0,0:0:0:0:
256,192,178939,1,8,0:0:0:0:
256,192,179110,1,8,0:0:0:0:
256,192,179280,1,0,0:0:0:0:
256,192,179451,1,8,0:0:0:0:
256,192,179536,1,8,0:0:0:0:
256,192,179621,1,0,0:0:0:0:
256,192,179792,1,8,0:0:0:0:
256,192,179905,1,8,0:0:0:0:
256,192,180019,1,8,0:0:0:0:
256,192,180133,1,4,0:0:0:0:
256,192,180303,1,0,0:0:0:0:
256,192,180388,1,0,0:0:0:0:
256,192,180473,1,8,0:0:0:0:
256,192,180644,1,8,0:0:0:0:
256,192,180729,1,8,0:0:0:0:
256,192,180814,1,0,0:0:0:0:
256,192,180985,1,0,0:0:0:0:
256,192,181070,1,8,0:0:0:0:
256,192,181155,1,8,0:0:0:0:
256,192,181326,1,0,0:0:0:0:
256,192,181411,1,0,0:0:0:0:
256,192,181496,1,8,0:0:0:0:
256,192,181581,1,8,0:0:0:0:
256,192,181667,1,0,0:0:0:0:
256,192,181837,1,8,0:0:0:0:
256,192,182008,1,8,0:0:0:0:
256,192,182178,1,0,0:0:0:0:
256,192,182348,1,0,0:0:0:0:
256,192,182519,1,8,0:0:0:0:
256,192,182633,1,8,0:0:0:0:
256,192,182746,1,8,0:0:0:0:
256,192,182860,1,4,0:0:0:0:
256,192,183030,1,0,0:0:0:0:
256,192,183201,1,8,0:0:0:0:
256,192,183371,1,8,0:0:0:0:
256,192,183542,1,0,0:0:0:0:
256,192,183584,1,0,0:0:0:0:
256,192,183712,1,0,0:0:0:0:
256,192,183755,1,0,0:0:0:0:
256,192,183883,1,8,0:0:0:0:
256,192,183925,1,8,0:0:0:0:
256,192,184053,1,8,0:0:0:0:
256,192,184096,1,8,0:0:0:0:
256,192,184223,1,0,0:0:0:0:
256,192,184266,1,0,0:0:0:0:
256,192,184394,1,0,0:0:0:0:
256,192,184436,1,0,0:0:0:0:
256,192,184564,1,8,0:0:0:0:
256,192,184607,1,8,0:0:0:0:
256,192,184735,1,8,0:0:0:0:
256,192,184777,1,8,0:0:0:0:
256,192,184905,1,8,0:0:0:0:
256,192,185246,1,8,0:0:0:0:
256,192,185417,1,8,0:0:0:0:
256,192,185587,5,4,0:0:0:0:
256,192,185758,1,0,0:0:0:0:
256,192,185928,1,8,0:0:0:0:
256,192,186098,1,8,0:0:0:0:
256,192,186184,1,0,0:0:0:0:
256,192,186269,1,0,0:0:0:0:
256,192,186354,1,8,0:0:0:0:
256,192,186439,1,8,0:0:0:0:
256,192,186525,1,0,0:0:0:0:
256,192,186610,1,8,0:0:0:0:
256,192,186695,1,8,0:0:0:0:
256,192,186780,1,0,0:0:0:0:
256,192,186951,1,0,0:0:0:0:
256,192,187121,1,0,0:0:0:0:
256,192,187292,1,8,0:0:0:0:
256,192,187377,1,8,0:0:0:0:
256,192,187462,1,0,0:0:0:0:
256,192,187547,1,0,0:0:0:0:
256,192,187633,1,8,0:0:0:0:
256,192,187718,1,8,0:0:0:0:
256,192,187803,1,0,0:0:0:0:
256,192,187973,1,8,0:0:0:0:
256,192,188087,1,8,0:0:0:0:
256,192,188201,1,8,0:0:0:0:
256,192,188314,1,4,0:0:0:0:
256,192,188485,1,0,0:0:0:0:
256,192,188655,1,8,0:0:0:0:
256,192,188826,1,8,0:0:0:0:
256,192,188911,1,0,0:0:0:0:
256,192,188996,1,8,0:0:0:0:
256,192,189081,1,8,0:0:0:0:
256,192,189167,1,0,0:0:0:0:
256,192,189252,1,0,0:0:0:0:
256,192,189337,1,8,0:0:0:0:
256,192,189422,1,0,0:0:0:0:
256,192,189508,1,8,0:0:0:0:
256,192,189678,1,0,0:0:0:0:
256,192,189848,1,0,0:0:0:0:
256,192,190019,1,8,0:0:0:0:
256,192,190104,1,0,0:0:0:0:
256,192,190189,1,0,0:0:0:0:
256,192,190275,1,0,0:0:0:0:
256,192,190360,1,8,0:0:0:0:
256,192,190445,1,8,0:0:0:0:
256,192,190530,1,0,0:0:0:0:
256,192,190701,1,8,0:0:0:0:
256,192,190814,1,8,0:0:0:0:
256,192,190928,1,8,0:0:0:0:
256,192,191042,1,4,0:0:0:0:
256,192,191212,1,0,0:0:0:0:
256,192,191383,1,8,0:0:0:0:
256,192,191553,1,8,0:0:0:0:
256,192,191638,1,0,0:0:0:0:
256,192,191723,1,8,0:0:0:0:
256,192,191809,1,8,0:0:0:0:
256,192,191894,1,8,0:0:0:0:
256,192,191979,1,0,0:0:0:0:
256,192,192064,1,8,0:0:0:0:
256,192,192150,1,0,0:0:0:0:
256,192,192235,1,0,0:0:0:0:
256,192,192405,1,0,0:0:0:0:
256,192,192576,1,0,0:0:0:0:
256,192,192746,1,8,0:0:0:0:
256,192,192831,1,8,0:0:0:0:
256,192,192917,1,8,0:0:0:0:
256,192,193002,1,0,0:0:0:0:
256,192,193087,1,8,0:0:0:0:
256,192,193172,1,8,0:0:0:0:
256,192,193258,1,0,0:0:0:0:
256,192,193428,1,8,0:0:0:0:
256,192,193542,1,8,0:0:0:0:
256,192,193655,1,8,0:0:0:0:
256,192,193769,1,4,0:0:0:0:
256,192,193939,1,0,0:0:0:0:
256,192,194110,1,8,0:0:0:0:
256,192,194280,1,8,0:0:0:0:
256,192,194365,1,0,0:0:0:0:
256,192,194451,1,0,0:0:0:0:
256,192,194536,1,8,0:0:0:0:
256,192,194621,1,8,0:0:0:0:
256,192,194792,1,8,0:0:0:0:
256,192,194962,1,8,0:0:0:0:
256,192,195133,1,0,0:0:0:0:
256,192,195303,1,0,0:0:0:0:
256,192,195473,1,8,0:0:0:0:
256,192,195644,1,0,0:0:0:0:
256,192,195814,1,8,0:0:0:0:
256,192,196155,1,8,0:0:0:0:
256,192,196240,1,8,0:0:0:0:
256,192,196326,1,8,0:0:0:0:
256,192,196411,1,8,0:0:0:0:
256,192,196496,5,4,0:0:0:0:
256,192,196667,1,0,0:0:0:0:
256,192,196752,1,0,0:0:0:0:
256,192,196837,1,8,0:0:0:0:
256,192,197008,1,0,0:0:0:0:
256,192,197093,1,0,0:0:0:0:
256,192,197178,1,8,0:0:0:0:
256,192,197263,1,8,0:0:0:0:
256,192,197348,1,0,0:0:0:0:
256,192,197434,1,8,0:0:0:0:
256,192,197519,1,8,0:0:0:0:
256,192,197689,1,8,0:0:0:0:
256,192,197860,1,0,0:0:0:0:
256,192,198030,1,8,0:0:0:0:
256,192,198115,1,0,0:0:0:0:
256,192,198201,1,8,0:0:0:0:
256,192,198371,1,8,0:0:0:0:
256,192,198456,1,8,0:0:0:0:
256,192,198542,1,0,0:0:0:0:
256,192,198627,1,8,0:0:0:0:
256,192,198712,1,8,0:0:0:0:
256,192,198797,1,0,0:0:0:0:
256,192,198883,1,8,0:0:0:0:
256,192,198996,1,8,0:0:0:0:
256,192,199110,1,8,0:0:0:0:
256,192,199223,1,4,0:0:0:0:
256,192,199564,1,12,0:0:0:0:
256,192,199735,1,0,0:0:0:0:
256,192,199820,1,8,0:0:0:0:
256,192,199905,1,0,0:0:0:0:
256,192,199990,1,8,0:0:0:0:
256,192,200076,1,0,0:0:0:0:
256,192,200246,1,12,0:0:0:0:
256,192,200417,1,0,0:0:0:0:
256,192,200502,1,8,0:0:0:0:
256,192,200587,1,0,0:0:0:0:
256,192,200672,1,8,0:0:0:0:
256,192,200758,1,0,0:0:0:0:
256,192,200928,1,12,0:0:0:0:
256,192,201098,1,0,0:0:0:0:
256,192,201184,1,8,0:0:0:0:
256,192,201269,1,0,0:0:0:0:
256,192,201354,1,8,0:0:0:0:
256,192,201439,1,0,0:0:0:0:
256,192,201610,1,8,0:0:0:0:
256,192,201723,1,8,0:0:0:0:
256,192,201837,1,8,0:0:0:0:
256,192,201951,1,4,0:0:0:0:
256,192,202121,1,8,0:0:0:0:
256,192,202206,1,0,0:0:0:0:
256,192,202292,1,8,0:0:0:0:
256,192,202462,1,8,0:0:0:0:
256,192,202547,1,0,0:0:0:0:
256,192,202633,1,8,0:0:0:0:
256,192,202718,1,8,0:0:0:0:
256,192,202803,1,0,0:0:0:0:
256,192,202888,1,8,0:0:0:0:
256,192,202973,1,8,0:0:0:0:
256,192,203144,1,8,0:0:0:0:
256,192,203314,1,0,0:0:0:0:
256,192,203485,1,0,0:0:0:0:
256,192,203570,1,8,0:0:0:0:
256,192,203655,1,8,0:0:0:0:
256,192,203826,1,8,0:0:0:0:
256,192,203911,1,8,0:0:0:0:
256,192,203996,1,0,0:0:0:0:
256,192,204081,1,8,0:0:0:0:
256,192,204167,1,0,0:0:0:0:
256,192,204252,1,0,0:0:0:0:
256,192,204337,1,8,0:0:0:0:
256,192,204451,1,8,0:0:0:0:
256,192,204564,1,8,0:0:0:0:
256,192,204678,1,4,0:0:0:0:
256,192,205019,1,12,0:0:0:0:
256,192,205133,1,0,0:0:0:0:
256,192,205246,1,0,0:0:0:0:
256,192,205360,1,8,0:0:0:0:
256,192,205530,1,0,0:0:0:0:
256,192,205615,1,0,0:0:0:0:
256,192,205701,1,12,0:0:0:0:
256,192,205814,1,0,0:0:0:0:
256,192,205928,1,0,0:0:0:0:
256,192,206042,1,8,0:0:0:0:
256,192,206212,1,0,0:0:0:0:
256,192,206297,1,0,0:0:0:0:
256,192,206383,1,12,0:0:0:0:
256,192,206496,1,0,0:0:0:0:
256,192,206610,1,0,0:0:0:0:
256,192,206723,1,8,0:0:0:0:
256,192,206894,1,0,0:0:0:0:
256,192,206979,1,0,0:0:0:0:
256,192,207064,1,8,0:0:0:0:
256,192,207178,1,0,0:0:0:0:
256,192,207235,1,0,0:0:0:0:
256,192,207292,1,8,0:0:0:0:
256,192,207405,1,4,0:0:0:0:
256,192,207576,1,0,0:0:0:0:
256,192,207661,1,0,0:0:0:0:
256,192,207746,1,8,0:0:0:0:
256,192,207917,1,0,0:0:0:0:
256,192,208002,1,0,0:0:0:0:
256,192,208087,1,0,0:0:0:0:
256,192,208172,1,8,0:0:0:0:
256,192,208258,1,8,0:0:0:0:
256,192,208343,1,0,0:0:0:0:
256,192,208428,1,8,0:0:0:0:
256,192,208598,1,8,0:0:0:0:
256,192,208769,1,0,0:0:0:0:
256,192,208939,1,8,0:0:0:0:
256,192,209025,1,0,0:0:0:0:
256,192,209110,1,8,0:0:0:0:
256,192,209280,1,8,0:0:0:0:
256,192,209365,1,0,0:0:0:0:
256,192,209451,1,0,0:0:0:0:
256,192,209536,1,8,0:0:0:0:
256,192,209621,1,8,0:0:0:0:
256,192,209706,1,0,0:0:0:0:
256,192,209792,1,8,0:0:0:0:
256,192,209905,1,8,0:0:0:0:
256,192,210019,1,8,0:0:0:0:
256,192,210133,1,4,0:0:0:0:
256,192,210473,1,12,0:0:0:0:
256,192,210644,1,8,0:0:0:0:
256,192,210729,1,0,0:0:0:0:
256,192,210814,1,8,0:0:0:0:
256,192,210900,1,0,0:0:0:0:
256,192,210985,1,0,0:0:0:0:
256,192,211155,1,12,0:0:0:0:
256,192,211326,1,8,0:0:0:0:
256,192,211411,1,0,0:0:0:0:
256,192,211496,1,8,0:0:0:0:
256,192,211581,1,0,0:0:0:0:
256,192,211667,1,0,0:0:0:0:
256,192,211837,1,12,0:0:0:0:
256,192,212008,1,8,0:0:0:0:
256,192,212093,1,0,0:0:0:0:
256,192,212178,1,8,0:0:0:0:
256,192,212263,1,0,0:0:0:0:
256,192,212348,1,0,0:0:0:0:
256,192,212519,1,8,0:0:0:0:
256,192,212633,1,8,0:0:0:0:
256,192,212746,1,8,0:0:0:0:
256,192,212860,1,4,0:0:0:0:
256,192,213030,1,8,0:0:0:0:
256,192,213115,1,0,0:0:0:0:
256,192,213201,1,8,0:0:0:0:
256,192,213371,1,0,0:0:0:0:
256,192,213456,1,0,0:0:0:0:
256,192,213542,1,8,0:0:0:0:
256,192,213627,1,0,0:0:0:0:
256,192,213712,1,0,0:0:0:0:
256,192,213797,1,8,0:0:0:0:
256,192,213883,1,8,0:0:0:0:
256,192,214053,1,8,0:0:0:0:
256,192,214223,1,0,0:0:0:0:
256,192,214394,1,0,0:0:0:0:
256,192,214479,1,8,0:0:0:0:
256,192,214564,1,8,0:0:0:0:
256,192,214735,1,8,0:0:0:0:
256,192,214820,1,0,0:0:0:0:
256,192,214905,1,8,0:0:0:0:
256,192,214990,1,8,0:0:0:0:
256,192,215076,1,0,0:0:0:0:
256,192,215161,1,0,0:0:0:0:
256,192,215246,1,8,0:0:0:0:
256,192,215360,1,8,0:0:0:0:
256,192,215473,1,8,0:0:0:0:
256,192,215587,1,4,0:0:0:0:
256,192,215928,1,12,0:0:0:0:
256,192,216184,1,0,0:0:0:0:
256,192,216439,1,12,0:0:0:0:
256,192,216695,1,0,0:0:0:0:
256,192,216951,1,12,0:0:0:0:
256,192,217292,1,8,0:0:0:0:
256,192,217462,1,0,0:0:0:0:
256,192,217633,1,0,0:0:0:0:
256,192,217803,1,8,0:0:0:0:
256,192,218314,5,4,0:0:0:0:
256,192,219337,1,8,0:0:0:0:
256,192,220360,1,0,0:0:0:0:
256,192,223769,1,8,0:0:0:0:
256,192,224792,1,0,0:0:0:0:
256,192,225814,1,8,0:0:0:0:
256,192,228712,1,8,0:0:0:0:
256,192,228883,1,8,0:0:0:0:
256,192,229053,1,8,0:0:0:0:
256,192,229223,1,4,0:0:0:0:
256,192,230246,1,8,0:0:0:0:
256,192,231269,1,0,0:0:0:0:
256,192,234678,1,8,0:0:0:0:
256,192,235701,1,8,0:0:0:0:
256,192,236723,1,0,0:0:0:0:
256,192,236894,12,8,238769,0:0:0:0:
