osu file format v14

[General]
AudioFilename: audio.mp3
AudioLeadIn: 0
PreviewTime: 66197
Countdown: 0
SampleSet: Normal
StackLeniency: 0.7
Mode: 1
LetterboxInBreaks: 0
WidescreenStoryboard: 1

[Editor]
Bookmarks: 55862,61379,66896,72414,77931,83448,88965,100000,144138
DistanceSpacing: 0.8
BeatDivisor: 4
GridSize: 32
TimelineZoom: 1.8

[Metadata]
Title:I'm For You (Cut Ver.)
TitleUnicode:I'm For You (Cut Ver.)
Artist:Magnetude
ArtistUnicode:Magnetude
Creator:Jonarwhal
Version:Vulkin's Oni
Source:
Tags:vulkin im mappers' guild mg mpg electronic english instrumental username105 jonawaga featured artist fa
BeatmapID:2646211
BeatmapSetID:1261647

[Difficulty]
HPDrainRate:6
CircleSize:7
OverallDifficulty:6
ApproachRate:10
SliderMultiplier:1.4
SliderTickRate:1

[Events]
//Background and Video events
0,0,"clip+(2020-09-19+at+05.16.08).jpg",0,0
//Break Periods
2,45027,52653
//Storyboard Layer 0 (Background)
//Storyboard Layer 1 (Fail)
//Storyboard Layer 2 (Pass)
//Storyboard Layer 3 (Foreground)
//Storyboard Layer 4 (Overlay)
//Storyboard Sound Samples

[TimingPoints]
690,344.827586206897,4,1,0,70,1,0
862,-100,4,1,0,20,0,0
1983,-133.333333333333,4,1,0,20,0,0
17155,-125,4,1,0,20,0,0
18534,-117.647058823529,4,1,0,20,0,0
19914,-111.111111111111,4,1,0,20,0,0
21293,-105.263157894737,4,1,0,20,0,0
22644,-100,4,1,0,70,0,0
22873,-100,4,1,0,50,0,0
23103,-100,4,1,0,20,0,0
24052,-125,4,1,0,20,0,0
25402,-100,4,1,0,60,0,0
25546,-100,4,1,0,40,0,0
25862,-100,4,1,0,20,0,0
26810,-125,4,1,0,20,0,0
28247,-100,4,1,0,70,0,0
28419,-100,4,1,0,50,0,0
28621,-100,4,1,0,20,0,0
29569,-125,4,1,0,20,0,0
30948,-100,4,1,0,40,0,0
31379,-100,4,1,0,20,0,0
32327,-125,4,1,0,20,0,0
33678,-100,4,1,0,70,0,0
33907,-100,4,1,0,50,0,0
34137,-100,4,1,0,20,0,0
35086,-125,4,1,0,20,0,0
36436,-100,4,1,0,60,0,0
36580,-100,4,1,0,40,0,0
36896,-100,4,1,0,20,0,0
37845,-125,4,1,0,20,0,0
39281,-100,4,1,0,70,0,0
39453,-100,4,1,0,50,0,0
39655,-100,4,1,0,20,0,0
40603,-125,4,1,0,20,0,0
41982,-100,4,1,0,40,0,0
42413,-100,4,1,0,20,0,0
43362,-125,4,1,0,20,0,0
44712,-100,4,1,0,70,0,0
44942,-100,4,1,0,40,0,0
46121,-153.846153846153,4,1,0,40,0,0
47500,-142.857142857143,4,1,0,40,0,0
48879,-133.333333333333,4,1,0,40,0,0
50258,-125,4,1,0,40,0,0
51638,-117.647058823529,4,1,0,40,0,0
53017,-111.111111111111,4,1,0,40,0,0
54396,-105.263157894737,4,1,0,40,0,0
55776,-100,4,1,0,80,0,0
66853,-100,4,1,0,100,0,0
66896,-100,4,1,0,100,0,1
76896,-100,4,1,0,100,0,0
77931,-100,4,1,0,100,0,1
86207,-100,4,1,0,100,0,0
86552,-100,4,1,0,100,0,1
87931,-100,4,1,0,80,0,0
110991,-100,4,1,0,100,0,0
111034,-100,4,1,0,100,0,1
121034,-100,4,1,0,100,0,0
122069,-100,4,1,0,100,0,1
130345,-100,4,1,0,100,0,0
130690,-100,4,1,0,100,0,1
132069,-100,4,1,0,80,0,0
149612,-100,4,1,0,70,0,0

[HitObjects]
256,192,17241,12,0,22414,0:0:0:0:
256,192,22758,5,4,0:0:0:0:
256,192,22988,1,8,0:0:0:0:
256,192,25517,1,8,0:0:0:0:
256,192,25575,1,0,0:0:0:0:
256,192,25632,1,0,0:0:0:0:
256,192,28276,1,8,0:0:0:0:
256,192,28333,1,0,0:0:0:0:
256,192,28448,1,8,0:0:0:0:
256,192,31034,1,0,0:0:0:0:
256,192,31207,1,0,0:0:0:0:
256,192,31293,1,8,0:0:0:0:
256,192,33793,5,4,0:0:0:0:
256,192,34023,1,8,0:0:0:0:
256,192,36552,1,8,0:0:0:0:
256,192,36610,1,0,0:0:0:0:
256,192,36667,1,0,0:0:0:0:
256,192,39311,1,8,0:0:0:0:
256,192,39368,1,0,0:0:0:0:
256,192,39483,1,8,0:0:0:0:
256,192,42069,1,0,0:0:0:0:
256,192,42242,1,0,0:0:0:0:
256,192,42328,1,8,0:0:0:0:
256,192,42758,12,0,44483,0:0:0:0:
256,192,44827,5,4,0:0:0:0:
256,192,53103,12,0,55517,0:0:0:0:
256,192,55862,5,4,0:0:0:0:
256,192,56207,1,8,0:0:0:0:
256,192,56465,1,0,0:0:0:0:
256,192,56638,1,0,0:0:0:0:
256,192,56724,1,0,0:0:0:0:
256,192,56896,1,0,0:0:0:0:
256,192,57069,1,8,0:0:0:0:
256,192,57241,1,0,0:0:0:0:
256,192,57586,1,8,0:0:0:0:
256,192,57845,1,0,0:0:0:0:
256,192,58017,1,0,0:0:0:0:
256,192,58103,1,0,0:0:0:0:
256,192,58276,1,0,0:0:0:0:
256,192,58362,1,0,0:0:0:0:
256,192,58448,1,8,0:0:0:0:
256,192,58621,1,0,0:0:0:0:
256,192,58965,1,8,0:0:0:0:
256,192,59224,1,0,0:0:0:0:
256,192,59396,1,0,0:0:0:0:
256,192,59483,1,0,0:0:0:0:
256,192,59655,1,0,0:0:0:0:
256,192,59827,1,8,0:0:0:0:
256,192,60000,1,0,0:0:0:0:
256,192,60345,1,8,0:0:0:0:
256,192,60603,1,0,0:0:0:0:
256,192,60776,1,0,0:0:0:0:
256,192,60862,1,8,0:0:0:0:
256,192,61034,1,8,0:0:0:0:
256,192,61121,1,0,0:0:0:0:
256,192,61207,1,8,0:0:0:0:
256,192,61379,1,0,0:0:0:0:
256,192,61724,1,8,0:0:0:0:
256,192,61983,1,0,0:0:0:0:
256,192,62155,1,8,0:0:0:0:
256,192,62241,1,8,0:0:0:0:
256,192,62414,1,0,0:0:0:0:
256,192,62586,1,8,0:0:0:0:
256,192,62758,1,0,0:0:0:0:
256,192,63103,1,8,0:0:0:0:
256,192,63276,1,8,0:0:0:0:
256,192,63362,1,0,0:0:0:0:
256,192,63534,1,0,0:0:0:0:
256,192,63621,1,0,0:0:0:0:
256,192,63793,1,8,0:0:0:0:
256,192,63879,1,0,0:0:0:0:
256,192,63965,1,8,0:0:0:0:
256,192,64138,1,0,0:0:0:0:
256,192,64483,1,8,0:0:0:0:
256,192,64741,1,0,0:0:0:0:
256,192,64914,1,8,0:0:0:0:
256,192,65000,1,8,0:0:0:0:
256,192,65172,1,0,0:0:0:0:
256,192,65345,1,8,0:0:0:0:
256,192,65517,1,0,0:0:0:0:
256,192,65862,1,8,0:0:0:0:
256,192,66034,1,0,0:0:0:0:
256,192,66896,1,4,0:0:0:0:
256,192,67241,1,8,0:0:0:0:
256,192,67414,1,0,0:0:0:0:
256,192,67500,1,8,0:0:0:0:
256,192,67758,1,8,0:0:0:0:
256,192,67931,1,0,0:0:0:0:
256,192,68017,1,8,0:0:0:0:
256,192,68190,1,8,0:0:0:0:
256,192,68276,1,0,0:0:0:0:
256,192,68621,1,8,0:0:0:0:
256,192,68793,1,0,0:0:0:0:
256,192,68879,1,8,0:0:0:0:
256,192,69138,1,8,0:0:0:0:
256,192,69310,1,0,0:0:0:0:
256,192,69396,1,0,0:0:0:0:
256,192,69483,1,8,0:0:0:0:
256,192,69655,1,0,0:0:0:0:
256,192,70000,1,8,0:0:0:0:
256,192,70172,1,8,0:0:0:0:
256,192,70258,1,0,0:0:0:0:
256,192,70517,1,8,0:0:0:0:
256,192,70690,1,8,0:0:0:0:
256,192,70776,1,0,0:0:0:0:
256,192,70948,1,0,0:0:0:0:
256,192,71034,1,0,0:0:0:0:
256,192,71379,1,8,0:0:0:0:
256,192,71552,1,0,0:0:0:0:
256,192,71638,1,0,0:0:0:0:
256,192,71810,1,8,0:0:0:0:
256,192,71896,1,0,0:0:0:0:
256,192,72069,1,8,0:0:0:0:
256,192,72155,1,0,0:0:0:0:
256,192,72241,1,0,0:0:0:0:
256,192,72414,1,4,0:0:0:0:
256,192,72758,1,8,0:0:0:0:
256,192,72931,1,0,0:0:0:0:
256,192,73017,1,0,0:0:0:0:
256,192,73103,1,0,0:0:0:0:
256,192,73276,1,0,0:0:0:0:
256,192,73448,1,8,0:0:0:0:
256,192,73621,1,0,0:0:0:0:
256,192,73707,1,8,0:0:0:0:
256,192,73793,1,0,0:0:0:0:
256,192,73965,1,0,0:0:0:0:
256,192,74138,1,8,0:0:0:0:
256,192,74310,1,8,0:0:0:0:
256,192,74396,1,8,0:0:0:0:
256,192,74483,1,0,0:0:0:0:
256,192,74655,1,0,0:0:0:0:
256,192,74827,1,8,0:0:0:0:
256,192,75172,1,0,0:0:0:0:
256,192,75517,1,8,0:0:0:0:
256,192,75690,1,0,0:0:0:0:
256,192,75776,1,0,0:0:0:0:
256,192,75862,1,0,0:0:0:0:
256,192,76034,1,0,0:0:0:0:
256,192,76207,1,8,0:0:0:0:
256,192,76379,1,0,0:0:0:0:
256,192,76465,1,8,0:0:0:0:
256,192,76552,1,0,0:0:0:0:
256,192,76724,1,0,0:0:0:0:
256,192,76896,1,8,0:0:0:0:
256,192,77155,1,8,0:0:0:0:
256,192,77414,1,8,0:0:0:0:
256,192,77672,1,8,0:0:0:0:
256,192,77931,1,4,0:0:0:0:
256,192,78276,1,8,0:0:0:0:
256,192,78449,1,0,0:0:0:0:
256,192,78535,1,8,0:0:0:0:
256,192,78793,1,8,0:0:0:0:
256,192,78966,1,0,0:0:0:0:
256,192,79052,1,8,0:0:0:0:
256,192,79225,1,8,0:0:0:0:
256,192,79311,1,0,0:0:0:0:
256,192,79656,1,8,0:0:0:0:
256,192,79828,1,0,0:0:0:0:
256,192,79914,1,8,0:0:0:0:
256,192,80173,1,8,0:0:0:0:
256,192,80345,1,0,0:0:0:0:
256,192,80431,1,0,0:0:0:0:
256,192,80518,1,8,0:0:0:0:
256,192,80690,1,0,0:0:0:0:
256,192,81035,1,8,0:0:0:0:
256,192,81207,1,8,0:0:0:0:
256,192,81293,1,0,0:0:0:0:
256,192,81552,1,8,0:0:0:0:
256,192,81725,1,8,0:0:0:0:
256,192,81811,1,0,0:0:0:0:
256,192,81983,1,0,0:0:0:0:
256,192,82069,1,0,0:0:0:0:
256,192,82414,1,8,0:0:0:0:
256,192,82587,1,0,0:0:0:0:
256,192,82673,1,0,0:0:0:0:
256,192,82845,1,8,0:0:0:0:
256,192,82931,1,0,0:0:0:0:
256,192,83017,1,0,0:0:0:0:
256,192,83104,1,8,0:0:0:0:
256,192,83276,1,0,0:0:0:0:
256,192,83449,1,4,0:0:0:0:
256,192,83793,1,8,0:0:0:0:
256,192,83966,1,8,0:0:0:0:
256,192,84052,1,8,0:0:0:0:
256,192,84138,1,0,0:0:0:0:
256,192,84311,1,0,0:0:0:0:
256,192,84483,1,8,0:0:0:0:
256,192,84656,1,0,0:0:0:0:
256,192,84742,1,8,0:0:0:0:
256,192,84828,1,0,0:0:0:0:
256,192,85000,1,0,0:0:0:0:
256,192,85173,1,8,0:0:0:0:
256,192,85345,1,0,0:0:0:0:
256,192,85431,1,0,0:0:0:0:
256,192,85518,1,0,0:0:0:0:
256,192,85690,1,0,0:0:0:0:
256,192,85862,1,8,0:0:0:0:
256,192,86207,1,0,0:0:0:0:
256,192,86552,1,8,0:0:0:0:
256,192,86725,1,0,0:0:0:0:
256,192,86811,1,8,0:0:0:0:
256,192,86897,1,0,0:0:0:0:
256,192,87069,1,0,0:0:0:0:
256,192,87242,1,8,0:0:0:0:
256,192,87414,1,8,0:0:0:0:
256,192,87500,1,8,0:0:0:0:
256,192,87587,1,0,0:0:0:0:
256,192,87931,12,0,88621,0:0:0:0:
256,192,88966,5,4,0:0:0:0:
256,192,89310,1,8,0:0:0:0:
256,192,89396,1,8,0:0:0:0:
256,192,89483,1,0,0:0:0:0:
256,192,89655,1,0,0:0:0:0:
256,192,89827,1,0,0:0:0:0:
256,192,90000,1,8,0:0:0:0:
256,192,90086,1,0,0:0:0:0:
256,192,90172,1,0,0:0:0:0:
256,192,90345,1,0,0:0:0:0:
256,192,90517,1,0,0:0:0:0:
256,192,90690,1,8,0:0:0:0:
256,192,90776,1,8,0:0:0:0:
256,192,90862,1,0,0:0:0:0:
256,192,90948,1,0,0:0:0:0:
256,192,91034,1,8,0:0:0:0:
256,192,91207,1,0,0:0:0:0:
256,192,91379,1,8,0:0:0:0:
256,192,91552,1,0,0:0:0:0:
256,192,91638,1,8,0:0:0:0:
256,192,91724,1,0,0:0:0:0:
256,192,92069,1,8,0:0:0:0:
256,192,92241,1,0,0:0:0:0:
256,192,92327,1,8,0:0:0:0:
256,192,92586,1,0,0:0:0:0:
256,192,92758,1,8,0:0:0:0:
256,192,92931,1,8,0:0:0:0:
256,192,93017,1,0,0:0:0:0:
256,192,93276,1,0,0:0:0:0:
256,192,93448,1,8,0:0:0:0:
256,192,93621,1,0,0:0:0:0:
256,192,93707,1,8,0:0:0:0:
256,192,93879,1,8,0:0:0:0:
256,192,93965,1,0,0:0:0:0:
256,192,94138,1,8,0:0:0:0:
256,192,94483,1,0,0:0:0:0:
256,192,94827,1,8,0:0:0:0:
256,192,94914,1,8,0:0:0:0:
256,192,95000,1,0,0:0:0:0:
256,192,95172,1,0,0:0:0:0:
256,192,95345,1,0,0:0:0:0:
256,192,95517,1,8,0:0:0:0:
256,192,95603,1,0,0:0:0:0:
256,192,95690,1,0,0:0:0:0:
256,192,95862,1,0,0:0:0:0:
256,192,96034,1,0,0:0:0:0:
256,192,96207,1,8,0:0:0:0:
256,192,96293,1,8,0:0:0:0:
256,192,96379,1,0,0:0:0:0:
256,192,96465,1,0,0:0:0:0:
256,192,96552,1,8,0:0:0:0:
256,192,96724,1,0,0:0:0:0:
256,192,96896,1,8,0:0:0:0:
256,192,96983,1,8,0:0:0:0:
256,192,97069,1,0,0:0:0:0:
256,192,97155,1,8,0:0:0:0:
256,192,97241,1,0,0:0:0:0:
256,192,97586,1,8,0:0:0:0:
256,192,97758,1,0,0:0:0:0:
256,192,97845,1,8,0:0:0:0:
256,192,97931,1,0,0:0:0:0:
256,192,98103,1,0,0:0:0:0:
256,192,98276,1,8,0:0:0:0:
256,192,98448,1,8,0:0:0:0:
256,192,98534,1,0,0:0:0:0:
256,192,98621,1,0,0:0:0:0:
256,192,98965,1,8,0:0:0:0:
256,192,99224,1,8,0:0:0:0:
256,192,99310,1,0,0:0:0:0:
256,192,99655,2,0,L|256:96,1,70
256,192,100000,5,4,0:0:0:0:
256,192,100345,1,8,0:0:0:0:
256,192,100431,1,8,0:0:0:0:
256,192,100518,1,0,0:0:0:0:
256,192,100690,1,0,0:0:0:0:
256,192,100862,1,0,0:0:0:0:
256,192,101035,1,8,0:0:0:0:
256,192,101121,1,0,0:0:0:0:
256,192,101207,1,0,0:0:0:0:
256,192,101380,1,0,0:0:0:0:
256,192,101552,1,0,0:0:0:0:
256,192,101725,1,8,0:0:0:0:
256,192,101811,1,8,0:0:0:0:
256,192,101897,1,0,0:0:0:0:
256,192,101983,1,0,0:0:0:0:
256,192,102069,1,8,0:0:0:0:
256,192,102242,1,0,0:0:0:0:
256,192,102414,1,8,0:0:0:0:
256,192,102587,1,0,0:0:0:0:
256,192,102673,1,8,0:0:0:0:
256,192,102759,1,0,0:0:0:0:
256,192,103104,1,8,0:0:0:0:
256,192,103276,1,0,0:0:0:0:
256,192,103362,1,8,0:0:0:0:
256,192,103621,1,8,0:0:0:0:
256,192,103793,1,0,0:0:0:0:
256,192,103966,1,8,0:0:0:0:
256,192,104052,1,0,0:0:0:0:
256,192,104311,1,0,0:0:0:0:
256,192,104483,1,8,0:0:0:0:
256,192,104656,1,0,0:0:0:0:
256,192,104742,1,8,0:0:0:0:
256,192,104914,1,8,0:0:0:0:
256,192,105000,1,0,0:0:0:0:
256,192,105173,1,8,0:0:0:0:
256,192,105518,1,0,0:0:0:0:
256,192,105862,1,8,0:0:0:0:
256,192,105949,1,8,0:0:0:0:
256,192,106035,1,0,0:0:0:0:
256,192,106207,1,0,0:0:0:0:
256,192,106380,1,0,0:0:0:0:
256,192,106552,1,8,0:0:0:0:
256,192,106638,1,0,0:0:0:0:
256,192,106725,1,0,0:0:0:0:
256,192,106897,1,0,0:0:0:0:
256,192,107069,1,0,0:0:0:0:
256,192,107242,1,8,0:0:0:0:
256,192,107328,1,8,0:0:0:0:
256,192,107414,1,0,0:0:0:0:
256,192,107500,1,0,0:0:0:0:
256,192,107587,1,8,0:0:0:0:
256,192,107759,1,0,0:0:0:0:
256,192,107931,1,8,0:0:0:0:
256,192,108018,1,8,0:0:0:0:
256,192,108104,1,0,0:0:0:0:
256,192,108190,1,8,0:0:0:0:
256,192,108276,1,0,0:0:0:0:
256,192,108621,1,8,0:0:0:0:
256,192,108793,1,0,0:0:0:0:
256,192,108880,1,8,0:0:0:0:
256,192,108966,1,0,0:0:0:0:
256,192,109138,1,0,0:0:0:0:
256,192,109311,1,8,0:0:0:0:
256,192,109483,1,8,0:0:0:0:
256,192,109569,1,0,0:0:0:0:
256,192,109656,1,0,0:0:0:0:
256,192,110000,2,0,L|256:352,2,140
256,192,111035,5,4,0:0:0:0:
256,192,111379,1,8,0:0:0:0:
256,192,111552,1,0,0:0:0:0:
256,192,111638,1,8,0:0:0:0:
256,192,111896,1,8,0:0:0:0:
256,192,112069,1,0,0:0:0:0:
256,192,112155,1,8,0:0:0:0:
256,192,112328,1,8,0:0:0:0:
256,192,112414,1,0,0:0:0:0:
256,192,112759,1,8,0:0:0:0:
256,192,112931,1,0,0:0:0:0:
256,192,113017,1,8,0:0:0:0:
256,192,113276,1,8,0:0:0:0:
256,192,113448,1,0,0:0:0:0:
256,192,113534,1,0,0:0:0:0:
256,192,113621,1,8,0:0:0:0:
256,192,113793,1,0,0:0:0:0:
256,192,114138,1,8,0:0:0:0:
256,192,114310,1,8,0:0:0:0:
256,192,114396,1,0,0:0:0:0:
256,192,114655,1,8,0:0:0:0:
256,192,114828,1,8,0:0:0:0:
256,192,114914,1,0,0:0:0:0:
256,192,115086,1,0,0:0:0:0:
256,192,115172,1,0,0:0:0:0:
256,192,115517,1,8,0:0:0:0:
256,192,115690,1,0,0:0:0:0:
256,192,115776,1,0,0:0:0:0:
256,192,115948,1,8,0:0:0:0:
256,192,116034,1,0,0:0:0:0:
256,192,116207,1,0,0:0:0:0:
256,192,116293,1,8,0:0:0:0:
256,192,116379,1,8,0:0:0:0:
256,192,116552,1,4,0:0:0:0:
256,192,116896,1,8,0:0:0:0:
256,192,117069,1,0,0:0:0:0:
256,192,117155,1,0,0:0:0:0:
256,192,117241,1,0,0:0:0:0:
256,192,117414,1,0,0:0:0:0:
256,192,117586,1,8,0:0:0:0:
256,192,117759,1,0,0:0:0:0:
256,192,117845,1,8,0:0:0:0:
256,192,117931,1,0,0:0:0:0:
256,192,118103,1,0,0:0:0:0:
256,192,118276,1,8,0:0:0:0:
256,192,118448,1,8,0:0:0:0:
256,192,118534,1,8,0:0:0:0:
256,192,118621,1,0,0:0:0:0:
256,192,118793,1,0,0:0:0:0:
256,192,118965,1,8,0:0:0:0:
256,192,119310,1,0,0:0:0:0:
256,192,119655,1,8,0:0:0:0:
256,192,119828,1,0,0:0:0:0:
256,192,119914,1,0,0:0:0:0:
256,192,120000,1,0,0:0:0:0:
256,192,120172,1,0,0:0:0:0:
256,192,120345,1,8,0:0:0:0:
256,192,120517,1,0,0:0:0:0:
256,192,120603,1,8,0:0:0:0:
256,192,120690,1,0,0:0:0:0:
256,192,120862,1,0,0:0:0:0:
256,192,121034,1,8,0:0:0:0:
256,192,121293,1,8,0:0:0:0:
256,192,121552,1,8,0:0:0:0:
256,192,121810,1,8,0:0:0:0:
256,192,122069,1,4,0:0:0:0:
256,192,122414,1,8,0:0:0:0:
256,192,122587,1,0,0:0:0:0:
256,192,122673,1,8,0:0:0:0:
256,192,122931,1,8,0:0:0:0:
256,192,123104,1,0,0:0:0:0:
256,192,123190,1,8,0:0:0:0:
256,192,123363,1,8,0:0:0:0:
256,192,123449,1,0,0:0:0:0:
256,192,123794,1,8,0:0:0:0:
256,192,123966,1,0,0:0:0:0:
256,192,124052,1,8,0:0:0:0:
256,192,124311,1,8,0:0:0:0:
256,192,124483,1,0,0:0:0:0:
256,192,124569,1,0,0:0:0:0:
256,192,124656,1,8,0:0:0:0:
256,192,124828,1,0,0:0:0:0:
256,192,125173,1,8,0:0:0:0:
256,192,125345,1,8,0:0:0:0:
256,192,125431,1,0,0:0:0:0:
256,192,125690,1,8,0:0:0:0:
256,192,125863,1,8,0:0:0:0:
256,192,125949,1,0,0:0:0:0:
256,192,126121,1,0,0:0:0:0:
256,192,126207,1,0,0:0:0:0:
256,192,126552,1,8,0:0:0:0:
256,192,126725,1,0,0:0:0:0:
256,192,126811,1,0,0:0:0:0:
256,192,126983,1,8,0:0:0:0:
256,192,127069,1,0,0:0:0:0:
256,192,127242,1,8,0:0:0:0:
256,192,127327,1,0,0:0:0:0:
256,192,127414,1,0,0:0:0:0:
256,192,127587,1,4,0:0:0:0:
256,192,127931,1,8,0:0:0:0:
256,192,128104,1,8,0:0:0:0:
256,192,128190,1,8,0:0:0:0:
256,192,128276,1,0,0:0:0:0:
256,192,128449,1,0,0:0:0:0:
256,192,128621,1,8,0:0:0:0:
256,192,128794,1,0,0:0:0:0:
256,192,128880,1,8,0:0:0:0:
256,192,128966,1,0,0:0:0:0:
256,192,129138,1,0,0:0:0:0:
256,192,129311,1,8,0:0:0:0:
256,192,129483,1,0,0:0:0:0:
256,192,129569,1,0,0:0:0:0:
256,192,129656,1,0,0:0:0:0:
256,192,129828,1,0,0:0:0:0:
256,192,130000,1,8,0:0:0:0:
256,192,130345,1,0,0:0:0:0:
256,192,130690,1,8,0:0:0:0:
256,192,130863,1,0,0:0:0:0:
256,192,130949,1,8,0:0:0:0:
256,192,131035,1,0,0:0:0:0:
256,192,131207,1,0,0:0:0:0:
256,192,131380,1,8,0:0:0:0:
256,192,131552,1,8,0:0:0:0:
256,192,131638,1,8,0:0:0:0:
256,192,131725,1,0,0:0:0:0:
256,192,131896,1,0,0:0:0:0:
256,192,132069,1,8,0:0:0:0:
256,192,132241,12,0,132931,0:0:0:0:
256,192,133103,5,4,0:0:0:0:
256,192,133448,1,8,0:0:0:0:
256,192,133621,1,8,0:0:0:0:
256,192,133707,1,0,0:0:0:0:
256,192,133879,1,0,0:0:0:0:
256,192,133965,1,0,0:0:0:0:
256,192,134138,1,8,0:0:0:0:
256,192,134310,1,0,0:0:0:0:
256,192,134396,1,8,0:0:0:0:
256,192,134483,1,0,0:0:0:0:
256,192,134655,1,0,0:0:0:0:
256,192,134827,1,8,0:0:0:0:
256,192,135000,1,8,0:0:0:0:
256,192,135086,1,0,0:0:0:0:
256,192,135258,1,0,0:0:0:0:
256,192,135345,1,0,0:0:0:0:
256,192,135517,1,8,0:0:0:0:
256,192,135862,1,0,0:0:0:0:
256,192,136207,1,8,0:0:0:0:
256,192,136379,1,0,0:0:0:0:
256,192,136465,1,0,0:0:0:0:
256,192,136724,1,0,0:0:0:0:
256,192,136896,1,8,0:0:0:0:
256,192,137069,1,0,0:0:0:0:
256,192,137155,1,8,0:0:0:0:
256,192,137241,1,0,0:0:0:0:
256,192,137586,1,8,0:0:0:0:
256,192,137758,1,8,0:0:0:0:
256,192,137845,1,8,0:0:0:0:
256,192,138103,1,0,0:0:0:0:
256,192,138276,1,8,0:0:0:0:
256,192,138362,1,8,0:0:0:0:
256,192,138534,1,8,0:0:0:0:
256,192,138621,1,0,0:0:0:0:
256,192,138965,1,8,0:0:0:0:
256,192,139138,1,8,0:0:0:0:
256,192,139224,1,0,0:0:0:0:
256,192,139396,1,0,0:0:0:0:
256,192,139482,1,0,0:0:0:0:
256,192,139655,1,8,0:0:0:0:
256,192,139827,1,0,0:0:0:0:
256,192,139913,1,8,0:0:0:0:
256,192,140000,1,0,0:0:0:0:
256,192,140172,1,0,0:0:0:0:
256,192,140344,1,8,0:0:0:0:
256,192,140517,1,8,0:0:0:0:
256,192,140603,1,0,0:0:0:0:
256,192,140775,1,0,0:0:0:0:
256,192,140862,1,0,0:0:0:0:
256,192,141034,1,8,0:0:0:0:
256,192,141379,1,0,0:0:0:0:
256,192,141724,1,8,0:0:0:0:
256,192,141896,1,0,0:0:0:0:
256,192,141983,1,0,0:0:0:0:
256,192,142241,1,0,0:0:0:0:
256,192,142414,1,8,0:0:0:0:
256,192,142586,1,0,0:0:0:0:
256,192,142672,1,8,0:0:0:0:
256,192,142758,1,0,0:0:0:0:
256,192,142931,1,0,0:0:0:0:
256,192,143103,1,8,0:0:0:0:
256,192,143276,1,0,0:0:0:0:
256,192,143362,1,8,0:0:0:0:
256,192,143621,1,0,0:0:0:0:
256,192,143793,1,8,0:0:0:0:
256,192,143879,1,8,0:0:0:0:
256,192,144052,1,8,0:0:0:0:
256,192,144138,1,0,0:0:0:0:
256,192,144483,1,8,0:0:0:0:
256,192,144656,1,8,0:0:0:0:
256,192,144742,1,0,0:0:0:0:
256,192,144914,1,0,0:0:0:0:
256,192,145000,1,0,0:0:0:0:
256,192,145173,1,8,0:0:0:0:
256,192,145345,1,0,0:0:0:0:
256,192,145431,1,8,0:0:0:0:
256,192,145518,1,0,0:0:0:0:
256,192,145690,1,0,0:0:0:0:
256,192,145862,1,8,0:0:0:0:
256,192,146035,1,8,0:0:0:0:
256,192,146121,1,0,0:0:0:0:
256,192,146293,1,0,0:0:0:0:
256,192,146380,1,0,0:0:0:0:
256,192,146552,1,8,0:0:0:0:
256,192,146897,1,0,0:0:0:0:
256,192,147242,1,8,0:0:0:0:
256,192,147414,1,0,0:0:0:0:
256,192,147500,1,0,0:0:0:0:
256,192,147759,1,0,0:0:0:0:
256,192,147931,1,8,0:0:0:0:
256,192,148104,1,0,0:0:0:0:
256,192,148190,1,8,0:0:0:0:
256,192,148276,1,0,0:0:0:0:
256,192,148621,1,8,0:0:0:0:
256,192,148793,1,8,0:0:0:0:
256,192,148880,1,8,0:0:0:0:
256,192,149138,1,0,0:0:0:0:
256,192,149311,1,8,0:0:0:0:
256,192,149397,1,8,0:0:0:0:
256,192,149569,1,8,0:0:0:0:
256,192,149656,1,0,0:0:0:0:
256,192,150000,1,8,0:0:0:0:
256,192,150173,1,8,0:0:0:0:
256,192,150259,1,0,0:0:0:0:
256,192,150431,1,0,0:0:0:0:
256,192,150517,1,0,0:0:0:0:
256,192,150690,1,8,0:0:0:0:
256,192,151035,1,0,0:0:0:0:
256,192,151207,1,0,0:0:0:0:
256,192,151379,1,8,0:0:0:0:
256,192,151552,1,8,0:0:0:0:
256,192,151638,1,0,0:0:0:0:
256,192,151810,1,0,0:0:0:0:
256,192,151897,1,0,0:0:0:0:
256,192,152069,1,8,0:0:0:0:
256,192,152414,1,0,0:0:0:0:
256,192,152759,1,8,0:0:0:0:
256,192,152931,1,0,0:0:0:0:
256,192,153018,1,0,0:0:0:0:
256,192,153276,1,0,0:0:0:0:
256,192,153449,1,8,0:0:0:0:
256,192,153621,1,0,0:0:0:0:
256,192,153707,1,8,0:0:0:0:
256,192,153793,1,0,0:0:0:0:
256,192,154138,1,8,0:0:0:0:
256,192,154311,1,0,0:0:0:0:
256,192,154397,1,8,0:0:0:0:
256,192,154656,1,0,0:0:0:0:
256,192,154828,1,8,0:0:0:0:
256,192,155173,1,0,0:0:0:0:
