osu file format v14

[General]
AudioFilename: audio.mp3
AudioLeadIn: 0
PreviewTime: 66197
Countdown: 0
SampleSet: Normal
StackLeniency: 0.7
Mode: 1
LetterboxInBreaks: 0
WidescreenStoryboard: 1

[Editor]
Bookmarks: 55852,60560,65690,72629,75388,83664,88534,93707,99698,104784,110560,116853,119655,127974,132500,137758,143405,148879,155162
DistanceSpacing: 0.8
BeatDivisor: 4
GridSize: 16
TimelineZoom: 1.8

[Metadata]
Title:I'm For You (Cut Ver.)
TitleUnicode:I'm For You (Cut Ver.)
Artist:Magnetude
ArtistUnicode:Magnetude
Creator:Jonarwhal
Version:Muzukashii
Source:
Tags:vulkin im mappers' guild mg mpg electronic english instrumental username105 jonawaga featured artist fa
BeatmapID:2622521
BeatmapSetID:1261647

[Difficulty]
HPDrainRate:6
CircleSize:5
OverallDifficulty:5
ApproachRate:5
SliderMultiplier:1.4
SliderTickRate:1

[Events]
//Background and Video events
0,0,"clip+(2020-09-19+at+05.16.08).jpg",0,0
//Break Periods
//Storyboard Layer 0 (Background)
//Storyboard Layer 1 (Fail)
//Storyboard Layer 2 (Pass)
//Storyboard Layer 3 (Foreground)
//Storyboard Layer 4 (Overlay)
//Storyboard Sound Samples

[TimingPoints]
690,344.827586206897,4,1,0,40,1,0
22672,-100,4,1,0,70,0,0
22845,-100,4,1,0,20,0,0
25431,-100,4,1,0,35,0,0
25862,-100,4,1,0,20,0,0
28190,-100,4,1,0,70,0,0
28362,-100,4,1,0,25,0,0
30948,-100,4,1,0,40,0,0
31379,-100,4,1,0,25,0,0
33707,-100,4,1,0,70,0,0
33879,-100,4,1,0,30,0,0
36465,-100,4,1,0,45,0,0
36896,-100,4,1,0,30,0,0
39224,-100,4,1,0,70,0,0
39396,-100,4,1,0,35,0,0
41983,-100,4,1,0,50,0,0
42414,-100,4,1,0,35,0,0
44741,-100,4,1,0,80,0,0
44913,-100,4,1,0,40,0,0
55776,-100,4,1,0,80,0,0
66853,-100,4,1,0,100,0,0
66896,-100,4,1,0,100,0,1
76896,-100,4,1,0,100,0,0
77931,-100,4,1,0,100,0,1
86207,-100,4,1,0,100,0,0
86552,-100,4,1,0,100,0,1
87931,-100,4,1,0,80,0,0
110991,-100,4,1,0,100,0,0
111034,-100,4,1,0,100,0,1
121034,-100,4,1,0,100,0,0
122069,-100,4,1,0,100,0,1
130345,-100,4,1,0,100,0,0
130690,-100,4,1,0,100,0,1
132069,-100,4,1,0,80,0,0
149612,-100,4,1,0,70,0,0

[HitObjects]
256,192,17241,12,0,22414,0:0:0:0:
256,192,22758,5,0,0:0:0:0:
256,192,25517,1,0,0:0:0:0:
256,192,28276,1,0,0:0:0:0:
256,192,31034,1,0,0:0:0:0:
256,192,33793,1,0,0:0:0:0:
256,192,36552,1,0,0:0:0:0:
256,192,39310,1,0,0:0:0:0:
256,192,42069,1,0,0:0:0:0:
256,192,42414,12,0,44655,0:0:0:0:
256,192,44827,5,0,0:0:0:0:
256,192,47069,1,0,0:0:0:0:
256,192,47586,1,0,0:0:0:0:
256,192,48621,1,0,0:0:0:0:
256,192,49655,1,0,0:0:0:0:
256,192,50345,1,0,0:0:0:0:
256,192,52758,1,0,0:0:0:0:
256,192,53103,1,0,0:0:0:0:
256,192,53448,1,0,0:0:0:0:
256,192,53965,1,0,0:0:0:0:
256,192,54138,1,0,0:0:0:0:
256,192,54827,1,0,0:0:0:0:
256,192,55345,1,0,0:0:0:0:
256,192,55517,1,0,0:0:0:0:
256,192,55862,1,4,0:0:0:0:
256,192,56207,1,8,0:0:0:0:
256,192,56552,1,0,0:0:0:0:
256,192,56724,1,0,0:0:0:0:
256,192,56896,1,8,0:0:0:0:
256,192,57069,1,8,0:0:0:0:
256,192,57241,1,0,0:0:0:0:
256,192,57586,1,8,0:0:0:0:
256,192,57931,1,0,0:0:0:0:
256,192,58103,1,0,0:0:0:0:
256,192,58276,1,8,0:0:0:0:
256,192,58621,1,0,0:0:0:0:
256,192,58965,1,8,0:0:0:0:
256,192,59310,1,0,0:0:0:0:
256,192,59483,1,8,0:0:0:0:
256,192,59655,1,0,0:0:0:0:
256,192,59827,1,8,0:0:0:0:
256,192,60000,1,0,0:0:0:0:
256,192,60345,1,8,0:0:0:0:
256,192,60862,1,0,0:0:0:0:
256,192,61034,1,8,0:0:0:0:
256,192,61207,1,8,0:0:0:0:
256,192,61379,1,0,0:0:0:0:
256,192,61724,1,8,0:0:0:0:
256,192,62069,1,0,0:0:0:0:
256,192,62241,1,0,0:0:0:0:
256,192,62414,1,8,0:0:0:0:
256,192,62586,1,8,0:0:0:0:
256,192,62758,1,0,0:0:0:0:
256,192,63103,1,8,0:0:0:0:
256,192,63448,1,0,0:0:0:0:
256,192,63621,1,0,0:0:0:0:
256,192,63793,1,8,0:0:0:0:
256,192,64138,1,0,0:0:0:0:
256,192,64483,1,8,0:0:0:0:
256,192,64827,1,0,0:0:0:0:
256,192,65000,1,0,0:0:0:0:
256,192,65172,1,0,0:0:0:0:
256,192,65345,1,8,0:0:0:0:
256,192,65517,1,0,0:0:0:0:
256,192,66207,1,8,0:0:0:0:
256,192,66552,1,0,0:0:0:0:
256,192,66896,1,4,0:0:0:0:
256,192,67241,1,8,0:0:0:0:
256,192,67500,1,8,0:0:0:0:
256,192,67758,1,8,0:0:0:0:
256,192,68017,1,0,0:0:0:0:
256,192,68276,1,4,0:0:0:0:
256,192,68621,1,0,0:0:0:0:
256,192,68879,1,8,0:0:0:0:
256,192,69138,1,8,0:0:0:0:
256,192,69396,1,0,0:0:0:0:
256,192,69655,1,12,0:0:0:0:
256,192,70000,1,8,0:0:0:0:
256,192,70258,1,8,0:0:0:0:
256,192,70517,1,0,0:0:0:0:
256,192,70776,1,8,0:0:0:0:
256,192,71034,1,4,0:0:0:0:
256,192,71379,1,8,0:0:0:0:
256,192,71638,1,8,0:0:0:0:
256,192,71896,1,8,0:0:0:0:
256,192,72069,1,0,0:0:0:0:
256,192,72155,1,0,0:0:0:0:
256,192,72241,1,0,0:0:0:0:
256,192,72414,1,12,0:0:0:0:
256,192,72931,1,0,0:0:0:0:
256,192,73017,1,0,0:0:0:0:
256,192,73103,1,0,0:0:0:0:
256,192,73276,1,0,0:0:0:0:
256,192,73448,1,8,0:0:0:0:
256,192,73793,1,0,0:0:0:0:
256,192,73965,1,0,0:0:0:0:
256,192,74138,1,8,0:0:0:0:
256,192,74224,1,8,0:0:0:0:
256,192,74310,1,8,0:0:0:0:
256,192,74483,1,0,0:0:0:0:
256,192,74655,1,0,0:0:0:0:
256,192,74827,1,8,0:0:0:0:
256,192,75172,1,8,0:0:0:0:
256,192,75690,1,0,0:0:0:0:
256,192,75776,1,0,0:0:0:0:
256,192,75862,1,0,0:0:0:0:
256,192,76034,1,0,0:0:0:0:
256,192,76207,1,8,0:0:0:0:
256,192,76552,1,0,0:0:0:0:
256,192,76896,1,8,0:0:0:0:
256,192,77155,1,8,0:0:0:0:
256,192,77414,1,8,0:0:0:0:
256,192,77672,1,8,0:0:0:0:
256,192,77931,1,4,0:0:0:0:
256,192,78276,1,8,0:0:0:0:
256,192,78534,1,8,0:0:0:0:
256,192,78793,1,8,0:0:0:0:
256,192,79052,1,0,0:0:0:0:
256,192,79310,1,4,0:0:0:0:
256,192,79655,1,0,0:0:0:0:
256,192,79914,1,8,0:0:0:0:
256,192,80172,1,8,0:0:0:0:
256,192,80431,1,0,0:0:0:0:
256,192,80690,1,12,0:0:0:0:
256,192,81034,1,8,0:0:0:0:
256,192,81293,1,8,0:0:0:0:
256,192,81552,1,0,0:0:0:0:
256,192,81810,1,8,0:0:0:0:
256,192,82069,1,4,0:0:0:0:
256,192,82414,1,8,0:0:0:0:
256,192,82672,1,8,0:0:0:0:
256,192,82931,1,0,0:0:0:0:
256,192,83017,1,0,0:0:0:0:
256,192,83103,1,0,0:0:0:0:
256,192,83276,1,0,0:0:0:0:
256,192,83448,1,12,0:0:0:0:
256,192,83965,1,0,0:0:0:0:
256,192,84052,1,0,0:0:0:0:
256,192,84138,1,0,0:0:0:0:
256,192,84310,1,0,0:0:0:0:
256,192,84483,1,8,0:0:0:0:
256,192,84827,1,0,0:0:0:0:
256,192,85000,1,0,0:0:0:0:
256,192,85172,1,8,0:0:0:0:
256,192,85258,1,8,0:0:0:0:
256,192,85345,1,8,0:0:0:0:
256,192,85517,1,0,0:0:0:0:
256,192,85690,1,8,0:0:0:0:
256,192,85862,1,8,0:0:0:0:
256,192,86207,1,0,0:0:0:0:
256,192,86552,1,8,0:0:0:0:
256,192,86724,1,0,0:0:0:0:
256,192,86810,1,0,0:0:0:0:
256,192,86896,1,0,0:0:0:0:
256,192,87069,1,0,0:0:0:0:
256,192,87241,1,8,0:0:0:0:
256,192,87586,1,0,0:0:0:0:
256,192,87931,1,8,0:0:0:0:
256,192,88965,1,4,0:0:0:0:
256,192,89310,1,8,0:0:0:0:
256,192,89483,1,0,0:0:0:0:
256,192,89569,1,0,0:0:0:0:
256,192,89655,1,0,0:0:0:0:
256,192,89827,1,0,0:0:0:0:
256,192,90000,1,8,0:0:0:0:
256,192,90172,1,8,0:0:0:0:
256,192,90345,1,0,0:0:0:0:
256,192,90690,1,8,0:0:0:0:
256,192,90862,1,0,0:0:0:0:
256,192,91034,1,0,0:0:0:0:
256,192,91207,1,8,0:0:0:0:
256,192,91293,1,8,0:0:0:0:
256,192,91379,1,8,0:0:0:0:
256,192,91724,1,0,0:0:0:0:
256,192,92069,1,8,0:0:0:0:
256,192,92327,1,8,0:0:0:0:
256,192,92586,1,8,0:0:0:0:
256,192,92758,1,0,0:0:0:0:
256,192,93017,1,0,0:0:0:0:
256,192,93276,1,0,0:0:0:0:
256,192,93448,1,8,0:0:0:0:
256,192,93707,1,0,0:0:0:0:
256,192,94138,1,8,0:0:0:0:
256,192,94483,1,4,0:0:0:0:
256,192,94827,1,8,0:0:0:0:
256,192,95000,1,0,0:0:0:0:
256,192,95086,1,0,0:0:0:0:
256,192,95172,1,0,0:0:0:0:
256,192,95345,1,0,0:0:0:0:
256,192,95517,1,8,0:0:0:0:
256,192,95690,1,8,0:0:0:0:
256,192,95862,1,0,0:0:0:0:
256,192,96207,1,8,0:0:0:0:
256,192,96379,1,0,0:0:0:0:
256,192,96552,1,0,0:0:0:0:
256,192,96724,1,8,0:0:0:0:
256,192,96810,1,8,0:0:0:0:
256,192,96896,1,8,0:0:0:0:
256,192,97241,1,0,0:0:0:0:
256,192,97586,1,8,0:0:0:0:
256,192,97845,1,8,0:0:0:0:
256,192,98103,1,8,0:0:0:0:
256,192,98276,1,0,0:0:0:0:
256,192,98621,1,8,0:0:0:0:
256,192,98965,1,8,0:0:0:0:
256,192,99310,1,0,0:0:0:0:
256,192,100000,1,4,0:0:0:0:
256,192,100345,1,8,0:0:0:0:
256,192,100518,1,0,0:0:0:0:
256,192,100604,1,0,0:0:0:0:
256,192,100690,1,0,0:0:0:0:
256,192,100862,1,0,0:0:0:0:
256,192,101035,1,8,0:0:0:0:
256,192,101207,1,8,0:0:0:0:
256,192,101380,1,0,0:0:0:0:
256,192,101725,1,8,0:0:0:0:
256,192,101897,1,0,0:0:0:0:
256,192,102069,1,0,0:0:0:0:
256,192,102242,1,8,0:0:0:0:
256,192,102328,1,8,0:0:0:0:
256,192,102414,1,8,0:0:0:0:
256,192,102759,1,0,0:0:0:0:
256,192,103104,1,8,0:0:0:0:
256,192,103362,1,8,0:0:0:0:
256,192,103621,1,8,0:0:0:0:
256,192,103793,1,0,0:0:0:0:
256,192,104052,1,0,0:0:0:0:
256,192,104310,1,0,0:0:0:0:
256,192,104483,1,8,0:0:0:0:
256,192,104741,1,0,0:0:0:0:
256,192,105173,1,8,0:0:0:0:
256,192,105518,1,4,0:0:0:0:
256,192,105862,1,8,0:0:0:0:
256,192,106035,1,0,0:0:0:0:
256,192,106121,1,0,0:0:0:0:
256,192,106207,1,0,0:0:0:0:
256,192,106379,1,0,0:0:0:0:
256,192,106552,1,8,0:0:0:0:
256,192,106725,1,8,0:0:0:0:
256,192,106897,1,0,0:0:0:0:
256,192,107242,1,8,0:0:0:0:
256,192,107414,1,0,0:0:0:0:
256,192,107587,1,0,0:0:0:0:
256,192,107759,1,8,0:0:0:0:
256,192,107845,1,8,0:0:0:0:
256,192,107931,1,8,0:0:0:0:
256,192,108276,1,0,0:0:0:0:
256,192,108621,1,8,0:0:0:0:
256,192,108879,1,8,0:0:0:0:
256,192,109138,1,8,0:0:0:0:
256,192,109311,1,0,0:0:0:0:
256,192,109656,1,8,0:0:0:0:
256,192,110000,1,0,0:0:0:0:
256,192,110345,1,0,0:0:0:0:
256,192,111034,1,4,0:0:0:0:
256,192,111379,1,8,0:0:0:0:
256,192,111638,1,8,0:0:0:0:
256,192,111896,1,8,0:0:0:0:
256,192,112155,1,0,0:0:0:0:
256,192,112414,1,4,0:0:0:0:
256,192,112759,1,0,0:0:0:0:
256,192,113017,1,8,0:0:0:0:
256,192,113276,1,8,0:0:0:0:
256,192,113534,1,0,0:0:0:0:
256,192,113793,1,12,0:0:0:0:
256,192,114138,1,8,0:0:0:0:
256,192,114396,1,8,0:0:0:0:
256,192,114655,1,0,0:0:0:0:
256,192,114914,1,8,0:0:0:0:
256,192,115172,1,4,0:0:0:0:
256,192,115517,1,8,0:0:0:0:
256,192,115776,1,8,0:0:0:0:
256,192,116034,1,8,0:0:0:0:
256,192,116207,1,0,0:0:0:0:
256,192,116293,1,0,0:0:0:0:
256,192,116379,1,0,0:0:0:0:
256,192,116552,1,12,0:0:0:0:
256,192,117069,1,0,0:0:0:0:
256,192,117155,1,0,0:0:0:0:
256,192,117241,1,0,0:0:0:0:
256,192,117414,1,0,0:0:0:0:
256,192,117586,1,8,0:0:0:0:
256,192,117931,1,0,0:0:0:0:
256,192,118103,1,0,0:0:0:0:
256,192,118276,1,8,0:0:0:0:
256,192,118362,1,8,0:0:0:0:
256,192,118448,1,8,0:0:0:0:
256,192,118621,1,0,0:0:0:0:
256,192,118793,1,0,0:0:0:0:
256,192,118965,1,8,0:0:0:0:
256,192,119310,1,8,0:0:0:0:
256,192,119828,1,0,0:0:0:0:
256,192,119914,1,0,0:0:0:0:
256,192,120000,1,0,0:0:0:0:
256,192,120172,1,0,0:0:0:0:
256,192,120345,1,8,0:0:0:0:
256,192,120690,1,0,0:0:0:0:
256,192,121034,1,8,0:0:0:0:
256,192,121293,1,8,0:0:0:0:
256,192,121552,1,8,0:0:0:0:
256,192,121810,1,8,0:0:0:0:
256,192,122069,1,4,0:0:0:0:
256,192,122414,1,8,0:0:0:0:
256,192,122672,1,8,0:0:0:0:
256,192,122931,1,8,0:0:0:0:
256,192,123190,1,0,0:0:0:0:
256,192,123448,1,4,0:0:0:0:
256,192,123793,1,0,0:0:0:0:
256,192,124052,1,8,0:0:0:0:
256,192,124310,1,8,0:0:0:0:
256,192,124569,1,0,0:0:0:0:
256,192,124828,1,12,0:0:0:0:
256,192,125172,1,8,0:0:0:0:
256,192,125431,1,8,0:0:0:0:
256,192,125690,1,0,0:0:0:0:
256,192,125948,1,8,0:0:0:0:
256,192,126207,1,4,0:0:0:0:
256,192,126552,1,8,0:0:0:0:
256,192,126810,1,8,0:0:0:0:
256,192,127069,1,0,0:0:0:0:
256,192,127155,1,0,0:0:0:0:
256,192,127241,1,0,0:0:0:0:
256,192,127414,1,0,0:0:0:0:
256,192,127586,1,12,0:0:0:0:
256,192,128103,1,0,0:0:0:0:
256,192,128190,1,0,0:0:0:0:
256,192,128276,1,0,0:0:0:0:
256,192,128448,1,0,0:0:0:0:
256,192,128621,1,8,0:0:0:0:
256,192,128965,1,0,0:0:0:0:
256,192,129138,1,0,0:0:0:0:
256,192,129310,1,8,0:0:0:0:
256,192,129396,1,8,0:0:0:0:
256,192,129483,1,8,0:0:0:0:
256,192,129655,1,0,0:0:0:0:
256,192,129828,1,8,0:0:0:0:
256,192,130000,1,8,0:0:0:0:
256,192,130345,1,0,0:0:0:0:
256,192,130690,1,8,0:0:0:0:
256,192,130862,1,0,0:0:0:0:
256,192,130948,1,0,0:0:0:0:
256,192,131034,1,0,0:0:0:0:
256,192,131207,1,0,0:0:0:0:
256,192,131379,1,8,0:0:0:0:
256,192,131724,1,0,0:0:0:0:
256,192,132069,1,8,0:0:0:0:
256,192,133103,1,4,0:0:0:0:
256,192,133448,1,8,0:0:0:0:
256,192,133621,1,0,0:0:0:0:
256,192,133707,1,0,0:0:0:0:
256,192,133793,1,0,0:0:0:0:
256,192,133965,1,0,0:0:0:0:
256,192,134138,1,8,0:0:0:0:
256,192,134310,1,0,0:0:0:0:
256,192,134483,1,0,0:0:0:0:
256,192,134827,1,8,0:0:0:0:
256,192,135000,1,0,0:0:0:0:
256,192,135172,1,0,0:0:0:0:
256,192,135345,1,8,0:0:0:0:
256,192,135517,1,8,0:0:0:0:
256,192,135862,1,0,0:0:0:0:
256,192,136034,1,0,0:0:0:0:
256,192,136207,1,8,0:0:0:0:
256,192,136379,1,0,0:0:0:0:
256,192,136465,1,0,0:0:0:0:
256,192,136552,1,0,0:0:0:0:
256,192,136724,1,0,0:0:0:0:
256,192,136896,1,8,0:0:0:0:
256,192,137241,1,0,0:0:0:0:
256,192,137414,1,0,0:0:0:0:
256,192,137586,1,8,0:0:0:0:
256,192,138103,1,0,0:0:0:0:
256,192,138276,1,8,0:0:0:0:
256,192,138448,1,0,0:0:0:0:
256,192,138621,1,0,0:0:0:0:
256,192,138965,1,8,0:0:0:0:
256,192,139138,1,0,0:0:0:0:
256,192,139224,1,0,0:0:0:0:
256,192,139310,1,0,0:0:0:0:
256,192,139483,1,0,0:0:0:0:
256,192,139655,1,8,0:0:0:0:
256,192,139827,1,0,0:0:0:0:
256,192,140000,1,0,0:0:0:0:
256,192,140344,1,8,0:0:0:0:
256,192,140517,1,0,0:0:0:0:
256,192,140689,1,0,0:0:0:0:
256,192,140862,1,8,0:0:0:0:
256,192,141034,1,8,0:0:0:0:
256,192,141379,1,0,0:0:0:0:
256,192,141552,1,0,0:0:0:0:
256,192,141724,1,8,0:0:0:0:
256,192,141896,1,0,0:0:0:0:
256,192,141982,1,0,0:0:0:0:
256,192,142069,1,0,0:0:0:0:
256,192,142241,1,0,0:0:0:0:
256,192,142413,1,8,0:0:0:0:
256,192,142758,1,0,0:0:0:0:
256,192,142931,1,0,0:0:0:0:
256,192,143103,1,8,0:0:0:0:
256,192,143620,1,0,0:0:0:0:
256,192,143793,1,8,0:0:0:0:
256,192,143965,1,8,0:0:0:0:
256,192,144138,1,0,0:0:0:0:
256,192,144483,1,8,0:0:0:0:
256,192,144656,1,0,0:0:0:0:
256,192,144742,1,0,0:0:0:0:
256,192,144828,1,0,0:0:0:0:
256,192,145000,1,0,0:0:0:0:
256,192,145173,1,8,0:0:0:0:
256,192,145345,1,0,0:0:0:0:
256,192,145518,1,0,0:0:0:0:
256,192,145862,1,8,0:0:0:0:
256,192,146034,1,0,0:0:0:0:
256,192,146207,1,0,0:0:0:0:
256,192,146380,1,8,0:0:0:0:
256,192,146552,1,8,0:0:0:0:
256,192,146897,1,0,0:0:0:0:
256,192,147069,1,0,0:0:0:0:
256,192,147242,1,8,0:0:0:0:
256,192,147414,1,0,0:0:0:0:
256,192,147500,1,0,0:0:0:0:
256,192,147587,1,0,0:0:0:0:
256,192,147759,1,0,0:0:0:0:
256,192,147931,1,8,0:0:0:0:
256,192,148276,1,0,0:0:0:0:
256,192,148448,1,0,0:0:0:0:
256,192,148621,1,8,0:0:0:0:
256,192,149138,1,0,0:0:0:0:
256,192,149310,1,8,0:0:0:0:
256,192,149483,1,8,0:0:0:0:
256,192,149656,1,0,0:0:0:0:
256,192,150000,1,8,0:0:0:0:
256,192,150172,1,0,0:0:0:0:
256,192,150517,1,0,0:0:0:0:
256,192,150690,1,8,0:0:0:0:
256,192,150862,1,8,0:0:0:0:
256,192,151034,1,0,0:0:0:0:
256,192,151379,1,8,0:0:0:0:
256,192,151552,1,0,0:0:0:0:
256,192,151896,1,8,0:0:0:0:
256,192,152069,1,0,0:0:0:0:
256,192,152414,1,0,0:0:0:0:
256,192,152758,1,8,0:0:0:0:
256,192,153276,1,0,0:0:0:0:
256,192,153448,1,8,0:0:0:0:
256,192,153793,1,0,0:0:0:0:
256,192,154138,1,0,0:0:0:0:
256,192,154827,1,8,0:0:0:0:
256,192,155172,1,4,0:0:0:0:
