osu file format v14

[General]
AudioFilename: audio.mp3
AudioLeadIn: 0
PreviewTime: 66197
Countdown: 0
SampleSet: Normal
StackLeniency: 0.7
Mode: 1
LetterboxInBreaks: 0
WidescreenStoryboard: 1

[Editor]
DistanceSpacing: 0.8
BeatDivisor: 4
GridSize: 16
TimelineZoom: 3.299999

[Metadata]
Title:I'm For You (Cut Ver.)
TitleUnicode:I'm For You (Cut Ver.)
Artist:Magnetude
ArtistUnicode:Magnetude
Creator:Jonarwhal
Version:Loyalty
Source:
Tags:vulkin im mappers' guild mg mpg electronic english instrumental username105 jonawaga featured artist fa
BeatmapID:2622519
BeatmapSetID:1261647

[Difficulty]
HPDrainRate:6.5
CircleSize:5
OverallDifficulty:7
ApproachRate:5
SliderMultiplier:1.4
SliderTickRate:1

[Events]
//Background and Video events
0,0,"clip+(2020-09-19+at+05.16.08).jpg",0,0
//Break Periods
//Storyboard Layer 0 (Background)
//Storyboard Layer 1 (Fail)
//Storyboard Layer 2 (Pass)
//Storyboard Layer 3 (Foreground)
//Storyboard Layer 4 (Overlay)
//Storyboard Sound Samples

[TimingPoints]
690,344.827586206897,4,1,0,70,1,0
862,-100,4,1,0,20,0,0
1983,-133.333333333333,4,1,0,20,0,0
17155,-125,4,1,0,20,0,0
18534,-117.647058823529,4,1,0,20,0,0
19914,-111.111111111111,4,1,0,20,0,0
21293,-105.263157894737,4,1,0,20,0,0
22672,-100,4,1,0,70,0,0
22845,-100,4,1,0,20,0,0
25431,-100,4,1,0,35,0,0
25862,-100,4,1,0,20,0,0
28190,-100,4,1,0,70,0,0
28362,-100,4,1,0,25,0,0
30948,-100,4,1,0,40,0,0
31379,-100,4,1,0,25,0,0
33707,-100,4,1,0,70,0,0
33879,-100,4,1,0,30,0,0
36465,-100,4,1,0,45,0,0
36896,-100,4,1,0,30,0,0
39224,-100,4,1,0,70,0,0
39396,-100,4,1,0,35,0,0
41983,-100,4,1,0,50,0,0
42414,-100,4,1,0,35,0,0
44741,-100,4,1,0,80,0,0
44913,-100,4,1,0,40,0,0
55776,-100,4,1,0,80,0,0
66853,-90.9090909090909,4,1,0,100,0,0
66896,-90.9090909090909,4,1,0,100,0,1
76896,-90.9090909090909,4,1,0,100,0,0
77931,-90.9090909090909,4,1,0,100,0,1
86207,-90.9090909090909,4,1,0,100,0,0
86552,-90.9090909090909,4,1,0,100,0,1
87931,-90.9090909090909,4,1,0,80,0,0
88965,-100,4,1,0,80,0,0
110991,-90.9090909090909,4,1,0,100,0,0
111034,-90.9090909090909,4,1,0,100,0,1
121034,-90.9090909090909,4,1,0,100,0,0
122069,-90.9090909090909,4,1,0,100,0,1
130345,-90.9090909090909,4,1,0,100,0,0
130690,-90.9090909090909,4,1,0,100,0,1
132069,-90.9090909090909,4,1,0,80,0,0
133103,-100,4,1,0,80,0,0
149612,-100,4,1,0,70,0,0

[HitObjects]
256,192,17241,12,0,22586,0:0:0:0:
256,192,22758,5,0,0:0:0:0:
256,192,22845,1,0,0:0:0:0:
256,192,22931,1,0,0:0:0:0:
256,192,25518,1,0,0:0:0:0:
256,192,25575,1,0,0:0:0:0:
256,192,25632,1,0,0:0:0:0:
256,192,28276,1,0,0:0:0:0:
256,192,28362,1,0,0:0:0:0:
256,192,28448,1,0,0:0:0:0:
256,192,31034,1,0,0:0:0:0:
256,192,31121,1,0,0:0:0:0:
256,192,31207,1,0,0:0:0:0:
256,192,33793,1,0,0:0:0:0:
256,192,33879,1,0,0:0:0:0:
256,192,33965,1,0,0:0:0:0:
256,192,36552,1,0,0:0:0:0:
256,192,36609,1,0,0:0:0:0:
256,192,36667,1,0,0:0:0:0:
256,192,39310,1,0,0:0:0:0:
256,192,39396,1,0,0:0:0:0:
256,192,39483,1,0,0:0:0:0:
256,192,42069,1,0,0:0:0:0:
256,192,42155,1,0,0:0:0:0:
256,192,42241,1,0,0:0:0:0:
256,192,42414,12,0,44655,0:0:0:0:
256,192,44827,5,4,0:0:0:0:
256,192,47069,1,0,0:0:0:0:
256,192,47586,1,0,0:0:0:0:
256,192,48621,1,0,0:0:0:0:
256,192,49655,1,0,0:0:0:0:
256,192,50345,1,0,0:0:0:0:
256,192,52758,5,0,0:0:0:0:
256,192,53103,1,0,0:0:0:0:
256,192,53448,1,0,0:0:0:0:
256,192,53965,1,0,0:0:0:0:
256,192,54138,1,0,0:0:0:0:
256,192,54310,1,0,0:0:0:0:
256,192,54483,1,0,0:0:0:0:
256,192,54827,1,0,0:0:0:0:
256,192,55172,1,0,0:0:0:0:
256,192,55258,1,0,0:0:0:0:
256,192,55345,1,0,0:0:0:0:
256,192,55517,1,0,0:0:0:0:
256,192,55690,1,0,0:0:0:0:
256,192,55862,5,4,0:0:0:0:
256,192,56207,1,8,0:0:0:0:
256,192,56379,1,0,0:0:0:0:
256,192,56465,1,8,0:0:0:0:
256,192,56552,1,0,0:0:0:0:
256,192,56638,1,0,0:0:0:0:
256,192,56724,1,0,0:0:0:0:
256,192,56896,1,8,0:0:0:0:
256,192,57069,1,8,0:0:0:0:
256,192,57241,1,0,0:0:0:0:
256,192,57586,1,8,0:0:0:0:
256,192,57758,1,8,0:0:0:0:
256,192,57845,1,8,0:0:0:0:
256,192,57931,1,0,0:0:0:0:
256,192,58017,1,0,0:0:0:0:
256,192,58103,1,0,0:0:0:0:
256,192,58276,1,8,0:0:0:0:
256,192,58448,1,0,0:0:0:0:
256,192,58621,1,8,0:0:0:0:
256,192,58965,1,8,0:0:0:0:
256,192,59138,1,0,0:0:0:0:
256,192,59224,1,0,0:0:0:0:
256,192,59310,1,8,0:0:0:0:
256,192,59396,1,8,0:0:0:0:
256,192,59483,1,0,0:0:0:0:
256,192,59655,1,8,0:0:0:0:
256,192,59827,1,8,0:0:0:0:
256,192,60000,1,0,0:0:0:0:
256,192,60345,1,8,0:0:0:0:
256,192,60517,1,0,0:0:0:0:
256,192,60603,1,0,0:0:0:0:
256,192,60690,1,8,0:0:0:0:
256,192,60776,1,0,0:0:0:0:
256,192,60862,1,8,0:0:0:0:
256,192,61034,1,0,0:0:0:0:
256,192,61207,1,8,0:0:0:0:
256,192,61379,1,0,0:0:0:0:
256,192,61724,1,8,0:0:0:0:
256,192,61896,1,0,0:0:0:0:
256,192,61983,1,8,0:0:0:0:
256,192,62069,1,0,0:0:0:0:
256,192,62155,1,0,0:0:0:0:
256,192,62241,1,0,0:0:0:0:
256,192,62414,1,8,0:0:0:0:
256,192,62586,1,8,0:0:0:0:
256,192,62758,1,0,0:0:0:0:
256,192,63103,1,8,0:0:0:0:
256,192,63276,1,8,0:0:0:0:
256,192,63362,1,8,0:0:0:0:
256,192,63448,1,0,0:0:0:0:
256,192,63534,1,0,0:0:0:0:
256,192,63621,1,0,0:0:0:0:
256,192,63793,1,8,0:0:0:0:
256,192,63965,1,0,0:0:0:0:
256,192,64138,1,8,0:0:0:0:
256,192,64483,1,8,0:0:0:0:
256,192,64655,1,0,0:0:0:0:
256,192,64741,1,0,0:0:0:0:
256,192,64827,1,8,0:0:0:0:
256,192,64914,1,8,0:0:0:0:
256,192,65000,1,0,0:0:0:0:
256,192,65172,1,8,0:0:0:0:
256,192,65345,1,8,0:0:0:0:
256,192,65517,1,0,0:0:0:0:
256,192,65862,1,8,0:0:0:0:
256,192,66034,1,0,0:0:0:0:
256,192,66121,1,0,0:0:0:0:
256,192,66207,1,12,0:0:0:0:
256,192,66552,1,4,0:0:0:0:
256,192,66896,1,4,0:0:0:0:
256,192,67069,1,0,0:0:0:0:
256,192,67241,1,8,0:0:0:0:
256,192,67327,1,0,0:0:0:0:
256,192,67500,1,8,0:0:0:0:
256,192,67586,1,8,0:0:0:0:
256,192,67758,1,8,0:0:0:0:
256,192,67845,1,0,0:0:0:0:
256,192,68017,1,0,0:0:0:0:
256,192,68103,1,8,0:0:0:0:
256,192,68276,1,4,0:0:0:0:
256,192,68448,1,0,0:0:0:0:
256,192,68621,1,8,0:0:0:0:
256,192,68707,1,0,0:0:0:0:
256,192,68879,1,8,0:0:0:0:
256,192,68965,1,8,0:0:0:0:
256,192,69138,1,8,0:0:0:0:
256,192,69224,1,0,0:0:0:0:
256,192,69396,1,8,0:0:0:0:
256,192,69483,1,8,0:0:0:0:
256,192,69655,1,12,0:0:0:0:
256,192,69827,1,0,0:0:0:0:
256,192,70000,1,8,0:0:0:0:
256,192,70086,1,8,0:0:0:0:
256,192,70258,1,8,0:0:0:0:
256,192,70345,1,0,0:0:0:0:
256,192,70517,1,8,0:0:0:0:
256,192,70603,1,0,0:0:0:0:
256,192,70776,1,8,0:0:0:0:
256,192,70862,1,8,0:0:0:0:
256,192,71034,1,4,0:0:0:0:
256,192,71207,1,0,0:0:0:0:
256,192,71379,1,8,0:0:0:0:
256,192,71465,1,0,0:0:0:0:
256,192,71638,1,8,0:0:0:0:
256,192,71724,1,8,0:0:0:0:
256,192,71896,1,8,0:0:0:0:
256,192,72069,1,0,0:0:0:0:
256,192,72155,1,0,0:0:0:0:
256,192,72241,1,0,0:0:0:0:
256,192,72327,1,0,0:0:0:0:
256,192,72414,1,12,0:0:0:0:
256,192,72586,1,0,0:0:0:0:
256,192,72672,1,0,0:0:0:0:
256,192,72758,1,8,0:0:0:0:
256,192,72931,1,0,0:0:0:0:
256,192,73017,1,0,0:0:0:0:
256,192,73103,1,8,0:0:0:0:
256,192,73190,1,8,0:0:0:0:
256,192,73276,1,0,0:0:0:0:
256,192,73362,1,0,0:0:0:0:
256,192,73448,1,8,0:0:0:0:
256,192,73621,1,0,0:0:0:0:
256,192,73707,1,0,0:0:0:0:
256,192,73793,1,8,0:0:0:0:
256,192,73965,1,8,0:0:0:0:
256,192,74052,1,0,0:0:0:0:
256,192,74138,1,8,0:0:0:0:
256,192,74310,1,0,0:0:0:0:
256,192,74396,1,0,0:0:0:0:
256,192,74483,1,8,0:0:0:0:
256,192,74569,1,0,0:0:0:0:
256,192,74655,1,8,0:0:0:0:
256,192,74741,1,8,0:0:0:0:
256,192,74827,1,0,0:0:0:0:
256,192,75000,1,0,0:0:0:0:
256,192,75172,1,8,0:0:0:0:
256,192,75345,1,0,0:0:0:0:
256,192,75431,1,0,0:0:0:0:
256,192,75517,1,8,0:0:0:0:
256,192,75690,1,0,0:0:0:0:
256,192,75776,1,0,0:0:0:0:
256,192,75862,1,8,0:0:0:0:
256,192,75948,1,8,0:0:0:0:
256,192,76034,1,0,0:0:0:0:
256,192,76121,1,0,0:0:0:0:
256,192,76207,1,8,0:0:0:0:
256,192,76379,1,0,0:0:0:0:
256,192,76552,1,8,0:0:0:0:
256,192,76724,1,0,0:0:0:0:
256,192,76896,1,8,0:0:0:0:
256,192,77069,1,8,0:0:0:0:
256,192,77155,1,8,0:0:0:0:
256,192,77327,1,0,0:0:0:0:
256,192,77414,1,8,0:0:0:0:
256,192,77586,1,0,0:0:0:0:
256,192,77672,1,8,0:0:0:0:
256,192,77845,1,8,0:0:0:0:
256,192,77931,1,4,0:0:0:0:
256,192,78103,1,0,0:0:0:0:
256,192,78276,1,8,0:0:0:0:
256,192,78362,1,0,0:0:0:0:
256,192,78534,1,8,0:0:0:0:
256,192,78621,1,8,0:0:0:0:
256,192,78793,1,8,0:0:0:0:
256,192,78879,1,0,0:0:0:0:
256,192,79052,1,0,0:0:0:0:
256,192,79138,1,8,0:0:0:0:
256,192,79310,1,4,0:0:0:0:
256,192,79483,1,0,0:0:0:0:
256,192,79655,1,8,0:0:0:0:
256,192,79741,1,0,0:0:0:0:
256,192,79914,1,8,0:0:0:0:
256,192,80000,1,8,0:0:0:0:
256,192,80172,1,8,0:0:0:0:
256,192,80258,1,0,0:0:0:0:
256,192,80431,1,8,0:0:0:0:
256,192,80517,1,8,0:0:0:0:
256,192,80690,1,12,0:0:0:0:
256,192,80862,1,0,0:0:0:0:
256,192,81034,1,8,0:0:0:0:
256,192,81121,1,8,0:0:0:0:
256,192,81293,1,8,0:0:0:0:
256,192,81379,1,0,0:0:0:0:
256,192,81552,1,8,0:0:0:0:
256,192,81638,1,0,0:0:0:0:
256,192,81810,1,8,0:0:0:0:
256,192,81896,1,8,0:0:0:0:
256,192,82069,1,4,0:0:0:0:
256,192,82241,1,0,0:0:0:0:
256,192,82414,1,8,0:0:0:0:
256,192,82500,1,0,0:0:0:0:
256,192,82672,1,8,0:0:0:0:
256,192,82758,1,8,0:0:0:0:
256,192,82931,1,8,0:0:0:0:
256,192,82974,1,8,0:0:0:0:
256,192,83017,1,0,0:0:0:0:
256,192,83103,1,0,0:0:0:0:
256,192,83190,1,8,0:0:0:0:
256,192,83276,1,0,0:0:0:0:
256,192,83362,1,0,0:0:0:0:
256,192,83448,1,12,0:0:0:0:
256,192,83621,1,0,0:0:0:0:
256,192,83707,1,0,0:0:0:0:
256,192,83793,1,8,0:0:0:0:
256,192,83965,1,0,0:0:0:0:
256,192,84052,1,0,0:0:0:0:
256,192,84138,1,8,0:0:0:0:
256,192,84224,1,8,0:0:0:0:
256,192,84310,1,0,0:0:0:0:
256,192,84396,1,0,0:0:0:0:
256,192,84483,1,8,0:0:0:0:
256,192,84655,1,0,0:0:0:0:
256,192,84741,1,0,0:0:0:0:
256,192,84827,1,8,0:0:0:0:
256,192,85000,1,8,0:0:0:0:
256,192,85086,1,0,0:0:0:0:
256,192,85172,1,8,0:0:0:0:
256,192,85345,1,0,0:0:0:0:
256,192,85431,1,0,0:0:0:0:
256,192,85517,1,8,0:0:0:0:
256,192,85603,1,0,0:0:0:0:
256,192,85690,1,8,0:0:0:0:
256,192,85776,1,0,0:0:0:0:
256,192,85862,1,12,0:0:0:0:
256,192,86034,1,8,0:0:0:0:
256,192,86207,1,0,0:0:0:0:
256,192,86552,1,8,0:0:0:0:
256,192,86724,1,0,0:0:0:0:
256,192,86810,1,0,0:0:0:0:
256,192,86896,1,8,0:0:0:0:
256,192,86983,1,8,0:0:0:0:
256,192,87069,1,0,0:0:0:0:
256,192,87155,1,0,0:0:0:0:
256,192,87241,1,8,0:0:0:0:
256,192,87414,1,0,0:0:0:0:
256,192,87500,1,0,0:0:0:0:
256,192,87586,1,8,0:0:0:0:
256,192,87758,1,0,0:0:0:0:
256,192,87931,8,0,88793,0:0:0:0:
256,192,88965,5,4,0:0:0:0:
256,192,89310,1,8,0:0:0:0:
256,192,89396,1,8,0:0:0:0:
256,192,89483,1,0,0:0:0:0:
256,192,89569,1,0,0:0:0:0:
256,192,89655,1,8,0:0:0:0:
256,192,89827,1,0,0:0:0:0:
256,192,89914,1,0,0:0:0:0:
256,192,90000,1,8,0:0:0:0:
256,192,90086,1,8,0:0:0:0:
256,192,90172,1,0,0:0:0:0:
256,192,90258,1,0,0:0:0:0:
256,192,90345,1,8,0:0:0:0:
256,192,90517,1,0,0:0:0:0:
256,192,90603,1,0,0:0:0:0:
256,192,90690,1,8,0:0:0:0:
256,192,90776,1,8,0:0:0:0:
256,192,90862,1,0,0:0:0:0:
256,192,90948,1,0,0:0:0:0:
256,192,91034,1,8,0:0:0:0:
256,192,91121,1,0,0:0:0:0:
256,192,91207,1,8,0:0:0:0:
256,192,91293,1,0,0:0:0:0:
256,192,91379,1,8,0:0:0:0:
256,192,91465,1,8,0:0:0:0:
256,192,91552,1,0,0:0:0:0:
256,192,91724,1,0,0:0:0:0:
256,192,91896,1,0,0:0:0:0:
256,192,92069,1,8,0:0:0:0:
256,192,92155,1,8,0:0:0:0:
256,192,92241,1,0,0:0:0:0:
256,192,92327,1,8,0:0:0:0:
256,192,92500,1,0,0:0:0:0:
256,192,92586,1,8,0:0:0:0:
256,192,92758,1,8,0:0:0:0:
256,192,92845,1,8,0:0:0:0:
256,192,92931,1,0,0:0:0:0:
256,192,93017,1,8,0:0:0:0:
256,192,93190,1,0,0:0:0:0:
256,192,93276,1,8,0:0:0:0:
256,192,93448,1,8,0:0:0:0:
256,192,93534,1,8,0:0:0:0:
256,192,93621,1,8,0:0:0:0:
256,192,93707,1,0,0:0:0:0:
256,192,93879,1,0,0:0:0:0:
256,192,93965,1,8,0:0:0:0:
256,192,94052,1,0,0:0:0:0:
256,192,94138,1,8,0:0:0:0:
256,192,94224,1,8,0:0:0:0:
256,192,94310,1,0,0:0:0:0:
256,192,94396,1,8,0:0:0:0:
256,192,94483,1,4,0:0:0:0:
256,192,94827,1,8,0:0:0:0:
256,192,94914,1,0,0:0:0:0:
256,192,95000,1,8,0:0:0:0:
256,192,95086,1,8,0:0:0:0:
256,192,95172,1,8,0:0:0:0:
256,192,95345,1,0,0:0:0:0:
256,192,95431,1,0,0:0:0:0:
256,192,95517,1,8,0:0:0:0:
256,192,95603,1,0,0:0:0:0:
256,192,95690,1,8,0:0:0:0:
256,192,95776,1,8,0:0:0:0:
256,192,95862,1,0,0:0:0:0:
256,192,96034,1,0,0:0:0:0:
256,192,96121,1,0,0:0:0:0:
256,192,96207,1,8,0:0:0:0:
256,192,96293,1,0,0:0:0:0:
256,192,96379,1,8,0:0:0:0:
256,192,96465,1,8,0:0:0:0:
256,192,96552,1,0,0:0:0:0:
256,192,96638,1,0,0:0:0:0:
256,192,96724,1,0,0:0:0:0:
256,192,96810,1,0,0:0:0:0:
256,192,96896,1,8,0:0:0:0:
256,192,96983,1,8,0:0:0:0:
256,192,97069,1,0,0:0:0:0:
256,192,97241,1,8,0:0:0:0:
256,192,97327,1,8,0:0:0:0:
256,192,97414,1,0,0:0:0:0:
256,192,97586,1,8,0:0:0:0:
261,193,97672,1,0,0:0:0:0:
261,193,97758,1,0,0:0:0:0:
256,192,97845,1,8,0:0:0:0:
256,192,98017,1,0,0:0:0:0:
261,193,98103,1,8,0:0:0:0:
256,192,98190,1,0,0:0:0:0:
261,193,98276,1,8,0:0:0:0:
261,193,98362,1,8,0:0:0:0:
256,192,98534,1,8,0:0:0:0:
256,192,98621,1,0,0:0:0:0:
255,192,98793,1,0,0:0:0:0:
256,192,98965,1,8,0:0:0:0:
255,192,99138,1,8,0:0:0:0:
256,192,99224,1,8,0:0:0:0:
255,192,99310,1,0,0:0:0:0:
255,192,99655,1,8,0:0:0:0:
255,192,99741,1,0,0:0:0:0:
255,192,99827,1,0,0:0:0:0:
256,192,100000,1,4,0:0:0:0:
256,192,100172,1,0,0:0:0:0:
256,192,100345,1,8,0:0:0:0:
256,192,100431,1,8,0:0:0:0:
256,192,100517,1,0,0:0:0:0:
256,192,100603,1,0,0:0:0:0:
256,192,100690,1,8,0:0:0:0:
256,192,100862,1,0,0:0:0:0:
256,192,100948,1,0,0:0:0:0:
256,192,101034,1,8,0:0:0:0:
256,192,101121,1,8,0:0:0:0:
256,192,101207,1,0,0:0:0:0:
256,192,101293,1,0,0:0:0:0:
256,192,101379,1,8,0:0:0:0:
256,192,101552,1,0,0:0:0:0:
256,192,101638,1,0,0:0:0:0:
256,192,101724,1,8,0:0:0:0:
256,192,101810,1,8,0:0:0:0:
256,192,101896,1,0,0:0:0:0:
256,192,101983,1,0,0:0:0:0:
256,192,102069,1,8,0:0:0:0:
256,192,102155,1,0,0:0:0:0:
256,192,102241,1,8,0:0:0:0:
256,192,102327,1,0,0:0:0:0:
256,192,102414,1,8,0:0:0:0:
256,192,102500,1,8,0:0:0:0:
256,192,102586,1,0,0:0:0:0:
256,192,102758,1,0,0:0:0:0:
256,192,102931,1,0,0:0:0:0:
256,192,103103,1,8,0:0:0:0:
256,192,103190,1,0,0:0:0:0:
256,192,103362,1,8,0:0:0:0:
256,192,103448,1,0,0:0:0:0:
256,192,103534,1,0,0:0:0:0:
256,192,103621,1,8,0:0:0:0:
256,192,103793,1,8,0:0:0:0:
256,192,103879,1,0,0:0:0:0:
256,192,104052,1,8,0:0:0:0:
256,192,104138,1,0,0:0:0:0:
256,192,104224,1,0,0:0:0:0:
256,192,104310,1,8,0:0:0:0:
256,192,104483,1,8,0:0:0:0:
256,192,104569,1,8,0:0:0:0:
256,192,104655,1,0,0:0:0:0:
256,192,104741,1,8,0:0:0:0:
256,192,104914,1,0,0:0:0:0:
256,192,105000,1,0,0:0:0:0:
256,192,105086,1,0,0:0:0:0:
256,192,105172,1,8,0:0:0:0:
256,192,105258,1,8,0:0:0:0:
256,192,105345,1,0,0:0:0:0:
256,192,105431,1,8,0:0:0:0:
256,192,105517,1,4,0:0:0:0:
256,192,105862,1,8,0:0:0:0:
256,192,105948,1,0,0:0:0:0:
256,192,106034,1,8,0:0:0:0:
256,192,106121,1,8,0:0:0:0:
256,192,106207,1,8,0:0:0:0:
256,192,106379,1,0,0:0:0:0:
256,192,106465,1,0,0:0:0:0:
256,192,106552,1,8,0:0:0:0:
256,192,106638,1,0,0:0:0:0:
256,192,106724,1,8,0:0:0:0:
256,192,106810,1,8,0:0:0:0:
256,192,106896,1,0,0:0:0:0:
256,192,107069,1,0,0:0:0:0:
256,192,107155,1,0,0:0:0:0:
256,192,107241,1,8,0:0:0:0:
256,192,107327,1,0,0:0:0:0:
256,192,107414,1,8,0:0:0:0:
256,192,107500,1,8,0:0:0:0:
256,192,107586,1,0,0:0:0:0:
256,192,107672,1,0,0:0:0:0:
256,192,107758,1,0,0:0:0:0:
256,192,107845,1,0,0:0:0:0:
256,192,107931,1,8,0:0:0:0:
256,192,108017,1,8,0:0:0:0:
256,192,108103,1,0,0:0:0:0:
256,192,108276,1,8,0:0:0:0:
256,192,108362,1,8,0:0:0:0:
256,192,108448,1,0,0:0:0:0:
256,192,108621,1,8,0:0:0:0:
261,193,108707,1,0,0:0:0:0:
261,193,108793,1,0,0:0:0:0:
256,192,108879,1,8,0:0:0:0:
256,192,109052,1,0,0:0:0:0:
261,193,109138,1,8,0:0:0:0:
256,192,109224,1,0,0:0:0:0:
261,193,109310,1,8,0:0:0:0:
261,193,109396,1,0,0:0:0:0:
256,192,109483,1,0,0:0:0:0:
256,192,109655,1,8,0:0:0:0:
256,192,109741,1,8,0:0:0:0:
255,192,109827,1,0,0:0:0:0:
256,192,110000,1,8,0:0:0:0:
255,192,110172,1,0,0:0:0:0:
255,192,110345,1,8,0:0:0:0:
256,192,110690,1,4,0:0:0:0:
256,192,111034,1,4,0:0:0:0:
256,192,111207,1,0,0:0:0:0:
256,192,111379,1,8,0:0:0:0:
256,192,111465,1,0,0:0:0:0:
256,192,111638,1,8,0:0:0:0:
256,192,111724,1,8,0:0:0:0:
256,192,111896,1,8,0:0:0:0:
256,192,111983,1,8,0:0:0:0:
256,192,112155,1,0,0:0:0:0:
256,192,112241,1,8,0:0:0:0:
256,192,112414,1,4,0:0:0:0:
256,192,112586,1,0,0:0:0:0:
256,192,112758,1,8,0:0:0:0:
256,192,112845,1,0,0:0:0:0:
256,192,113017,1,8,0:0:0:0:
256,192,113103,1,8,0:0:0:0:
256,192,113276,1,8,0:0:0:0:
256,192,113362,1,0,0:0:0:0:
256,192,113534,1,8,0:0:0:0:
256,192,113621,1,0,0:0:0:0:
256,192,113793,1,12,0:0:0:0:
256,192,113965,1,0,0:0:0:0:
256,192,114138,1,8,0:0:0:0:
256,192,114224,1,0,0:0:0:0:
256,192,114396,1,8,0:0:0:0:
256,192,114483,1,8,0:0:0:0:
256,192,114655,1,8,0:0:0:0:
256,192,114741,1,8,0:0:0:0:
256,192,114914,1,8,0:0:0:0:
256,192,115000,1,0,0:0:0:0:
256,192,115172,1,4,0:0:0:0:
256,192,115345,1,0,0:0:0:0:
256,192,115517,1,8,0:0:0:0:
256,192,115603,1,0,0:0:0:0:
256,192,115776,1,8,0:0:0:0:
256,192,115862,1,8,0:0:0:0:
256,192,116034,1,8,0:0:0:0:
256,192,116207,1,0,0:0:0:0:
256,192,116293,1,0,0:0:0:0:
256,192,116379,1,8,0:0:0:0:
256,192,116465,1,0,0:0:0:0:
256,192,116552,1,12,0:0:0:0:
256,192,116724,1,0,0:0:0:0:
256,192,116810,1,0,0:0:0:0:
256,192,116896,1,8,0:0:0:0:
256,192,117069,1,0,0:0:0:0:
256,192,117155,1,0,0:0:0:0:
256,192,117241,1,8,0:0:0:0:
256,192,117327,1,8,0:0:0:0:
256,192,117414,1,0,0:0:0:0:
256,192,117500,1,0,0:0:0:0:
256,192,117586,1,8,0:0:0:0:
256,192,117758,1,0,0:0:0:0:
256,192,117845,1,0,0:0:0:0:
256,192,117931,1,8,0:0:0:0:
256,192,118103,1,8,0:0:0:0:
256,192,118190,1,0,0:0:0:0:
256,192,118276,1,8,0:0:0:0:
256,192,118448,1,0,0:0:0:0:
256,192,118534,1,0,0:0:0:0:
256,192,118621,1,8,0:0:0:0:
256,192,118707,1,0,0:0:0:0:
256,192,118793,1,8,0:0:0:0:
256,192,118879,1,8,0:0:0:0:
256,192,118965,1,0,0:0:0:0:
256,192,119138,1,0,0:0:0:0:
256,192,119310,1,8,0:0:0:0:
256,192,119483,1,0,0:0:0:0:
256,192,119569,1,0,0:0:0:0:
256,192,119655,1,8,0:0:0:0:
256,192,119827,1,0,0:0:0:0:
256,192,119914,1,0,0:0:0:0:
256,192,120000,1,8,0:0:0:0:
256,192,120086,1,8,0:0:0:0:
256,192,120172,1,0,0:0:0:0:
256,192,120258,1,0,0:0:0:0:
256,192,120345,1,8,0:0:0:0:
256,192,120517,1,0,0:0:0:0:
256,192,120690,1,8,0:0:0:0:
256,192,120862,1,0,0:0:0:0:
256,192,121034,1,8,0:0:0:0:
256,192,121207,1,8,0:0:0:0:
256,192,121293,1,8,0:0:0:0:
256,192,121465,1,0,0:0:0:0:
256,192,121552,1,8,0:0:0:0:
256,192,121724,1,0,0:0:0:0:
256,192,121810,1,8,0:0:0:0:
256,192,121983,1,8,0:0:0:0:
256,192,122069,1,4,0:0:0:0:
256,192,122241,1,0,0:0:0:0:
256,192,122414,1,8,0:0:0:0:
256,192,122500,1,8,0:0:0:0:
256,192,122672,1,8,0:0:0:0:
256,192,122758,1,8,0:0:0:0:
256,192,122931,1,8,0:0:0:0:
256,192,123017,1,0,0:0:0:0:
256,192,123190,1,0,0:0:0:0:
256,192,123276,1,8,0:0:0:0:
256,192,123448,1,4,0:0:0:0:
256,192,123621,1,0,0:0:0:0:
256,192,123793,1,8,0:0:0:0:
256,192,123879,1,0,0:0:0:0:
256,192,124052,1,8,0:0:0:0:
256,192,124138,1,0,0:0:0:0:
256,192,124310,1,8,0:0:0:0:
256,192,124396,1,8,0:0:0:0:
256,192,124569,1,8,0:0:0:0:
256,192,124655,1,8,0:0:0:0:
256,192,124827,1,12,0:0:0:0:
256,192,125000,1,0,0:0:0:0:
256,192,125172,1,8,0:0:0:0:
256,192,125258,1,8,0:0:0:0:
256,192,125431,1,8,0:0:0:0:
256,192,125517,1,0,0:0:0:0:
256,192,125690,1,8,0:0:0:0:
256,192,125776,1,8,0:0:0:0:
256,192,125948,1,8,0:0:0:0:
256,192,126034,1,0,0:0:0:0:
256,192,126207,1,4,0:0:0:0:
256,192,126379,1,0,0:0:0:0:
256,192,126552,1,8,0:0:0:0:
256,192,126638,1,0,0:0:0:0:
256,192,126810,1,8,0:0:0:0:
256,192,126896,1,8,0:0:0:0:
256,192,127069,1,8,0:0:0:0:
256,192,127112,1,8,0:0:0:0:
256,192,127155,1,0,0:0:0:0:
256,192,127241,1,8,0:0:0:0:
256,192,127327,1,0,0:0:0:0:
256,192,127371,1,8,0:0:0:0:
256,192,127414,1,8,0:0:0:0:
256,192,127500,1,0,0:0:0:0:
256,192,127586,1,12,0:0:0:0:
256,192,127758,1,0,0:0:0:0:
256,192,127845,1,0,0:0:0:0:
256,192,127931,1,8,0:0:0:0:
256,192,128103,1,0,0:0:0:0:
256,192,128190,1,0,0:0:0:0:
256,192,128276,1,8,0:0:0:0:
256,192,128362,1,8,0:0:0:0:
256,192,128448,1,0,0:0:0:0:
256,192,128534,1,0,0:0:0:0:
256,192,128621,1,8,0:0:0:0:
256,192,128793,1,0,0:0:0:0:
256,192,128879,1,0,0:0:0:0:
256,192,128965,1,8,0:0:0:0:
256,192,129138,1,8,0:0:0:0:
256,192,129224,1,0,0:0:0:0:
256,192,129310,1,8,0:0:0:0:
256,192,129483,1,0,0:0:0:0:
256,192,129569,1,0,0:0:0:0:
256,192,129655,1,8,0:0:0:0:
256,192,129741,1,0,0:0:0:0:
256,192,129827,1,8,0:0:0:0:
256,192,129914,1,0,0:0:0:0:
256,192,130000,1,8,0:0:0:0:
256,192,130172,1,8,0:0:0:0:
256,192,130345,1,0,0:0:0:0:
256,192,130690,1,8,0:0:0:0:
256,192,130862,1,0,0:0:0:0:
256,192,130948,1,0,0:0:0:0:
256,192,131034,1,8,0:0:0:0:
256,192,131121,1,8,0:0:0:0:
256,192,131207,1,0,0:0:0:0:
256,192,131293,1,0,0:0:0:0:
256,192,131379,1,8,0:0:0:0:
256,192,131552,1,0,0:0:0:0:
256,192,131724,1,8,0:0:0:0:
256,192,131896,1,0,0:0:0:0:
256,192,132069,8,0,132931,0:0:0:0:
256,192,133103,5,4,0:0:0:0:
256,192,133448,1,8,0:0:0:0:
256,192,133534,1,8,0:0:0:0:
256,192,133621,1,0,0:0:0:0:
256,192,133707,1,0,0:0:0:0:
256,192,133793,1,8,0:0:0:0:
256,192,133965,1,0,0:0:0:0:
256,192,134052,1,0,0:0:0:0:
256,192,134138,1,8,0:0:0:0:
256,192,134224,1,0,0:0:0:0:
256,192,134310,1,8,0:0:0:0:
256,192,134396,1,8,0:0:0:0:
256,192,134483,1,0,0:0:0:0:
256,192,134655,1,0,0:0:0:0:
256,192,134741,1,0,0:0:0:0:
256,192,134827,1,8,0:0:0:0:
256,192,134914,1,0,0:0:0:0:
256,192,135000,1,8,0:0:0:0:
256,192,135086,1,8,0:0:0:0:
256,192,135258,1,0,0:0:0:0:
256,192,135345,1,0,0:0:0:0:
256,192,135431,1,0,0:0:0:0:
256,192,135517,1,8,0:0:0:0:
256,192,135603,1,8,0:0:0:0:
256,192,135690,1,0,0:0:0:0:
256,192,135776,1,0,0:0:0:0:
256,192,135862,1,0,0:0:0:0:
256,192,136034,1,0,0:0:0:0:
256,192,136207,1,8,0:0:0:0:
256,192,136293,1,8,0:0:0:0:
256,192,136379,1,0,0:0:0:0:
256,192,136465,1,8,0:0:0:0:
256,192,136638,1,0,0:0:0:0:
256,192,136724,1,8,0:0:0:0:
256,192,136896,1,8,0:0:0:0:
256,192,136983,1,8,0:0:0:0:
256,192,137069,1,0,0:0:0:0:
256,192,137155,1,0,0:0:0:0:
256,192,137241,1,0,0:0:0:0:
256,192,137414,1,0,0:0:0:0:
256,192,137500,1,0,0:0:0:0:
256,192,137586,1,8,0:0:0:0:
256,192,137758,1,0,0:0:0:0:
256,192,137845,1,8,0:0:0:0:
256,192,138017,1,0,0:0:0:0:
256,192,138103,1,8,0:0:0:0:
256,192,138276,1,0,0:0:0:0:
256,192,138362,1,8,0:0:0:0:
256,192,138448,1,8,0:0:0:0:
256,192,138534,1,0,0:0:0:0:
256,192,138621,1,8,0:0:0:0:
256,192,138793,1,0,0:0:0:0:
256,192,138965,1,8,0:0:0:0:
256,192,139052,1,8,0:0:0:0:
256,192,139138,1,0,0:0:0:0:
256,192,139224,1,0,0:0:0:0:
256,192,139310,1,8,0:0:0:0:
256,192,139483,1,0,0:0:0:0:
256,192,139569,1,0,0:0:0:0:
256,192,139655,1,8,0:0:0:0:
256,192,139741,1,0,0:0:0:0:
256,192,139827,1,8,0:0:0:0:
256,192,139914,1,8,0:0:0:0:
256,192,140000,1,0,0:0:0:0:
256,192,140172,1,0,0:0:0:0:
256,192,140258,1,0,0:0:0:0:
256,192,140345,1,8,0:0:0:0:
256,192,140431,1,8,0:0:0:0:
256,192,140517,1,0,0:0:0:0:
256,192,140603,1,0,0:0:0:0:
256,192,140690,1,0,0:0:0:0:
256,192,140862,1,8,0:0:0:0:
256,192,140948,1,8,0:0:0:0:
256,192,141034,1,0,0:0:0:0:
256,192,141121,1,0,0:0:0:0:
256,192,141207,1,8,0:0:0:0:
256,192,141379,1,0,0:0:0:0:
256,192,141552,1,0,0:0:0:0:
256,192,141724,1,8,0:0:0:0:
256,192,141810,1,0,0:0:0:0:
256,192,141983,1,8,0:0:0:0:
256,192,142155,1,0,0:0:0:0:
256,192,142241,1,8,0:0:0:0:
256,192,142414,1,8,0:0:0:0:
256,192,142500,1,8,0:0:0:0:
256,192,142586,1,0,0:0:0:0:
256,192,142672,1,0,0:0:0:0:
256,192,142758,1,0,0:0:0:0:
256,192,142931,1,0,0:0:0:0:
256,192,143017,1,0,0:0:0:0:
256,192,143103,1,8,0:0:0:0:
256,192,143276,1,0,0:0:0:0:
256,192,143362,1,8,0:0:0:0:
256,192,143534,1,0,0:0:0:0:
256,192,143621,1,8,0:0:0:0:
256,192,143793,1,0,0:0:0:0:
256,192,143879,1,8,0:0:0:0:
256,192,143965,1,8,0:0:0:0:
256,192,144052,1,0,0:0:0:0:
256,192,144138,1,0,0:0:0:0:
256,192,144310,1,0,0:0:0:0:
256,192,144483,1,8,0:0:0:0:
256,192,144569,1,8,0:0:0:0:
256,192,144655,1,0,0:0:0:0:
256,192,144741,1,0,0:0:0:0:
256,192,144827,1,8,0:0:0:0:
256,192,145000,1,0,0:0:0:0:
256,192,145086,1,0,0:0:0:0:
256,192,145172,1,8,0:0:0:0:
256,192,145258,1,8,0:0:0:0:
256,192,145345,1,8,0:0:0:0:
256,192,145431,1,0,0:0:0:0:
256,192,145517,1,8,0:0:0:0:
256,192,145690,1,0,0:0:0:0:
256,192,145776,1,0,0:0:0:0:
256,192,145862,1,8,0:0:0:0:
256,192,145948,1,8,0:0:0:0:
256,192,146034,1,0,0:0:0:0:
256,192,146121,1,8,0:0:0:0:
256,192,146207,1,0,0:0:0:0:
256,192,146379,1,0,0:0:0:0:
256,192,146465,1,0,0:0:0:0:
256,192,146552,1,8,0:0:0:0:
256,192,146638,1,8,0:0:0:0:
256,192,146724,1,0,0:0:0:0:
256,192,146810,1,0,0:0:0:0:
256,192,146896,1,0,0:0:0:0:
256,192,147069,1,0,0:0:0:0:
256,192,147241,1,8,0:0:0:0:
256,192,147327,1,0,0:0:0:0:
256,192,147500,1,8,0:0:0:0:
256,192,147672,1,0,0:0:0:0:
256,192,147758,1,8,0:0:0:0:
256,192,147931,1,8,0:0:0:0:
256,192,148017,1,8,0:0:0:0:
256,192,148103,1,0,0:0:0:0:
256,192,148276,1,0,0:0:0:0:
256,192,148448,1,0,0:0:0:0:
256,192,148534,1,0,0:0:0:0:
256,192,148621,1,8,0:0:0:0:
256,192,148793,1,0,0:0:0:0:
256,192,148879,1,8,0:0:0:0:
256,192,149052,1,0,0:0:0:0:
256,192,149138,1,8,0:0:0:0:
256,192,149310,1,0,0:0:0:0:
256,192,149396,1,8,0:0:0:0:
256,192,149483,1,8,0:0:0:0:
256,192,149569,1,0,0:0:0:0:
256,192,149655,1,8,0:0:0:0:
256,192,149827,1,0,0:0:0:0:
256,192,150000,1,8,0:0:0:0:
256,192,150086,1,8,0:0:0:0:
256,192,150172,1,0,0:0:0:0:
256,192,150258,1,0,0:0:0:0:
256,192,150345,1,8,0:0:0:0:
256,192,150517,1,0,0:0:0:0:
256,192,150603,1,0,0:0:0:0:
256,192,150690,1,8,0:0:0:0:
256,192,150862,1,8,0:0:0:0:
256,192,150948,1,8,0:0:0:0:
256,192,151034,1,0,0:0:0:0:
256,192,151207,1,0,0:0:0:0:
256,192,151293,1,0,0:0:0:0:
256,192,151379,1,8,0:0:0:0:
256,192,151465,1,8,0:0:0:0:
256,192,151552,1,0,0:0:0:0:
256,192,151638,1,0,0:0:0:0:
256,192,151724,1,0,0:0:0:0:
256,192,151896,1,8,0:0:0:0:
256,192,151983,1,8,0:0:0:0:
256,192,152069,1,0,0:0:0:0:
256,192,152241,1,8,0:0:0:0:
256,192,152414,1,0,0:0:0:0:
256,192,152586,1,0,0:0:0:0:
256,192,152758,1,8,0:0:0:0:
256,192,152845,1,0,0:0:0:0:
256,192,153017,1,8,0:0:0:0:
256,192,153190,1,0,0:0:0:0:
256,192,153276,1,8,0:0:0:0:
256,192,153448,1,8,0:0:0:0:
256,192,153534,1,8,0:0:0:0:
256,192,153621,1,0,0:0:0:0:
256,192,153793,1,0,0:0:0:0:
256,192,153965,1,0,0:0:0:0:
256,192,154052,1,0,0:0:0:0:
256,192,154138,1,8,0:0:0:0:
256,192,154310,1,0,0:0:0:0:
256,192,154396,1,8,0:0:0:0:
256,192,154483,1,0,0:0:0:0:
256,192,154569,1,0,0:0:0:0:
256,192,154655,1,8,0:0:0:0:
256,192,154827,1,0,0:0:0:0:
256,192,155172,1,4,0:0:0:0:
