osu file format v14

[General]
AudioFilename: audio.mp3
AudioLeadIn: 0
PreviewTime: 66197
Countdown: 0
SampleSet: Normal
StackLeniency: 0.7
Mode: 1
LetterboxInBreaks: 0
WidescreenStoryboard: 1

[Editor]
Bookmarks: 55852,72241,77414,88965,155162
DistanceSpacing: 0.8
BeatDivisor: 2
GridSize: 16
TimelineZoom: 1.5

[Metadata]
Title:I'm For You (Cut Ver.)
TitleUnicode:I'm For You (Cut Ver.)
Artist:Magnetude
ArtistUnicode:Magnetude
Creator:Jonarwhal
Version:Futsuu
Source:
Tags:vulkin im mappers' guild mg mpg electronic english instrumental username105 jonawaga featured artist fa
BeatmapID:2622518
BeatmapSetID:1261647

[Difficulty]
HPDrainRate:7
CircleSize:5
OverallDifficulty:4
ApproachRate:5
SliderMultiplier:1.4
SliderTickRate:1

[Events]
//Background and Video events
0,0,"clip+(2020-09-19+at+05.16.08).jpg",0,0
//Break Periods
//Storyboard Layer 0 (Background)
//Storyboard Layer 1 (Fail)
//Storyboard Layer 2 (Pass)
//Storyboard Layer 3 (Foreground)
//Storyboard Layer 4 (Overlay)
//Storyboard Sound Samples

[TimingPoints]
690,344.827586206897,4,1,0,40,1,0
22672,-100,4,1,0,70,0,0
22845,-100,4,1,0,20,0,0
25431,-100,4,1,0,35,0,0
25862,-100,4,1,0,20,0,0
28190,-100,4,1,0,70,0,0
28362,-100,4,1,0,25,0,0
30948,-100,4,1,0,40,0,0
31379,-100,4,1,0,25,0,0
33707,-100,4,1,0,70,0,0
33879,-100,4,1,0,30,0,0
36465,-100,4,1,0,45,0,0
36896,-100,4,1,0,30,0,0
39224,-100,4,1,0,70,0,0
39396,-100,4,1,0,35,0,0
41983,-100,4,1,0,50,0,0
42414,-100,4,1,0,35,0,0
44741,-100,4,1,0,80,0,0
44913,-100,4,1,0,40,0,0
55776,-100,4,1,0,80,0,0
66853,-100,4,1,0,100,0,0
66896,-100,4,1,0,100,0,1
76896,-100,4,1,0,100,0,0
77931,-100,4,1,0,100,0,1
86207,-100,4,1,0,100,0,0
86552,-100,4,1,0,100,0,1
87931,-100,4,1,0,80,0,0
110991,-100,4,1,0,100,0,0
111034,-100,4,1,0,100,0,1
121034,-100,4,1,0,100,0,0
122069,-100,4,1,0,100,0,1
130345,-100,4,1,0,100,0,0
130690,-100,4,1,0,100,0,1
132069,-100,4,1,0,80,0,0
149612,-100,4,1,0,70,0,0

[HitObjects]
256,192,17241,12,0,22414,0:0:0:0:
256,192,22758,5,0,0:0:0:0:
256,192,25517,1,0,0:0:0:0:
256,192,28276,1,0,0:0:0:0:
256,192,31034,1,0,0:0:0:0:
256,192,33793,1,0,0:0:0:0:
256,192,36552,1,0,0:0:0:0:
256,192,39310,1,0,0:0:0:0:
256,192,42069,1,0,0:0:0:0:
256,192,42414,12,0,44483,0:0:0:0:
256,192,44827,5,4,0:0:0:0:
256,192,47586,1,0,0:0:0:0:
256,192,48621,1,0,0:0:0:0:
256,192,49655,1,0,0:0:0:0:
256,192,50345,1,0,0:0:0:0:
256,192,53103,5,0,0:0:0:0:
256,192,55862,5,4,0:0:0:0:
256,192,56207,1,8,0:0:0:0:
256,192,56724,1,0,0:0:0:0:
256,192,56896,1,0,0:0:0:0:
256,192,57241,1,0,0:0:0:0:
256,192,57586,1,8,0:0:0:0:
256,192,58103,1,0,0:0:0:0:
256,192,58276,1,8,0:0:0:0:
256,192,58621,1,0,0:0:0:0:
256,192,58965,1,8,0:0:0:0:
256,192,59483,1,0,0:0:0:0:
256,192,59655,1,8,0:0:0:0:
256,192,60000,1,0,0:0:0:0:
256,192,60345,1,0,0:0:0:0:
256,192,61034,1,8,0:0:0:0:
256,192,61379,1,0,0:0:0:0:
256,192,61724,1,8,0:0:0:0:
256,192,62241,1,0,0:0:0:0:
256,192,62414,1,0,0:0:0:0:
256,192,62758,1,0,0:0:0:0:
256,192,63103,1,8,0:0:0:0:
256,192,63621,1,0,0:0:0:0:
256,192,63793,1,8,0:0:0:0:
256,192,64138,1,0,0:0:0:0:
256,192,64483,1,8,0:0:0:0:
256,192,64827,1,0,0:0:0:0:
256,192,65172,1,0,0:0:0:0:
256,192,65517,1,8,0:0:0:0:
256,192,66207,1,8,0:0:0:0:
256,192,66552,1,0,0:0:0:0:
256,192,66896,1,4,0:0:0:0:
256,192,67241,1,8,0:0:0:0:
256,192,67414,1,0,0:0:0:0:
256,192,67758,1,8,0:0:0:0:
256,192,68276,1,4,0:0:0:0:
256,192,68621,1,8,0:0:0:0:
256,192,68793,1,0,0:0:0:0:
256,192,69138,1,8,0:0:0:0:
256,192,69655,1,12,0:0:0:0:
256,192,70000,1,8,0:0:0:0:
256,192,70172,1,8,0:0:0:0:
256,192,70517,1,0,0:0:0:0:
256,192,71034,1,4,0:0:0:0:
256,192,71379,1,8,0:0:0:0:
256,192,71552,1,0,0:0:0:0:
256,192,71896,1,8,0:0:0:0:
256,192,72414,1,12,0:0:0:0:
256,192,73103,1,8,0:0:0:0:
256,192,73448,1,0,0:0:0:0:
256,192,73621,1,0,0:0:0:0:
256,192,73793,1,8,0:0:0:0:
256,192,74138,1,0,0:0:0:0:
256,192,74483,1,8,0:0:0:0:
256,192,74655,1,8,0:0:0:0:
256,192,74827,1,0,0:0:0:0:
256,192,75172,1,8,0:0:0:0:
256,192,75517,1,0,0:0:0:0:
256,192,75690,1,0,0:0:0:0:
256,192,75862,1,8,0:0:0:0:
256,192,76207,1,0,0:0:0:0:
256,192,76552,1,8,0:0:0:0:
256,192,76896,1,0,0:0:0:0:
256,192,77931,1,4,0:0:0:0:
256,192,78276,1,8,0:0:0:0:
256,192,78448,1,0,0:0:0:0:
256,192,78793,1,8,0:0:0:0:
256,192,79310,1,4,0:0:0:0:
256,192,79655,1,8,0:0:0:0:
256,192,79827,1,0,0:0:0:0:
256,192,80172,1,8,0:0:0:0:
256,192,80690,1,12,0:0:0:0:
256,192,81034,1,8,0:0:0:0:
256,192,81207,1,8,0:0:0:0:
256,192,81552,1,0,0:0:0:0:
256,192,82069,1,4,0:0:0:0:
256,192,82414,1,8,0:0:0:0:
256,192,82586,1,0,0:0:0:0:
256,192,82931,1,8,0:0:0:0:
256,192,83448,1,12,0:0:0:0:
256,192,84138,1,8,0:0:0:0:
256,192,84483,1,0,0:0:0:0:
256,192,84655,1,0,0:0:0:0:
256,192,84827,1,8,0:0:0:0:
256,192,85172,1,0,0:0:0:0:
256,192,85517,1,8,0:0:0:0:
256,192,85690,1,0,0:0:0:0:
256,192,85862,1,8,0:0:0:0:
256,192,86207,1,0,0:0:0:0:
256,192,86552,1,8,0:0:0:0:
256,192,86896,1,0,0:0:0:0:
256,192,87069,1,0,0:0:0:0:
256,192,87241,1,8,0:0:0:0:
256,192,87414,1,8,0:0:0:0:
256,192,87586,1,0,0:0:0:0:
256,192,87931,1,8,0:0:0:0:
256,192,88965,1,4,0:0:0:0:
256,192,89310,1,8,0:0:0:0:
256,192,89483,1,8,0:0:0:0:
256,192,89655,1,0,0:0:0:0:
256,192,90000,1,0,0:0:0:0:
256,192,90345,1,8,0:0:0:0:
256,192,90690,1,0,0:0:0:0:
256,192,91034,1,0,0:0:0:0:
256,192,91207,1,8,0:0:0:0:
256,192,91379,1,8,0:0:0:0:
256,192,91724,1,0,0:0:0:0:
256,192,92069,1,8,0:0:0:0:
256,192,92586,1,0,0:0:0:0:
256,192,92758,1,8,0:0:0:0:
256,192,93276,1,8,0:0:0:0:
256,192,93448,1,8,0:0:0:0:
256,192,93965,1,8,0:0:0:0:
256,192,94138,1,0,0:0:0:0:
256,192,94483,1,4,0:0:0:0:
256,192,94827,1,8,0:0:0:0:
256,192,95000,1,8,0:0:0:0:
256,192,95172,1,0,0:0:0:0:
256,192,95517,1,0,0:0:0:0:
256,192,95862,1,8,0:0:0:0:
256,192,96207,1,0,0:0:0:0:
256,192,96552,1,0,0:0:0:0:
256,192,96724,1,8,0:0:0:0:
256,192,96896,1,8,0:0:0:0:
256,192,97241,1,0,0:0:0:0:
256,192,97931,1,8,0:0:0:0:
256,192,98276,1,0,0:0:0:0:
256,192,98621,1,8,0:0:0:0:
256,192,98965,1,8,0:0:0:0:
256,192,99310,1,0,0:0:0:0:
256,192,100000,1,4,0:0:0:0:
256,192,100345,1,8,0:0:0:0:
256,192,100517,1,8,0:0:0:0:
256,192,100690,1,0,0:0:0:0:
256,192,101035,1,0,0:0:0:0:
256,192,101380,1,8,0:0:0:0:
256,192,101725,1,0,0:0:0:0:
256,192,102069,1,0,0:0:0:0:
256,192,102241,1,8,0:0:0:0:
256,192,102414,1,8,0:0:0:0:
256,192,102759,1,0,0:0:0:0:
256,192,103104,1,8,0:0:0:0:
256,192,103621,1,0,0:0:0:0:
256,192,103793,1,8,0:0:0:0:
256,192,104311,1,8,0:0:0:0:
256,192,104483,1,8,0:0:0:0:
256,192,105000,1,8,0:0:0:0:
256,192,105173,1,0,0:0:0:0:
256,192,105518,1,4,0:0:0:0:
256,192,105862,1,8,0:0:0:0:
256,192,106034,1,8,0:0:0:0:
256,192,106207,1,0,0:0:0:0:
256,192,106552,1,0,0:0:0:0:
256,192,106897,1,8,0:0:0:0:
256,192,107242,1,0,0:0:0:0:
256,192,107587,1,0,0:0:0:0:
256,192,107758,1,8,0:0:0:0:
256,192,107931,1,8,0:0:0:0:
256,192,108276,1,0,0:0:0:0:
256,192,108621,1,8,0:0:0:0:
256,192,109311,1,0,0:0:0:0:
256,192,109656,1,8,0:0:0:0:
256,192,110000,1,8,0:0:0:0:
256,192,110345,1,0,0:0:0:0:
256,192,111035,1,4,0:0:0:0:
256,192,111379,1,8,0:0:0:0:
256,192,111552,1,0,0:0:0:0:
256,192,111896,1,8,0:0:0:0:
256,192,112414,1,4,0:0:0:0:
256,192,112759,1,8,0:0:0:0:
256,192,112931,1,0,0:0:0:0:
256,192,113276,1,8,0:0:0:0:
256,192,113793,1,12,0:0:0:0:
256,192,114138,1,8,0:0:0:0:
256,192,114310,1,8,0:0:0:0:
256,192,114655,1,0,0:0:0:0:
256,192,115172,1,4,0:0:0:0:
256,192,115517,1,8,0:0:0:0:
256,192,115690,1,0,0:0:0:0:
256,192,116034,1,8,0:0:0:0:
256,192,116552,1,12,0:0:0:0:
256,192,117241,1,8,0:0:0:0:
256,192,117586,1,0,0:0:0:0:
256,192,117758,1,0,0:0:0:0:
256,192,117931,1,8,0:0:0:0:
256,192,118276,1,0,0:0:0:0:
256,192,118621,1,8,0:0:0:0:
256,192,118793,1,8,0:0:0:0:
256,192,118965,1,0,0:0:0:0:
256,192,119310,1,8,0:0:0:0:
256,192,119655,1,0,0:0:0:0:
256,192,119827,1,0,0:0:0:0:
256,192,120000,1,8,0:0:0:0:
256,192,120345,1,0,0:0:0:0:
256,192,120690,1,8,0:0:0:0:
256,192,121034,1,0,0:0:0:0:
256,192,122069,1,4,0:0:0:0:
256,192,122414,1,8,0:0:0:0:
256,192,122586,1,0,0:0:0:0:
256,192,122931,1,8,0:0:0:0:
256,192,123448,1,4,0:0:0:0:
256,192,123793,1,8,0:0:0:0:
256,192,123965,1,0,0:0:0:0:
256,192,124310,1,8,0:0:0:0:
256,192,124828,1,12,0:0:0:0:
256,192,125172,1,8,0:0:0:0:
256,192,125345,1,8,0:0:0:0:
256,192,125690,1,0,0:0:0:0:
256,192,126207,1,4,0:0:0:0:
256,192,126552,1,8,0:0:0:0:
256,192,126724,1,0,0:0:0:0:
256,192,127069,1,8,0:0:0:0:
256,192,127586,1,12,0:0:0:0:
256,192,128276,1,8,0:0:0:0:
256,192,128621,1,0,0:0:0:0:
256,192,128793,1,0,0:0:0:0:
256,192,128965,1,8,0:0:0:0:
256,192,129310,1,0,0:0:0:0:
256,192,129655,1,8,0:0:0:0:
256,192,129828,1,0,0:0:0:0:
256,192,130000,1,8,0:0:0:0:
256,192,130345,1,0,0:0:0:0:
256,192,130690,1,8,0:0:0:0:
256,192,131034,1,0,0:0:0:0:
256,192,131207,1,0,0:0:0:0:
256,192,131379,1,8,0:0:0:0:
256,192,131552,1,8,0:0:0:0:
256,192,131724,1,0,0:0:0:0:
256,192,132069,1,8,0:0:0:0:
256,192,133103,1,4,0:0:0:0:
256,192,133448,1,8,0:0:0:0:
256,192,133965,1,8,0:0:0:0:
256,192,134138,1,8,0:0:0:0:
256,192,134483,1,0,0:0:0:0:
256,192,134827,1,8,0:0:0:0:
256,192,135345,1,8,0:0:0:0:
256,192,135517,1,0,0:0:0:0:
256,192,135862,1,0,0:0:0:0:
256,192,136207,1,8,0:0:0:0:
256,192,136896,1,8,0:0:0:0:
256,192,137241,1,0,0:0:0:0:
256,192,137586,1,0,0:0:0:0:
256,192,138103,1,0,0:0:0:0:
256,192,138276,1,8,0:0:0:0:
256,192,138621,1,0,0:0:0:0:
256,192,138965,1,8,0:0:0:0:
256,192,139483,1,8,0:0:0:0:
256,192,139655,1,8,0:0:0:0:
256,192,140000,1,0,0:0:0:0:
256,192,140345,1,8,0:0:0:0:
256,192,140862,1,8,0:0:0:0:
256,192,141034,1,0,0:0:0:0:
256,192,141379,1,0,0:0:0:0:
256,192,141724,1,8,0:0:0:0:
256,192,142414,1,8,0:0:0:0:
256,192,142758,1,0,0:0:0:0:
256,192,143103,1,8,0:0:0:0:
256,192,143621,1,0,0:0:0:0:
256,192,143793,1,8,0:0:0:0:
256,192,144138,1,0,0:0:0:0:
256,192,144483,1,8,0:0:0:0:
256,192,145000,1,8,0:0:0:0:
256,192,145173,1,8,0:0:0:0:
256,192,145518,1,0,0:0:0:0:
256,192,145862,1,8,0:0:0:0:
256,192,146380,1,8,0:0:0:0:
256,192,146552,1,0,0:0:0:0:
256,192,146897,1,0,0:0:0:0:
256,192,147242,1,8,0:0:0:0:
256,192,147931,1,8,0:0:0:0:
256,192,148276,1,0,0:0:0:0:
256,192,148621,1,0,0:0:0:0:
256,192,149138,1,0,0:0:0:0:
256,192,149311,1,8,0:0:0:0:
256,192,149656,1,0,0:0:0:0:
256,192,150000,1,8,0:0:0:0:
256,192,150690,1,8,0:0:0:0:
256,192,151034,1,0,0:0:0:0:
256,192,151379,1,0,0:0:0:0:
256,192,152069,1,8,0:0:0:0:
256,192,152414,1,0,0:0:0:0:
256,192,152758,1,8,0:0:0:0:
256,192,153448,1,8,0:0:0:0:
256,192,153793,1,0,0:0:0:0:
256,192,154138,1,0,0:0:0:0:
256,192,155172,1,4,0:0:0:0:
