osu file format v14

[General]
AudioFilename: audio.mp3
AudioLeadIn: 0
PreviewTime: 200974
Countdown: 0
SampleSet: Soft
StackLeniency: 0.5
Mode: 0
LetterboxInBreaks: 0
WidescreenStoryboard: 1

[Editor]
Bookmarks: 22369,44695,67020,89346,111671,133997,156323,178648,200974,223299,245625,267950
DistanceSpacing: 0.5
BeatDivisor: 4
GridSize: 32
TimelineZoom: 1.9

[Metadata]
Title:At All Costs (feat. Julia Marks)
TitleUnicode:At All Costs (feat. Julia Marks)
Artist:Magnetude & Gridoptic
ArtistUnicode:Magnetude & Gridoptic
Creator:Zer0-
Version:Insane
Source:
Tags:fa featured artist dnb neurofunk rusty k drum and bass neuro neurowave electronic renegade hardware english zero instrumental jae overtech mappers' guild
BeatmapID:2567077
BeatmapSetID:1108285

[Difficulty]
HPDrainRate:4.2
CircleSize:4
OverallDifficulty:8
ApproachRate:8.7
SliderMultiplier:1.92
SliderTickRate:1

[Events]
//Background and Video events
0,0,"background.jpg",0,0
//Break Periods
//Storyboard Layer 0 (Background)
//Storyboard Layer 1 (Fail)
//Storyboard Layer 2 (Pass)
//Storyboard Layer 3 (Foreground)
//Storyboard Layer 4 (Overlay)
//Storyboard Sound Samples

[TimingPoints]
160,348.837209302326,4,2,1,100,1,0
22485,-200,4,2,1,40,0,0
44811,-100,4,2,1,80,0,0
66787,-133.333333333333,4,2,1,80,0,0
67136,-100,4,2,1,80,0,0
77514,-200,4,2,1,80,0,0
78299,-399.999999999997,4,2,1,80,0,0
78822,-100,4,2,1,80,0,0
88066,-399.999999999997,4,2,1,80,0,0
88648,-200,4,2,1,80,0,0
89113,-100,4,2,1,80,0,0
110392,-400,4,2,1,80,0,0
110741,-66.6666666666667,4,2,1,80,0,0
111787,-100,4,2,1,60,0,0
133328,-133.333333333333,4,2,1,60,0,0
133590,-200,4,2,1,60,0,0
134113,-333.333333333333,4,2,1,40,0,0
156439,-200,4,2,1,60,0,0
167601,-133.333333333333,4,2,1,60,0,0
178764,-200,4,2,1,80,0,0
179113,-80,4,2,1,80,0,1
180160,-100,4,2,1,80,0,1
180508,-100,4,2,1,80,0,1
181206,-100,4,2,1,80,0,1
181555,-200,4,2,1,80,0,1
181904,-80,4,2,1,80,0,1
182950,-133.333333333333,4,2,1,80,0,1
184084,-133.333333333333,4,2,1,80,0,1
184346,-200,4,2,1,80,0,1
184694,-80,4,2,1,80,0,1
185741,-100,4,2,1,80,0,1
186090,-100,4,2,1,80,0,1
189404,-133.333333333333,4,2,1,80,0,1
189927,-200,4,2,1,80,0,1
190276,-80,4,2,1,80,0,1
191322,-100,4,2,1,80,0,1
191671,-100,4,2,1,80,0,1
192369,-100,4,2,1,80,0,1
192718,-100,4,2,1,80,0,1
194113,-100,4,2,1,80,0,1
195508,-200,4,2,1,80,0,1
195857,-80,4,2,1,80,0,1
196904,-133.333333333333,4,2,1,80,0,1
197253,-100,4,2,1,80,0,1
197950,-100,4,2,1,80,0,1
198299,-200,4,2,1,80,0,1
198648,-100,4,2,1,80,0,1
200043,-100,4,2,1,80,0,0
200305,-200,4,2,1,80,0,0
201439,-80,4,2,1,80,0,1
202485,-133.333333333333,4,2,1,80,0,1
202834,-100,4,2,1,80,0,1
203880,-200,4,2,1,80,0,1
204229,-80,4,2,1,80,0,1
205276,-133.333333333333,4,2,1,80,0,1
205625,-100,4,2,1,80,0,1
206671,-200,4,2,1,80,0,1
207020,-80,4,2,1,80,0,1
208066,-100,4,2,1,80,0,1
211729,-133.333333333333,4,2,1,80,0,1
212253,-200,4,2,1,80,0,1
212601,-80,4,2,1,80,0,1
213648,-133.333333333333,4,2,1,80,0,1
213997,-100,4,2,1,80,0,1
215043,-133.333333333333,4,2,1,80,0,1
215392,-80,4,2,1,80,0,1
216439,-100,4,2,1,80,0,1
217834,-200,4,2,1,80,0,1
218183,-80,4,2,1,80,0,1
219229,-100,4,2,1,80,0,1
220625,-200,4,2,1,80,0,1
220973,-80,4,2,1,80,0,1
222369,-100,4,2,1,80,0,1
223415,-100,4,2,1,80,0,0
245414,-66.6666666666667,4,2,1,20,0,0
245741,-100,4,2,1,40,0,0
267282,-133.333333333333,4,2,1,40,0,0
267543,-400,4,2,1,40,0,0
268066,-400,4,2,1,20,0,0
268154,-400,4,2,1,5,0,0
270857,-400,4,2,1,20,0,0
270945,-400,4,2,1,5,0,0
273648,-400,4,2,1,20,0,0
273736,-400,4,2,1,5,0,0
276439,-400,4,2,1,20,0,0
276527,-400,4,2,1,5,0,0

[Colours]
Combo1 : 255,193,143
Combo2 : 119,213,213
Combo3 : 133,160,221
Combo4 : 255,218,143

[HitObjects]
119,218,22485,6,0,P|166:213|211:195,1,96,2|0,0:0|0:0,0:0:0:0:
273,139,23008,2,0,P|320:144|365:162,1,96,2|0,0:0|0:0,0:0:0:0:
441,222,23532,2,0,L|448:113,1,96,2|0,0:0|0:0,0:0:0:0:
451,78,25276,6,0,P|490:91|469:127,1,96,2|0,0:0|0:0,0:0:0:0:
407,184,25799,2,0,P|415:225|373:224,1,96,2|0,0:0|0:0,0:0:0:0:
294,200,26322,2,0,P|262:227|241:191,1,96,2|0,0:0|0:0,0:0:0:0:
240,191,28066,6,0,P|225:235|230:283,1,96,2|0,0:0|0:0,0:0:0:0:
302,337,28590,2,0,P|348:328|387:300,1,96,2|0,0:0|0:0,0:0:0:0:
397,210,29113,2,0,B|366:173|366:173|322:154,1,96,2|0,0:0|0:0,0:0:0:0:
323,154,30857,6,0,B|278:160|278:160|262:147|262:147|232:147,1,96,2|0,0:0|0:0,0:0:0:0:
140,222,31380,2,0,B|184:215|184:215|200:228|200:228|230:228,1,96,2|0,0:0|0:0,0:0:0:0:
299,315,31904,2,0,B|271:313|254:321|254:321|238:308|238:308|223:311|208:308,1,96,2|0,0:0|0:0,0:0:0:0:
208,308,33648,6,0,B|190:264|190:264|208:219,1,96,0|0,1:2|0:0,0:0:0:0:
288,190,34171,2,0,B|306:146|306:146|287:101,1,96,0|0,1:2|0:0,0:0:0:0:
246,33,34694,1,0,1:2:0:0:
288,190,35043,1,0,1:2:0:0:
288,190,36439,6,0,L|284:285,1,96,2|0,0:0|0:0,0:0:0:0:
336,346,36962,2,0,L|431:351,1,96,2|0,0:0|0:0,0:0:0:0:
488,298,37485,2,0,B|493:250|493:250|488:248|488:248|493:203,1,96,2|0,0:0|0:0,0:0:0:0:
492,201,39229,6,0,P|465:163|458:116,1,96,0|0,1:2|0:0,0:0:0:0:
372,175,39753,2,0,P|324:170|280:187,1,96,0|0,1:2|0:0,0:0:0:0:
224,239,40276,1,0,1:2:0:0:
350,52,40625,6,0,L|347:99,1,48,2|2,1:3|0:3,0:0:0:0:
278,160,40973,1,10,0:2:0:0:
278,160,41148,2,0,L|275:207,1,48,0|0,1:2|0:0,0:0:0:0:
343,269,41497,1,8,0:0:0:0:
343,269,41672,2,0,L|340:316,1,48,0|0,1:2|0:0,0:0:0:0:
273,365,42020,6,0,P|231:345|185:355,1,96,2|0,1:2|0:0,0:0:0:0:
111,335,42543,2,0,P|68:355|22:345,1,96,2|8,0:0|0:0,0:0:0:0:
27,265,43066,2,0,L|21:151,1,96,2|0,0:0|0:0,0:0:0:0:
21,169,44811,6,0,B|103:183|109:94|200:108,1,192,4|8,1:2|0:0,0:0:0:0:
306,146,45334,1,0,3:0:0:0:
327,135,45421,1,0,3:0:0:0:
344,118,45508,2,0,L|352:62,2,48,0|0|8,1:2|1:2|0:0,0:0:0:0:
409,211,45857,1,0,3:0:0:0:
409,234,45944,1,0,3:0:0:0:
409,258,46031,1,0,3:0:0:0:
410,282,46118,1,0,3:0:0:0:
410,306,46205,1,0,1:2:0:0:
410,306,46555,6,0,P|388:299|319:309,1,96,8|0,0:0|0:0,0:0:0:0:
298,323,46816,2,0,P|276:330|207:321,1,96,0|0,3:0|0:0,0:0:0:0:
187,305,47078,2,0,L|182:209,1,96,8|0,0:0|0:0,0:0:0:0:
195,189,47340,2,0,L|199:93,1,96,0|0,3:0|0:0,0:0:0:0:
189,71,47601,6,0,B|137:65|110:19|110:19|104:69|69:101,1,192,0|8,1:2|0:0,0:0:0:0:
13,188,48125,1,0,3:0:0:0:
16,211,48212,1,0,3:0:0:0:
19,235,48299,2,0,L|16:285,2,48,0|0|8,1:2|1:2|0:0,0:0:0:0:
101,177,48648,1,0,3:0:0:0:
120,163,48735,1,0,3:0:0:0:
143,158,48822,1,0,3:0:0:0:
167,161,48909,1,0,3:0:0:0:
187,173,48997,1,0,1:2:0:0:
187,173,49346,5,8,0:0:0:0:
290,30,49520,1,0,3:0:0:0:
290,30,49607,1,0,3:0:0:0:
290,30,49694,1,0,3:0:0:0:
281,172,49869,1,8,0:0:0:0:
176,29,50043,1,0,3:0:0:0:
176,29,50130,1,0,3:0:0:0:
176,29,50218,1,0,3:0:0:0:
187,173,50392,6,0,B|202:242|202:242|192:271|192:271|207:360,1,192,0|8,1:2|0:0,0:0:0:0:
114,320,50915,1,0,3:0:0:0:
110,297,51002,1,0,3:0:0:0:
106,273,51090,2,0,L|98:226,2,48,0|0|8,1:2|1:2|0:0,0:0:0:0:
207,360,51439,1,0,3:0:0:0:
230,356,51526,1,0,3:0:0:0:
254,352,51613,1,0,3:0:0:0:
278,348,51700,1,0,3:0:0:0:
301,345,51787,1,0,1:2:0:0:
301,345,52136,6,0,B|346:300|346:300|378:296,1,96,10|0,0:0|0:0,0:0:0:0:
402,297,52398,2,0,B|434:293|434:293|479:248,1,96,2|0,0:0|0:0,0:0:0:0:
477,223,52660,2,0,P|492:179|480:133,1,96,10|0,0:0|0:0,0:0:0:0:
464,116,52921,2,0,P|451:70|467:25,1,96,2|0,0:0|0:0,0:0:0:0:
443,18,53183,6,0,P|360:63|265:62,1,192,0|8,1:2|0:0,0:0:0:0:
134,5,53706,1,0,3:0:0:0:
136,28,53793,1,0,3:0:0:0:
138,52,53880,2,0,L|141:99,2,48,0|0|8,1:2|1:2|0:0,0:0:0:0:
38,99,54229,1,0,3:0:0:0:
36,122,54316,1,0,3:0:0:0:
34,145,54404,1,0,3:0:0:0:
32,168,54490,1,0,3:0:0:0:
30,191,54578,5,0,1:2:0:0:
67,315,54753,1,0,1:2:0:0:
181,264,54927,2,0,P|226:259|252:297,1,96,10|0,0:0|0:0,0:0:0:0:
275,304,55189,2,0,P|300:341|346:336,1,96,2|0,0:0|0:0,0:0:0:0:
365,322,55450,1,10,0:0:0:0:
439,253,55625,2,0,P|426:187|484:153,1,144,2|0,0:0|0:0,0:0:0:0:
478,176,55973,6,0,L|286:152,1,192,4|8,1:2|0:0,0:0:0:0:
192,229,56497,1,0,3:0:0:0:
190,252,56584,1,0,3:0:0:0:
198,275,56671,2,0,P|204:298|202:322,2,48,0|0|8,1:0|1:0|0:0,0:0:0:0:
96,223,57020,1,0,3:0:0:0:
78,238,57107,1,0,3:0:0:0:
55,246,57194,1,0,3:0:0:0:
31,244,57281,1,0,3:0:0:0:
10,234,57368,1,0,1:0:0:0:
10,234,57718,6,0,B|17:198|17:198|12:180|12:180|19:140,1,96,8|0,0:0|0:0,0:0:0:0:
31,119,57979,2,0,B|66:126|66:126|84:121|84:121|124:128,1,96,0|0,3:0|0:0,0:0:0:0:
143,144,58241,2,0,P|190:146|229:119,1,96,8|0,0:0|0:0,0:0:0:0:
242,99,58503,2,0,P|281:72|328:74,1,96,0|0,3:0|0:0,0:0:0:0:
352,72,58764,6,0,P|336:166|334:262,1,192,0|8,1:2|0:0,0:0:0:0:
407,324,59287,1,0,3:0:0:0:
431,319,59374,1,0,3:0:0:0:
454,314,59462,2,0,L|508:278,2,48,0|0|8,1:0|1:0|0:0,0:0:0:0:
330,369,59811,1,0,3:0:0:0:
306,366,59898,1,0,3:0:0:0:
282,363,59985,1,0,3:0:0:0:
258,361,60072,1,0,3:0:0:0:
234,358,60159,1,0,1:0:0:0:
234,358,60508,5,8,0:0:0:0:
70,239,60683,1,0,3:0:0:0:
70,239,60770,1,0,3:0:0:0:
70,239,60857,1,0,3:0:0:0:
237,258,61032,1,8,0:0:0:0:
72,375,61206,1,0,3:0:0:0:
72,375,61293,1,0,3:0:0:0:
72,375,61380,1,0,3:0:0:0:
234,357,61555,6,0,P|316:312|410:331,1,192,0|8,1:2|0:0,0:0:0:0:
493,245,62078,1,0,3:0:0:0:
494,221,62165,1,0,3:0:0:0:
496,196,62253,2,0,L|503:121,2,48,0|0|8,1:0|1:0|0:0,0:0:0:0:
395,230,62601,1,0,3:0:0:0:
376,214,62688,1,0,3:0:0:0:
362,195,62775,1,0,3:0:0:0:
353,173,62862,1,0,3:0:0:0:
349,149,62950,1,0,1:0:0:0:
349,148,63299,6,0,P|328:108|283:109,1,96,10|0,0:0|0:0,0:0:0:0:
265,125,63561,2,0,P|219:126|199:85,1,96,2|0,0:0|0:0,0:0:0:0:
191,63,63822,2,0,L|179:158,1,96,10|0,0:0|0:0,0:0:0:0:
161,174,64084,2,0,L|172:269,1,96,2|0,0:0|0:0,0:0:0:0:
186,289,64346,6,0,B|101:270|102:367|12:346,1,192,0|8,1:2|0:0,0:0:0:0:
4,229,64869,1,0,3:0:0:0:
2,205,64956,1,0,3:0:0:0:
0,180,65043,2,0,L|3:124,2,48,0|0|8,1:2|1:2|0:0,0:0:0:0:
91,188,65392,1,0,3:0:0:0:
114,183,65479,1,0,3:0:0:0:
138,178,65566,1,0,3:0:0:0:
161,174,65653,1,0,3:0:0:0:
185,169,65740,1,0,1:2:0:0:
185,169,66090,6,0,P|228:150|275:156,1,96,10|0,0:0|0:0,0:0:0:0:
302,227,66351,2,0,P|325:232|348:227,1,48,2|0,0:0|0:0,0:0:0:0:
385,162,66526,2,0,P|432:167|469:196,1,96,2|0,0:0|0:0,0:0:0:0:
485,212,66787,2,0,P|468:161|475:108,1,108.000004119873,2|2,0:0|0:0,0:0:0:0:
487,92,67136,6,0,B|396:92|396:92|388:99|388:99|295:98,1,192,4|8,1:2|0:0,0:0:0:0:
166,100,67660,1,0,3:0:0:0:
166,100,67747,1,0,3:0:0:0:
166,100,67834,1,0,1:2:0:0:
61,7,68008,1,8,0:0:0:0:
51,146,68183,1,0,3:0:0:0:
53,169,68270,1,0,3:0:0:0:
56,193,68357,1,0,3:0:0:0:
59,217,68444,1,0,3:0:0:0:
62,241,68531,1,0,1:0:0:0:
62,241,68880,6,0,P|103:264|150:266,1,96,8|0,0:0|0:0,0:0:0:0:
170,280,69142,2,0,P|211:256|236:215,1,96,0|0,3:0|0:0,0:0:0:0:
245,193,69404,2,0,P|292:193|334:215,1,96,8|0,0:0|0:0,0:0:0:0:
359,213,69666,2,0,P|382:254|384:301,1,96,0|0,3:0|0:0,0:0:0:0:
374,323,69927,6,0,P|463:309|444:374,1,192,0|8,1:2|0:0,0:0:0:0:
294,351,70450,1,0,3:0:0:0:
294,351,70537,1,0,3:0:0:0:
294,351,70625,1,0,1:2:0:0:
243,218,70799,1,8,0:0:0:0:
373,178,70973,1,0,3:0:0:0:
384,157,71060,1,0,3:0:0:0:
389,133,71147,1,0,3:0:0:0:
387,110,71234,1,0,3:0:0:0:
376,88,71321,1,0,1:2:0:0:
376,88,71671,6,0,B|331:94|329:62|283:72,1,96,8|0,0:0|3:0,0:0:0:0:
259,73,71933,2,0,B|214:67|212:99|166:88,1,96,0|0,3:0|0:0,0:0:0:0:
141,85,72194,2,0,P|125:129|133:175,1,96,8|0,0:0|3:0,0:0:0:0:
148,194,72456,2,0,P|156:240|139:284,1,96,0|0,3:0|0:0,0:0:0:0:
120,298,72718,6,0,B|204:287|205:372|300:363,1,192,0|8,1:2|0:0,0:0:0:0:
419,315,73241,1,0,3:0:0:0:
419,315,73328,1,0,3:0:0:0:
419,315,73415,1,0,1:0:0:0:
332,207,73590,1,8,0:0:0:0:
463,169,73764,1,0,3:0:0:0:
480,152,73851,1,0,3:0:0:0:
492,131,73938,1,0,3:0:0:0:
496,108,74025,1,0,3:0:0:0:
492,84,74112,1,0,1:0:0:0:
492,84,74462,6,0,B|448:65|448:65|402:80,1,96,8|0,0:0|0:0,0:0:0:0:
381,90,74723,2,0,B|335:105|335:105|291:86,1,96,0|0,3:0|0:0,0:0:0:0:
268,78,74985,2,0,B|224:59|224:59|178:74,1,96,8|0,0:0|0:0,0:0:0:0:
157,84,75246,2,0,B|111:99|111:99|67:80,1,96,0|0,3:0|0:0,0:0:0:0:
44,89,75508,6,0,P|95:166|72:257,1,192,0|8,1:2|0:0,0:0:0:0:
0,362,76032,1,0,3:0:0:0:
0,362,76119,1,0,3:0:0:0:
0,362,76206,1,0,1:0:0:0:
123,384,76380,1,8,0:0:0:0:
211,318,76555,1,0,3:0:0:0:
234,321,76642,1,0,3:0:0:0:
258,325,76729,1,0,3:0:0:0:
282,329,76816,1,0,3:0:0:0:
305,332,76904,6,0,L|400:324,1,96,0|0,1:0|0:0,0:0:0:0:
512,319,77253,1,10,0:0:0:0:
512,319,77514,6,0,P|513:296|505:273,1,48,2|0,1:2|0:0,0:0:0:0:
481,251,77776,2,0,P|461:237|437:233,1,48,2|0,1:2|0:0,0:0:0:0:
405,243,78037,2,0,P|383:253|368:272,1,48,2|0,1:2|0:0,0:0:0:0:
350,289,78299,6,0,P|326:290|303:283,1,48,4|8,1:2|0:0,0:0:0:0:
203,215,78822,1,0,3:0:0:0:
203,215,78909,1,0,3:0:0:0:
203,215,78996,1,0,1:0:0:0:
324,141,79171,1,8,0:0:0:0:
210,91,79346,1,0,3:0:0:0:
203,67,79433,1,0,3:0:0:0:
203,43,79520,1,0,3:0:0:0:
209,20,79607,1,0,3:0:0:0:
221,0,79694,1,0,1:0:0:0:
221,0,80043,6,0,P|226:46|205:89,1,96,8|0,0:0|0:0,0:0:0:0:
183,99,80305,2,0,P|177:145|198:188,1,96,0|0,3:0|0:0,0:0:0:0:
220,198,80566,2,0,P|267:192|312:207,1,96,8|0,0:0|0:0,0:0:0:0:
332,220,80828,2,0,P|379:225|424:210,1,96,0|0,3:0|0:0,0:0:0:0:
421,186,81090,6,0,L|400:384,1,192,0|8,1:2|0:0,0:0:0:0:
294,296,81613,1,0,3:0:0:0:
294,296,81700,1,0,3:0:0:0:
294,296,81787,1,0,1:0:0:0:
197,384,81962,1,8,0:0:0:0:
106,304,82136,1,0,3:0:0:0:
82,306,82223,1,0,3:0:0:0:
58,309,82310,1,0,3:0:0:0:
34,311,82397,1,0,3:0:0:0:
10,314,82484,1,0,1:0:0:0:
10,314,82834,6,0,B|16:285|7:263|7:263|21:278|47:277,1,96,8|0,0:0|3:0,0:0:0:0:
71,277,83096,2,0,B|99:267|113:248|113:248|107:268|121:291,1,96,0|0,3:0|0:0,0:0:0:0:
137,308,83357,2,0,P|180:326|225:311,1,96,8|0,0:0|3:0,0:0:0:0:
242,294,83619,2,0,P|286:279|330:297,1,96,0|0,3:0|0:0,0:0:0:0:
345,316,83880,6,0,B|319:273|330:214|359:239|383:179|348:127,1,192,0|8,1:2|0:0,0:0:0:0:
263,34,84404,1,0,3:0:0:0:
263,34,84491,1,0,3:0:0:0:
263,34,84578,1,0,1:0:0:0:
207,166,84753,1,8,0:0:0:0:
121,73,84927,1,0,3:0:0:0:
99,83,85014,1,0,3:0:0:0:
82,99,85101,1,0,3:0:0:0:
70,120,85188,1,0,3:0:0:0:
66,144,85275,1,0,1:0:0:0:
66,144,85625,6,0,B|110:156|110:156|141:195,1,96,8|0,0:0|0:0,0:0:0:0:
165,196,85886,2,0,B|196:156|196:156|240:144,1,96,0|0,3:0|0:0,0:0:0:0:
264,147,86148,2,0,L|270:242,1,96,8|0,0:0|0:0,0:0:0:0:
290,256,86410,2,0,L|385:249,1,96,0|0,3:0|0:0,0:0:0:0:
400,266,86671,6,0,P|428:189|492:241,1,192,0|8,1:2|0:0,0:0:0:0:
396,361,87194,1,0,3:0:0:0:
396,361,87282,1,0,3:0:0:0:
396,361,87369,1,0,1:2:0:0:
245,327,87543,1,8,0:0:0:0:
315,202,87718,1,0,3:0:0:0:
318,178,87805,1,0,3:0:0:0:
321,154,87892,1,0,3:0:0:0:
324,130,87979,1,0,3:0:0:0:
328,106,88066,6,0,L|330:58,1,48,0|2,1:2|0:0,0:0:0:0:
230,83,88648,2,0,P|199:88|168:82,2,64,2|2|2,0:0|0:0|0:0,0:0:0:0:
230,83,89462,6,0,P|136:69|41:82,1,192,4|8,1:2|0:0,0:0:0:0:
6,188,89985,1,0,3:0:0:0:
3,211,90072,1,0,3:0:0:0:
0,235,90160,2,0,L|6:296,2,48,0|0|8,1:2|1:2|0:0,0:0:0:0:
112,192,90508,1,0,3:0:0:0:
136,195,90595,1,0,3:0:0:0:
160,194,90682,1,0,3:0:0:0:
183,189,90769,1,0,3:0:0:0:
206,180,90857,1,0,1:2:0:0:
205,180,91206,6,0,P|180:219|186:266,1,96,8|0,0:0|0:0,0:0:0:0:
174,287,91468,2,0,P|195:328|238:347,1,96,0|0,3:0|0:0,0:0:0:0:
260,336,91729,2,0,L|354:350,1,96,8|0,0:0|0:0,0:0:0:0:
375,338,91991,2,0,L|469:352,1,96,0|0,3:0|0:0,0:0:0:0:
489,366,92253,6,0,P|475:271|482:175,1,192,0|8,1:2|0:0,0:0:0:0:
436,94,92776,1,0,3:0:0:0:
432,71,92863,1,0,3:0:0:0:
437,48,92950,2,0,P|456:33|479:27,2,48,0|0|8,1:0|1:0|0:0,0:0:0:0:
332,108,93299,1,0,3:0:0:0:
308,104,93386,1,0,3:0:0:0:
284,101,93473,1,0,3:0:0:0:
260,97,93560,1,0,3:0:0:0:
236,94,93647,5,0,1:2:0:0:
128,164,93822,1,0,1:2:0:0:
191,275,93997,2,0,P|154:303|106:303,1,96,8|0,0:0|3:0,0:0:0:0:
93,284,94258,2,0,P|45:284|7:312,1,96,0|0,3:0|0:0,0:0:0:0:
12,336,94520,1,8,0:0:0:0:
0,210,94694,1,0,3:0:0:0:
4,186,94781,1,0,3:0:0:0:
8,162,94868,1,0,3:0:0:0:
12,139,94955,1,0,0:0:0:0:
16,115,95043,6,0,B|65:84|65:84|193:121,1,192,0|8,1:2|0:0,0:0:0:0:
168,216,95567,1,0,3:0:0:0:
144,209,95654,1,0,3:0:0:0:
121,202,95741,2,0,L|52:182,2,48,0|0|8,1:2|1:2|0:0,0:0:0:0:
236,295,96090,1,0,3:0:0:0:
260,288,96177,1,0,3:0:0:0:
284,281,96264,1,0,3:0:0:0:
308,274,96352,1,0,3:0:0:0:
332,267,96439,1,0,1:2:0:0:
332,267,96787,6,0,P|324:223|359:193,1,96,8|0,0:0|0:0,0:0:0:0:
377,177,97049,2,0,P|385:132|350:102,1,96,0|0,3:0|0:0,0:0:0:0:
332,86,97311,2,0,P|284:92|237:84,1,96,8|0,0:0|0:0,0:0:0:0:
214,76,97572,2,0,P|166:69|119:77,1,96,0|0,3:0|0:0,0:0:0:0:
103,95,97834,6,0,L|115:287,1,192,0|8,1:2|0:0,0:0:0:0:
213,379,98357,1,0,3:0:0:0:
214,355,98444,1,0,3:0:0:0:
216,330,98532,2,0,L|222:260,2,48,0|0|8,1:0|1:0|0:0,0:0:0:0:
319,356,98880,1,0,3:0:0:0:
341,364,98967,1,0,3:0:0:0:
365,365,99054,1,0,3:0:0:0:
388,361,99141,1,0,3:0:0:0:
410,350,99228,5,0,1:2:0:0:
448,251,99404,1,0,1:2:0:0:
380,167,99578,2,0,P|367:122|384:78,1,96,8|0,0:0|3:0,0:0:0:0:
371,56,99840,2,0,P|325:44|295:8,1,96,0|0,3:0|3:0,0:0:0:0:
272,3,100101,1,8,0:0:0:0:
183,89,100276,2,0,P|243:93|212:145,1,144,2|0,0:0|0:0,0:0:0:0:
199,156,100625,6,0,P|183:250|187:346,1,192,4|8,1:2|0:0,0:0:0:0:
290,298,101148,1,0,3:0:0:0:
312,291,101235,1,0,3:0:0:0:
336,295,101322,2,0,L|394:288,2,48,0|0|8,1:0|1:0|0:0,0:0:0:0:
283,208,101671,1,0,3:0:0:0:
290,185,101758,1,0,3:0:0:0:
299,163,101845,1,0,3:0:0:0:
309,141,101932,1,0,3:0:0:0:
321,120,102019,1,0,1:2:0:0:
321,120,102369,6,0,P|347:157|393:154,1,96,8|0,0:0|0:0,0:0:0:0:
412,139,102630,2,0,P|457:135|484:173,1,96,0|0,3:0|0:0,0:0:0:0:
485,197,102892,2,0,L|476:292,1,96,8|0,0:0|0:0,0:0:0:0:
472,316,103154,2,0,L|376:307,1,96,0|0,3:0|0:0,0:0:0:0:
354,317,103415,6,0,P|281:275|248:353,1,192,0|8,1:2|0:0,0:0:0:0:
108,329,103939,1,0,3:0:0:0:
84,333,104026,1,0,3:0:0:0:
60,338,104113,2,0,L|12:332,2,48,0|0|8,1:0|1:0|0:0,0:0:0:0:
104,236,104462,1,0,3:0:0:0:
105,212,104549,1,0,3:0:0:0:
107,188,104636,1,0,3:0:0:0:
109,164,104723,1,0,3:0:0:0:
111,140,104810,5,0,1:2:0:0:
191,18,104985,1,0,1:2:0:0:
308,95,105160,2,0,P|354:96|384:61,1,96,8|0,0:0|3:0,0:0:0:0:
400,43,105421,2,0,P|446:41|476:76,1,96,0|0,3:0|0:0,0:0:0:0:
494,92,105683,2,0,P|475:135|471:183,1,96,8|0,0:0|3:0,0:0:0:0:
451,197,105944,2,0,P|469:240|473:288,1,96,0|0,3:0|0:0,0:0:0:0:
486,309,106206,6,0,B|396:303|398:383|308:366,1,192,0|8,1:2|0:0,0:0:0:0:
223,266,106729,1,0,3:0:0:0:
228,242,106816,1,0,3:0:0:0:
233,218,106904,2,0,L|237:170,2,48,0|0|8,1:0|1:0|0:0,0:0:0:0:
121,281,107253,1,0,3:0:0:0:
125,304,107340,1,0,3:0:0:0:
129,327,107427,1,0,3:0:0:0:
133,350,107514,1,0,3:0:0:0:
137,373,107601,1,0,1:2:0:0:
137,372,107950,6,0,P|131:325|102:288,1,96,8|0,0:0|0:0,0:0:0:0:
85,271,108212,2,0,P|90:223|119:186,1,96,0|0,3:0|0:0,0:0:0:0:
138,171,108473,2,0,P|140:124|148:76,1,96,8|0,0:0|0:0,0:0:0:0:
168,63,108735,2,0,P|215:65|263:73,1,96,0|0,3:0|0:0,0:0:0:0:
270,96,108997,6,0,B|395:48|395:48|377:103,1,192,0|8,1:2|0:0,0:0:0:0:
306,177,109520,1,0,3:0:0:0:
283,185,109607,1,0,3:0:0:0:
261,194,109694,2,0,L|213:178,2,48,0|0|8,1:2|1:2|0:0,0:0:0:0:
391,235,110043,1,0,3:0:0:0:
370,244,110130,1,0,3:0:0:0:
356,263,110217,1,0,3:0:0:0:
353,287,110304,1,0,3:0:0:0:
361,309,110392,6,0,P|366:326|364:344,1,36,0|0,1:2|0:0,0:0:0:0:
345,374,110741,1,10,0:0:0:0:
185,297,111003,1,2,0:0:0:0:
336,382,111264,1,10,0:0:0:0:
176,305,111526,1,2,0:0:0:0:
371,199,111787,6,0,P|381:152|374:105,1,96,4|0,1:2|0:0,0:0:0:0:
299,0,112136,1,8,0:0:0:0:
211,92,112311,2,0,P|164:94|118:81,1,96,0|0,1:2|0:0,0:0:0:0:
10,8,112660,1,8,0:0:0:0:
42,130,112834,1,0,3:0:0:0:
42,154,112921,1,0,3:0:0:0:
43,178,113008,1,0,3:0:0:0:
43,202,113095,1,0,3:0:0:0:
44,226,113182,1,0,1:2:0:0:
44,226,113532,6,0,P|90:235|129:263,1,96,8|0,0:0|3:0,0:0:0:0:
129,263,113793,1,0,3:0:0:0:
129,263,113880,1,0,3:0:0:0:
200,190,114055,2,0,P|246:180|285:152,1,96,8|0,0:0|3:0,0:0:0:0:
284,153,114316,1,0,3:0:0:0:
284,153,114403,1,0,3:0:0:0:
384,210,114578,6,0,L|380:305,1,96,0|0,1:2|0:0,0:0:0:0:
263,361,114927,1,8,0:0:0:0:
185,258,115101,2,0,P|138:246|92:257,1,96,0|0,1:2|0:0,0:0:0:0:
31,370,115450,1,8,0:0:0:0:
7,248,115625,1,0,3:0:0:0:
10,224,115712,1,0,3:0:0:0:
12,200,115799,1,0,3:0:0:0:
15,176,115886,1,0,3:0:0:0:
17,152,115973,5,0,1:2:0:0:
112,65,116148,1,0,1:2:0:0:
197,160,116322,1,8,0:0:0:0:
267,51,116497,1,0,3:0:0:0:
289,43,116584,1,0,3:0:0:0:
313,41,116671,1,0,3:0:0:0:
336,46,116758,1,0,3:0:0:0:
357,58,116845,1,8,0:0:0:0:
444,165,117020,1,0,3:0:0:0:
444,165,117107,1,0,3:0:0:0:
444,165,117194,1,0,3:0:0:0:
380,277,117369,6,0,P|334:287|287:279,1,96,0|0,1:2|0:0,0:0:0:0:
193,188,117718,1,8,0:0:0:0:
295,110,117892,2,0,L|286:14,1,96,0|0,1:2|0:0,0:0:0:0:
157,2,118241,1,8,0:0:0:0:
85,108,118415,1,0,3:0:0:0:
84,132,118502,1,0,3:0:0:0:
83,156,118589,1,0,3:0:0:0:
82,180,118676,1,0,3:0:0:0:
80,203,118763,1,0,1:2:0:0:
80,203,119113,6,0,B|85:246|48:248|61:294,1,96,8|0,0:0|3:0,0:0:0:0:
60,293,119375,1,0,3:0:0:0:
60,293,119462,1,0,3:0:0:0:
166,364,119636,2,0,B|209:369|211:332|257:345,1,96,8|0,0:0|3:0,0:0:0:0:
257,344,119898,1,0,3:0:0:0:
257,344,119985,1,0,3:0:0:0:
359,284,120160,6,0,L|365:188,1,96,0|0,1:2|0:0,0:0:0:0:
442,89,120508,1,8,0:0:0:0:
330,32,120683,2,0,P|283:23|237:38,1,96,0|0,1:2|0:0,0:0:0:0:
136,117,121032,1,8,0:0:0:0:
226,196,121206,1,0,3:0:0:0:
238,216,121293,1,0,3:0:0:0:
243,239,121380,1,0,3:0:0:0:
240,263,121467,1,0,3:0:0:0:
229,285,121554,5,0,1:2:0:0:
124,361,121729,1,0,1:2:0:0:
44,280,121904,2,0,L|37:182,1,96,8|0,0:0|3:0,0:0:0:0:
37,185,122165,1,2,0:0:0:0:
37,185,122253,1,0,1:2:0:0:
137,124,122427,2,0,L|149:182,1,48,0|0,3:0|3:0,0:0:0:0:
226,196,122601,1,0,3:0:0:0:
250,201,122688,1,0,3:0:0:0:
274,202,122775,1,0,3:0:0:0:
297,198,122862,1,0,3:0:0:0:
319,189,122950,6,0,L|327:93,1,96,4|0,1:2|0:0,0:0:0:0:
414,17,123299,1,8,0:0:0:0:
503,88,123473,2,0,L|511:183,1,96,0|0,1:2|0:0,0:0:0:0:
446,279,123822,1,8,0:0:0:0:
345,221,123997,1,0,3:0:0:0:
321,224,124084,1,0,3:0:0:0:
297,227,124171,1,0,3:0:0:0:
273,231,124258,1,0,3:0:0:0:
249,234,124345,1,0,1:2:0:0:
248,234,124694,6,0,P|231:277|240:324,1,96,8|0,0:0|3:0,0:0:0:0:
240,324,124956,1,0,3:0:0:0:
240,324,125043,1,0,3:0:0:0:
347,281,125218,2,0,P|376:318|421:333,1,96,8|0,0:0|3:0,0:0:0:0:
421,333,125480,1,0,3:0:0:0:
421,334,125567,1,0,3:0:0:0:
437,218,125741,6,0,P|441:171|430:124,1,96,0|0,1:2|0:0,0:0:0:0:
359,15,126090,1,8,0:0:0:0:
272,102,126264,2,0,P|224:106|178:94,1,96,0|0,1:2|0:0,0:0:0:0:
69,24,126613,1,8,0:0:0:0:
23,133,126787,1,0,3:0:0:0:
14,155,126874,1,0,3:0:0:0:
10,178,126961,1,0,3:0:0:0:
13,202,127048,1,0,3:0:0:0:
21,225,127135,5,0,1:2:0:0:
149,242,127311,1,0,1:2:0:0:
56,355,127485,1,8,0:0:0:0:
214,312,127660,1,0,3:0:0:0:
237,309,127747,1,0,3:0:0:0:
261,313,127834,1,0,3:0:0:0:
282,323,127921,1,0,3:0:0:0:
302,337,128008,1,8,0:0:0:0:
388,261,128182,1,0,3:0:0:0:
388,261,128270,1,0,3:0:0:0:
388,261,128357,1,0,3:0:0:0:
426,160,128532,6,0,P|379:149|333:161,1,96,0|0,1:2|0:0,0:0:0:0:
247,256,128880,1,8,0:0:0:0:
145,186,129055,2,0,P|131:142|144:97,1,96,0|0,1:2|0:0,0:0:0:0:
233,1,129404,1,8,0:0:0:0:
109,34,129578,1,0,3:0:0:0:
85,32,129665,1,0,3:0:0:0:
61,30,129752,1,0,3:0:0:0:
37,28,129839,1,0,3:0:0:0:
13,26,129926,1,0,1:2:0:0:
13,26,130276,6,0,P|23:72|25:120,1,96,8|0,0:0|3:0,0:0:0:0:
25,120,130537,1,0,3:0:0:0:
25,120,130625,1,0,3:0:0:0:
127,172,130799,2,0,P|116:218|114:266,1,96,8|0,0:0|3:0,0:0:0:0:
114,267,131060,1,0,3:0:0:0:
114,267,131148,1,0,3:0:0:0:
36,351,131322,6,0,P|81:366|128:358,1,96,0|0,1:2|0:0,0:0:0:0:
220,289,131671,1,8,0:0:0:0:
309,216,131846,2,0,P|355:208|401:223,1,96,0|0,1:2|0:0,0:0:0:0:
487,318,132194,1,8,0:0:0:0:
492,192,132369,1,0,3:0:0:0:
494,168,132456,1,0,3:0:0:0:
497,144,132543,1,0,3:0:0:0:
500,120,132630,1,0,3:0:0:0:
503,97,132717,1,0,1:2:0:0:
503,97,133066,6,0,P|460:78|414:87,1,96,10|0,0:0|0:0,0:0:0:0:
399,99,133328,2,0,P|365:108|330:102,1,72.0000027465821,2|0,1:2|0:0,0:0:0:0:
315,95,133590,2,0,P|283:144|288:203,1,120,10|0,0:0|0:0,0:0:0:0:
296,221,134113,6,0,L|287:261,1,28.7999991210938,2|0,0:0|0:0,0:0:0:0:
239,309,134462,1,2,0:0:0:0:
239,309,134636,2,0,L|248:349,1,28.7999991210938,2|0,0:0|0:0,0:0:0:0:
319,361,134985,2,0,P|333:359|347:358,1,28.7999991210938,2|0,0:0|0:0,0:0:0:0:
419,330,135334,6,0,P|483:290|430:237,1,172.799994726563,2|0,0:0|0:0,0:0:0:0:
371,184,136555,2,0,P|368:171|372:157,1,28.7999991210938,2|0,0:0|0:0,0:0:0:0:
433,108,136904,2,0,P|436:94|433:80,1,28.7999991210938,2|0,0:0|0:0,0:0:0:0:
377,26,137253,1,2,0:0:0:0:
377,26,137427,2,0,L|336:33,1,28.7999991210938,2|0,0:0|0:0,0:0:0:0:
283,73,137776,2,0,L|241:69,1,28.7999991210938,2|0,0:0|0:0,0:0:0:0:
184,104,138125,6,0,P|198:174|197:246,1,143.999995605469,2|0,0:0|0:0,0:0:0:0:
196,246,139346,2,0,P|181:244|168:239,1,28.7999991210938,2|0,0:0|0:0,0:0:0:0:
113,294,139694,2,0,P|171:292|139:341,1,143.999995605469,2|0,0:0|0:0,0:0:0:0:
256,192,140654,12,0,144578,0:0:0:0:
429,43,144927,6,0,P|427:57|424:71,1,28.7999991210938,2|0,0:0|0:0,0:0:0:0:
382,136,145276,2,0,P|383:150|386:164,1,28.7999991210938,2|0,0:0|0:0,0:0:0:0:
431,227,145625,1,0,0:0:0:0:
431,227,145799,2,0,L|428:255,1,28.7999991210938,2|0,0:0|0:0,0:0:0:0:
350,265,146148,2,0,L|353:237,1,28.7999991210938,2|0,0:0|0:0,0:0:0:0:
288,192,146497,2,0,L|250:198,1,28.7999991210938,2|0,0:0|0:0,0:0:0:0:
184,215,146846,6,0,P|129:204|103:155,1,115.199996484375,2|0,0:0|0:0,0:0:0:0:
77,81,147718,2,0,P|76:66|73:52,1,28.7999991210938,2|0,0:0|0:0,0:0:0:0:
145,22,148066,6,0,L|243:34,1,86.3999973632813,2|0,0:0|0:0,0:0:0:0:
306,50,148764,1,2,0:0:0:0:
306,50,149113,6,0,B|325:116|269:113|291:193,1,143.999995605469,2|0,0:0|0:0,0:0:0:0:
336,251,150160,2,0,P|349:256|363:260,1,28.7999991210938,2|0,0:0|0:0,0:0:0:0:
438,279,150508,6,0,P|484:226|479:156,1,143.999995605469,2|0,0:0|0:0,0:0:0:0:
256,192,151468,12,0,156090,0:0:0:0:
188,342,156439,6,0,L|195:198,1,144,0|0,1:2|0:0,0:0:0:0:
116,193,157136,2,0,L|113:240,1,48,0|0,1:2|0:0,0:0:0:0:
108,316,157485,2,0,L|105:363,1,48
36,282,157834,1,0,1:2:0:0:
36,282,158532,1,0,1:2:0:0:
36,282,159229,6,0,B|98:275|99:342|164:336,1,144,0|0,1:2|0:0,0:0:0:0:
238,303,159927,2,0,P|225:282|208:266,1,48,0|0,1:2|0:0,0:0:0:0:
138,230,160276,2,0,P|150:209|167:193,1,48
230,143,160625,1,0,1:2:0:0:
230,143,161322,1,0,0:0:0:0:
230,143,162020,6,0,B|276:142|306:121|306:121|296:152|307:183,1,144,0|0,1:2|0:0,0:0:0:0:
391,208,162718,2,0,P|391:185|383:162,1,48,0|0,1:2|0:0,0:0:0:0:
306,121,163066,2,0,P|298:98|298:74,1,48
341,5,163415,1,0,1:2:0:0:
341,5,164113,1,0,1:2:0:0:
341,5,164811,6,0,L|198:27,1,144,0|0,1:2|0:0,0:0:0:0:
149,87,165508,2,0,P|146:110|149:134,1,48,0|0,1:2|0:0,0:0:0:0:
200,196,165857,2,0,P|203:219|199:243,1,48
160,309,166206,1,0,1:2:0:0:
160,309,166904,1,0,1:2:0:0:
160,309,167601,6,0,P|229:296|250:264,1,108.000004119873,2|0,1:2|0:0,0:0:0:0:
256,243,167950,2,0,L|184:232,1,72.0000027465821,2|2,1:2|0:0,0:0:0:0:
87,275,168299,2,0,P|80:309|89:344,1,72.0000027465821,2|2,1:2|0:0,0:0:0:0:
184,232,168648,2,0,P|190:197|181:162,1,72.0000027465821,2|2,1:2|0:0,0:0:0:0:
118,104,168997,6,0,P|83:103|49:89,1,72.0000027465821,2|2,1:2|0:0,0:0:0:0:
180,42,169346,2,0,P|215:42|249:56,1,72.0000027465821,2|2,1:2|0:0,0:0:0:0:
328,124,169694,2,0,L|321:195,1,72.0000027465821,2|2,1:2|0:0,0:0:0:0:
425,296,170043,2,0,L|418:224,1,72.0000027465821,2|2,1:2|0:0,0:0:0:0:
497,143,170392,6,0,P|446:154|403:125,1,108.000004119873,2|0,1:2|0:0,0:0:0:0:
392,108,170741,2,0,L|397:36,1,72.0000027465821,2|2,1:2|0:0,0:0:0:0:
332,162,171090,2,0,L|260:156,1,72.0000027465821,2|2,1:2|0:0,0:0:0:0:
179,47,171439,2,0,L|250:41,1,72.0000027465821,2|2,1:2|0:0,0:0:0:0:
332,162,171787,6,0,B|342:197|342:197|334:231,1,72.0000027465821,2|2,1:2|0:0,0:0:0:0:
204,237,172136,2,0,B|194:202|194:202|201:167,1,72.0000027465821,2|2,1:2|0:0,0:0:0:0:
243,74,172485,2,0,L|172:79,1,72.0000027465821,2|2,1:2|0:0,0:0:0:0:
36,167,172834,2,0,L|107:172,1,72.0000027465821,2|2,1:2|0:0,0:0:0:0:
176,263,173183,6,0,L|171:334,1,72.0000027465821,0|2,1:2|0:0,0:0:0:0:
256,347,173532,1,0,1:2:0:0:
324,294,173706,1,2,0:0:0:0:
266,360,173880,1,0,1:2:0:0:
334,307,174054,1,2,0:0:0:0:
420,312,174229,2,0,P|452:324|481:350,1,72.0000027465821,0|2,1:2|0:0,0:0:0:0:
385,233,174578,6,0,P|379:199|387:161,1,72.0000027465821,0|2,1:2|0:0,0:0:0:0:
422,83,174927,1,0,1:2:0:0:
336,91,175101,1,2,0:0:0:0:
428,66,175276,1,0,1:2:0:0:
342,74,175450,1,2,0:0:0:0:
434,49,175625,1,0,1:2:0:0:
348,57,175799,1,2,0:0:0:0:
269,21,175973,5,0,1:2:0:0:
202,128,176148,1,0,1:2:0:0:
311,129,176322,1,0,1:2:0:0:
193,55,176497,1,0,1:2:0:0:
243,186,176671,1,0,1:2:0:0:
324,56,176846,1,0,1:2:0:0:
191,132,177020,1,0,1:2:0:0:
321,213,177195,1,0,1:2:0:0:
184,39,177369,6,0,L|102:54,3,72.0000027465821,2|2|2|2,1:2|0:0|0:0|0:0,0:0:0:0:
112,51,178764,2,0,P|95:81|102:116,1,72,4|0,1:2|0:0,0:0:0:0:
122,136,179113,6,0,P|180:130|234:155,1,120,10|0,0:0|0:0,0:0:0:0:
278,219,179375,2,0,P|285:278|260:332,1,120,2|0,1:2|0:0,0:0:0:0:
198,380,179636,2,0,P|139:386|85:361,1,120,10|0,0:0|0:0,0:0:0:0:
41,296,179898,2,0,P|34:237|60:184,1,120,2|0,1:2|0:0,0:0:0:0:
122,135,180160,6,0,P|104:76|51:110,1,144,0|0,1:2|0:0,0:0:0:0:
59,184,180508,1,8,0:0:0:0:
160,258,180683,1,0,3:0:0:0:
160,258,180770,1,0,3:0:0:0:
160,258,180857,1,0,3:0:0:0:
257,173,181032,1,8,0:0:0:0:
354,257,181206,2,0,P|358:234|356:210,1,48,2|0,0:0|0:0,0:0:0:0:
396,147,181380,2,0,P|388:124|374:104,1,48,2|0,0:0|0:0,0:0:0:0:
313,27,181555,6,0,P|303:59|271:54,1,72,0|0,1:2|0:0,0:0:0:0:
197,26,181904,2,0,B|148:27|148:27|129:40|129:40|80:40,1,120,10|0,0:0|0:0,0:0:0:0:
101,117,182165,2,0,B|150:117|150:117|169:104|169:104|218:103,1,120,2|0,1:2|0:0,0:0:0:0:
237,179,182427,2,0,B|188:180|188:180|169:193|169:193|121:194,1,120,10|0,0:0|0:0,0:0:0:0:
140,270,182689,2,0,B|188:269|188:269|207:256|207:256|256:255,1,120,2|0,1:2|0:0,0:0:0:0:
313,363,182950,6,0,B|311:333|311:333|233:335,1,108.000004119873,0|0,1:2|0:0,0:0:0:0:
220,344,183299,2,0,P|202:345|184:343,1,36.0000013732911,8|0,0:0|0:0,0:0:0:0:
140,270,183473,1,0,3:0:0:0:
140,270,183561,2,0,P|174:261|209:267,1,72.0000027465821,0|0,1:2|0:0,0:0:0:0:
242,188,183822,2,0,L|245:152,1,36.0000013732911,8|0,0:0|0:0,0:0:0:0:
157,89,183997,1,0,3:0:0:0:
157,89,184084,2,0,L|164:160,1,72.0000027465821,0|0,1:2|0:0,0:0:0:0:
326,150,184346,6,0,P|319:115|296:88,1,72,0|0,1:2|0:0,0:0:0:0:
281,102,184694,6,0,B|325:111|325:111|352:95|352:95|395:87,1,120,10|0,0:0|0:0,0:0:0:0:
508,183,184956,2,0,B|464:192|464:192|437:176|437:176|393:168,1,120,2|0,1:2|0:0,0:0:0:0:
281,264,185218,2,0,B|325:273|325:273|352:257|352:257|395:249,1,120,10|0,0:0|0:0,0:0:0:0:
508,345,185479,2,0,B|464:354|464:354|437:338|437:338|393:330,1,120,2|0,1:2|0:0,0:0:0:0:
279,364,185741,6,0,P|224:322|156:335,1,144,0|0,1:2|0:0,0:0:0:0:
99,384,186090,1,8,0:0:0:0:
61,278,186264,1,0,3:0:0:0:
61,278,186351,1,0,3:0:0:0:
61,278,186439,1,0,3:0:0:0:
115,172,186613,1,8,0:0:0:0:
169,278,186787,2,0,P|190:288|214:290,1,48,2|0,0:0|0:0,0:0:0:0:
287,313,186962,2,0,P|308:302|332:300,1,48,2|0,0:0|0:0,0:0:0:0:
392,366,187136,6,0,P|363:301|385:234,1,144,0|0,1:2|0:0,0:0:0:0:
407,230,187485,1,8,0:0:0:0:
287,207,187660,2,0,P|328:150|397:135,1,144,0|0,1:2|0:0,0:0:0:0:
412,151,188008,1,8,0:0:0:0:
375,39,188183,2,0,P|444:46|492:99,1,144,0|0,1:2|0:0,0:0:0:0:
485,119,188532,5,0,1:2:0:0:
471,246,188706,1,0,3:0:0:0:
368,170,188880,1,8,0:0:0:0:
353,297,189055,1,0,3:0:0:0:
331,305,189142,1,0,3:0:0:0:
307,307,189229,1,0,3:0:0:0:
284,301,189316,1,0,3:0:0:0:
263,290,189404,2,0,B|208:264|208:264|102:318,1,180.000006866455,8|0,0:0|0:0,0:0:0:0:
91,332,189927,6,0,L|86:260,1,72,4|0,1:2|0:0,0:0:0:0:
69,250,190276,2,0,P|123:263|148:213,1,120,10|0,0:0|0:0,0:0:0:0:
172,122,190537,2,0,P|117:108|92:158,1,120,2|0,1:2|0:0,0:0:0:0:
230,185,190799,2,0,P|284:198|309:148,1,120,10|0,0:0|0:0,0:0:0:0:
332,56,191060,2,0,P|277:42|252:92,1,120,2|0,1:2|0:0,0:0:0:0:
393,121,191322,6,0,B|422:95|426:58|426:58|428:95|451:123,1,144,0|0,1:2|0:0,0:0:0:0:
507,176,191671,1,8,0:0:0:0:
399,239,191846,1,0,3:0:0:0:
399,239,191933,1,0,3:0:0:0:
399,239,192020,1,0,3:0:0:0:
502,314,192194,1,8,0:0:0:0:
395,383,192369,2,0,P|375:371|352:366,1,48,2|0,0:0|0:0,0:0:0:0:
286,320,192543,2,0,P|265:332|249:350,1,48,2|0,0:0|0:0,0:0:0:0:
180,383,192718,6,0,B|116:353|116:353|126:280,1,144,0|0,1:2|0:0,0:0:0:0:
111,205,193066,2,0,B|141:141|141:141|213:151,1,144,0|0,1:2|0:0,0:0:0:0:
289,136,193415,2,0,B|353:166|353:166|342:238,1,144,0|0,1:2|0:0,0:0:0:0:
358,314,193764,2,0,B|328:378|328:378|255:367,1,144,0|0,1:2|0:0,0:0:0:0:
180,383,194113,5,8,0:0:0:0:
225,263,194287,1,0,3:0:0:0:
225,263,194375,1,0,3:0:0:0:
225,263,194462,1,0,3:0:0:0:
104,306,194636,1,8,0:0:0:0:
134,186,194811,1,0,3:0:0:0:
134,186,194899,1,0,3:0:0:0:
134,186,194986,1,8,0:0:0:0:
21,123,195160,1,0,3:0:0:0:
32,102,195247,1,0,3:0:0:0:
49,85,195334,1,0,3:0:0:0:
70,73,195421,1,0,3:0:0:0:
93,66,195508,6,0,B|121:66|124:95|158:98,1,72,0|0,1:2|0:0,0:0:0:0:
216,163,195857,2,0,P|197:108|234:64,1,120,10|0,0:0|0:0,0:0:0:0:
315,81,196119,2,0,P|333:135|297:180,1,120,2|0,1:2|0:0,0:0:0:0:
245,246,196380,2,0,P|301:262|353:235,1,120,10|0,0:0|0:0,0:0:0:0:
499,306,196642,2,0,P|442:289|390:316,1,120,2|0,1:2|0:0,0:0:0:0:
296,369,196904,6,0,L|302:261,1,108.000004119873,0|0,1:2|0:0,0:0:0:0:
296,180,197253,1,8,0:0:0:0:
185,245,197427,1,0,3:0:0:0:
185,245,197514,1,0,3:0:0:0:
185,245,197601,1,0,3:0:0:0:
196,116,197776,1,8,0:0:0:0:
84,179,197950,1,2,0:0:0:0:
93,50,198125,1,2,0:0:0:0:
219,29,198299,6,0,P|254:28|290:34,1,72,0|0,1:2|0:0,0:0:0:0:
306,31,198648,2,0,B|284:73|284:73|293:120,1,96,10|0,0:0|0:0,0:0:0:0:
355,178,198910,2,0,B|377:136|377:136|368:88,1,96,2|0,1:2|0:0,0:0:0:0:
207,90,199171,2,0,L|226:184,1,96,10|0,0:0|0:0,0:0:0:0:
156,274,199433,2,0,L|137:180,1,96,2|0,1:2|0:0,0:0:0:0:
91,99,199694,6,0,L|-4:100,1,96,2|0,1:2|0:0,0:0:0:0:
137,180,200043,1,10,0:0:0:0:
137,180,200305,6,0,P|156:167|180:163,1,48,2|0,1:2|0:0,0:0:0:0:
211,172,200567,2,0,P|233:182|248:201,1,48,2|0,1:2|0:0,0:0:0:0:
256,234,200828,2,0,P|258:258|249:280,1,48,2|0,1:2|0:0,0:0:0:0:
213,346,201090,6,0,P|247:357|281:346,1,72,4|0,1:2|0:0,0:0:0:0:
295,342,201439,6,0,B|352:324|352:324|403:354,1,120,10|0,0:0|0:0,0:0:0:0:
486,305,201700,2,0,L|382:243,1,120,2|0,1:2|0:0,0:0:0:0:
304,252,201962,2,0,L|200:190,1,120,10|0,0:0|0:0,0:0:0:0:
284,138,202223,2,0,B|335:168|335:168|392:150,1,120,2|0,1:2|0:0,0:0:0:0:
473,121,202485,6,0,P|423:109|392:150,1,108.000004119873,0|0,1:2|0:0,0:0:0:0:
399,166,202834,2,0,L|391:261,1,96,8|0,0:0|0:0,0:0:0:0:
390,261,203096,1,0,1:2:0:0:
288,338,203270,1,0,1:2:0:0:
288,338,203357,2,0,L|280:243,1,96,8|0,0:0|0:0,0:0:0:0:
279,242,203619,2,0,P|241:216|197:232,1,96,0|0,1:2|0:0,0:0:0:0:
184,246,203880,6,0,P|148:244|124:219,1,72,0|0,1:2|0:0,0:0:0:0:
110,214,204229,6,0,P|124:156|129:97,1,120,10|0,0:0|0:0,0:0:0:0:
202,11,204491,2,0,P|207:70|221:128,1,120,2|0,1:2|0:0,0:0:0:0:
285,224,204753,2,0,P|299:165|304:106,1,120,10|0,0:0|0:0,0:0:0:0:
376,20,205015,2,0,P|381:79|395:137,1,120,2|0,1:2|0:0,0:0:0:0:
473,177,205276,6,0,P|421:174|397:219,1,108.000004119873,0|0,1:2|0:0,0:0:0:0:
402,294,205625,2,0,L|308:308,1,96,8|0,0:0|0:0,0:0:0:0:
308,308,205886,1,0,1:2:0:0:
259,193,206061,1,0,1:2:0:0:
259,193,206149,2,0,L|165:179,1,96,8|0,0:0|0:0,0:0:0:0:
164,180,206410,2,0,P|132:214|136:260,1,96,0|0,1:2|0:0,0:0:0:0:
147,274,206671,6,0,P|142:308|161:338,1,72,0|0,1:2|0:0,0:0:0:0:
176,354,207020,6,0,B|168:338|168:338|188:336|206:319|206:319|207:351|234:369,1,120,10|0,0:0|0:0,0:0:0:0:
346,296,207282,2,0,B|353:280|353:280|334:278|315:261|315:261|314:293|287:311,1,120,2|0,1:2|0:0,0:0:0:0:
176,238,207543,2,0,B|168:222|168:222|188:220|206:203|206:203|207:235|234:253,1,120,10|0,0:0|0:0,0:0:0:0:
346,180,207805,2,0,B|353:164|353:164|334:162|315:145|315:145|314:177|287:195,1,120,2|0,1:2|0:0,0:0:0:0:
155,143,208066,6,0,P|129:86|190:69,1,144,0|0,1:2|0:0,0:0:0:0:
249,120,208415,2,0,L|343:106,1,96,8|0,0:0|0:0,0:0:0:0:
343,106,208676,1,0,1:2:0:0:
442,204,208851,1,0,1:2:0:0:
442,204,208939,2,0,L|348:190,1,96,8|0,0:0|0:0,0:0:0:0:
348,191,209200,2,0,P|341:213|341:237,1,48,0|0,1:2|0:0,0:0:0:0:
397,350,209462,6,0,P|437:282|464:320,1,144,0|0,1:2|0:0,0:0:0:0:
468,324,209811,1,8,0:0:0:0:
276,269,209985,1,0,3:0:0:0:
276,269,210072,2,0,P|277:226|235:230,1,96,0|0,1:2|0:0,0:0:0:0:
227,250,210334,1,8,0:0:0:0:
408,197,210508,1,0,3:0:0:0:
408,197,210596,2,0,P|406:154|448:158,1,96,0|0,1:2|0:0,0:0:0:0:
462,176,210857,5,0,1:2:0:0:
393,66,211032,1,0,1:2:0:0:
290,142,211206,1,8,0:0:0:0:
205,59,211380,1,0,3:0:0:0:
205,59,211468,1,0,3:0:0:0:
205,59,211555,1,0,3:0:0:0:
98,129,211729,2,0,P|115:204|176:159,1,180.000006866455,0|0,1:2|0:0,0:0:0:0:
166,85,212253,6,0,P|192:108|227:111,1,72,4|0,1:2|0:0,0:0:0:0:
246,97,212601,2,0,B|260:66|289:53|289:53|311:68|317:101,1,120,10|0,0:0|0:0,0:0:0:0:
388,134,212863,2,0,B|419:147|432:176|432:176|417:198|383:205,1,120,2|0,1:2|0:0,0:0:0:0:
312,226,213125,2,0,B|298:257|269:270|269:270|247:255|240:222,1,120,10|0,0:0|0:0,0:0:0:0:
169,192,213387,2,0,B|137:178|124:149|124:149|139:127|170:120,1,120,2|0,1:2|0:0,0:0:0:0:
268,270,213648,6,0,P|228:305|176:317,1,108.000004119873,0|0,1:2|0:0,0:0:0:0:
41,368,213997,2,0,P|109:358|140:392,1,96,8|0,0:0|0:0,0:0:0:0:
127,371,214258,1,0,1:2:0:0:
80,265,214433,1,0,1:2:0:0:
80,265,214520,2,0,P|70:197|104:166,1,96,8|0,0:0|0:0,0:0:0:0:
83,178,214782,2,0,P|102:135|86:91,1,96,0|0,1:2|0:0,0:0:0:0:
85,66,215043,6,0,B|142:97|137:44|200:67,1,108.000004119873,0|0,1:2|0:0,0:0:0:0:
203,76,215392,2,0,B|231:61|249:37|249:37|251:64|269:93,1,120,10|0,0:0|0:0,0:0:0:0:
321,168,215654,2,0,B|335:196|360:214|360:214|333:216|304:233,1,120,2|0,1:2|0:0,0:0:0:0:
229,286,215915,2,0,B|200:300|183:325|183:325|181:298|163:269,1,120,10|0,0:0|0:0,0:0:0:0:
111,194,216177,2,0,B|96:165|72:148|72:148|99:146|127:128,1,120,2|0,1:2|0:0,0:0:0:0:
203,76,216439,6,0,P|273:90|345:89,1,144,0|0,1:2|0:0,0:0:0:0:
414,57,216787,2,0,L|421:152,1,96,8|0,0:0|0:0,0:0:0:0:
421,152,217049,1,0,1:2:0:0:
512,202,217223,1,0,1:2:0:0:
512,202,217310,2,0,L|504:297,1,96,8|0,0:0|0:0,0:0:0:0:
504,297,217572,2,0,L|408:289,1,96,0|0,1:2|0:0,0:0:0:0:
394,300,217834,6,0,P|362:287|331:303,1,72,0|0,1:2|0:0,0:0:0:0:
319,318,218183,2,0,B|319:276|319:276|328:258|328:258|329:198,1,120,10|0,0:0|0:0,0:0:0:0:
249,96,218444,2,0,B|248:153|248:153|239:171|239:171|239:213,1,120,2|0,1:2|0:0,0:0:0:0:
141,301,218706,2,0,B|141:259|141:259|150:241|150:241|151:181,1,120,10|0,0:0|0:0,0:0:0:0:
71,79,218967,2,0,B|70:136|70:136|61:154|61:154|61:196,1,120,2|0,1:2|0:0,0:0:0:0:
6,323,219229,6,0,B|72:319|71:379|134:385,1,144,0|0,1:2|0:0,0:0:0:0:
205,368,219578,2,0,B|220:334|220:334|220:274,1,96,8|0,0:0|0:0,0:0:0:0:
220,275,219840,1,0,1:2:0:0:
151,197,220014,1,0,1:2:0:0:
151,197,220101,2,0,B|136:231|136:231|135:290,1,96,8|0,0:0|0:0,0:0:0:0:
135,289,220363,2,0,P|87:293|46:269,1,96,0|0,1:2|0:0,0:0:0:0:
33,266,220625,6,0,P|42:233|21:205,1,72,0|0,1:2|0:0,0:0:0:0:
9,183,220973,6,0,P|68:176|126:159,1,120,10|0,0:0|0:0,0:0:0:0:
159,36,221235,2,0,P|183:90|217:140,1,120,2|0,1:2|0:0,0:0:0:0:
345,133,221497,2,0,P|300:173|264:220,1,120,10|0,0:0|0:0,0:0:0:0:
310,339,221758,2,0,P|257:309|201:289,1,120,2|0,1:2|0:0,0:0:0:0:
103,369,222020,2,0,P|115:310|116:250,1,120,10|0,0:0|0:0,0:0:0:0:
159,36,222369,6,0,P|118:12|73:25,1,96,10|0,0:0|0:0,0:0:0:0:
64,100,222630,2,0,P|104:123|149:110,1,96,2|0,0:0|0:0,0:0:0:0:
220,83,222892,2,0,P|317:80|264:163,1,240,10|0,0:0|0:0,0:0:0:0:
246,162,223415,6,0,B|238:246|313:246|309:339,1,192,4|8,1:2|0:0,0:0:0:0:
203,324,223939,1,0,3:0:0:0:
179,320,224026,1,0,3:0:0:0:
155,317,224113,2,0,L|107:322,2,48,0|0|8,1:2|1:2|0:0,0:0:0:0:
309,337,224462,1,0,3:0:0:0:
333,333,224549,1,0,3:0:0:0:
357,329,224636,1,0,3:0:0:0:
381,325,224724,1,0,3:0:0:0:
405,321,224811,1,0,1:2:0:0:
405,321,225160,6,0,B|427:279|427:279|410:233,1,96,8|0,0:0|0:0,0:0:0:0:
400,211,225421,2,0,B|383:165|383:165|405:123,1,96,0|0,3:0|0:0,0:0:0:0:
419,104,225683,2,0,P|373:111|328:96,1,96,8|0,0:0|0:0,0:0:0:0:
307,84,225944,2,0,P|260:76|215:91,1,96,0|0,3:0|0:0,0:0:0:0:
198,108,226206,6,0,P|119:121|163:188,1,192,0|8,1:2|0:0,0:0:0:0:
278,227,226729,1,0,3:0:0:0:
287,205,226816,1,0,3:0:0:0:
288,180,226904,2,0,P|289:157|282:133,2,48,0|0|8,1:0|1:0|0:0,0:0:0:0:
194,284,227253,1,0,3:0:0:0:
188,307,227340,1,0,3:0:0:0:
188,331,227427,1,0,3:0:0:0:
191,355,227514,1,0,3:0:0:0:
199,377,227601,1,0,1:2:0:0:
199,377,227950,5,8,0:0:0:0:
57,259,228125,1,0,3:0:0:0:
57,259,228212,1,0,3:0:0:0:
57,259,228299,1,0,3:0:0:0:
203,262,228473,1,8,0:0:0:0:
61,380,228648,1,0,3:0:0:0:
61,380,228735,1,0,3:0:0:0:
61,380,228822,1,0,3:0:0:0:
199,377,228997,6,0,B|239:349|289:364|289:364|346:379|385:344,1,192,0|8,1:2|0:0,0:0:0:0:
443,239,229520,1,0,3:0:0:0:
444,215,229607,1,0,3:0:0:0:
446,191,229694,2,0,L|449:143,2,48,0|0|8,1:2|1:2|0:0,0:0:0:0:
319,277,230043,1,0,3:0:0:0:
299,263,230130,1,0,3:0:0:0:
285,244,230217,1,0,3:0:0:0:
278,221,230304,1,0,3:0:0:0:
280,197,230391,1,0,1:2:0:0:
280,197,230741,6,0,B|234:172|234:172|193:189,1,96,10|0,0:0|0:0,0:0:0:0:
173,201,231003,2,0,B|132:218|132:218|86:193,1,96,2|0,0:0|0:0,0:0:0:0:
67,208,231264,2,0,P|52:252|67:297,1,96,10|0,0:0|0:0,0:0:0:0:
62,321,231526,2,0,P|93:356|139:366,1,96,2|0,0:0|0:0,0:0:0:0:
161,375,231787,6,0,B|246:383|232:285|328:298,1,192,0|8,1:2|0:0,0:0:0:0:
458,289,232311,1,0,3:0:0:0:
454,312,232398,1,0,3:0:0:0:
451,336,232485,2,0,L|442:383,2,48,0|0|8,1:2|1:2|0:0,0:0:0:0:
385,219,232834,1,0,3:0:0:0:
381,196,232921,1,0,3:0:0:0:
377,173,233008,1,0,3:0:0:0:
373,150,233096,1,0,3:0:0:0:
369,127,233183,5,0,1:2:0:0:
299,231,233358,1,0,0:0:0:0:
184,184,233532,2,0,P|139:179|113:217,1,96,10|0,0:0|0:0,0:0:0:0:
90,224,233794,2,0,P|65:261|19:256,1,96,2|0,0:0|0:0,0:0:0:0:
0,242,234055,1,10,0:0:0:0:
0,60,234229,2,0,P|32:117|94:95,1,144,2|0,0:0|0:0,0:0:0:0:
93,78,234578,6,0,B|180:68|180:142|275:127,1,192,4|8,1:2|0:0,0:0:0:0:
373,96,235101,1,0,3:0:0:0:
376,72,235188,1,0,3:0:0:0:
380,48,235276,2,0,L|376:-5,2,48,0|0|8,1:2|1:2|0:0,0:0:0:0:
424,203,235625,1,0,3:0:0:0:
446,193,235712,1,0,3:0:0:0:
468,183,235799,1,0,3:0:0:0:
490,173,235886,1,0,3:0:0:0:
512,163,235973,1,0,1:2:0:0:
511,163,236322,6,0,P|487:203|494:249,1,96,8|0,0:0|0:0,0:0:0:0:
472,259,236584,2,0,P|479:305|454:345,1,96,0|0,3:0|0:0,0:0:0:0:
428,341,236846,2,0,P|385:360|338:358,1,96,8|0,0:0|0:0,0:0:0:0:
316,369,237107,2,0,P|272:349|225:351,1,96,0|0,3:0|0:0,0:0:0:0:
201,346,237369,6,0,L|213:150,1,192,0|8,1:2|0:0,0:0:0:0:
119,93,237892,1,0,3:0:0:0:
95,86,237979,1,0,3:0:0:0:
72,80,238066,2,0,L|25:67,2,48,0|0|8,1:2|1:2|0:0,0:0:0:0:
219,66,238415,1,0,3:0:0:0:
229,87,238502,1,0,3:0:0:0:
232,111,238589,1,0,3:0:0:0:
225,134,238676,1,0,3:0:0:0:
212,154,238763,1,0,1:2:0:0:
212,154,239113,5,8,0:0:0:0:
61,266,239287,1,0,3:0:0:0:
61,266,239375,1,0,3:0:0:0:
61,266,239462,1,0,3:0:0:0:
212,266,239636,1,8,0:0:0:0:
61,154,239810,1,0,3:0:0:0:
61,154,239898,1,0,3:0:0:0:
61,154,239985,1,0,3:0:0:0:
212,154,240160,6,0,B|234:113|278:88|278:88|316:131|303:177,1,192,0|8,1:2|0:0,0:0:0:0:
212,266,240683,1,0,3:0:0:0:
203,288,240770,1,0,3:0:0:0:
203,312,240857,2,0,P|207:335|205:359,2,48,0|0|8,1:2|1:2|0:0,0:0:0:0:
109,264,241206,1,0,3:0:0:0:
85,265,241293,1,0,3:0:0:0:
61,266,241380,1,0,3:0:0:0:
37,268,241467,1,0,3:0:0:0:
13,269,241554,1,0,1:2:0:0:
12,268,241904,6,0,P|12:222|48:194,1,96,10|0,0:0|0:0,0:0:0:0:
70,185,242165,2,0,P|70:138|34:110,1,96,2|0,0:0|0:0,0:0:0:0:
12,119,242427,2,0,L|107:109,1,96,10|0,0:0|0:0,0:0:0:0:
131,109,242689,2,0,L|226:99,1,96,2|0,0:0|0:0,0:0:0:0:
240,118,242950,6,0,P|295:106|265:202,1,192,0|8,1:2|0:0,0:0:0:0:
185,284,243473,1,0,3:0:0:0:
161,281,243560,1,0,3:0:0:0:
137,279,243648,2,0,L|91:262,2,48,0|0|8,1:2|1:2|0:0,0:0:0:0:
276,351,243997,1,0,3:0:0:0:
300,348,244084,1,0,3:0:0:0:
324,345,244171,1,0,3:0:0:0:
348,342,244259,1,0,3:0:0:0:
372,339,244346,1,0,1:2:0:0:
372,339,244694,6,0,P|394:318|379:257,1,96,10|0,0:0|0:0,0:0:0:0:
275,246,244956,2,0,P|278:260|308:269,1,48,2|0,0:0|0:0,0:0:0:0:
409,169,245130,2,0,P|379:160|334:203,1,96,2|0,0:0|0:0,0:0:0:0:
310,213,245392,2,0,L|167:194,1,144,2|2,0:0|0:0,0:0:0:0:
149,194,245741,6,0,P|134:238|143:285,1,96,4|0,1:2|0:0,0:0:0:0:
239,365,246090,1,8,0:0:0:0:
342,294,246264,2,0,P|389:292|437:298,1,96,0|0,1:2|0:0,0:0:0:0:
508,195,246613,1,8,0:0:0:0:
411,116,246787,1,0,3:0:0:0:
411,92,246874,1,0,3:0:0:0:
410,68,246961,1,0,3:0:0:0:
409,44,247048,1,0,3:0:0:0:
409,20,247135,1,0,1:2:0:0:
409,20,247485,6,0,B|365:23|365:23|358:30|358:30|315:35,1,96,8|0,0:0|3:0,0:0:0:0:
316,34,247747,1,0,3:0:0:0:
316,34,247834,1,0,3:0:0:0:
234,128,248008,2,0,B|190:124|190:124|183:117|183:117|140:113,1,96,8|0,0:0|3:0,0:0:0:0:
141,113,248270,1,0,3:0:0:0:
141,113,248357,1,0,3:0:0:0:
33,48,248532,6,0,P|35:95|43:143,1,96,0|0,1:2|0:0,0:0:0:0:
101,253,248880,1,8,0:0:0:0:
217,206,249055,2,0,L|312:216,1,96,0|0,1:2|0:0,0:0:0:0:
435,194,249404,1,8,0:0:0:0:
353,289,249578,1,0,3:0:0:0:
337,306,249665,1,0,3:0:0:0:
328,328,249752,1,0,3:0:0:0:
327,352,249839,1,0,3:0:0:0:
334,375,249926,5,0,1:2:0:0:
426,290,250101,1,0,1:2:0:0:
375,175,250276,1,8,0:0:0:0:
296,271,250450,1,0,3:0:0:0:
274,280,250537,1,0,3:0:0:0:
250,283,250624,1,0,3:0:0:0:
227,279,250711,1,0,3:0:0:0:
205,268,250798,1,8,0:0:0:0:
107,189,250973,1,0,3:0:0:0:
107,189,251061,1,0,3:0:0:0:
107,189,251148,1,0,3:0:0:0:
36,291,251322,6,0,P|31:243|17:197,1,96,0|0,1:2|0:0,0:0:0:0:
2,73,251671,1,8,0:0:0:0:
114,17,251846,2,0,L|209:27,1,96,0|0,1:2|0:0,0:0:0:0:
333,42,252194,1,8,0:0:0:0:
266,148,252369,1,0,3:0:0:0:
263,172,252456,1,0,3:0:0:0:
261,196,252543,1,0,3:0:0:0:
259,220,252630,1,0,3:0:0:0:
257,244,252717,1,0,1:2:0:0:
257,244,253066,6,0,B|216:215|216:215|185:249,1,96,8|0,0:0|3:0,0:0:0:0:
185,249,253328,1,0,3:0:0:0:
185,249,253415,1,0,3:0:0:0:
105,345,253590,2,0,B|64:374|64:374|33:339,1,96,8|0,0:0|3:0,0:0:0:0:
34,340,253852,1,0,3:0:0:0:
34,340,253939,1,0,3:0:0:0:
17,216,254113,6,0,P|64:223|112:224,1,96,0|0,1:2|0:0,0:0:0:0:
237,215,254462,1,8,0:0:0:0:
213,92,254636,2,0,P|196:47|172:5,1,96,0|0,1:2|0:0,0:0:0:0:
52,39,254985,1,8,0:0:0:0:
109,152,255160,1,0,3:0:0:0:
110,176,255247,1,0,3:0:0:0:
111,200,255334,1,0,3:0:0:0:
112,224,255421,1,0,3:0:0:0:
113,248,255508,5,0,1:2:0:0:
180,353,255683,1,0,1:2:0:0:
247,248,255857,2,0,L|253:152,1,96,8|0,0:0|3:0,0:0:0:0:
253,152,256119,1,0,0:0:0:0:
253,152,256206,1,0,1:2:0:0:
347,71,256380,2,0,L|350:118,1,48,0|0,3:0|0:0,0:0:0:0:
437,208,256555,1,0,3:0:0:0:
459,218,256642,1,0,3:0:0:0:
482,217,256729,1,0,3:0:0:0:
502,203,256816,1,0,3:0:0:0:
510,181,256904,6,0,P|488:223|475:269,1,96,4|0,1:2|0:0,0:0:0:0:
388,359,257253,1,8,0:0:0:0:
365,236,257427,2,0,P|351:189|329:147,1,96
250,50,257776,1,8,0:0:0:0:
374,54,257950,1,0,3:0:0:0:
397,50,258037,1,0,3:0:0:0:
421,47,258124,1,0,3:0:0:0:
445,43,258211,1,0,3:0:0:0:
469,40,258298,1,0,1:2:0:0:
469,40,258648,6,0,P|482:85|467:129,1,96,8|0,0:0|3:0,0:0:0:0:
467,129,258910,1,0,3:0:0:0:
467,129,258997,1,0,3:0:0:0:
362,196,259171,2,0,P|348:241|363:285,1,96,8|0,0:0|3:0,0:0:0:0:
364,286,259433,1,0,3:0:0:0:
364,286,259520,1,0,3:0:0:0:
271,370,259694,6,0,P|224:369|177:358,1,96,0|0,1:2|0:0,0:0:0:0:
60,313,260043,1,8,0:0:0:0:
138,215,260218,2,0,L|147:119,1,96,0|0,1:2|0:0,0:0:0:0:
211,12,260566,1,8,0:0:0:0:
93,54,260741,1,0,3:0:0:0:
70,61,260828,1,0,3:0:0:0:
47,57,260915,1,0,3:0:0:0:
28,43,261002,1,0,3:0:0:0:
19,21,261089,5,0,1:2:0:0:
130,76,261264,1,0,1:2:0:0:
137,199,261439,1,8,0:0:0:0:
33,266,261613,1,0,3:0:0:0:
36,289,261700,1,0,3:0:0:0:
40,313,261787,1,0,3:0:0:0:
44,337,261874,1,0,3:0:0:0:
48,360,261961,1,8,0:0:0:0:
179,381,262136,1,0,3:0:0:0:
179,381,262223,1,0,3:0:0:0:
179,381,262311,1,0,3:0:0:0:
262,288,262485,6,0,P|274:333|268:381,1,96,0|0,1:2|0:0,0:0:0:0:
165,310,262834,1,8,0:0:0:0:
241,211,263008,2,0,P|286:198|334:204,1,96,0|0,1:2|0:0,0:0:0:0:
436,275,263357,1,8,0:0:0:0:
483,159,263532,1,0,3:0:0:0:
483,135,263619,1,0,3:0:0:0:
484,111,263706,1,0,3:0:0:0:
484,87,263793,1,0,3:0:0:0:
485,63,263880,1,0,1:2:0:0:
485,63,264229,6,0,B|455:50|455:50|393:66,1,96,8|0,0:0|3:0,0:0:0:0:
393,66,264491,1,0,3:0:0:0:
393,66,264578,1,0,3:0:0:0:
314,163,264753,2,0,B|284:176|284:176|222:159,1,96,8|0,0:0|3:0,0:0:0:0:
223,160,265015,1,0,3:0:0:0:
223,160,265102,1,0,3:0:0:0:
126,81,265276,6,0,P|146:123|140:171,1,96,0|0,1:2|0:0,0:0:0:0:
64,270,265625,1,8,0:0:0:0:
153,356,265799,2,0,L|248:364,1,96,0|0,1:2|0:0,0:0:0:0:
328,267,266148,1,8,0:0:0:0:
450,287,266322,1,0,3:0:0:0:
447,311,266409,1,0,3:0:0:0:
444,335,266496,1,0,3:0:0:0:
441,359,266583,1,0,3:0:0:0:
438,383,266670,5,0,1:2:0:0:
411,259,266846,1,0,1:2:0:0:
437,134,267020,2,0,P|408:98|362:94,1,96,8|0,0:0|0:0,0:0:0:0:
336,108,267282,2,0,P|301:108|272:89,1,72.0000027465821,0|0,1:2|0:0,0:0:0:0:
254,66,267543,1,8,3:2:0:0:
192,136,267718,1,0,3:0:0:0:
190,147,267805,1,0,3:0:0:0:
189,159,267892,1,0,3:0:0:0:
188,171,267979,1,0,3:0:0:0:
186,183,268066,6,0,B|352:149|351:305|516:290,1,360
451,190,270857,6,0,B|403:127|451:60|451:60|330:131|245:36,1,360,0|0,1:2|0:0,0:0:0:0:
137,30,273648,6,0,B|153:277|-59:106|91:30|199:123,1,360,0|0,1:2|0:0,0:0:0:0:
280,233,276439,6,0,B|350:251|431:213|431:213|400:200|378:157|378:157|353:220|361:315,1,384,0|0,1:2|0:0,0:0:0:0:
