osu file format v14

[General]
AudioFilename: audio.mp3
AudioLeadIn: 0
PreviewTime: 53120
Countdown: 0
SampleSet: None
StackLeniency: 0.2
Mode: 0
LetterboxInBreaks: 0
WidescreenStoryboard: 0

[Editor]
Bookmarks: 8858,9171,9484,15748,15852,15956,16165,66900,80679
DistanceSpacing: 1.5
BeatDivisor: 4
GridSize: 4
TimelineZoom: 1.9

[Metadata]
Title:Pretty Girl (Cheat Codes x CADE Remix)
TitleUnicode:Pretty Girl (Cheat Codes x CADE Remix)
Artist:Maggie Lindemann (Nightcore)
ArtistUnicode:Maggie Lindemann (Nightcore)
Creator:Zonsa
Version:EsaY
Source:
Tags:
BeatmapID:1676031
BeatmapSetID:798108

[Difficulty]
HPDrainRate:5
CircleSize:4
OverallDifficulty:7
ApproachRate:9
SliderMultiplier:1.7
SliderTickRate:1

[Events]
//Background and Video events
0,0,"5364-tolle-anime-girl-wallpapers-1920x1080-fuer-meizu.jpg",0,0
//Break Periods
//Storyboard Layer 0 (Background)
//Storyboard Layer 1 (Fail)
//Storyboard Layer 2 (Pass)
//Storyboard Layer 3 (Foreground)
//Storyboard Sound Samples

[TimingPoints]
507,417.566666666667,4,2,0,30,1,0
11363,-100,4,2,0,25,0,0
11781,-100,4,2,0,10,0,0
12198,-100,4,2,0,30,0,0
13869,-83.3333333333333,4,2,0,30,0,0
27231,-83.3333333333333,4,2,0,30,0,0
53955,-200,4,2,0,30,0,0
54373,-66.6666666666667,4,2,0,30,0,0
56460,-200,4,2,0,30,0,0
57713,-66.6666666666667,4,2,0,30,0,0
59801,-200,4,2,0,30,0,0
61054,-66.6666666666667,4,2,0,30,0,0
63142,-200,4,2,0,30,0,0
64394,-66.6666666666667,4,2,0,30,0,0
66482,-200,4,2,0,30,0,0
67735,-66.6666666666667,4,2,0,30,0,0
69823,-200,4,2,0,30,0,0
71075,-66.6666666666667,4,2,0,30,0,0
73163,-200,4,2,0,30,0,0
74416,-66.6666666666667,4,2,0,30,0,0
76504,-200,4,2,0,30,0,0
77756,-66.6666666666667,4,2,0,30,0,0
79844,-200,4,2,0,30,0,0
87360,-100,4,2,0,30,0,0
94041,-83.3333333333333,4,2,0,30,0,0
120766,-200,4,2,0,30,0,0
121183,-66.6666666666667,4,2,0,30,0,0
123271,-200,4,2,0,30,0,0
124524,-66.6666666666667,4,2,0,30,0,0
126612,-200,4,2,0,30,0,0
127864,-66.6666666666667,4,2,0,30,0,0
129952,-200,4,2,0,30,0,0
131205,-66.6666666666667,4,2,0,30,0,0
133293,-200,4,2,0,30,0,0
134545,-66.6666666666667,4,2,0,30,0,0
136633,-200,4,2,0,30,0,0
137886,-66.6666666666667,4,2,0,30,0,0
139974,-200,4,2,0,30,0,0
141226,-66.6666666666667,4,2,0,30,0,0
143314,-200,4,2,0,30,0,0
144567,-66.6666666666667,4,2,0,30,0,0
146655,-200,4,2,0,30,0,0
147490,-66.6666666666667,4,2,0,10,0,0

[HitObjects]
167,77,89,5,0,0:0:0:0:
120,135,298,1,0,0:0:0:0:
192,148,507,2,0,B|173:227|114:178|102:264,1,127.5,0|0,0:0|0:0,0:0:0:0:
172,271,924,1,0,0:0:0:0:
167,77,1133,1,0,0:0:0:0:
242,89,1342,1,0,0:0:0:0:
336,280,1968,5,0,0:0:0:0:
312,210,2177,2,0,P|354:209|391:230,1,85,0|0,0:0|0:0,0:0:0:0:
460,190,2490,1,0,0:0:0:0:
460,190,2594,1,0,0:0:0:0:
392,140,2803,1,0,0:0:0:0:
307,138,3012,2,0,P|253:170|244:231,1,127.5,0|0,0:0|0:0,0:0:0:0:
173,188,3429,5,0,0:0:0:0:
214,113,3638,1,0,0:0:0:0:
137,265,3847,2,0,P|198:272|243:230,1,127.5,0|0,0:0|0:0,0:0:0:0:
307,138,4265,5,0,0:0:0:0:
214,113,4473,1,0,0:0:0:0:
111,137,4682,2,0,B|194:144|164:234|254:230,1,170,0|0,0:0|0:0,0:0:0:0:
311,257,5309,5,0,0:0:0:0:
491,229,5517,1,0,0:0:0:0:
380,155,5726,1,0,0:0:0:0:
380,155,5830,1,0,0:0:0:0:
380,155,5935,1,0,0:0:0:0:
311,257,6144,1,0,0:0:0:0:
135,263,6352,6,0,P|196:271|242:229,1,127.5,0|0,0:0|0:0,0:0:0:0:
175,203,6770,1,0,0:0:0:0:
243,152,6979,1,0,0:0:0:0:
321,119,7188,6,0,P|383:127|405:151,1,85,0|0,0:0|0:0,0:0:0:0:
434,193,7501,1,0,0:0:0:0:
434,193,7605,1,0,0:0:0:0:
415,276,7814,1,0,0:0:0:0:
353,217,8023,2,0,P|326:247|289:311,1,85,0|0,0:0|0:0,0:0:0:0:
223,318,8440,2,0,P|250:288|287:224,1,85,0|0,0:0|0:0,0:0:0:0:
282,117,8858,6,0,B|250:142|250:142|248:168|218:211,1,85,0|0,0:0|0:0,0:0:0:0:
149,247,9171,1,0,0:0:0:0:
149,247,9275,1,0,0:0:0:0:
174,141,9484,1,0,0:0:0:0:
282,117,9693,1,0,0:0:0:0:
400,117,10111,6,0,B|379:172|379:172|338:147,1,85,0|0,0:0|0:0,0:0:0:0:
282,117,10528,2,0,B|247:95|193:103|154:77,2,127.5,0|0|0,0:0|0:0|0:0,0:0:0:0:
356,158,11363,1,0,0:0:0:0:
374,196,11781,1,0,0:0:0:0:
363,237,12198,2,0,B|320:235|320:235|277:252|277:252|207:252,2,127.5,0|0|0,0:0|0:0|0:0,0:0:0:0:
404,225,12929,1,0,0:0:0:0:
404,225,13034,2,0,L|459:142,2,85,0|0|0,0:0|0:0|0:0,0:0:0:0:
127,272,13764,5,0,0:0:0:0:
127,272,13869,2,0,P|152:201|246:179,2,152.999995330811,0|0|0,0:0|0:0|0:0,0:0:0:0:
219,268,14704,1,0,0:0:0:0:
312,272,14913,1,0,0:0:0:0:
312,272,15017,1,0,0:0:0:0:
312,272,15121,2,0,P|287:201|193:179,1,152.999995330811,8|0,0:0|0:0,0:0:0:0:
117,171,15539,2,0,L|246:174,1,101.999996887207,0|0,0:0|0:0,0:0:0:0:
306,106,15852,1,0,0:0:0:0:
306,106,15956,2,0,L|204:103,1,101.999996887207,8|0,0:0|0:0,0:0:0:0:
315,180,16374,5,0,0:0:0:0:
454,134,16583,2,0,L|422:201,1,50.9999984436036,0|0,0:0|0:0,0:0:0:0:
392,203,16792,2,0,P|379:131|324:102,1,101.999996887207,8|0,0:0|0:0,0:0:0:0:
206,39,17209,2,0,P|219:111|274:140,1,101.999996887207,0|0,0:0|0:0,0:0:0:0:
294,180,17522,1,0,0:0:0:0:
294,180,17627,1,8,0:0:0:0:
392,297,17836,1,0,0:0:0:0:
159,111,18044,1,0,0:0:0:0:
288,29,18253,1,0,0:0:0:0:
294,180,18462,6,0,P|219:225|145:222,1,152.999995330811,8|0,0:0|0:0,0:0:0:0:
108,206,18879,1,0,0:0:0:0:
196,154,19088,1,0,0:0:0:0:
196,154,19193,1,0,0:0:0:0:
196,154,19297,1,8,0:0:0:0:
103,110,19506,1,0,0:0:0:0:
19,169,19715,2,0,P|21:232|65:268,1,101.999996887207,0|0,0:0|0:0,0:0:0:0:
72,348,20028,1,0,0:0:0:0:
72,348,20132,2,0,P|70:285|26:249,1,101.999996887207,0|0,0:0|0:0,0:0:0:0:
108,206,20550,5,0,0:0:0:0:
219,310,20863,1,0,0:0:0:0:
219,310,20967,1,0,0:0:0:0:
266,164,21176,1,0,0:0:0:0:
368,166,21385,2,0,P|356:108|289:68,1,101.999996887207,0|0,0:0|0:0,0:0:0:0:
428,82,21802,1,8,0:0:0:0:
401,260,22011,1,0,0:0:0:0:
401,260,22116,1,0,0:0:0:0:
401,260,22220,6,0,P|346:285|291:277,1,101.999996887207,0|0,0:0|0:0,0:0:0:0:
260,257,22533,1,0,0:0:0:0:
224,220,22638,1,8,0:0:0:0:
284,138,22846,1,0,0:0:0:0:
182,125,23055,1,0,0:0:0:0:
377,180,23264,1,0,0:0:0:0:
284,138,23473,2,0,L|409:127,1,101.999996887207,8|0,0:0|0:0,0:0:0:0:
467,68,23890,5,0,0:0:0:0:
368,41,24099,1,0,0:0:0:0:
368,41,24203,1,0,0:0:0:0:
368,41,24308,2,0,P|286:36|237:53,2,101.999996887207,8|0|0,0:0|0:0|0:0,0:0:0:0:
292,109,24934,1,0,0:0:0:0:
292,109,25143,2,0,P|218:122|170:146,1,101.999996887207,8|0,0:0|0:0,0:0:0:0:
95,155,25561,5,0,0:0:0:0:
95,155,25770,2,0,P|142:137|193:131,1,101.999996887207,0|8,0:0|0:0,0:0:0:0:
261,207,26187,1,0,0:0:0:0:
352,252,26396,1,0,0:0:0:0:
395,105,26709,1,0,0:0:0:0:
242,114,27022,1,0,0:0:0:0:
156,58,27231,6,0,P|122:103|154:217,1,152.999995330811,0|0,0:0|0:0,0:0:0:0:
133,194,27648,2,0,P|136:116|177:85,1,101.999996887207,8|0,0:0|0:0,0:0:0:0:
244,64,28066,1,0,0:0:0:0:
293,192,28205,1,0,0:0:0:0:
355,78,28344,1,0,0:0:0:0:
194,251,28483,1,8,0:0:0:0:
345,296,28901,6,0,P|399:280|442:170,1,152.999995330811,0|0,0:0|0:0,0:0:0:0:
445,201,29318,2,0,P|395:261|344:261,1,101.999996887207,8|0,0:0|0:0,0:0:0:0:
227,268,29736,1,0,0:0:0:0:
326,171,29875,1,0,0:0:0:0:
125,326,30015,1,0,0:0:0:0:
208,172,30154,1,8,0:0:0:0:
16,213,30571,6,0,P|70:197|113:87,1,152.999995330811,0|0,0:0|0:0,0:0:0:0:
116,118,30988,2,0,P|66:178|15:178,1,101.999996887207,8|0,0:0|0:0,0:0:0:0:
55,58,31406,1,0,0:0:0:0:
295,113,31546,1,0,0:0:0:0:
172,44,31685,1,0,0:0:0:0:
302,239,31824,1,8,0:0:0:0:
136,171,32242,6,0,P|125:221|183:278,1,101.999996887207,0|0,0:0|0:0,0:0:0:0:
149,262,32555,1,0,0:0:0:0:
149,262,32659,1,8,0:0:0:0:
220,122,32868,1,0,0:0:0:0:
254,218,33077,1,0,0:0:0:0:
325,145,33285,1,0,0:0:0:0:
325,145,33390,1,0,0:0:0:0:
325,145,33494,1,8,0:0:0:0:
119,217,33912,6,0,P|173:201|216:91,1,152.999995330811,0|0,0:0|0:0,0:0:0:0:
219,122,34329,2,0,P|169:182|118:182,1,101.999996887207,8|0,0:0|0:0,0:0:0:0:
37,143,34747,1,0,0:0:0:0:
146,287,34886,1,0,0:0:0:0:
125,100,35025,1,0,0:0:0:0:
41,293,35165,1,8,0:0:0:0:
319,217,35582,6,0,P|264:201|221:91,1,152.999995330811,0|0,0:0|0:0,0:0:0:0:
219,122,35999,2,0,P|268:182|319:182,1,101.999996887207,8|0,0:0|0:0,0:0:0:0:
420,177,36417,1,0,0:0:0:0:
296,79,36556,1,0,0:0:0:0:
334,292,36696,1,0,0:0:0:0:
414,70,36835,1,8,0:0:0:0:
219,122,37252,6,0,P|164:137|121:247,1,152.999995330811,0|0,0:0|0:0,0:0:0:0:
119,217,37669,2,0,P|168:156|219:156,1,101.999996887207,8|0,0:0|0:0,0:0:0:0:
251,192,37983,1,0,0:0:0:0:
251,192,38088,2,0,P|305:157|364:157,1,101.999996887207,0|0,0:0|0:0,0:0:0:0:
219,122,38505,2,0,P|169:130|128:160,1,101.999996887207,8|0,0:0|0:0,0:0:0:0:
61,245,38923,5,0,0:0:0:0:
235,212,39131,1,0,0:0:0:0:
136,308,39340,1,8,0:0:0:0:
46,154,39549,1,0,0:0:0:0:
235,212,39758,2,0,L|160:119,1,101.999996887207,0|0,0:0|0:0,0:0:0:0:
170,132,40071,1,0,0:0:0:0:
170,132,40175,1,8,0:0:0:0:
321,127,40384,1,0,0:0:0:0:
375,254,40593,6,0,P|375:185|295:119,1,152.999995330811,0|0,0:0|0:0,0:0:0:0:
244,113,41010,1,8,0:0:0:0:
92,133,41219,1,0,0:0:0:0:
92,133,41324,1,0,0:0:0:0:
92,133,41428,1,0,0:0:0:0:
180,258,41637,1,0,0:0:0:0:
244,113,41846,1,8,0:0:0:0:
244,113,41950,1,0,0:0:0:0:
357,312,42263,6,0,L|306:202,1,101.999996887207,0|0,0:0|0:0,0:0:0:0:
453,284,42681,1,8,0:0:0:0:
388,145,42890,1,0,0:0:0:0:
388,145,42994,1,0,0:0:0:0:
388,145,43098,2,0,P|315:95|264:94,1,101.999996887207,0|0,0:0|0:0,0:0:0:0:
150,74,43516,1,8,0:0:0:0:
150,74,43620,1,0,0:0:0:0:
35,272,43933,6,0,P|60:314|166:312,1,152.999995330811,0|0,0:0|0:0,0:0:0:0:
111,257,44351,1,8,0:0:0:0:
263,265,44560,1,0,0:0:0:0:
263,265,44664,1,0,0:0:0:0:
263,265,44769,1,0,0:0:0:0:
186,133,44977,1,0,0:0:0:0:
111,257,45186,1,8,0:0:0:0:
111,257,45291,1,0,0:0:0:0:
111,257,45395,1,0,0:0:0:0:
38,122,45604,6,0,L|143:51,1,101.999996887207,0|0,0:0|0:0,0:0:0:0:
275,57,46021,1,8,0:0:0:0:
401,143,46230,1,0,0:0:0:0:
401,143,46334,1,0,0:0:0:0:
401,143,46439,1,0,0:0:0:0:
263,209,46648,1,0,0:0:0:0:
384,300,46856,1,8,0:0:0:0:
384,300,46961,1,0,0:0:0:0:
157,335,47274,6,0,L|278:295,1,101.999996887207,0|0,0:0|0:0,0:0:0:0:
101,279,47692,1,8,0:0:0:0:
196,160,47900,1,0,0:0:0:0:
196,160,48005,1,0,0:0:0:0:
196,160,48109,1,0,0:0:0:0:
43,150,48318,1,0,0:0:0:0:
125,20,48527,2,0,L|168:65,1,50.9999984436036,8|0,0:0|0:0,0:0:0:0:
388,32,48944,6,0,L|254:97,1,101.999996887207,0|0,0:0|0:0,0:0:0:0:
388,32,49257,2,0,L|254:97,1,101.999996887207,0|0,0:0|0:0,0:0:0:0:
243,133,49571,1,0,0:0:0:0:
243,133,49675,1,0,0:0:0:0:
243,133,49779,1,0,0:0:0:0:
198,279,49988,1,0,0:0:0:0:
346,240,50197,1,8,0:0:0:0:
346,240,50301,1,0,0:0:0:0:
346,240,50406,1,0,0:0:0:0:
243,133,50615,6,0,L|182:196,3,50.9999984436036,0|0|0|0,0:0|0:0|0:0|0:0,0:0:0:0:
181,97,51032,2,0,L|120:160,3,50.9999984436036,8|0|0|0,0:0|0:0|0:0|0:0,0:0:0:0:
124,180,51450,1,0,0:0:0:0:
116,230,51554,1,0,0:0:0:0:
136,276,51658,1,0,0:0:0:0:
178,305,51763,1,0,0:0:0:0:
228,307,51867,1,8,0:0:0:0:
270,278,51972,1,0,0:0:0:0:
283,228,52076,1,0,0:0:0:0:
265,180,52180,1,0,0:0:0:0:
223,150,52285,5,0,0:0:0:0:
194,108,52389,1,0,0:0:0:0:
192,56,52494,1,0,0:0:0:0:
234,27,52598,1,0,0:0:0:0:
283,39,52702,1,8,0:0:0:0:
316,77,52807,1,0,0:0:0:0:
319,127,52911,1,0,0:0:0:0:
281,162,53016,1,0,0:0:0:0:
472,155,53955,6,0,L|430:223,1,63.75,0|0,0:0|0:0,0:0:0:0:
458,91,54373,6,0,B|469:159|469:159|424:231,1,127.500004863739,0|0,0:0|0:0,0:0:0:0:
376,103,54790,2,0,L|422:172,1,63.7500024318696,0|0,0:0|0:0,0:0:0:0:
408,211,54999,2,0,L|372:157,1,63.7500024318696,0|0,0:0|0:0,0:0:0:0:
376,103,55208,2,0,L|422:172,1,63.7500024318696,0|0,0:0|0:0,0:0:0:0:
261,72,55625,6,0,L|280:153,1,63.7500024318696,0|0,0:0|0:0,0:0:0:0:
262,286,55834,2,0,L|247:223,1,63.7500024318696,0|0,0:0|0:0,0:0:0:0:
184,89,56043,2,0,L|203:170,1,63.7500024318696,0|0,0:0|0:0,0:0:0:0:
185,303,56252,2,0,L|170:240,1,63.7500024318696,0|0,0:0|0:0,0:0:0:0:
184,89,56460,2,0,L|203:170,1,63.7500024318696,0|0,0:0|0:0,0:0:0:0:
262,286,56878,2,0,L|247:223,1,63.7500024318696,0|0,0:0|0:0,0:0:0:0:
94,155,57296,6,0,P|99:185|122:228,1,63.75,0|0,0:0|0:0,0:0:0:0:
108,93,57713,6,0,P|96:163|142:251,1,127.500004863739,0|0,0:0|0:0,0:0:0:0:
184,192,58131,2,0,P|235:237|239:273,1,63.7500024318696,0|0,0:0|0:0,0:0:0:0:
212,308,58339,2,0,P|161:263|157:227,1,63.7500024318696,0|0,0:0|0:0,0:0:0:0:
184,192,58548,2,0,P|235:237|239:273,1,63.7500024318696,0|0,0:0|0:0,0:0:0:0:
183,107,58966,6,0,L|275:118,1,63.7500024318696,0|0,0:0|0:0,0:0:0:0:
411,162,59175,2,0,L|342:182,1,63.7500024318696,0|0,0:0|0:0,0:0:0:0:
184,192,59383,2,0,L|276:203,1,63.7500024318696,0|0,0:0|0:0,0:0:0:0:
412,247,59592,2,0,L|343:267,1,63.7500024318696,0|0,0:0|0:0,0:0:0:0:
184,192,59801,2,0,L|276:203,1,63.7500024318696,0|0,0:0|0:0,0:0:0:0:
411,162,60219,2,0,L|342:182,1,63.7500024318696,0|0,0:0|0:0,0:0:0:0:
424,69,60636,6,0,L|348:94,1,63.75,0|0,0:0|0:0,0:0:0:0:
484,49,61054,6,0,L|310:106,1,127.500004863739,0|0,0:0|0:0,0:0:0:0:
321,177,61471,2,0,B|306:156|285:142|285:142|272:115,1,63.7500024318696,0|0,0:0|0:0,0:0:0:0:
237,83,61680,2,0,B|252:104|273:118|273:118|286:145,1,63.7500024318696,0|0,0:0|0:0,0:0:0:0:
321,177,61889,2,0,B|306:156|285:142|285:142|272:115,1,63.7500024318696,0|0,0:0|0:0,0:0:0:0:
248,274,62306,6,0,B|209:273|209:273|174:232,1,63.7500024318696,0|0,0:0|0:0,0:0:0:0:
85,151,62515,2,0,B|124:152|124:152|159:193,1,63.7500024318696,0|0,0:0|0:0,0:0:0:0:
210,347,62724,2,0,B|171:346|171:346|136:305,1,63.7500024318696,0|0,0:0|0:0,0:0:0:0:
47,224,62933,2,0,B|86:225|86:225|121:266,1,63.7500024318696,0|0,0:0|0:0,0:0:0:0:
210,347,63142,2,0,B|171:346|171:346|136:305,1,63.7500024318696,0|0,0:0|0:0,0:0:0:0:
85,151,63559,2,0,B|124:152|124:152|159:193,1,63.7500024318696,0|0,0:0|0:0,0:0:0:0:
205,90,63977,6,0,B|250:146|250:146,1,63.75,0|0,0:0|0:0,0:0:0:0:
205,90,64394,6,0,B|258:157|258:157|264:101,1,127.500004863739,0|0,0:0|0:0,0:0:0:0:
357,59,64812,2,0,L|351:148,1,63.7500024318696,0|0,0:0|0:0,0:0:0:0:
391,250,65021,2,0,L|395:186,1,63.7500024318696,0|0,0:0|0:0,0:0:0:0:
357,59,65229,2,0,L|351:148,1,63.7500024318696,0|0,0:0|0:0,0:0:0:0:
159,199,65647,6,0,P|167:237|212:264,1,63.7500024318696,0|0,0:0|0:0,0:0:0:0:
304,305,65856,2,0,L|264:252,1,63.7500024318696,0|0,0:0|0:0,0:0:0:0:
223,130,66064,2,0,P|231:168|276:195,1,63.7500024318696,0|0,0:0|0:0,0:0:0:0:
368,236,66273,2,0,L|328:183,1,63.7500024318696,0|0,0:0|0:0,0:0:0:0:
223,130,66482,2,0,P|231:168|276:195,1,63.7500024318696,0|0,0:0|0:0,0:0:0:0:
304,305,66900,2,0,L|264:252,1,63.7500024318696,0|0,0:0|0:0,0:0:0:0:
62,232,67317,6,0,L|104:164,1,63.75,0|0,0:0|0:0,0:0:0:0:
76,296,67735,6,0,B|65:228|65:228|110:156,1,127.500004863739,0|0,0:0|0:0,0:0:0:0:
158,284,68152,2,0,L|112:215,1,63.7500024318696,0|0,0:0|0:0,0:0:0:0:
126,176,68361,2,0,L|161:229,1,63.7500024318696,0|0,0:0|0:0,0:0:0:0:
158,284,68570,2,0,L|112:215,1,63.7500024318696,0|0,0:0|0:0,0:0:0:0:
273,315,68987,6,0,L|254:234,1,63.7500024318696,0|0,0:0|0:0,0:0:0:0:
272,101,69196,2,0,L|286:163,1,63.7500024318696,0|0,0:0|0:0,0:0:0:0:
350,298,69405,2,0,L|331:217,1,63.7500024318696,0|0,0:0|0:0,0:0:0:0:
349,84,69614,2,0,L|363:146,1,63.7500024318696,0|0,0:0|0:0,0:0:0:0:
350,298,69823,2,0,L|331:217,1,63.7500024318696,0|0,0:0|0:0,0:0:0:0:
272,101,70240,2,0,L|286:163,1,63.7500024318696,0|0,0:0|0:0,0:0:0:0:
440,232,70658,6,0,P|435:202|411:158,1,63.75,0|0,0:0|0:0,0:0:0:0:
426,294,71075,6,0,P|438:224|392:136,1,127.500004863739,0|0,0:0|0:0,0:0:0:0:
350,195,71493,2,0,P|299:150|295:114,1,63.7500024318696,0|0,0:0|0:0,0:0:0:0:
322,79,71701,2,0,P|373:124|377:160,1,63.7500024318696,0|0,0:0|0:0,0:0:0:0:
350,195,71910,2,0,P|299:150|295:114,1,63.7500024318696,0|0,0:0|0:0,0:0:0:0:
351,280,72328,6,0,L|259:269,1,63.7500024318696,0|0,0:0|0:0,0:0:0:0:
123,225,72537,2,0,L|192:205,1,63.7500024318696,0|0,0:0|0:0,0:0:0:0:
350,195,72745,2,0,L|258:184,1,63.7500024318696,0|0,0:0|0:0,0:0:0:0:
122,140,72954,2,0,L|191:120,1,63.7500024318696,0|0,0:0|0:0,0:0:0:0:
350,195,73163,2,0,L|258:184,1,63.7500024318696,0|0,0:0|0:0,0:0:0:0:
123,225,73581,2,0,L|192:205,1,63.7500024318696,0|0,0:0|0:0,0:0:0:0:
110,318,73998,6,0,L|186:293,1,63.75,0|0,0:0|0:0,0:0:0:0:
50,338,74416,6,0,L|223:280,1,127.500004863739,0|0,0:0|0:0,0:0:0:0:
213,210,74833,2,0,B|228:231|249:245|249:245|262:272,1,63.7500024318696,0|0,0:0|0:0,0:0:0:0:
297,304,75042,2,0,B|282:283|261:269|261:269|248:242,1,63.7500024318696,0|0,0:0|0:0,0:0:0:0:
213,210,75251,2,0,B|228:231|249:245|249:245|262:272,1,63.7500024318696,0|0,0:0|0:0,0:0:0:0:
286,113,75668,6,0,B|325:114|325:114|360:155,1,63.7500024318696,0|0,0:0|0:0,0:0:0:0:
449,236,75877,2,0,B|410:235|410:235|375:194,1,63.7500024318696,0|0,0:0|0:0,0:0:0:0:
324,40,76086,2,0,B|363:41|363:41|398:82,1,63.7500024318696,0|0,0:0|0:0,0:0:0:0:
487,163,76295,2,0,B|448:162|448:162|413:121,1,63.7500024318696,0|0,0:0|0:0,0:0:0:0:
324,40,76504,2,0,B|363:41|363:41|398:82,1,63.7500024318696,0|0,0:0|0:0,0:0:0:0:
449,236,76921,2,0,B|410:235|410:235|375:194,1,63.7500024318696,0|0,0:0|0:0,0:0:0:0:
329,297,77339,6,0,B|284:241|284:241,1,63.75,0|0,0:0|0:0,0:0:0:0:
329,297,77756,6,0,B|276:230|276:230|270:286,1,127.500004863739,0|0,0:0|0:0,0:0:0:0:
177,328,78174,2,0,L|183:239,1,63.7500024318696,0|0,0:0|0:0,0:0:0:0:
143,137,78383,2,0,L|138:200,1,63.7500024318696,0|0,0:0|0:0,0:0:0:0:
177,328,78591,2,0,L|183:239,1,63.7500024318696,0|0,0:0|0:0,0:0:0:0:
375,188,79009,6,0,P|367:150|322:123,1,63.7500024318696,0|0,0:0|0:0,0:0:0:0:
230,82,79218,2,0,L|270:135,1,63.7500024318696,0|0,0:0|0:0,0:0:0:0:
311,257,79426,2,0,P|303:219|258:192,1,63.7500024318696,0|0,0:0|0:0,0:0:0:0:
166,151,79635,2,0,L|206:204,1,63.7500024318696,0|0,0:0|0:0,0:0:0:0:
311,257,79844,2,0,P|303:219|258:192,1,63.7500024318696,0|0,0:0|0:0,0:0:0:0:
230,82,80262,2,0,L|270:135,1,63.7500024318696,0|0,0:0|0:0,0:0:0:0:
320,195,80679,6,0,P|334:225|200:199,1,318.75,0|0,0:0|0:0,0:0:0:0:
206,186,82350,6,0,L|242:119,2,63.75,0|0|0,0:0|0:0|0:0,0:0:0:0:
196,205,83185,2,0,P|184:241|154:185,1,148.75,0|0,0:0|0:0,0:0:0:0:
174,179,84020,6,0,L|246:157,2,63.75,0|0|0,0:0|0:0|0:0,0:0:0:0:
153,185,84855,2,0,P|119:201|137:141,1,148.75,0|0,0:0|0:0,0:0:0:0:
156,151,85690,6,0,L|223:186,2,63.75,0|0|0,0:0|0:0|0:0,0:0:0:0:
137,140,86525,2,0,P|101:127|157:97,1,148.75,0|0,0:0|0:0,0:0:0:0:
201,145,87360,5,0,0:0:0:0:
357,33,87674,1,0,0:0:0:0:
384,222,87987,1,0,0:0:0:0:
310,326,88196,2,0,L|265:240,1,85,0|0,0:0|0:0,0:0:0:0:
146,220,88613,1,0,0:0:0:0:
304,20,89031,5,0,0:0:0:0:
442,152,89345,1,0,0:0:0:0:
263,219,89658,1,0,0:0:0:0:
185,117,89867,2,0,L|294:123,1,85,0|0,0:0|0:0,0:0:0:0:
386,68,90284,1,0,0:0:0:0:
428,319,90702,5,0,0:0:0:0:
238,293,91015,1,0,0:0:0:0:
350,138,91328,1,0,0:0:0:0:
226,165,91536,1,0,0:0:0:0:
104,49,91954,2,0,P|69:84|66:147,1,85,0|0,0:0|0:0,0:0:0:0:
133,222,92371,5,0,0:0:0:0:
218,127,92580,1,0,0:0:0:0:
218,127,92684,1,0,0:0:0:0:
218,127,92789,1,0,0:0:0:0:
218,127,92893,1,0,0:0:0:0:
218,127,92998,1,0,0:0:0:0:
343,108,93206,5,0,0:0:0:0:
343,108,93519,1,0,0:0:0:0:
343,108,93833,1,0,0:0:0:0:
356,326,94041,6,0,P|390:281|358:167,1,152.999995330811,0|0,0:0|0:0,0:0:0:0:
379,190,94458,2,0,P|376:268|335:299,1,101.999996887207,8|0,0:0|0:0,0:0:0:0:
268,320,94876,1,0,0:0:0:0:
219,192,95015,1,0,0:0:0:0:
157,306,95154,1,0,0:0:0:0:
318,133,95293,1,8,0:0:0:0:
167,88,95711,6,0,P|113:104|70:214,1,152.999995330811,0|0,0:0|0:0,0:0:0:0:
67,183,96128,2,0,P|117:123|168:123,1,101.999996887207,8|0,0:0|0:0,0:0:0:0:
285,116,96546,1,0,0:0:0:0:
186,213,96685,1,0,0:0:0:0:
387,58,96825,1,0,0:0:0:0:
304,212,96964,1,8,0:0:0:0:
496,171,97381,6,0,P|442:187|399:297,1,152.999995330811,0|0,0:0|0:0,0:0:0:0:
396,266,97798,2,0,P|446:206|497:206,1,101.999996887207,8|0,0:0|0:0,0:0:0:0:
457,326,98216,1,0,0:0:0:0:
217,271,98356,1,0,0:0:0:0:
340,340,98495,1,0,0:0:0:0:
210,145,98634,1,8,0:0:0:0:
376,213,99052,6,0,P|387:163|329:106,1,101.999996887207,0|0,0:0|0:0,0:0:0:0:
362,121,99365,1,0,0:0:0:0:
362,121,99469,1,8,0:0:0:0:
292,262,99678,1,0,0:0:0:0:
258,166,99887,1,0,0:0:0:0:
187,239,100095,1,0,0:0:0:0:
187,239,100200,1,0,0:0:0:0:
187,239,100304,1,8,0:0:0:0:
393,167,100722,6,0,P|339:183|296:293,1,152.999995330811,0|0,0:0|0:0,0:0:0:0:
293,262,101139,2,0,P|343:202|394:202,1,101.999996887207,8|0,0:0|0:0,0:0:0:0:
475,241,101557,1,0,0:0:0:0:
366,97,101696,1,0,0:0:0:0:
387,284,101835,1,0,0:0:0:0:
471,91,101975,1,8,0:0:0:0:
193,167,102392,6,0,P|248:183|291:293,1,152.999995330811,0|0,0:0|0:0,0:0:0:0:
293,262,102809,2,0,P|244:202|193:202,1,101.999996887207,8|0,0:0|0:0,0:0:0:0:
92,207,103227,1,0,0:0:0:0:
216,305,103366,1,0,0:0:0:0:
178,92,103506,1,0,0:0:0:0:
98,314,103645,1,8,0:0:0:0:
293,262,104062,6,0,P|348:247|391:137,1,152.999995330811,0|0,0:0|0:0,0:0:0:0:
393,167,104479,2,0,P|344:228|293:228,1,101.999996887207,8|0,0:0|0:0,0:0:0:0:
261,192,104793,1,0,0:0:0:0:
261,192,104898,2,0,P|207:227|148:227,1,101.999996887207,0|0,0:0|0:0,0:0:0:0:
293,262,105315,2,0,P|343:254|384:224,1,101.999996887207,8|0,0:0|0:0,0:0:0:0:
451,139,105733,5,0,0:0:0:0:
277,172,105941,1,0,0:0:0:0:
376,76,106150,1,8,0:0:0:0:
466,230,106359,1,0,0:0:0:0:
277,172,106568,2,0,L|352:265,1,101.999996887207,0|0,0:0|0:0,0:0:0:0:
342,252,106881,1,0,0:0:0:0:
342,252,106985,1,8,0:0:0:0:
191,257,107194,1,0,0:0:0:0:
137,130,107403,6,0,P|137:199|217:265,1,152.999995330811,0|0,0:0|0:0,0:0:0:0:
268,271,107820,1,8,0:0:0:0:
420,251,108029,1,0,0:0:0:0:
420,251,108134,1,0,0:0:0:0:
420,251,108238,1,0,0:0:0:0:
332,126,108447,1,0,0:0:0:0:
268,271,108656,1,8,0:0:0:0:
268,271,108760,1,0,0:0:0:0:
155,72,109073,6,0,L|206:182,1,101.999996887207,0|0,0:0|0:0,0:0:0:0:
59,100,109491,1,8,0:0:0:0:
124,239,109700,1,0,0:0:0:0:
124,239,109804,1,0,0:0:0:0:
124,239,109908,2,0,P|197:289|248:290,1,101.999996887207,0|0,0:0|0:0,0:0:0:0:
362,310,110326,1,8,0:0:0:0:
362,310,110430,1,0,0:0:0:0:
477,112,110743,6,0,P|452:70|346:72,1,152.999995330811,0|0,0:0|0:0,0:0:0:0:
401,127,111161,1,8,0:0:0:0:
249,119,111370,1,0,0:0:0:0:
249,119,111474,1,0,0:0:0:0:
249,119,111579,1,0,0:0:0:0:
326,251,111787,1,0,0:0:0:0:
401,127,111996,1,8,0:0:0:0:
401,127,112101,1,0,0:0:0:0:
401,127,112205,1,0,0:0:0:0:
474,262,112414,6,0,L|369:333,1,101.999996887207,0|0,0:0|0:0,0:0:0:0:
237,327,112831,1,8,0:0:0:0:
111,241,113040,1,0,0:0:0:0:
111,241,113144,1,0,0:0:0:0:
111,241,113249,1,0,0:0:0:0:
249,175,113458,1,0,0:0:0:0:
128,84,113666,1,8,0:0:0:0:
128,84,113771,1,0,0:0:0:0:
355,49,114084,6,0,L|234:89,1,101.999996887207,0|0,0:0|0:0,0:0:0:0:
411,105,114502,1,8,0:0:0:0:
316,224,114710,1,0,0:0:0:0:
316,224,114815,1,0,0:0:0:0:
316,224,114919,1,0,0:0:0:0:
469,234,115128,1,0,0:0:0:0:
387,364,115337,2,0,L|344:319,1,50.9999984436036,8|0,0:0|0:0,0:0:0:0:
124,352,115754,6,0,L|258:287,1,101.999996887207,0|0,0:0|0:0,0:0:0:0:
124,352,116067,2,0,L|258:287,1,101.999996887207,0|0,0:0|0:0,0:0:0:0:
269,251,116381,1,0,0:0:0:0:
269,251,116485,1,0,0:0:0:0:
269,251,116589,1,0,0:0:0:0:
314,105,116798,1,0,0:0:0:0:
166,144,117007,1,8,0:0:0:0:
166,144,117111,1,0,0:0:0:0:
166,144,117216,1,0,0:0:0:0:
269,251,117425,6,0,L|330:188,3,50.9999984436036,0|0|0|0,0:0|0:0|0:0|0:0,0:0:0:0:
331,287,117842,2,0,L|392:224,3,50.9999984436036,8|0|0|0,0:0|0:0|0:0|0:0,0:0:0:0:
388,204,118260,1,0,0:0:0:0:
396,154,118364,1,0,0:0:0:0:
376,108,118468,1,0,0:0:0:0:
334,79,118573,1,0,0:0:0:0:
284,77,118677,1,8,0:0:0:0:
242,106,118782,1,0,0:0:0:0:
229,156,118886,1,0,0:0:0:0:
247,204,118990,1,0,0:0:0:0:
289,234,119095,5,0,0:0:0:0:
318,276,119199,1,0,0:0:0:0:
320,328,119304,1,0,0:0:0:0:
278,357,119408,1,0,0:0:0:0:
229,345,119512,1,8,0:0:0:0:
196,307,119617,1,0,0:0:0:0:
193,257,119721,1,0,0:0:0:0:
231,222,119826,1,0,0:0:0:0:
40,229,120766,6,0,L|82:161,1,63.75,0|0,0:0|0:0,0:0:0:0:
54,293,121183,6,0,B|43:225|43:225|88:153,1,127.500004863739,0|0,0:0|0:0,0:0:0:0:
136,281,121600,2,0,L|90:212,1,63.7500024318696,0|0,0:0|0:0,0:0:0:0:
104,173,121809,2,0,L|140:227,1,63.7500024318696,0|0,0:0|0:0,0:0:0:0:
136,281,122018,2,0,L|90:212,1,63.7500024318696,0|0,0:0|0:0,0:0:0:0:
251,312,122435,6,0,L|232:231,1,63.7500024318696,0|0,0:0|0:0,0:0:0:0:
250,98,122644,2,0,L|265:161,1,63.7500024318696,0|0,0:0|0:0,0:0:0:0:
328,295,122853,2,0,L|309:214,1,63.7500024318696,0|0,0:0|0:0,0:0:0:0:
327,81,123062,2,0,L|342:144,1,63.7500024318696,0|0,0:0|0:0,0:0:0:0:
328,295,123271,2,0,L|309:214,1,63.7500024318696,0|0,0:0|0:0,0:0:0:0:
250,98,123688,2,0,L|265:161,1,63.7500024318696,0|0,0:0|0:0,0:0:0:0:
418,229,124106,6,0,P|413:199|390:156,1,63.75,0|0,0:0|0:0,0:0:0:0:
404,291,124524,6,0,P|416:221|370:133,1,127.500004863739,0|0,0:0|0:0,0:0:0:0:
328,192,124941,2,0,P|277:147|273:111,1,63.7500024318696,0|0,0:0|0:0,0:0:0:0:
300,76,125149,2,0,P|351:121|355:157,1,63.7500024318696,0|0,0:0|0:0,0:0:0:0:
328,192,125358,2,0,P|277:147|273:111,1,63.7500024318696,0|0,0:0|0:0,0:0:0:0:
329,277,125776,6,0,L|237:266,1,63.7500024318696,0|0,0:0|0:0,0:0:0:0:
101,222,125985,2,0,L|170:202,1,63.7500024318696,0|0,0:0|0:0,0:0:0:0:
328,192,126193,2,0,L|236:181,1,63.7500024318696,0|0,0:0|0:0,0:0:0:0:
100,137,126402,2,0,L|169:117,1,63.7500024318696,0|0,0:0|0:0,0:0:0:0:
328,192,126612,2,0,L|236:181,1,63.7500024318696,0|0,0:0|0:0,0:0:0:0:
101,222,127029,2,0,L|170:202,1,63.7500024318696,0|0,0:0|0:0,0:0:0:0:
88,315,127446,6,0,L|164:290,1,63.75,0|0,0:0|0:0,0:0:0:0:
28,335,127864,6,0,L|202:278,1,127.500004863739,0|0,0:0|0:0,0:0:0:0:
191,207,128281,2,0,B|206:228|227:242|227:242|240:269,1,63.7500024318696,0|0,0:0|0:0,0:0:0:0:
275,301,128490,2,0,B|260:280|239:266|239:266|226:239,1,63.7500024318696,0|0,0:0|0:0,0:0:0:0:
191,207,128699,2,0,B|206:228|227:242|227:242|240:269,1,63.7500024318696,0|0,0:0|0:0,0:0:0:0:
264,110,129116,6,0,B|303:111|303:111|338:152,1,63.7500024318696,0|0,0:0|0:0,0:0:0:0:
427,233,129325,2,0,B|388:232|388:232|353:191,1,63.7500024318696,0|0,0:0|0:0,0:0:0:0:
302,37,129534,2,0,B|341:38|341:38|376:79,1,63.7500024318696,0|0,0:0|0:0,0:0:0:0:
465,160,129743,2,0,B|426:159|426:159|391:118,1,63.7500024318696,0|0,0:0|0:0,0:0:0:0:
302,37,129952,2,0,B|341:38|341:38|376:79,1,63.7500024318696,0|0,0:0|0:0,0:0:0:0:
427,233,130369,2,0,B|388:232|388:232|353:191,1,63.7500024318696,0|0,0:0|0:0,0:0:0:0:
307,294,130787,6,0,B|262:238|262:238,1,63.75,0|0,0:0|0:0,0:0:0:0:
307,294,131205,6,0,B|254:227|254:227|248:283,1,127.500004863739,0|0,0:0|0:0,0:0:0:0:
155,325,131622,2,0,L|161:236,1,63.7500024318696,0|0,0:0|0:0,0:0:0:0:
121,134,131831,2,0,L|117:198,1,63.7500024318696,0|0,0:0|0:0,0:0:0:0:
155,325,132039,2,0,L|161:236,1,63.7500024318696,0|0,0:0|0:0,0:0:0:0:
353,185,132457,6,0,P|345:147|300:120,1,63.7500024318696,0|0,0:0|0:0,0:0:0:0:
208,79,132666,2,0,L|248:132,1,63.7500024318696,0|0,0:0|0:0,0:0:0:0:
289,254,132874,2,0,P|281:216|236:189,1,63.7500024318696,0|0,0:0|0:0,0:0:0:0:
144,148,133083,2,0,L|184:201,1,63.7500024318696,0|0,0:0|0:0,0:0:0:0:
289,254,133293,2,0,P|281:216|236:189,1,63.7500024318696,0|0,0:0|0:0,0:0:0:0:
208,79,133710,2,0,L|248:132,1,63.7500024318696,0|0,0:0|0:0,0:0:0:0:
450,152,134127,6,0,L|408:220,1,63.75,0|0,0:0|0:0,0:0:0:0:
436,88,134545,6,0,B|447:156|447:156|402:228,1,127.500004863739,0|0,0:0|0:0,0:0:0:0:
354,100,134962,2,0,L|400:169,1,63.7500024318696,0|0,0:0|0:0,0:0:0:0:
386,208,135171,2,0,L|351:155,1,63.7500024318696,0|0,0:0|0:0,0:0:0:0:
354,100,135380,2,0,L|400:169,1,63.7500024318696,0|0,0:0|0:0,0:0:0:0:
239,69,135797,6,0,L|258:150,1,63.7500024318696,0|0,0:0|0:0,0:0:0:0:
240,283,136006,2,0,L|226:221,1,63.7500024318696,0|0,0:0|0:0,0:0:0:0:
162,86,136215,2,0,L|181:167,1,63.7500024318696,0|0,0:0|0:0,0:0:0:0:
163,300,136424,2,0,L|149:238,1,63.7500024318696,0|0,0:0|0:0,0:0:0:0:
162,86,136633,2,0,L|181:167,1,63.7500024318696,0|0,0:0|0:0,0:0:0:0:
240,283,137050,2,0,L|226:221,1,63.7500024318696,0|0,0:0|0:0,0:0:0:0:
72,152,137468,6,0,P|77:182|101:226,1,63.75,0|0,0:0|0:0,0:0:0:0:
86,90,137886,6,0,P|74:160|120:248,1,127.500004863739,0|0,0:0|0:0,0:0:0:0:
162,189,138303,2,0,P|213:234|217:270,1,63.7500024318696,0|0,0:0|0:0,0:0:0:0:
190,305,138511,2,0,P|139:260|135:224,1,63.7500024318696,0|0,0:0|0:0,0:0:0:0:
162,189,138720,2,0,P|213:234|217:270,1,63.7500024318696,0|0,0:0|0:0,0:0:0:0:
161,104,139138,6,0,L|253:115,1,63.7500024318696,0|0,0:0|0:0,0:0:0:0:
389,159,139347,2,0,L|320:179,1,63.7500024318696,0|0,0:0|0:0,0:0:0:0:
162,189,139555,2,0,L|254:200,1,63.7500024318696,0|0,0:0|0:0,0:0:0:0:
390,244,139764,2,0,L|321:264,1,63.7500024318696,0|0,0:0|0:0,0:0:0:0:
162,189,139974,2,0,L|254:200,1,63.7500024318696,0|0,0:0|0:0,0:0:0:0:
389,159,140391,2,0,L|320:179,1,63.7500024318696,0|0,0:0|0:0,0:0:0:0:
402,66,140808,6,0,L|326:91,1,63.75,0|0,0:0|0:0,0:0:0:0:
462,46,141226,6,0,L|289:104,1,127.500004863739,0|0,0:0|0:0,0:0:0:0:
299,174,141643,2,0,B|284:153|263:139|263:139|250:112,1,63.7500024318696,0|0,0:0|0:0,0:0:0:0:
215,80,141852,2,0,B|230:101|251:115|251:115|264:142,1,63.7500024318696,0|0,0:0|0:0,0:0:0:0:
299,174,142061,2,0,B|284:153|263:139|263:139|250:112,1,63.7500024318696,0|0,0:0|0:0,0:0:0:0:
226,271,142478,6,0,B|187:270|187:270|152:229,1,63.7500024318696,0|0,0:0|0:0,0:0:0:0:
63,148,142687,2,0,B|102:149|102:149|137:190,1,63.7500024318696,0|0,0:0|0:0,0:0:0:0:
188,344,142896,2,0,B|149:343|149:343|114:302,1,63.7500024318696,0|0,0:0|0:0,0:0:0:0:
25,221,143105,2,0,B|64:222|64:222|99:263,1,63.7500024318696,0|0,0:0|0:0,0:0:0:0:
188,344,143314,2,0,B|149:343|149:343|114:302,1,63.7500024318696,0|0,0:0|0:0,0:0:0:0:
63,148,143731,2,0,B|102:149|102:149|137:190,1,63.7500024318696,0|0,0:0|0:0,0:0:0:0:
183,87,144149,6,0,B|228:143|228:143,1,63.75,0|0,0:0|0:0,0:0:0:0:
183,87,144567,6,0,B|236:154|236:154|242:98,1,127.500004863739,0|0,0:0|0:0,0:0:0:0:
335,56,144984,2,0,L|329:145,1,63.7500024318696,0|0,0:0|0:0,0:0:0:0:
369,247,145193,2,0,L|374:184,1,63.7500024318696,0|0,0:0|0:0,0:0:0:0:
335,56,145401,2,0,L|329:145,1,63.7500024318696,0|0,0:0|0:0,0:0:0:0:
137,196,145819,6,0,P|145:234|190:261,1,63.7500024318696,0|0,0:0|0:0,0:0:0:0:
282,302,146028,2,0,L|242:249,1,63.7500024318696,0|0,0:0|0:0,0:0:0:0:
201,127,146236,2,0,P|209:165|254:192,1,63.7500024318696,0|0,0:0|0:0,0:0:0:0:
346,233,146445,2,0,L|306:180,1,63.7500024318696,0|0,0:0|0:0,0:0:0:0:
201,127,146655,2,0,P|209:165|254:192,1,63.7500024318696,0|0,0:0|0:0,0:0:0:0:
282,302,147072,2,0,L|242:249,1,63.7500024318696,0|0,0:0|0:0,0:0:0:0:
