osu file format v14

[General]
AudioFilename: audio.mp3
AudioLeadIn: 0
PreviewTime: 166476
Countdown: 0
SampleSet: Soft
StackLeniency: 0.7
Mode: 0
LetterboxInBreaks: 0
WidescreenStoryboard: 0

[Editor]
Bookmarks: 3834,14120,17548,98119,118476
DistanceSpacing: 1.2
BeatDivisor: 4
GridSize: 4
TimelineZoom: 1

[Metadata]
Title:This Thing Called Love
TitleUnicode:愛.這件事情
Artist:Maggie Fu
ArtistUnicode:傅又宣
Creator:bossandy
Version:Normal
Source:
Tags:gary00737 傅珮嘉 Fufu 方文山 Skot Suyama Christine Welch Ai Zhe Jian Shi Qing
BeatmapID:1598572
BeatmapSetID:760016

[Difficulty]
HPDrainRate:4
CircleSize:3
OverallDifficulty:4
ApproachRate:5
SliderMultiplier:1.5
SliderTickRate:2

[Events]
//Background and Video events
0,0,"BG.jpg",0,0
Video,-910,"video.avi"
//Break Periods
2,4033,16347
//Storyboard Layer 0 (Background)
//Storyboard Layer 1 (Fail)
//Storyboard Layer 2 (Pass)
//Storyboard Layer 3 (Foreground)
//Storyboard Sound Samples

[TimingPoints]
405,857.142857142857,4,2,1,30,1,0
1262,-100,4,2,1,40,0,0
2119,-100,4,2,1,50,0,0
2976,-100,4,2,1,60,0,0
3833,-100,4,2,1,70,0,0
22904,-100,4,2,1,40,0,0
23119,-100,4,2,1,60,0,0
23547,-100,4,2,1,70,0,0
29762,-100,4,2,1,40,0,0
29976,-100,4,2,1,60,0,0
30404,-100,4,2,1,70,0,0
58690,-100,4,2,1,80,0,1
84404,857.142857142857,4,2,1,70,1,0
103475,-100,4,2,1,40,0,0
103689,-100,4,2,1,60,0,0
104118,-100,4,2,1,70,0,0
110332,-100,4,2,1,40,0,0
110546,-100,4,2,1,60,0,0
110975,-100,4,2,1,70,0,0
139261,-100,4,2,1,80,0,1
164975,857.142857142857,4,2,1,70,1,0
168403,-100,4,2,1,80,0,0
195832,-100,4,2,1,80,0,1
228403,-100,4,2,1,60,0,0
229260,-100,4,2,1,40,0,0
230117,-100,4,2,1,30,0,0
230975,-100,4,2,1,20,0,0
231832,-100,4,2,1,10,0,0
232689,-100,4,2,1,5,0,0

[Colours]
Combo1 : 145,72,72
Combo2 : 121,255,121
Combo3 : 255,255,147
Combo4 : 247,115,135

[HitObjects]
256,192,405,12,4,3833,0:0:0:0:
353,138,17547,6,0,P|434:122|519:113,2,150,6|8|2,0:0|0:0|0:0,0:0:0:0:
267,165,19690,1,2,0:0:0:0:
200,104,20119,2,0,P|163:97|125:93,1,75,8|0,0:0|0:0,0:0:0:0:
40,123,20976,6,0,P|0:190|30:274,2,150,2|8|0,0:0|0:0|0:0,0:0:0:0:
125,93,23119,1,2,0:0:0:0:
207,127,23547,2,0,P|244:122|281:116,1,75,8|0,0:0|0:0,0:0:0:0:
369,100,24404,6,0,P|358:172|350:268,2,150,2|8|2,0:0|0:0|0:0,0:0:0:0:
435,38,26547,1,2,0:0:0:0:
497,104,26976,2,0,P|502:140|506:188,1,75,8|0,0:0|0:0,0:0:0:0:
504,268,27833,5,2,0:0:0:0:
340,192,28690,2,0,P|343:154|348:117,2,75,10|0|0,0:0|0:0|0:0,0:0:0:0:
353,281,29976,1,2,0:0:0:0:
278,330,30404,2,0,P|197:321|95:319,1,150,8|2,0:0|0:0,0:0:0:0:
9,182,32119,6,0,P|83:179|158:170,1,150,8|2,0:0|0:0,0:0:0:0:
242,137,33404,1,2,0:0:0:0:
324,174,33833,2,0,P|361:172|398:168,1,75,8|0,0:0|0:0,0:0:0:0:
486,149,34690,6,0,P|488:186|492:223,1,75,2|0,0:0|0:0,0:0:0:0:
511,311,35547,2,0,P|474:313|437:317,1,75,8|0,0:0|0:0,0:0:0:0:
349,336,36404,2,0,P|347:299|343:262,1,75,0|2,0:0|0:0,0:0:0:0:
324,174,37262,1,8,0:0:0:0:
487,99,38119,6,0,P|413:96|338:87,1,150,2|8,0:0|0:0,0:0:0:0:
170,20,39833,2,0,P|159:81|154:118,1,75,2|2,0:0|0:0,0:0:0:0:
110,170,40690,2,0,P|121:231|126:268,1,75,8|0,0:0|0:0,0:0:0:0:
153,328,41547,6,0,P|79:331|4:340,2,150,2|8|0,0:0|0:0|0:0,0:0:0:0:
236,362,43690,1,2,0:0:0:0:
321,332,44119,2,0,P|361:265|331:181,1,150,8|6,0:0|0:0,0:0:0:0:
281,136,45404,5,0,0:0:0:0:
201,178,45833,2,0,P|127:175|52:166,1,150,8|2,0:0|0:0,0:0:0:0:
8,87,47119,1,2,0:0:0:0:
72,24,47547,2,0,P|109:25|146:30,1,75,8|0,0:0|0:0,0:0:0:0:
228,67,48404,6,0,P|302:64|377:55,2,150,2|8|0,0:0|0:0|0:0,0:0:0:0:
146,30,50547,1,2,0:0:0:0:
61,60,50976,2,0,P|21:127|51:211,2,150,8|2|8,0:0|0:0|0:0,0:0:0:0:
146,30,53119,5,0,0:0:0:0:
228,67,53547,2,0,P|265:71|302:73,1,75,2|2,0:0|0:0,0:0:0:0:
366,9,54404,2,0,P|403:4|440:2,1,75,8|2,0:0|0:0,0:0:0:0:
510,59,55262,5,2,0:0:0:0:
478,142,55690,1,0,0:0:0:0:
510,225,56119,1,8,0:0:0:0:
478,308,56547,1,0,0:0:0:0:
390,303,56976,2,0,P|315:306|240:315,1,150,6|12,0:0|0:0,0:0:0:0:
79,234,58690,6,0,P|116:238|153:239,1,75,6|0,0:0|0:0,0:0:0:0:
230,193,59547,2,0,P|267:188|304:187,1,75,8|0,0:0|0:0,0:0:0:0:
346,204,60190,1,2,0:0:0:0:
346,204,60404,2,0,P|383:208|420:209,1,75,2|2,0:0|0:0,0:0:0:0:
499,166,61262,2,0,P|503:128|504:91,1,75,8|0,0:0|0:0,0:0:0:0:
461,13,62119,6,0,P|384:3|306:0,2,150,2|8|0,0:0|0:0|0:0,0:0:0:0:
504,91,64262,1,2,0:0:0:0:
447,160,64690,2,0,P|409:158|372:154,1,75,8|0,0:0|0:0,0:0:0:0:
308,90,65547,6,0,P|270:85|233:84,1,75,2|0,0:0|0:0,0:0:0:0:
158,134,66404,2,0,P|153:171|152:208,1,75,8|0,0:0|0:0,0:0:0:0:
160,252,67047,1,2,0:0:0:0:
160,252,67262,2,0,P|122:247|85:246,2,75,2|2|8,0:0|0:0|0:0,0:0:0:0:
230,307,68547,1,0,0:0:0:0:
307,261,68976,6,0,P|384:251|462:248,2,150,2|8|0,0:0|0:0|0:0,0:0:0:0:
230,307,71119,1,2,0:0:0:0:
160,252,71547,2,0,P|155:215|154:178,1,75,8|0,0:0|0:0,0:0:0:0:
162,134,72190,1,2,0:0:0:0:
162,134,72404,6,0,P|199:133|236:128,1,75,6|0,0:0|0:0,0:0:0:0:
318,88,73262,2,0,P|392:106|410:192,1,150,8|2,0:0|0:0,0:0:0:0:
378,251,74547,1,2,0:0:0:0:
300,296,74976,2,0,P|262:295|225:290,1,75,8|0,0:0|0:0,0:0:0:0:
181,277,75619,1,2,0:0:0:0:
181,277,75833,6,0,P|175:314|175:351,2,75,2|0|8,0:0|0:0|0:0,0:0:0:0:
207,190,77119,1,0,0:0:0:0:
153,117,77547,2,0,P|115:111|78:111,1,75,0|2,0:0|0:0,0:0:0:0:
14,174,78404,2,0,P|8:211|8:248,1,75,8|0,0:0|0:0,0:0:0:0:
17,292,79047,1,2,0:0:0:0:
17,292,79262,6,0,P|54:297|91:297,1,75,2|0,0:0|0:0,0:0:0:0:
175,264,80119,1,8,0:0:0:0:
258,230,80547,2,0,P|295:224|332:224,1,75,0|2,0:0|0:0,0:0:0:0:
412,266,81404,2,0,P|406:303|406:340,2,75,2|8|0,0:0|0:0|0:0,0:0:0:0:
434,226,82476,1,2,0:0:0:0:
434,226,82690,6,0,P|439:188|439:151,1,75,2|0,0:0|0:0,0:0:0:0:
380,83,83547,2,0,P|342:77|305:77,1,75,8|0,0:0|0:0,0:0:0:0:
269,159,84404,6,0,P|196:174|134:119,2,150,6|8|2,0:0|0:0|0:0,0:0:0:0:
305,76,86546,1,2,0:0:0:0:
236,17,86975,2,0,P|218:49|216:87,1,75,8|0,0:0|0:0,0:0:0:0:
269,159,87832,6,0,P|359:152|443:149,2,150,2|8|0,0:0|0:0|0:0,0:0:0:0:
197,212,89975,1,2,0:0:0:0:
124,159,90404,2,0,P|86:155|49:154,2,75,8|0|2,0:0|0:0|0:0,0:0:0:0:
197,212,91689,5,0,0:0:0:0:
271,259,92118,2,0,P|346:266|421:269,1,150,8|2,0:0|0:0,0:0:0:0:
487,207,93404,1,2,0:0:0:0:
418,149,93832,6,0,P|343:152|268:158,2,150,8|2|8,0:0|0:0|0:0,0:0:0:0:
496,311,96404,2,0,P|426:355|351:319,1,150,2|8,0:0|0:0,0:0:0:0:
287,174,98118,6,0,P|300:91|315:9,2,150,6|8|2,0:0|0:0|0:0,0:0:0:0:
273,263,100261,1,2,0:0:0:0:
213,330,100689,2,0,P|176:337|138:341,1,75,8|0,0:0|0:0,0:0:0:0:
53,311,101546,6,0,P|13:244|43:160,2,150,2|8|0,0:0|0:0|0:0,0:0:0:0:
138,340,103689,1,2,0:0:0:0:
217,297,104118,2,0,P|254:292|291:286,1,75,8|0,0:0|0:0,0:0:0:0:
361,229,104975,6,0,P|432:214|494:253,2,150,2|8|2,0:0|0:0|0:0,0:0:0:0:
291,285,107118,1,2,0:0:0:0:
222,226,107546,2,0,P|217:190|213:142,1,75,8|0,0:0|0:0,0:0:0:0:
218,61,108404,5,2,0:0:0:0:
390,112,109261,2,0,P|428:109|465:104,2,75,10|0|0,0:0|0:0|0:0,0:0:0:0:
308,73,110546,1,2,0:0:0:0:
218,61,110975,2,0,P|143:63|68:72,1,150,8|2,0:0|0:0,0:0:0:0:
14,246,112689,6,0,P|88:243|163:234,1,150,8|2,0:0|0:0,0:0:0:0:
234,179,113975,1,2,0:0:0:0:
313,221,114404,2,0,P|350:219|387:215,1,75,8|0,0:0|0:0,0:0:0:0:
466,170,115261,6,0,P|464:133|460:96,1,75,2|0,0:0|0:0,0:0:0:0:
415,17,116118,2,0,P|378:19|341:23,1,75,8|0,0:0|0:0,0:0:0:0:
262,68,116975,2,0,P|264:105|268:142,1,75,0|2,0:0|0:0,0:0:0:0:
313,221,117832,1,8,0:0:0:0:
195,357,118689,6,0,P|120:353|45:343,1,150,2|8,0:0|0:0,0:0:0:0:
26,165,120404,2,0,P|63:160|100:158,1,75,2|2,0:0|0:0,0:0:0:0:
173,210,121261,2,0,P|210:208|247:203,1,75,8|0,0:0|0:0,0:0:0:0:
316,145,122118,6,0,P|390:136|465:132,2,150,2|8|0,0:0|0:0|0:0,0:0:0:0:
247,203,124261,1,2,0:0:0:0:
163,169,124689,2,0,P|123:107|138:35,1,150,8|6,0:0|0:0,0:0:0:0:
221,0,125975,5,0,0:0:0:0:
310,5,126404,2,0,P|349:66|334:138,1,150,8|2,0:0|0:0,0:0:0:0:
253,177,127689,1,2,0:0:0:0:
163,169,128118,2,0,P|125:170|88:175,1,75,8|0,0:0|0:0,0:0:0:0:
16,229,128975,6,0,P|1:300|40:362,2,150,2|8|0,0:0|0:0|0:0,0:0:0:0:
88,175,131118,1,2,0:0:0:0:
172,143,131546,2,0,P|246:134|321:130,2,150,8|2|8,0:0|0:0|0:0,0:0:0:0:
88,175,133689,5,0,0:0:0:0:
125,256,134118,2,0,P|171:266|215:258,1,75,2|2,0:0|0:0,0:0:0:0:
275,216,134975,2,0,P|312:213|348:223,1,75,8|2,0:0|0:0,0:0:0:0:
409,289,135832,5,2,0:0:0:0:
490,252,136261,1,0,0:0:0:0:
479,163,136689,1,8,0:0:0:0:
390,146,137118,1,2,0:0:0:0:
348,223,137546,2,0,B|271:237|271:187|190:204,1,150,6|12,0:0|0:0,0:0:0:0:
69,79,139261,6,0,P|106:75|143:74,1,75,6|0,0:0|0:0,0:0:0:0:
221,119,140118,2,0,P|258:118|295:113,1,75,8|0,0:0|0:0,0:0:0:0:
340,113,140761,1,2,0:0:0:0:
340,113,140975,2,0,P|336:150|335:187,1,75,2|2,0:0|0:0,0:0:0:0:
347,277,141832,2,0,P|309:273|272:272,1,75,8|0,0:0|0:0,0:0:0:0:
207,333,142689,6,0,P|135:347|73:308,2,150,2|8|0,0:0|0:0|0:0,0:0:0:0:
272,271,144832,1,2,0:0:0:0:
304,187,145261,2,0,P|302:149|298:112,1,75,8|0,0:0|0:0,0:0:0:0:
238,44,146118,6,0,P|200:39|163:38,1,75,2|0,0:0|0:0,0:0:0:0:
88,88,146975,2,0,P|83:125|82:162,1,75,8|0,0:0|0:0,0:0:0:0:
90,206,147618,1,2,0:0:0:0:
90,206,147832,2,0,P|52:201|15:200,2,75,2|2|8,0:0|0:0|0:0,0:0:0:0:
167,250,149118,1,0,0:0:0:0:
243,203,149546,6,0,P|320:193|398:190,2,150,2|8|0,0:0|0:0|0:0,0:0:0:0:
167,250,151689,1,2,0:0:0:0:
124,170,152118,2,0,P|124:132|129:95,1,75,8|0,0:0|0:0,0:0:0:0:
152,56,152761,1,2,0:0:0:0:
152,56,152975,6,0,P|189:61|226:62,1,75,6|0,0:0|0:0,0:0:0:0:
313,35,153832,2,0,P|387:53|405:139,1,150,8|2,0:0|0:0,0:0:0:0:
379,201,155118,1,2,0:0:0:0:
307,255,155546,2,0,P|269:254|232:249,1,75,8|0,0:0|0:0,0:0:0:0:
188,236,156189,1,2,0:0:0:0:
188,236,156404,6,0,P|182:273|182:310,2,75,2|0|8,0:0|0:0|0:0,0:0:0:0:
220,152,157689,1,0,0:0:0:0:
298,108,158118,2,0,P|336:102|373:102,1,75,0|2,0:0|0:0,0:0:0:0:
437,165,158975,2,0,P|443:202|443:239,1,75,8|0,0:0|0:0,0:0:0:0:
434,283,159618,1,2,0:0:0:0:
434,283,159832,6,0,P|397:288|360:288,1,75,2|0,0:0|0:0,0:0:0:0:
278,248,160689,1,8,0:0:0:0:
195,212,161118,2,0,P|158:206|121:206,1,75,0|2,0:0|0:0,0:0:0:0:
41,248,161975,2,0,P|47:285|47:322,2,75,2|8|0,0:0|0:0|0:0,0:0:0:0:
19,208,163046,1,2,0:0:0:0:
19,208,163261,6,0,P|14:170|14:133,1,75,2|0,0:0|0:0,0:0:0:0:
57,54,164118,2,0,P|95:48|132:48,1,75,8|0,0:0|0:0,0:0:0:0:
179,124,164975,6,0,P|252:128|308:66,2,150,2|8|0,0:0|0:0|0:0,0:0:0:0:
131,47,167117,1,2,0:0:0:0:
221,44,167546,1,8,0:0:0:0:
337,181,168403,6,0,P|326:234|319:276,1,75,6|0,0:0|0:0,0:0:0:0:
310,343,169260,2,0,P|257:332|215:325,1,75,8|0,0:0|0:0,0:0:0:0:
148,316,170117,2,0,P|159:263|166:221,1,75,2|2,0:0|0:0,0:0:0:0:
175,154,170975,2,0,P|228:165|270:172,1,75,8|0,0:0|0:0,0:0:0:0:
293,166,171617,1,2,0:0:0:0:
293,166,171832,6,0,P|327:93|303:25,2,150,2|8|0,0:0|0:0|0:0,0:0:0:0:
204,183,173975,1,2,0:0:0:0:
115,200,174403,2,0,P|81:273|105:341,1,150,8|0,0:0|0:0,0:0:0:0:
182,373,175689,5,0,0:0:0:0:
270,356,176117,2,0,P|304:291|285:221,1,150,8|2,0:0|0:0,0:0:0:0:
204,183,177403,1,2,0:0:0:0:
121,146,177832,2,0,P|114:182|123:223,1,75,8|0,0:0|0:0,0:0:0:0:
148,255,178475,1,2,0:0:0:0:
148,255,178689,6,0,P|77:235|12:269,2,150,2|8|0,0:0|0:0|0:0,0:0:0:0:
195,331,180832,1,2,0:0:0:0:
238,253,181260,2,0,P|276:239|325:244,1,75,8|2,0:0|0:0,0:0:0:0:
377,299,182117,6,0,P|447:319|512:285,2,150,6|8|2,0:0|0:0|0:0,0:0:0:0:
310,239,184260,1,2,0:0:0:0:
292,150,184689,2,0,P|296:105|304:67,1,75,8|0,0:0|0:0,0:0:0:0:
334,45,185332,1,2,0:0:0:0:
334,45,185546,6,0,P|263:66|198:32,2,150,2|8|2,0:0|0:0|0:0,0:0:0:0:
416,10,187689,1,2,0:0:0:0:
498,46,188117,2,0,P|504:82|507:120,1,75,8|0,0:0|0:0,0:0:0:0:
493,163,188760,1,2,0:0:0:0:
493,163,188975,6,0,P|474:232|471:329,1,150,2|8,0:0|0:0,0:0:0:0:
390,352,190260,1,0,0:0:0:0:
312,305,190689,2,0,P|275:298|236:299,1,75,2|2,0:0|0:0,0:0:0:0:
168,356,191546,2,0,P|131:363|92:362,1,75,8|0,0:0|0:0,0:0:0:0:
16,315,192403,5,0,0:0:0:0:
63,237,192832,1,0,0:0:0:0:
3,168,193260,1,8,0:0:0:0:
50,89,193689,1,0,0:0:0:0:
139,109,194117,2,0,P|212:107|271:58,1,150,6|6,0:0|0:0,0:0:0:0:
451,50,195832,6,0,P|437:98|427:152,1,75,6|0,0:0|0:0,0:0:0:0:
428,212,196689,2,0,P|378:204|338:204,1,75,8|0,0:0|0:0,0:0:0:0:
310,216,197332,1,2,0:0:0:0:
267,230,197546,2,0,P|229:228|192:221,1,75,2|2,0:0|0:0,0:0:0:0:
110,183,198403,2,0,P|111:145|118:108,1,75,8|0,0:0|0:0,0:0:0:0:
202,76,199260,6,0,P|290:80|377:96,2,150,2|8|0,0:0|0:0|0:0,0:0:0:0:
118,108,201403,1,2,0:0:0:0:
166,183,201832,2,0,P|202:189|240:191,1,75,8|0,0:0|0:0,0:0:0:0:
329,183,202689,6,0,P|322:219|320:257,1,75,2|0,0:0|0:0,0:0:0:0:
372,330,203546,2,0,P|409:328|446:321,1,75,8|0,0:0|0:0,0:0:0:0:
481,293,204189,1,2,0:0:0:0:
501,252,204403,2,0,P|507:215|509:177,1,75,2|2,0:0|0:0,0:0:0:0:
458,103,205260,2,0,P|420:104|383:111,1,75,8|0,0:0|0:0,0:0:0:0:
355,147,205903,1,0,0:0:0:0:
329,183,206117,6,0,P|258:204|193:170,2,150,2|8|0,0:0|0:0|0:0,0:0:0:0:
267,116,208260,1,2,0:0:0:0:
183,82,208689,2,0,P|146:75|108:73,1,75,8|0,0:0|0:0,0:0:0:0:
65,86,209332,1,2,0:0:0:0:
32,116,209546,6,0,P|25:152|23:190,1,75,6|0,0:0|0:0,0:0:0:0:
62,271,210403,2,0,P|133:292|198:258,1,150,8|2,0:0|0:0,0:0:0:0:
225,173,211689,1,2,0:0:0:0:
285,239,212117,2,0,P|322:237|359:230,1,75,8|0,0:0|0:0,0:0:0:0:
395,203,212760,1,2,0:0:0:0:
411,161,212975,6,0,P|417:124|419:86,1,75,2|0,0:0|0:0,0:0:0:0:
359,18,213832,2,0,P|321:19|284:26,1,75,8|0,0:0|0:0,0:0:0:0:
253,58,214475,1,2,0:0:0:0:
233,98,214689,2,0,P|226:134|224:172,1,75,0|2,0:0|0:0,0:0:0:0:
228,262,215546,2,0,P|191:255|153:253,1,75,8|0,0:0|0:0,0:0:0:0:
112,271,216189,1,2,0:0:0:0:
85,307,216403,6,0,P|91:343|93:381,2,75,2|0|8,0:0|0:0|0:0,0:0:0:0:
5,265,217689,2,0,P|6:227|13:190,1,75,0|2,0:0|0:0,0:0:0:0:
98,161,218546,2,0,P|134:167|172:169,2,75,2|8|0,0:0|0:0|0:0,0:0:0:0:
67,127,219617,1,2,0:0:0:0:
50,85,219832,6,0,P|51:47|58:10,1,75,2|0,0:0|0:0,0:0:0:0:
148,4,220689,2,0,P|185:5|222:12,1,75,8|0,0:0|0:0,0:0:0:0:
259,37,221332,1,2,0:0:0:0:
297,60,221546,2,0,P|334:58|371:51,1,75,0|2,0:0|0:0,0:0:0:0:
456,21,222403,2,0,P|501:68|475:169,1,150,8|2,0:0|0:0,0:0:0:0:
415,192,223689,6,0,P|377:190|340:183,1,75,0|8,0:0|0:0,0:0:0:0:
254,157,224546,2,0,P|252:194|245:231,1,75,0|2,0:0|0:0,0:0:0:0:
219,318,225403,2,0,P|256:319|293:326,2,75,2|8|0,0:0|0:0|0:0,0:0:0:0:
175,328,226475,1,2,0:0:0:0:
134,346,226689,6,0,P|96:344|59:337,1,75,2|0,0:0|0:0,0:0:0:0:
5,265,227546,2,0,P|-5:192|42:138,1,150,8|4,0:0|0:0,0:0:0:0:
256,192,228617,12,0,232689,0:0:0:0:
