osu file format v14

[General]
AudioFilename: audio.mp3
AudioLeadIn: 0
PreviewTime: 166476
Countdown: 0
SampleSet: Soft
StackLeniency: 0.7
Mode: 0
LetterboxInBreaks: 0
WidescreenStoryboard: 0

[Editor]
Bookmarks: 3833,14119,17547,98118,118475
DistanceSpacing: 1.2
BeatDivisor: 4
GridSize: 4
TimelineZoom: 1

[Metadata]
Title:This Thing Called Love
TitleUnicode:愛.這件事情
Artist:Maggie Fu
ArtistUnicode:傅又宣
Creator:bossandy
Version:Hard
Source:
Tags:gary00737 傅珮嘉 Fufu 方文山 Skot Suyama Christine Welch Ai Zhe Jian Shi Qing
BeatmapID:1598571
BeatmapSetID:760016

[Difficulty]
HPDrainRate:6
CircleSize:3.8
OverallDifficulty:7
ApproachRate:7.5
SliderMultiplier:1.8
SliderTickRate:2

[Events]
//Background and Video events
0,0,"BG.jpg",0,0
Video,-910,"video.avi"
//Break Periods
2,4032,13294
//Storyboard Layer 0 (Background)
//Storyboard Layer 1 (Fail)
//Storyboard Layer 2 (Pass)
//Storyboard Layer 3 (Foreground)
//Storyboard Sound Samples

[TimingPoints]
405,857.142857142857,4,2,1,30,1,0
1262,-100,4,2,1,40,0,0
2119,-100,4,2,1,50,0,0
2976,-100,4,2,1,60,0,0
3833,-100,4,2,1,70,0,0
22904,-100,4,2,1,40,0,0
23119,-100,4,2,1,60,0,0
23547,-100,4,2,1,70,0,0
29762,-100,4,2,1,40,0,0
29976,-100,4,2,1,60,0,0
30404,-100,4,2,1,70,0,0
58690,-100,4,2,1,80,0,1
84404,857.142857142857,4,2,1,70,1,0
103475,-100,4,2,1,40,0,0
103689,-100,4,2,1,60,0,0
104118,-100,4,2,1,70,0,0
110332,-100,4,2,1,40,0,0
110546,-100,4,2,1,60,0,0
110975,-100,4,2,1,70,0,0
139261,-100,4,2,1,80,0,0
164975,857.142857142857,4,2,1,70,1,0
168403,-100,4,2,1,80,0,1
192403,-100,4,2,1,80,0,0
195832,-100,4,2,1,80,0,1
228403,-100,4,2,1,60,0,0
229260,-100,4,2,1,40,0,0
230117,-100,4,2,1,30,0,0
230975,-100,4,2,1,20,0,0
231832,-100,4,2,1,10,0,0
232689,-100,4,2,1,5,0,0

[Colours]
Combo1 : 145,72,72
Combo2 : 121,255,121
Combo3 : 255,255,147
Combo4 : 247,115,135

[HitObjects]
256,192,404,12,4,3832,0:0:0:0:
256,192,14119,12,0,15833,0:0:0:0:
108,316,16262,5,2,0:0:0:0:
44,228,16690,2,0,L|48:176,1,45,8|8,0:0|0:3,0:0:0:0:
120,212,17119,2,0,L|124:160,1,45,8|8,0:3|0:3,0:0:0:0:
196,196,17547,6,0,P|248:196|288:164,1,90,6|0,0:0|0:0,0:0:0:0:
344,92,18404,2,0,L|332:0,1,90,8|0,0:0|0:0,0:0:0:0:
420,108,19047,1,0,0:0:0:0:
420,108,19262,2,0,P|385:157|354:170,1,90,2|2,0:0|0:0,0:0:0:0:
180,92,20119,2,0,L|272:100,1,90,8|0,0:0|0:0,0:0:0:0:
176,16,20976,6,0,P|108:68|132:152,1,180,2|8,0:0|0:0,0:0:0:0:
236,176,22262,1,0,0:0:0:0:
236,176,22476,1,2,0:0:0:0:
236,176,22690,2,0,L|288:180,2,45,0|0|2,0:0|0:0|0:0,0:0:0:0:
160,252,23547,2,0,L|40:244,1,90,8|0,0:0|0:0,0:0:0:0:
144,336,24190,1,0,0:0:0:0:
144,336,24404,6,0,B|188:338|188:338|263:289|263:289|308:292,1,180,2|8,0:0|0:0,0:0:0:0:
416,296,25690,1,0,0:0:0:0:
364,200,26119,2,0,P|352:152|364:108,1,90,2|2,0:0|0:0,0:0:0:0:
460,68,26976,2,0,P|472:116|460:160,1,90,8|0,0:0|0:0,0:0:0:0:
272,248,27833,6,0,P|248:162|266:74,1,180,2|10,0:0|0:0,0:0:0:0:
176,16,29119,1,0,0:0:0:0:
176,16,29333,1,2,0:0:0:0:
176,16,29547,2,0,L|108:20,2,45,0|0|2,0:0|0:0|0:0,0:0:0:0:
266,74,30404,2,0,P|276:131|256:176,1,90,8|0,0:0|0:0,0:0:0:0:
168,120,31047,1,0,0:0:0:0:
168,120,31262,6,0,B|124:128|124:128|80:120,2,90,2|0|8,0:0|0:0|0:0,0:0:0:0:
266,74,32547,2,0,L|330:66,1,45
364,60,32976,2,0,P|383:109|372:156,1,90,2|2,0:0|0:0,0:0:0:0:
504,272,33833,2,0,P|451:264|416:230,1,90,8|0,0:0|0:0,0:0:0:0:
247,289,34690,6,0,P|279:247|326:234,1,90,2|0,0:0|0:0,0:0:0:0:
423,241,35547,1,8,0:0:0:0:
307,361,35976,1,0,0:0:0:0:
307,361,36190,1,2,0:0:0:0:
307,361,36404,2,0,P|267:377|215:377,1,90,0|2,0:0|0:0,0:0:0:0:
152,292,37262,1,8,0:0:0:0:
96,200,37690,2,0,L|92:144,1,45
84,100,38119,6,0,P|128:84|172:92,1,90,2|0,0:0|0:0,0:0:0:0:
198,199,38976,2,0,P|242:196|280:172,1,90,8|0,0:0|0:0,0:0:0:0:
324,88,39619,1,0,0:0:0:0:
324,88,39833,2,0,L|420:104,1,90,2|2,0:0|0:0,0:0:0:0:
300,4,40690,1,8,0:0:0:0:
280,172,41119,1,0,0:0:0:0:
376,276,41547,6,0,P|416:288|468:272,2,90,2|0|8,0:0|0:0|0:0,0:0:0:0:
272,300,42833,1,0,0:0:0:0:
272,300,43047,1,2,0:0:0:0:
272,300,43262,2,0,L|204:320,2,45,0|0|2,0:0|0:0|0:0,0:0:0:0:
204,384,44119,2,0,P|160:348|160:284,1,90,8|0,0:0|0:0,0:0:0:0:
176,248,44762,1,0,0:0:0:0:
200,180,44976,6,0,P|160:152|116:152,1,90,6|0,0:0|0:0,0:0:0:0:
12,172,45833,1,8,0:0:0:0:
136,232,46262,1,0,0:0:0:0:
136,232,46476,1,0,0:0:0:0:
136,232,46690,2,0,P|176:260|220:260,1,90,2|2,0:0|0:0,0:0:0:0:
308,200,47547,2,0,P|348:172|392:172,1,90,8|0,0:0|0:0,0:0:0:0:
256,104,48404,6,0,P|216:132|172:132,1,90,2|0,0:0|0:0,0:0:0:0:
88,72,49262,1,8,0:0:0:0:
308,8,49690,1,0,0:0:0:0:
308,8,49904,2,0,P|356:56|360:124,1,135,2|2,0:0|0:0,0:0:0:0:
256,104,50976,1,8,0:0:0:0:
151,120,51404,1,0,0:0:0:0:
88,32,51833,6,0,P|44:100|72:192,1,180,2|8,0:0|0:0,0:0:0:0:
160,248,53119,1,0,0:0:0:0:
260,208,53547,2,0,P|312:208|356:232,2,90,2|2|8,0:0|0:0|0:0,0:0:0:0:
160,248,54833,1,2,0:0:0:0:
69,188,55262,6,0,P|49:149|45:104,1,90,2|0,0:0|0:0,0:0:0:0:
160,248,56119,2,0,P|135:285|99:311,1,90,8|0,0:0|0:0,0:0:0:0:
160,148,56976,5,6,0:0:0:0:
256,248,57404,1,0,0:0:0:0:
352,148,57833,1,12,0:0:0:0:
256,48,58262,1,0,0:0:0:0:
256,248,58690,6,0,P|297:263|341:256,1,90,6|0,0:0|0:0,0:0:0:0:
400,208,59333,1,2,0:0:0:0:
400,208,59547,1,8,0:0:0:0:
425,102,59976,1,0,0:0:0:0:
425,102,60190,2,0,B|368:76|368:76|296:76,1,135,2|2,0:0|0:0,0:0:0:0:
188,76,61262,1,8,0:0:0:0:
132,168,61690,1,0,0:0:0:0:
48,96,62119,6,0,P|32:52|36:4,2,90,2|0|8,0:0|0:0|0:0,0:0:0:0:
132,168,63404,2,0,B|157:210|132:252|132:252|106:295|132:337,1,180,0|2,0:0|0:0,0:0:0:0:
232,296,64690,1,8,0:0:0:0:
332,336,65119,1,0,0:0:0:0:
316,228,65547,6,0,P|313:186|336:124,1,90,2|0,0:0|0:0,0:0:0:0:
400,60,66404,1,8,0:0:0:0:
216,140,66833,1,0,0:0:0:0:
216,140,67047,2,0,P|148:116|112:52,1,135,2|2,0:0|0:0,0:0:0:0:
216,32,68119,1,8,0:0:0:0:
326,140,68547,1,0,0:0:0:0:
416,84,68976,6,0,L|528:76,2,90,2|0|8,0:0|0:0|0:0,0:0:0:0:
372,240,70262,2,0,L|184:224,1,180,0|2,0:0|0:0,0:0:0:0:
116,152,71547,1,8,0:0:0:0:
236,32,71976,1,0,0:0:0:0:
236,32,72190,1,2,0:0:0:0:
235,31,72404,6,0,P|276:52|320:48,1,90,6|0,0:0|0:0,0:0:0:0:
420,88,73262,2,0,L|460:192,1,90,8|0,0:0|0:0,0:0:0:0:
480,244,73904,1,0,0:0:0:0:
440,308,74119,2,0,L|464:364,2,45,2|0|2,0:0|0:0|0:0,0:0:0:0:
332,312,74976,1,8,0:0:0:0:
232,272,75404,1,0,0:0:0:0:
232,272,75619,1,2,0:0:0:0:
232,272,75833,6,0,P|183:282|145:311,1,90,2|0,0:0|0:0,0:0:0:0:
226,381,76690,1,8,0:0:0:0:
240,180,77119,2,0,P|152:197|78:247,1,180,0|2,0:0|0:0,0:0:0:0:
226,381,78404,2,0,P|272:372|316:352,1,90,8|0,0:0|0:0,0:0:0:0:
352,288,79047,1,2,0:0:0:0:
368,212,79262,6,0,L|364:112,1,90,2|0,0:0|0:0,0:0:0:0:
460,172,80119,2,0,L|464:272,1,90,8|0,0:0|0:0,0:0:0:0:
364,122,80976,1,2,0:0:0:0:
456,64,81404,1,2,0:0:0:0:
304,20,81833,2,0,L|172:44,1,135,8|2,0:0|0:0,0:0:0:0:
96,64,82690,5,2,0:0:0:0:
188,120,83119,1,0,0:0:0:0:
160,224,83547,1,8,0:0:0:0:
52,232,83976,1,0,0:0:0:0:
52,232,84190,1,2,0:0:0:0:
52,232,84404,6,0,P|68:282|96:309,1,90,6|0,0:0|0:0,0:0:0:0:
196,276,85261,2,0,P|236:258|281:259,1,90,8|0,0:0|0:0,0:0:0:0:
388,288,86118,2,0,L|400:388,1,90,2|2,0:0|0:0,0:0:0:0:
428,184,86975,2,0,L|440:88,1,90,8|0,0:0|0:0,0:0:0:0:
328,164,87832,6,0,P|284:168|240:152,1,90,2|0,0:0|0:0,0:0:0:0:
136,128,88689,2,0,P|154:87|190:57,1,90,8|0,0:0|0:0,0:0:0:0:
264,32,89332,1,2,0:0:0:0:
344,44,89546,2,0,P|392:56|460:44,2,90,0|2|8,0:0|0:0|0:0,0:0:0:0:
512,28,90832,1,0,0:0:0:0:
512,28,91046,1,0,0:0:0:0:
512,28,91261,6,0,P|512:84|480:124,1,90,2|0,0:0|0:0,0:0:0:0:
424,256,92118,2,0,P|420:200|392:160,1,90,8|0,0:0|0:0,0:0:0:0:
320,240,92975,2,0,P|276:236|236:212,1,90,2|2,0:0|0:0,0:0:0:0:
87,320,93832,2,0,P|127:300|172:300,1,90,8|0,0:0|0:0,0:0:0:0:
24,236,94689,6,0,P|103:195|192:194,1,180,2|10,0:0|0:0,0:0:0:0:
256,284,95975,1,2,0:0:0:0:
320,196,96404,2,0,P|399:236|488:237,1,180,2|8,0:0|0:0,0:0:0:0:
476,164,97475,1,8,0:3:0:0:
464,88,97689,2,0,L|472:40,1,45,0|8,0:3|0:3,0:0:0:0:
392,60,98118,6,0,L|296:80,1,90,6|0,0:0|0:0,0:0:0:0:
200,104,98975,2,0,P|199:153|232:196,1,90,8|0,0:0|0:0,0:0:0:0:
236,36,99618,1,0,0:0:0:0:
236,36,99832,2,0,P|188:28|144:48,1,90,2|2,0:0|0:0,0:0:0:0:
296,216,100689,2,0,P|344:224|388:204,1,90,8|0,0:0|0:0,0:0:0:0:
220,186,101546,6,0,P|184:216|188:352,1,180,2|8,0:0|0:0,0:0:0:0:
72,332,102832,1,0,0:0:0:0:
72,332,103046,1,2,0:0:0:0:
72,332,103261,2,0,L|20:328,2,45,0|0|2,0:0|0:0|0:0,0:0:0:0:
264,284,104118,2,0,L|384:292,1,90,8|0,0:0|0:0,0:0:0:0:
432,296,104761,1,0,0:0:0:0:
400,224,104975,6,0,P|376:144|412:56,1,180,2|8,0:0|0:0,0:0:0:0:
316,4,106261,1,0,0:0:0:0:
248,88,106689,2,0,P|200:100|156:88,1,90,2|2,0:0|0:0,0:0:0:0:
8,40,107546,2,0,P|56:28|100:40,1,90,8|0,0:0|0:0,0:0:0:0:
60,292,108404,6,0,P|36:206|54:118,1,180,2|10,0:0|0:0,0:0:0:0:
161,90,109689,1,0,0:0:0:0:
161,90,109904,1,2,0:0:0:0:
161,90,110118,2,0,L|165:158,2,45,0|0|2,0:0|0:0|0:0,0:0:0:0:
260,272,110975,2,0,L|254:182,1,90,8|0,0:0|0:0,0:0:0:0:
340,264,111618,1,0,0:0:0:0:
340,264,111832,6,0,B|340:288|340:288|332:332|280:348,2,90,2|0|8,0:0|0:0|0:0,0:0:0:0:
333,155,113118,2,0,L|328:92,1,45
324,56,113546,2,0,P|375:66|419:47,1,90,2|2,0:0|0:0,0:0:0:0:
472,144,114404,2,0,P|437:183|431:231,1,90,8|0,0:0|0:0,0:0:0:0:
324,232,115261,6,0,P|307:182|268:153,1,90,2|0,0:0|0:0,0:0:0:0:
172,140,116118,1,8,0:0:0:0:
256,320,116546,1,0,0:0:0:0:
256,320,116761,1,2,0:0:0:0:
256,320,116975,2,0,P|296:340|344:344,1,90,0|2,0:0|0:0,0:0:0:0:
324,232,117832,1,8,0:0:0:0:
220,200,118261,2,0,L|164:204,1,45
120,204,118689,6,0,L|108:316,1,90,2|0,0:0|0:0,0:0:0:0:
36,216,119546,2,0,L|24:104,1,90,8|0,0:0|0:0,0:0:0:0:
16,48,120189,1,0,0:0:0:0:
16,48,120404,2,0,L|120:40,1,90,2|2,0:0|0:0,0:0:0:0:
212,36,121261,1,8,0:0:0:0:
164,132,121689,1,0,0:0:0:0:
248,200,122118,6,0,P|296:212|343:202,2,90,2|0|8,0:0|0:0|0:0,0:0:0:0:
296,104,123404,1,0,0:0:0:0:
296,104,123618,1,2,0:0:0:0:
296,104,123832,2,0,L|300:48,2,45,0|0|2,0:0|0:0|0:0,0:0:0:0:
412,220,124689,2,0,L|404:324,1,90,8|0,0:0|0:0,0:0:0:0:
356,364,125332,1,0,0:0:0:0:
284,352,125546,6,0,B|240:340|240:340|196:352,1,90,6|0,0:0|0:0,0:0:0:0:
104,296,126404,1,8,0:0:0:0:
256,240,126832,1,0,0:0:0:0:
256,240,127046,1,0,0:0:0:0:
256,240,127261,2,0,L|272:128,1,90,2|2,0:0|0:0,0:0:0:0:
220,56,128118,2,0,P|172:52|120:68,1,90,8|0,0:0|0:0,0:0:0:0:
60,208,128975,6,0,P|107:219|160:216,1,90,2|0,0:0|0:0,0:0:0:0:
244,168,129832,1,8,0:0:0:0:
368,300,130261,1,0,0:0:0:0:
368,300,130475,2,0,P|440:308|484:264,1,135,2|2,0:0|0:0,0:0:0:0:
496,160,131546,1,8,0:0:0:0:
456,60,131975,1,0,0:0:0:0:
352,32,132404,6,0,B|272:72|272:72|176:56,1,180,2|8,0:0|0:0,0:0:0:0:
96,124,133689,1,0,0:0:0:0:
168,204,134118,2,0,P|220:204|264:180,2,90,2|2|8,0:0|0:0|0:0,0:0:0:0:
96,124,135404,1,2,0:0:0:0:
24,208,135832,6,0,P|4:247|0:292,1,90,2|0,0:0|0:0,0:0:0:0:
92,352,136689,2,0,P|129:327|155:291,1,90,8|2,0:0|0:0,0:0:0:0:
180,216,137332,1,0,0:0:0:0:
156,140,137546,5,6,0:0:0:0:
356,244,137975,1,0,0:0:0:0:
308,92,138404,1,12,0:0:0:0:
204,292,138832,1,0,0:0:0:0:
256,192,139261,6,0,P|300:184|352:192,1,90,6|0,0:0|0:0,0:0:0:0:
400,244,139904,1,2,0:0:0:0:
400,244,140118,1,8,0:0:0:0:
328,328,140546,1,0,0:0:0:0:
328,328,140761,2,0,P|264:328|204:292,1,135,2|2,0:0|0:0,0:0:0:0:
192,184,141832,1,8,0:0:0:0:
104,244,142261,1,0,0:0:0:0:
96,136,142689,6,0,P|120:100|168:80,2,90,2|0|8,0:0|0:0|0:0,0:0:0:0:
192,184,143975,2,0,B|234:209|276:184|276:184|319:158|361:184,1,180,0|2,0:0|0:0,0:0:0:0:
444,256,145261,1,8,0:0:0:0:
364,328,145689,1,0,0:0:0:0:
260,292,146118,6,0,P|216:284|172:292,1,90,2|0,0:0|0:0,0:0:0:0:
68,328,146975,1,8,0:0:0:0:
148,192,147404,1,0,0:0:0:0:
148,192,147618,2,0,P|213:180|279:192,1,135,2|2,0:0|0:0,0:0:0:0:
376,144,148689,1,8,0:0:0:0:
328,292,149118,1,0,0:0:0:0:
420,240,149546,6,0,L|532:232,2,90,2|0|8,0:0|0:0|0:0,0:0:0:0:
304,120,150832,2,0,L|116:104,1,180,0|2,0:0|0:0,0:0:0:0:
16,92,152118,1,8,0:0:0:0:
119,207,152546,1,0,0:0:0:0:
119,207,152761,1,2,0:0:0:0:
119,207,152975,6,0,L|224:216,1,90,6|0,0:0|0:0,0:0:0:0:
292,284,153832,2,0,P|335:299|392:280,1,90,8|0,0:0|0:0,0:0:0:0:
416,224,154475,1,0,0:0:0:0:
340,220,154689,2,0,P|328:196|324:172,2,45,2|0|2,0:0|0:0|0:0,0:0:0:0:
232,220,155546,1,8,0:0:0:0:
264,116,155975,1,0,0:0:0:0:
264,116,156189,1,2,0:0:0:0:
264,116,156404,6,0,L|288:28,1,90,2|0,0:0|0:0,0:0:0:0:
396,16,157261,1,8,0:0:0:0:
472,92,157689,2,0,L|421:291,1,180,0|2,0:0|0:0,0:0:0:0:
392,368,158975,2,0,P|356:356|336:296,1,90,8|0,0:0|0:0,0:0:0:0:
356,240,159618,1,2,0:0:0:0:
364,164,159832,6,0,L|345:67,1,90,2|0,0:0|0:0,0:0:0:0:
294,239,160689,2,0,L|312:328,1,90,8|0,0:0|0:0,0:0:0:0:
364,164,161546,1,2,0:0:0:0:
294,239,161975,1,2,0:0:0:0:
256,108,162404,2,0,P|196:152|132:156,1,135,8|2,0:0|0:0,0:0:0:0:
64,140,163261,5,2,0:0:0:0:
120,52,163689,1,0,0:0:0:0:
226,141,164118,1,8,0:0:0:0:
170,229,164546,2,0,L|144:268,1,45,0|2,0:0|0:0,0:0:0:0:
140,136,164975,6,0,P|184:128|240:152,1,90,2|0,0:0|0:0,0:0:0:0:
328,104,165832,2,0,P|336:148|312:204,1,90,8|0,0:0|0:0,0:0:0:0:
284,256,166475,1,2,0:0:0:0:
244,320,166689,2,0,P|288:331|343:302,1,90,0|2,0:0|0:0,0:0:0:0:
420,192,167546,5,8,0:0:0:0:
512,244,167760,1,8,0:3:0:0:
512,140,167975,1,4,0:3:0:0:
420,88,168189,1,4,0:3:0:0:
320,192,168403,6,0,P|277:204|233:192,1,90,6|0,0:0|0:0,0:0:0:0:
140,136,169260,1,8,0:0:0:0:
52,196,169689,1,0,0:0:0:0:
52,196,169903,1,2,0:0:0:0:
52,196,170117,2,0,L|52:286,1,90,2|2,0:0|0:0,0:0:0:0:
140,352,170975,2,0,P|180:344|224:316,1,90,8|0,0:0|0:0,0:0:0:0:
252,248,171617,1,2,0:0:0:0:
300,308,171832,6,0,L|392:308,1,90,2|0,0:0|0:0,0:0:0:0:
464,228,172689,2,0,B|490:190|490:190|490:143,1,90,8|0,0:0|0:0,0:0:0:0:
488,72,173332,2,0,P|444:48|392:48,1,90,2|0,0:0|0:0,0:0:0:0:
332,68,173975,1,2,0:0:0:0:
332,172,174403,2,0,B|288:172|288:172|250:146,1,90,8|0,0:0|0:0,0:0:0:0:
272,40,175260,5,2,0:0:0:0:
168,72,175689,1,0,0:0:0:0:
68,112,176117,2,0,P|66:165|88:196,1,90,8|0,0:0|0:0,0:0:0:0:
140,140,176760,1,2,0:0:0:0:
160,212,176975,2,0,L|148:320,1,90,2|2,0:0|0:0,0:0:0:0:
256,312,177832,2,0,L|268:204,1,90,8|0,0:0|0:0,0:0:0:0:
336,192,178475,1,2,0:0:0:0:
396,236,178689,6,0,B|440:244|440:244|483:233,1,90,2|0,0:0|0:0,0:0:0:0:
480,124,179546,2,0,B|436:116|436:116|392:126,1,90,8|0,0:0|0:0,0:0:0:0:
328,163,180189,2,0,P|282:167|242:139,1,90,2|0,0:0|0:0,0:0:0:0:
200,88,180832,1,2,0:0:0:0:
92,76,181260,2,0,L|44:84,1,45,8|0,0:0|0:0,0:0:0:0:
64,156,181689,2,0,L|16:164,1,45,2|2,0:0|0:0,0:0:0:0:
44,236,182117,6,0,L|12:320,1,90,6|0,0:0|0:0,0:0:0:0:
112,360,182975,2,0,L|144:276,1,90,8|0,0:0|0:0,0:0:0:0:
176,208,183617,1,2,0:0:0:0:
176,208,183832,2,0,P|219:228|268:224,1,90,2|2,0:0|0:0,0:0:0:0:
280,332,184689,2,0,P|325:315|356:278,1,90,8|0,0:0|0:0,0:0:0:0:
444,344,185546,6,0,P|463:300|459:252,1,90,2|0,0:0|0:0,0:0:0:0:
432,188,186189,1,0,0:0:0:0:
456,116,186403,2,0,L|468:72,1,45,8|0,0:0|0:0,0:0:0:0:
408,24,186832,1,0,0:0:0:0:
408,24,187046,1,2,0:0:0:0:
408,24,187260,1,2,0:0:0:0:
372,128,187689,1,2,0:0:0:0:
260,128,188117,2,0,P|224:108|168:108,1,90,8|0,0:0|0:0,0:0:0:0:
196,212,188760,1,2,0:0:0:0:
196,212,188975,6,0,P|160:232|104:232,1,90,2|0,0:0|0:0,0:0:0:0:
8,200,189832,1,8,0:0:0:0:
72,328,190260,1,0,0:0:0:0:
72,328,190475,1,2,0:0:0:0:
72,328,190689,2,0,P|119:337|163:329,1,90,2|2,0:0|0:0,0:0:0:0:
248,264,191546,2,8,P|292:258|336:267,1,90,8|0,0:0|0:0,0:0:0:0:
424,328,192403,5,2,0:0:0:0:
256,192,192617,12,6,194117,0:0:0:0:
256,308,194546,5,0,0:0:0:0:
140,192,194975,1,6,0:0:0:0:
256,76,195403,1,0,0:0:0:0:
372,192,195832,6,0,P|421:211|465:198,1,90,6|0,0:0|0:0,0:0:0:0:
424,136,196475,1,2,0:0:0:0:
424,136,196689,1,8,0:0:0:0:
344,64,197117,1,0,0:0:0:0:
344,64,197332,2,0,B|300:76|300:76|256:76,1,90,2|0,0:0|0:0,0:0:0:0:
180,76,197975,1,2,0:0:0:0:
72,76,198403,1,8,0:0:0:0:
124,172,198832,1,0,0:0:0:0:
83,272,199260,6,0,P|41:284|0:268,2,90,2|0|8,0:0|0:0|0:0,0:0:0:0:
172,336,200546,2,0,B|214:311|256:336|256:336|299:362|341:336,1,180,0|2,0:0|0:0,0:0:0:0:
416,256,201832,1,8,0:0:0:0:
320,212,202260,1,0,0:0:0:0:
410,147,202689,6,0,P|413:105|390:43,1,90,2|0,0:0|0:0,0:0:0:0:
308,116,203546,1,8,0:0:0:0:
484,16,203975,1,0,0:0:0:0:
484,16,204189,2,0,P|503:80|500:132,1,90,2|0,0:0|0:0,0:0:0:0:
492,176,204832,1,2,0:0:0:0:
424,260,205260,1,8,0:0:0:0:
300,128,205689,1,0,0:0:0:0:
300,128,205903,1,0,0:0:0:0:
300,128,206117,6,0,L|292:16,2,90,2|0|8,0:0|0:0|0:0,0:0:0:0:
308,236,207403,2,0,L|120:220,1,180,0|2,0:0|0:0,0:0:0:0:
64,304,208689,1,8,0:0:0:0:
84,132,209117,1,0,0:0:0:0:
84,132,209332,1,2,0:0:0:0:
84,132,209546,6,0,P|43:153|-1:149,1,90,6|0,0:0|0:0,0:0:0:0:
28,44,210403,2,0,P|69:23|113:27,1,90,8|0,0:0|0:0,0:0:0:0:
180,56,211046,1,2,0:0:0:0:
252,36,211260,2,0,L|308:12,2,45,2|0|2,0:0|0:0|0:0,0:0:0:0:
240,144,212117,1,8,0:0:0:0:
332,196,212546,1,0,0:0:0:0:
332,196,212760,1,2,0:0:0:0:
332,196,212975,6,0,P|381:186|419:157,1,90,2|0,0:0|0:0,0:0:0:0:
336,84,213832,1,8,0:0:0:0:
324,288,214260,2,0,P|412:271|486:221,1,180,0|2,0:0|0:0,0:0:0:0:
500,116,215546,2,0,L|460:20,1,90,8|0,0:0|0:0,0:0:0:0:
396,64,216189,1,2,0:0:0:0:
328,96,216403,6,0,B|284:104|284:104|236:104,1,90,2|0,0:0|0:0,0:0:0:0:
132,96,217260,2,0,L|136:196,1,90,8|0,0:0|0:0,0:0:0:0:
140,292,218117,1,2,0:0:0:0:
236,240,218546,1,2,0:0:0:0:
328,296,218975,2,0,P|392:297|460:272,1,135,8|2,0:0|0:0,0:0:0:0:
488,204,219832,5,2,0:0:0:0:
484,96,220260,1,0,0:0:0:0:
404,24,220689,1,8,0:0:0:0:
356,120,221117,1,0,0:0:0:0:
356,120,221332,1,2,0:0:0:0:
356,120,221546,2,0,P|312:150|273:155,1,90,0|2,0:0|0:0,0:0:0:0:
172,136,222403,1,8,0:0:0:0:
84,76,222832,2,0,L|36:68,1,45,0|2,0:0|0:0,0:0:0:0:
48,144,223260,6,0,L|56:240,1,90,2|0,0:0|0:0,0:0:0:0:
156,268,224117,1,8,0:0:0:0:
256,312,224546,1,0,0:0:0:0:
356,268,224975,1,2,0:0:0:0:
456,233,225403,1,2,0:0:0:0:
456,124,225832,2,0,P|416:88|336:92,1,135,8|2,0:0|0:0,0:0:0:0:
292,152,226689,6,0,L|192:140,1,90,2|0,0:0|0:0,0:0:0:0:
140,228,227546,2,0,P|96:152|104:108,1,135,8|2,0:0|0:0,0:0:0:0:
152,48,228403,1,4,0:0:0:0:
256,192,228617,12,0,232689,0:0:0:0:
