osu file format v14

[General]
AudioFilename: audio.mp3
AudioLeadIn: 0
PreviewTime: 65668
Countdown: 0
SampleSet: Normal
StackLeniency: 0.7
Mode: 3
LetterboxInBreaks: 0
SpecialStyle: 0
WidescreenStoryboard: 0

[Editor]
DistanceSpacing: 1.4
BeatDivisor: 4
GridSize: 8
TimelineZoom: 2.2

[Metadata]
Title:The Words I Never Said in D&B
TitleUnicode:The Words I Never Said in D&B
Artist:Mage
ArtistUnicode:Mage
Creator:Jole
Version:drum & streams
Source:
Tags:dump streams speed accuracy rice liquid drum and bass dnb d&b electronic english liquicity edits 1 ep Celsius Recordings UK CLS064 Кирилл Шейкин Kirill Sheykin marathon Lupe Fiasco Wasalu Muhammad Jaco Lasers Atlanctic Records Holly Brook Hafermann The Buried Sessions of Skylar Grey remix Step Up Revolution KIDinaKORNER mwc21 mwc 2021 mania world cup 2021
BeatmapID:3342758
BeatmapSetID:1637697

[Difficulty]
HPDrainRate:8
CircleSize:4
OverallDifficulty:8
ApproachRate:5
SliderMultiplier:1.4
SliderTickRate:1

[Events]
//Background and Video events
0,0,"bg.jpg",0,0
//Break Periods
//Storyboard Layer 0 (Background)
//Storyboard Layer 1 (Fail)
//Storyboard Layer 2 (Pass)
//Storyboard Layer 3 (Foreground)
//Storyboard Layer 4 (Overlay)
//Storyboard Sound Samples

[TimingPoints]
22413,348.837209302326,4,1,1,35,1,0

[HitObjects]
64,192,22413,5,0,0:0:0:0:
192,192,22413,1,0,0:0:0:0:
448,192,22587,1,0,0:0:0:0:
192,192,22761,1,0,0:0:0:0:
448,192,22761,1,0,0:0:0:0:
64,192,22936,1,0,0:0:0:0:
320,192,23023,1,0,0:0:0:0:
192,192,23110,1,0,0:0:0:0:
448,192,23110,1,0,0:0:0:0:
192,192,23285,1,0,0:0:0:0:
64,192,23285,1,0,0:0:0:0:
64,192,23459,1,0,0:0:0:0:
448,192,23459,1,0,0:0:0:0:
320,192,23633,1,0,0:0:0:0:
192,192,23633,1,0,0:0:0:0:
192,192,23808,1,0,0:0:0:0:
64,192,23808,1,0,0:0:0:0:
448,192,23982,1,0,0:0:0:0:
192,192,24157,1,0,0:0:0:0:
448,192,24157,1,0,0:0:0:0:
64,192,24331,1,0,0:0:0:0:
192,192,24331,1,0,0:0:0:0:
448,192,24418,1,0,0:0:0:0:
64,192,24506,1,0,0:0:0:0:
448,192,24680,1,0,0:0:0:0:
320,192,24680,1,0,0:0:0:0:
448,192,24854,1,0,0:0:0:0:
64,192,24854,1,0,0:0:0:0:
192,192,25029,1,0,0:0:0:0:
320,192,25203,1,0,0:0:0:0:
448,192,25203,1,0,0:0:0:0:
64,192,25378,1,0,0:0:0:0:
320,192,25378,1,0,0:0:0:0:
64,192,25552,1,0,0:0:0:0:
192,192,25552,1,0,0:0:0:0:
192,192,25726,1,0,0:0:0:0:
448,192,25726,1,0,0:0:0:0:
320,192,25814,1,0,0:0:0:0:
192,192,25901,1,0,0:0:0:0:
64,192,25901,1,0,0:0:0:0:
320,192,26075,1,0,0:0:0:0:
448,192,26075,1,0,0:0:0:0:
448,192,26250,1,0,0:0:0:0:
64,192,26250,1,0,0:0:0:0:
192,192,26424,1,0,0:0:0:0:
192,192,26599,1,0,0:0:0:0:
448,192,26599,1,0,0:0:0:0:
64,192,26773,1,0,0:0:0:0:
192,192,26947,1,0,0:0:0:0:
64,192,26947,1,0,0:0:0:0:
320,192,27122,1,0,0:0:0:0:
192,192,27122,1,0,0:0:0:0:
448,192,27209,1,0,0:0:0:0:
64,192,27296,1,0,0:0:0:0:
192,192,27471,1,0,0:0:0:0:
64,192,27471,1,0,0:0:0:0:
192,192,27645,1,0,0:0:0:0:
448,192,27645,1,0,0:0:0:0:
64,192,27819,1,0,0:0:0:0:
448,192,27994,1,0,0:0:0:0:
320,192,27994,1,0,0:0:0:0:
192,192,28168,1,0,0:0:0:0:
448,192,28343,1,0,0:0:0:0:
192,192,28343,1,0,0:0:0:0:
64,192,28517,1,0,0:0:0:0:
320,192,28604,1,0,0:0:0:0:
192,192,28692,1,0,0:0:0:0:
64,192,28692,1,0,0:0:0:0:
448,192,28866,1,0,0:0:0:0:
320,192,28866,1,0,0:0:0:0:
320,192,29040,1,0,0:0:0:0:
192,192,29040,1,0,0:0:0:0:
64,192,29215,1,0,0:0:0:0:
448,192,29215,1,0,0:0:0:0:
192,192,29389,1,0,0:0:0:0:
320,192,29389,1,0,0:0:0:0:
320,192,29564,1,0,0:0:0:0:
64,192,29738,1,0,0:0:0:0:
448,192,29738,1,0,0:0:0:0:
64,192,29913,1,0,0:0:0:0:
320,192,29913,1,0,0:0:0:0:
192,192,30000,1,0,0:0:0:0:
448,192,30087,1,0,0:0:0:0:
320,192,30087,1,0,0:0:0:0:
192,192,30261,1,0,0:0:0:0:
64,192,30261,1,0,0:0:0:0:
64,192,30436,1,0,0:0:0:0:
448,192,30436,1,0,0:0:0:0:
320,192,30610,1,0,0:0:0:0:
192,192,30785,1,0,0:0:0:0:
64,192,30785,1,0,0:0:0:0:
448,192,30959,1,0,0:0:0:0:
448,192,31133,1,0,0:0:0:0:
320,192,31133,1,0,0:0:0:0:
192,192,31308,1,0,0:0:0:0:
448,192,31395,1,0,0:0:0:0:
192,192,31482,1,0,0:0:0:0:
320,192,31657,1,0,0:0:0:0:
64,192,31657,1,0,0:0:0:0:
448,192,31831,1,0,0:0:0:0:
320,192,31831,1,0,0:0:0:0:
192,192,32006,1,0,0:0:0:0:
448,192,32180,1,0,0:0:0:0:
192,192,32180,1,0,0:0:0:0:
64,192,32354,1,0,0:0:0:0:
448,192,32529,1,0,0:0:0:0:
192,192,32529,1,0,0:0:0:0:
448,192,32703,1,0,0:0:0:0:
320,192,32703,1,0,0:0:0:0:
64,192,32878,1,0,0:0:0:0:
448,192,33052,1,0,0:0:0:0:
320,192,33052,1,0,0:0:0:0:
192,192,33226,1,0,0:0:0:0:
448,192,33226,1,0,0:0:0:0:
64,192,33401,1,0,0:0:0:0:
448,192,33575,1,0,0:0:0:0:
320,192,33575,1,0,0:0:0:0:
64,192,33750,1,0,0:0:0:0:
320,192,33924,1,0,0:0:0:0:
64,192,33924,1,0,0:0:0:0:
448,192,34099,1,0,0:0:0:0:
192,192,34186,1,0,0:0:0:0:
320,192,34273,1,0,0:0:0:0:
64,192,34273,1,0,0:0:0:0:
320,192,34447,1,0,0:0:0:0:
448,192,34447,1,0,0:0:0:0:
448,192,34622,1,0,0:0:0:0:
64,192,34622,1,0,0:0:0:0:
192,192,34796,1,0,0:0:0:0:
320,192,34796,1,0,0:0:0:0:
320,192,34971,1,0,0:0:0:0:
448,192,34971,1,0,0:0:0:0:
64,192,35145,1,0,0:0:0:0:
320,192,35319,1,0,0:0:0:0:
64,192,35319,1,0,0:0:0:0:
448,192,35494,1,0,0:0:0:0:
320,192,35494,1,0,0:0:0:0:
64,192,35581,1,0,0:0:0:0:
448,192,35668,1,0,0:0:0:0:
64,192,35843,1,0,0:0:0:0:
192,192,35843,1,0,0:0:0:0:
64,192,36017,1,0,0:0:0:0:
448,192,36017,1,0,0:0:0:0:
320,192,36192,1,0,0:0:0:0:
192,192,36366,1,0,0:0:0:0:
64,192,36366,1,0,0:0:0:0:
448,192,36540,1,0,0:0:0:0:
192,192,36540,1,0,0:0:0:0:
448,192,36715,1,0,0:0:0:0:
320,192,36715,1,0,0:0:0:0:
64,192,36889,1,0,0:0:0:0:
448,192,36976,1,0,0:0:0:0:
192,192,37064,1,0,0:0:0:0:
64,192,37064,1,0,0:0:0:0:
192,192,37238,1,0,0:0:0:0:
64,192,37238,1,0,0:0:0:0:
448,192,37413,1,0,0:0:0:0:
192,192,37413,1,0,0:0:0:0:
320,192,37587,1,0,0:0:0:0:
320,192,37761,1,0,0:0:0:0:
64,192,37761,1,0,0:0:0:0:
448,192,37936,1,0,0:0:0:0:
320,192,38110,1,0,0:0:0:0:
448,192,38110,1,0,0:0:0:0:
192,192,38285,1,0,0:0:0:0:
320,192,38285,1,0,0:0:0:0:
64,192,38372,1,0,0:0:0:0:
448,192,38459,1,0,0:0:0:0:
320,192,38633,1,0,0:0:0:0:
448,192,38633,1,0,0:0:0:0:
320,192,38808,1,0,0:0:0:0:
64,192,38808,1,0,0:0:0:0:
448,192,38982,1,0,0:0:0:0:
64,192,39157,1,0,0:0:0:0:
192,192,39157,1,0,0:0:0:0:
320,192,39331,1,0,0:0:0:0:
64,192,39506,1,0,0:0:0:0:
320,192,39506,1,0,0:0:0:0:
448,192,39680,1,0,0:0:0:0:
192,192,39767,1,0,0:0:0:0:
320,192,39854,1,0,0:0:0:0:
448,192,39854,1,0,0:0:0:0:
64,192,40029,1,0,0:0:0:0:
192,192,40029,1,0,0:0:0:0:
320,192,40203,1,0,0:0:0:0:
192,192,40378,1,0,0:0:0:0:
448,192,40378,1,0,0:0:0:0:
320,192,40552,1,0,0:0:0:0:
192,192,40552,1,0,0:0:0:0:
64,192,40726,1,0,0:0:0:0:
448,192,40901,1,0,0:0:0:0:
64,192,40901,1,0,0:0:0:0:
448,192,41075,1,0,0:0:0:0:
192,192,41075,1,0,0:0:0:0:
320,192,41163,1,0,0:0:0:0:
64,192,41250,1,0,0:0:0:0:
192,192,41250,1,0,0:0:0:0:
320,192,41424,1,0,0:0:0:0:
448,192,41424,1,0,0:0:0:0:
448,192,41599,1,0,0:0:0:0:
64,192,41599,1,0,0:0:0:0:
192,192,41773,1,0,0:0:0:0:
320,192,41947,1,0,0:0:0:0:
448,192,41947,1,0,0:0:0:0:
64,192,42122,1,0,0:0:0:0:
64,192,42296,1,0,0:0:0:0:
448,192,42296,1,0,0:0:0:0:
320,192,42471,1,0,0:0:0:0:
64,192,42558,1,0,0:0:0:0:
320,192,42645,1,0,0:0:0:0:
448,192,42645,1,0,0:0:0:0:
192,192,42819,1,0,0:0:0:0:
192,192,42994,1,0,0:0:0:0:
448,192,42994,1,0,0:0:0:0:
320,192,43168,1,0,0:0:0:0:
192,192,43343,1,0,0:0:0:0:
64,192,43343,1,0,0:0:0:0:
192,192,43517,5,0,0:0:0:0:
64,192,43517,1,0,0:0:0:0:
64,192,43692,1,0,0:0:0:0:
448,192,43692,1,0,0:0:0:0:
192,192,43866,1,0,0:0:0:0:
320,192,43953,1,0,0:0:0:0:
192,192,44040,1,0,0:0:0:0:
64,192,44215,1,0,0:0:0:0:
320,192,44215,1,0,0:0:0:0:
320,192,44389,1,0,0:0:0:0:
448,192,44389,1,0,0:0:0:0:
64,192,44564,1,0,0:0:0:0:
448,192,44651,1,0,0:0:0:0:
192,192,44738,1,0,0:0:0:0:
64,192,44738,1,0,0:0:0:0:
320,192,44913,1,0,0:0:0:0:
192,192,45087,1,0,0:0:0:0:
448,192,45087,1,0,0:0:0:0:
64,192,45261,1,0,0:0:0:0:
320,192,45261,1,0,0:0:0:0:
192,192,45436,1,0,0:0:0:0:
448,192,45436,1,0,0:0:0:0:
192,192,45610,1,0,0:0:0:0:
64,192,45610,1,0,0:0:0:0:
64,192,45785,1,0,0:0:0:0:
448,192,45785,1,0,0:0:0:0:
320,192,45959,1,0,0:0:0:0:
192,192,46133,1,0,0:0:0:0:
64,192,46133,1,0,0:0:0:0:
448,192,46308,1,0,0:0:0:0:
192,192,46482,1,0,0:0:0:0:
448,192,46482,1,0,0:0:0:0:
64,192,46657,1,0,0:0:0:0:
320,192,46744,1,0,0:0:0:0:
192,192,46831,1,0,0:0:0:0:
64,192,46831,1,0,0:0:0:0:
448,192,47006,1,0,0:0:0:0:
320,192,47006,1,0,0:0:0:0:
448,192,47180,1,0,0:0:0:0:
64,192,47180,1,0,0:0:0:0:
64,192,47354,1,0,0:0:0:0:
320,192,47529,1,0,0:0:0:0:
448,192,47529,1,0,0:0:0:0:
192,192,47703,1,0,0:0:0:0:
64,192,47878,1,0,0:0:0:0:
320,192,47878,1,0,0:0:0:0:
448,192,48052,1,0,0:0:0:0:
192,192,48052,1,0,0:0:0:0:
64,192,48226,1,0,0:0:0:0:
320,192,48226,1,0,0:0:0:0:
320,192,48401,1,0,0:0:0:0:
448,192,48401,1,0,0:0:0:0:
448,192,48575,1,0,0:0:0:0:
64,192,48575,1,0,0:0:0:0:
192,192,48750,1,0,0:0:0:0:
192,192,48924,1,0,0:0:0:0:
448,192,48924,1,0,0:0:0:0:
64,192,49099,1,0,0:0:0:0:
192,192,49273,1,0,0:0:0:0:
64,192,49273,1,0,0:0:0:0:
320,192,49447,1,0,0:0:0:0:
64,192,49535,1,0,0:0:0:0:
192,192,49622,1,0,0:0:0:0:
448,192,49622,1,0,0:0:0:0:
448,192,49796,1,0,0:0:0:0:
320,192,49796,1,0,0:0:0:0:
64,192,49971,1,0,0:0:0:0:
192,192,49971,1,0,0:0:0:0:
64,192,50145,1,0,0:0:0:0:
448,192,50145,1,0,0:0:0:0:
448,192,50319,1,0,0:0:0:0:
320,192,50319,1,0,0:0:0:0:
192,192,50494,1,0,0:0:0:0:
448,192,50668,1,0,0:0:0:0:
192,192,50668,1,0,0:0:0:0:
64,192,50843,1,0,0:0:0:0:
320,192,50930,1,0,0:0:0:0:
192,192,51017,1,0,0:0:0:0:
64,192,51017,1,0,0:0:0:0:
448,192,51192,1,0,0:0:0:0:
320,192,51192,1,0,0:0:0:0:
64,192,51366,1,0,0:0:0:0:
320,192,51366,1,0,0:0:0:0:
192,192,51540,1,0,0:0:0:0:
64,192,51540,1,0,0:0:0:0:
320,192,51715,1,0,0:0:0:0:
448,192,51715,1,0,0:0:0:0:
64,192,51889,1,0,0:0:0:0:
448,192,52064,1,0,0:0:0:0:
64,192,52064,1,0,0:0:0:0:
320,192,52238,1,0,0:0:0:0:
192,192,52325,1,0,0:0:0:0:
448,192,52413,1,0,0:0:0:0:
320,192,52413,1,0,0:0:0:0:
64,192,52587,1,0,0:0:0:0:
192,192,52587,1,0,0:0:0:0:
64,192,52761,1,0,0:0:0:0:
448,192,52761,1,0,0:0:0:0:
320,192,52936,1,0,0:0:0:0:
448,192,52936,1,0,0:0:0:0:
320,192,53110,1,0,0:0:0:0:
64,192,53110,1,0,0:0:0:0:
192,192,53285,1,0,0:0:0:0:
64,192,53285,1,0,0:0:0:0:
448,192,53459,1,0,0:0:0:0:
320,192,53459,1,0,0:0:0:0:
192,192,53633,1,0,0:0:0:0:
448,192,53721,1,0,0:0:0:0:
192,192,53808,1,0,0:0:0:0:
320,192,53982,1,0,0:0:0:0:
64,192,53982,1,0,0:0:0:0:
448,192,54157,1,0,0:0:0:0:
320,192,54157,1,0,0:0:0:0:
192,192,54331,1,0,0:0:0:0:
448,192,54506,1,0,0:0:0:0:
192,192,54506,1,0,0:0:0:0:
64,192,54680,1,0,0:0:0:0:
448,192,54854,1,0,0:0:0:0:
192,192,54854,1,0,0:0:0:0:
448,192,55029,1,0,0:0:0:0:
320,192,55029,1,0,0:0:0:0:
64,192,55203,1,0,0:0:0:0:
448,192,55378,1,0,0:0:0:0:
320,192,55378,1,0,0:0:0:0:
192,192,55552,1,0,0:0:0:0:
448,192,55552,1,0,0:0:0:0:
320,192,55726,1,0,0:0:0:0:
192,192,55901,1,0,0:0:0:0:
64,192,55901,1,0,0:0:0:0:
448,192,56075,1,0,0:0:0:0:
192,192,56250,1,0,0:0:0:0:
64,192,56250,1,0,0:0:0:0:
448,192,56424,1,0,0:0:0:0:
192,192,56424,1,0,0:0:0:0:
64,192,56599,1,0,0:0:0:0:
192,192,56599,1,0,0:0:0:0:
448,192,56773,1,0,0:0:0:0:
320,192,56773,1,0,0:0:0:0:
64,192,56947,1,0,0:0:0:0:
448,192,56947,1,0,0:0:0:0:
192,192,57122,1,0,0:0:0:0:
320,192,57296,1,0,0:0:0:0:
448,192,57296,1,0,0:0:0:0:
64,192,57471,1,0,0:0:0:0:
448,192,57645,1,0,0:0:0:0:
64,192,57645,1,0,0:0:0:0:
320,192,57819,1,0,0:0:0:0:
192,192,57907,1,0,0:0:0:0:
448,192,57994,1,0,0:0:0:0:
320,192,57994,1,0,0:0:0:0:
64,192,58168,1,0,0:0:0:0:
192,192,58168,1,0,0:0:0:0:
448,192,58343,1,0,0:0:0:0:
64,192,58343,1,0,0:0:0:0:
192,192,58517,1,0,0:0:0:0:
320,192,58692,1,0,0:0:0:0:
448,192,58692,1,0,0:0:0:0:
192,192,58866,1,0,0:0:0:0:
320,192,59040,1,0,0:0:0:0:
448,192,59040,1,0,0:0:0:0:
320,192,59215,1,0,0:0:0:0:
64,192,59215,1,0,0:0:0:0:
320,192,59389,1,0,0:0:0:0:
448,192,59389,1,0,0:0:0:0:
192,192,59564,1,0,0:0:0:0:
64,192,59564,1,0,0:0:0:0:
64,192,59738,1,0,0:0:0:0:
320,192,59738,1,0,0:0:0:0:
192,192,59913,1,0,0:0:0:0:
448,192,60087,1,0,0:0:0:0:
320,192,60087,1,0,0:0:0:0:
192,192,60261,1,0,0:0:0:0:
64,192,60436,1,0,0:0:0:0:
320,192,60436,1,0,0:0:0:0:
448,192,60610,1,0,0:0:0:0:
192,192,60697,1,0,0:0:0:0:
64,192,60785,1,0,0:0:0:0:
320,192,60785,1,0,0:0:0:0:
448,192,60959,1,0,0:0:0:0:
320,192,60959,1,0,0:0:0:0:
64,192,61133,1,0,0:0:0:0:
448,192,61133,1,0,0:0:0:0:
192,192,61308,1,0,0:0:0:0:
320,192,61308,1,0,0:0:0:0:
448,192,61482,1,0,0:0:0:0:
320,192,61831,1,0,0:0:0:0:
64,192,62180,1,0,0:0:0:0:
192,192,62529,1,0,0:0:0:0:
448,192,62703,1,0,0:0:0:0:
64,192,63226,1,0,0:0:0:0:
448,192,63575,1,0,0:0:0:0:
320,192,63924,1,0,0:0:0:0:
64,192,64099,1,0,0:0:0:0:
192,192,64273,1,0,0:0:0:0:
448,192,64447,1,0,0:0:0:0:
192,192,65668,1,0,0:0:0:0:
448,192,65668,1,0,0:0:0:0:
320,192,66192,1,0,0:0:0:0:
64,192,66192,1,0,0:0:0:0:
192,192,66715,1,0,0:0:0:0:
448,192,66715,1,0,0:0:0:0:
320,192,66802,1,0,0:0:0:0:
64,192,66889,1,0,0:0:0:0:
448,192,66976,1,0,0:0:0:0:
192,192,67064,1,0,0:0:0:0:
320,192,67122,1,0,0:0:0:0:
192,192,67180,1,0,0:0:0:0:
64,192,67238,1,0,0:0:0:0:
448,192,67296,1,0,0:0:0:0:
320,192,67354,1,0,0:0:0:0:
192,192,67413,1,0,0:0:0:0:
64,192,67471,1,0,0:0:0:0:
448,192,67529,1,0,0:0:0:0:
192,192,67587,1,0,0:0:0:0:
320,192,67645,1,0,0:0:0:0:
448,192,67703,1,0,0:0:0:0:
64,192,67761,1,0,0:0:0:0:
192,192,67819,1,0,0:0:0:0:
448,192,67878,1,0,0:0:0:0:
64,192,67936,1,0,0:0:0:0:
192,192,67994,1,0,0:0:0:0:
320,192,68052,1,0,0:0:0:0:
448,192,68110,1,0,0:0:0:0:
64,192,68168,1,0,0:0:0:0:
320,192,68226,1,0,0:0:0:0:
192,192,68285,1,0,0:0:0:0:
64,192,68343,1,0,0:0:0:0:
448,192,68401,1,0,0:0:0:0:
192,192,68459,1,0,0:0:0:0:
64,192,68517,1,0,0:0:0:0:
320,192,68575,1,0,0:0:0:0:
192,192,68633,1,0,0:0:0:0:
448,192,68692,1,0,0:0:0:0:
64,192,68750,1,0,0:0:0:0:
192,192,68808,1,0,0:0:0:0:
320,192,68866,1,0,0:0:0:0:
64,192,68924,1,0,0:0:0:0:
448,192,68982,1,0,0:0:0:0:
192,192,69040,1,0,0:0:0:0:
64,192,69099,1,0,0:0:0:0:
448,192,69157,1,0,0:0:0:0:
320,192,69215,1,0,0:0:0:0:
448,192,69273,1,0,0:0:0:0:
192,192,69331,1,0,0:0:0:0:
64,192,69389,1,0,0:0:0:0:
448,192,69447,1,0,0:0:0:0:
192,192,69506,1,0,0:0:0:0:
320,192,69564,1,0,0:0:0:0:
192,192,69622,1,0,0:0:0:0:
64,192,69680,1,0,0:0:0:0:
448,192,69738,1,0,0:0:0:0:
320,192,69796,1,0,0:0:0:0:
192,192,69854,1,0,0:0:0:0:
448,192,69913,1,0,0:0:0:0:
64,192,69971,1,0,0:0:0:0:
192,192,70029,1,0,0:0:0:0:
320,192,70087,1,0,0:0:0:0:
448,192,70145,1,0,0:0:0:0:
64,192,70203,1,0,0:0:0:0:
192,192,70261,1,0,0:0:0:0:
64,192,70319,1,0,0:0:0:0:
448,192,70378,1,0,0:0:0:0:
320,192,70436,1,0,0:0:0:0:
192,192,70494,1,0,0:0:0:0:
448,192,70552,1,0,0:0:0:0:
64,192,70610,1,0,0:0:0:0:
192,192,70668,1,0,0:0:0:0:
320,192,70726,1,0,0:0:0:0:
448,192,70785,1,0,0:0:0:0:
64,192,70843,1,0,0:0:0:0:
192,192,70901,1,0,0:0:0:0:
448,192,70959,1,0,0:0:0:0:
192,192,71017,1,0,0:0:0:0:
320,192,71075,1,0,0:0:0:0:
448,192,71133,1,0,0:0:0:0:
64,192,71192,1,0,0:0:0:0:
320,192,71250,1,0,0:0:0:0:
192,192,71308,1,0,0:0:0:0:
64,192,71366,1,0,0:0:0:0:
448,192,71424,1,0,0:0:0:0:
320,192,71482,1,0,0:0:0:0:
192,192,71540,1,0,0:0:0:0:
64,192,71599,1,0,0:0:0:0:
448,192,71657,1,0,0:0:0:0:
192,192,71715,1,0,0:0:0:0:
320,192,71773,1,0,0:0:0:0:
448,192,71831,1,0,0:0:0:0:
192,192,71889,1,0,0:0:0:0:
64,192,71947,1,0,0:0:0:0:
448,192,72006,1,0,0:0:0:0:
64,192,72064,1,0,0:0:0:0:
320,192,72122,1,0,0:0:0:0:
192,192,72180,1,0,0:0:0:0:
64,192,72238,1,0,0:0:0:0:
448,192,72296,1,0,0:0:0:0:
320,192,72354,1,0,0:0:0:0:
448,192,72413,1,0,0:0:0:0:
64,192,72471,1,0,0:0:0:0:
192,192,72529,1,0,0:0:0:0:
448,192,72587,1,0,0:0:0:0:
64,192,72645,1,0,0:0:0:0:
320,192,72703,1,0,0:0:0:0:
192,192,72761,1,0,0:0:0:0:
64,192,72819,1,0,0:0:0:0:
448,192,72878,1,0,0:0:0:0:
320,192,72936,1,0,0:0:0:0:
192,192,72994,1,0,0:0:0:0:
448,192,73052,1,0,0:0:0:0:
192,192,73110,1,0,0:0:0:0:
64,192,73168,1,0,0:0:0:0:
448,192,73226,1,0,0:0:0:0:
192,192,73285,1,0,0:0:0:0:
320,192,73343,1,0,0:0:0:0:
448,192,73401,1,0,0:0:0:0:
192,192,73459,1,0,0:0:0:0:
320,192,73517,1,0,0:0:0:0:
64,192,73575,1,0,0:0:0:0:
192,192,73633,1,0,0:0:0:0:
320,192,73692,1,0,0:0:0:0:
64,192,73750,1,0,0:0:0:0:
320,192,73808,1,0,0:0:0:0:
448,192,73866,1,0,0:0:0:0:
64,192,73924,1,0,0:0:0:0:
192,192,73982,1,0,0:0:0:0:
448,192,74040,1,0,0:0:0:0:
320,192,74099,1,0,0:0:0:0:
192,192,74157,1,0,0:0:0:0:
64,192,74215,1,0,0:0:0:0:
448,192,74273,1,0,0:0:0:0:
320,192,74331,1,0,0:0:0:0:
64,192,74389,1,0,0:0:0:0:
448,192,74447,1,0,0:0:0:0:
320,192,74506,1,0,0:0:0:0:
192,192,74564,1,0,0:0:0:0:
64,192,74622,1,0,0:0:0:0:
448,192,74680,1,0,0:0:0:0:
320,192,74738,1,0,0:0:0:0:
192,192,74796,1,0,0:0:0:0:
320,192,74854,1,0,0:0:0:0:
64,192,74913,1,0,0:0:0:0:
192,192,74971,1,0,0:0:0:0:
448,192,75029,1,0,0:0:0:0:
64,192,75087,1,0,0:0:0:0:
320,192,75145,1,0,0:0:0:0:
64,192,75203,1,0,0:0:0:0:
192,192,75261,1,0,0:0:0:0:
448,192,75319,1,0,0:0:0:0:
64,192,75378,1,0,0:0:0:0:
320,192,75436,1,0,0:0:0:0:
192,192,75494,1,0,0:0:0:0:
64,192,75552,1,0,0:0:0:0:
448,192,75610,1,0,0:0:0:0:
320,192,75668,1,0,0:0:0:0:
192,192,75726,1,0,0:0:0:0:
448,192,75785,1,0,0:0:0:0:
64,192,75843,1,0,0:0:0:0:
448,192,75901,1,0,0:0:0:0:
192,192,75959,1,0,0:0:0:0:
64,192,76017,1,0,0:0:0:0:
320,192,76075,1,0,0:0:0:0:
448,192,76133,1,0,0:0:0:0:
64,192,76192,1,0,0:0:0:0:
192,192,76250,1,0,0:0:0:0:
320,192,76308,1,0,0:0:0:0:
448,192,76366,1,0,0:0:0:0:
64,192,76424,1,0,0:0:0:0:
192,192,76482,1,0,0:0:0:0:
448,192,76540,1,0,0:0:0:0:
64,192,76599,1,0,0:0:0:0:
320,192,76657,1,0,0:0:0:0:
192,192,76715,1,0,0:0:0:0:
64,192,76773,1,0,0:0:0:0:
448,192,76831,1,0,0:0:0:0:
320,192,76889,1,0,0:0:0:0:
448,192,76947,1,0,0:0:0:0:
64,192,77006,1,0,0:0:0:0:
320,192,77064,1,0,0:0:0:0:
192,192,77122,1,0,0:0:0:0:
64,192,77180,1,0,0:0:0:0:
320,192,77238,1,0,0:0:0:0:
448,192,77296,1,0,0:0:0:0:
192,192,77354,1,0,0:0:0:0:
320,192,77413,1,0,0:0:0:0:
192,192,77471,1,0,0:0:0:0:
64,192,77529,1,0,0:0:0:0:
448,192,77587,1,0,0:0:0:0:
192,192,77645,1,0,0:0:0:0:
320,192,77703,1,0,0:0:0:0:
448,192,77761,1,0,0:0:0:0:
64,192,77819,1,0,0:0:0:0:
192,192,77878,1,0,0:0:0:0:
448,192,77936,1,0,0:0:0:0:
192,192,77994,1,0,0:0:0:0:
320,192,78052,1,0,0:0:0:0:
448,192,78110,1,0,0:0:0:0:
64,192,78168,1,0,0:0:0:0:
192,192,78226,1,0,0:0:0:0:
320,192,78285,1,0,0:0:0:0:
192,192,78343,1,0,0:0:0:0:
448,192,78401,1,0,0:0:0:0:
64,192,78459,1,0,0:0:0:0:
192,192,78517,1,0,0:0:0:0:
320,192,78575,1,0,0:0:0:0:
448,192,78633,1,0,0:0:0:0:
64,192,78692,1,0,0:0:0:0:
320,192,78750,1,0,0:0:0:0:
192,192,78808,1,0,0:0:0:0:
64,192,78866,1,0,0:0:0:0:
448,192,78924,1,0,0:0:0:0:
320,192,78982,1,0,0:0:0:0:
64,192,79040,1,0,0:0:0:0:
448,192,79099,1,0,0:0:0:0:
320,192,79157,1,0,0:0:0:0:
192,192,79215,1,0,0:0:0:0:
64,192,79273,1,0,0:0:0:0:
448,192,79331,1,0,0:0:0:0:
192,192,79389,1,0,0:0:0:0:
320,192,79447,1,0,0:0:0:0:
448,192,79506,1,0,0:0:0:0:
64,192,79564,1,0,0:0:0:0:
320,192,79622,1,0,0:0:0:0:
448,192,79680,1,0,0:0:0:0:
192,192,79738,1,0,0:0:0:0:
320,192,79796,1,0,0:0:0:0:
64,192,79854,1,0,0:0:0:0:
448,192,79913,1,0,0:0:0:0:
320,192,79971,1,0,0:0:0:0:
192,192,80029,1,0,0:0:0:0:
448,192,80087,1,0,0:0:0:0:
64,192,80145,1,0,0:0:0:0:
320,192,80203,1,0,0:0:0:0:
448,192,80261,1,0,0:0:0:0:
64,192,80319,1,0,0:0:0:0:
192,192,80378,1,0,0:0:0:0:
64,192,80436,1,0,0:0:0:0:
320,192,80494,1,0,0:0:0:0:
448,192,80552,1,0,0:0:0:0:
64,192,80610,1,0,0:0:0:0:
320,192,80668,1,0,0:0:0:0:
192,192,80726,1,0,0:0:0:0:
320,192,80785,1,0,0:0:0:0:
448,192,80843,1,0,0:0:0:0:
64,192,80901,1,0,0:0:0:0:
192,192,80959,1,0,0:0:0:0:
320,192,81017,1,0,0:0:0:0:
64,192,81075,1,0,0:0:0:0:
448,192,81133,1,0,0:0:0:0:
320,192,81192,1,0,0:0:0:0:
192,192,81250,1,0,0:0:0:0:
64,192,81308,1,0,0:0:0:0:
448,192,81366,1,0,0:0:0:0:
320,192,81424,1,0,0:0:0:0:
448,192,81482,1,0,0:0:0:0:
64,192,81540,1,0,0:0:0:0:
192,192,81599,1,0,0:0:0:0:
320,192,81657,1,0,0:0:0:0:
64,192,81715,1,0,0:0:0:0:
448,192,81773,1,0,0:0:0:0:
320,192,81831,1,0,0:0:0:0:
192,192,81889,1,0,0:0:0:0:
64,192,81947,1,0,0:0:0:0:
448,192,82006,1,0,0:0:0:0:
320,192,82064,1,0,0:0:0:0:
64,192,82122,1,0,0:0:0:0:
320,192,82180,1,0,0:0:0:0:
192,192,82238,1,0,0:0:0:0:
64,192,82296,1,0,0:0:0:0:
448,192,82354,1,0,0:0:0:0:
192,192,82413,1,0,0:0:0:0:
320,192,82471,1,0,0:0:0:0:
448,192,82529,1,0,0:0:0:0:
64,192,82587,1,0,0:0:0:0:
192,192,82645,1,0,0:0:0:0:
320,192,82703,1,0,0:0:0:0:
448,192,82761,1,0,0:0:0:0:
64,192,82819,1,0,0:0:0:0:
320,192,82878,1,0,0:0:0:0:
192,192,82936,1,0,0:0:0:0:
64,192,82994,1,0,0:0:0:0:
320,192,83052,1,0,0:0:0:0:
448,192,83110,1,0,0:0:0:0:
64,192,83168,1,0,0:0:0:0:
448,192,83226,1,0,0:0:0:0:
192,192,83285,1,0,0:0:0:0:
320,192,83343,1,0,0:0:0:0:
448,192,83401,1,0,0:0:0:0:
64,192,83459,1,0,0:0:0:0:
192,192,83517,1,0,0:0:0:0:
64,192,83575,1,0,0:0:0:0:
448,192,83633,1,0,0:0:0:0:
320,192,83692,1,0,0:0:0:0:
64,192,83750,1,0,0:0:0:0:
448,192,83808,1,0,0:0:0:0:
192,192,83866,1,0,0:0:0:0:
320,192,83924,1,0,0:0:0:0:
448,192,83982,1,0,0:0:0:0:
64,192,84040,1,0,0:0:0:0:
192,192,84099,1,0,0:0:0:0:
320,192,84157,1,0,0:0:0:0:
64,192,84215,1,0,0:0:0:0:
320,192,84273,1,0,0:0:0:0:
448,192,84331,1,0,0:0:0:0:
64,192,84389,1,0,0:0:0:0:
192,192,84447,1,0,0:0:0:0:
448,192,84506,1,0,0:0:0:0:
64,192,84564,1,0,0:0:0:0:
192,192,84622,1,0,0:0:0:0:
320,192,84680,1,0,0:0:0:0:
448,192,84738,1,0,0:0:0:0:
64,192,84796,1,0,0:0:0:0:
192,192,84854,1,0,0:0:0:0:
320,192,84913,1,0,0:0:0:0:
192,192,84971,1,0,0:0:0:0:
448,192,85029,1,0,0:0:0:0:
64,192,85087,1,0,0:0:0:0:
192,192,85145,1,0,0:0:0:0:
320,192,85203,1,0,0:0:0:0:
64,192,85261,1,0,0:0:0:0:
448,192,85319,1,0,0:0:0:0:
320,192,85378,1,0,0:0:0:0:
192,192,85436,1,0,0:0:0:0:
64,192,85494,1,0,0:0:0:0:
448,192,85552,1,0,0:0:0:0:
320,192,85610,1,0,0:0:0:0:
192,192,85668,1,0,0:0:0:0:
448,192,85726,1,0,0:0:0:0:
320,192,85785,1,0,0:0:0:0:
64,192,85843,1,0,0:0:0:0:
192,192,85901,1,0,0:0:0:0:
448,192,85959,1,0,0:0:0:0:
192,192,86017,1,0,0:0:0:0:
320,192,86075,1,0,0:0:0:0:
448,192,86133,1,0,0:0:0:0:
64,192,86192,1,0,0:0:0:0:
320,192,86250,1,0,0:0:0:0:
192,192,86308,1,0,0:0:0:0:
320,192,86366,1,0,0:0:0:0:
448,192,86424,1,0,0:0:0:0:
64,192,86482,1,0,0:0:0:0:
192,192,86540,1,0,0:0:0:0:
320,192,86599,1,0,0:0:0:0:
448,192,86599,1,0,0:0:0:0:
64,192,86773,1,0,0:0:0:0:
64,192,86947,1,0,0:0:0:0:
448,192,86947,1,0,0:0:0:0:
320,192,87122,1,0,0:0:0:0:
320,192,87296,1,0,0:0:0:0:
192,192,87296,1,0,0:0:0:0:
64,192,87471,1,0,0:0:0:0:
448,192,87645,1,0,0:0:0:0:
64,192,87645,1,0,0:0:0:0:
192,192,87819,1,0,0:0:0:0:
320,192,87994,1,0,0:0:0:0:
448,192,87994,1,0,0:0:0:0:
320,192,88168,1,0,0:0:0:0:
448,192,88168,1,0,0:0:0:0:
192,192,88343,1,0,0:0:0:0:
448,192,88343,1,0,0:0:0:0:
64,192,88517,1,0,0:0:0:0:
448,192,88692,1,0,0:0:0:0:
192,192,88866,1,0,0:0:0:0:
64,192,88866,1,0,0:0:0:0:
448,192,89040,1,0,0:0:0:0:
64,192,89040,1,0,0:0:0:0:
192,192,89215,1,0,0:0:0:0:
320,192,89302,1,0,0:0:0:0:
192,192,89389,1,0,0:0:0:0:
64,192,89389,1,0,0:0:0:0:
448,192,89447,1,0,0:0:0:0:
320,192,89506,1,0,0:0:0:0:
64,192,89564,1,0,0:0:0:0:
448,192,89622,1,0,0:0:0:0:
320,192,89680,1,0,0:0:0:0:
192,192,89738,1,0,0:0:0:0:
448,192,89796,1,0,0:0:0:0:
64,192,89854,1,0,0:0:0:0:
192,192,89913,1,0,0:0:0:0:
320,192,89971,1,0,0:0:0:0:
64,192,90029,1,0,0:0:0:0:
448,192,90087,1,0,0:0:0:0:
320,192,90145,1,0,0:0:0:0:
64,192,90203,1,0,0:0:0:0:
448,192,90261,1,0,0:0:0:0:
192,192,90319,1,0,0:0:0:0:
320,192,90378,1,0,0:0:0:0:
448,192,90436,1,0,0:0:0:0:
64,192,90494,1,0,0:0:0:0:
192,192,90552,1,0,0:0:0:0:
448,192,90610,1,0,0:0:0:0:
64,192,90668,1,0,0:0:0:0:
192,192,90726,1,0,0:0:0:0:
320,192,90785,1,0,0:0:0:0:
64,192,90843,1,0,0:0:0:0:
320,192,90901,1,0,0:0:0:0:
448,192,90959,1,0,0:0:0:0:
192,192,91017,1,0,0:0:0:0:
64,192,91075,1,0,0:0:0:0:
320,192,91133,1,0,0:0:0:0:
192,192,91192,1,0,0:0:0:0:
448,192,91250,1,0,0:0:0:0:
320,192,91308,1,0,0:0:0:0:
64,192,91366,1,0,0:0:0:0:
448,192,91424,1,0,0:0:0:0:
320,192,91482,1,0,0:0:0:0:
192,192,91540,1,0,0:0:0:0:
320,192,91599,1,0,0:0:0:0:
64,192,91657,1,0,0:0:0:0:
192,192,91715,1,0,0:0:0:0:
448,192,91773,1,0,0:0:0:0:
64,192,91831,1,0,0:0:0:0:
192,192,91889,1,0,0:0:0:0:
64,192,91947,1,0,0:0:0:0:
448,192,92006,1,0,0:0:0:0:
320,192,92064,1,0,0:0:0:0:
192,192,92122,1,0,0:0:0:0:
448,192,92180,1,0,0:0:0:0:
64,192,92238,1,0,0:0:0:0:
320,192,92296,1,0,0:0:0:0:
192,192,92354,1,0,0:0:0:0:
448,192,92413,1,0,0:0:0:0:
320,192,92471,1,0,0:0:0:0:
64,192,92529,1,0,0:0:0:0:
448,192,92587,1,0,0:0:0:0:
320,192,92645,1,0,0:0:0:0:
192,192,92703,1,0,0:0:0:0:
64,192,92761,1,0,0:0:0:0:
448,192,92819,1,0,0:0:0:0:
192,192,92878,1,0,0:0:0:0:
320,192,92936,1,0,0:0:0:0:
448,192,92994,1,0,0:0:0:0:
64,192,93052,1,0,0:0:0:0:
192,192,93110,1,0,0:0:0:0:
448,192,93168,1,0,0:0:0:0:
64,192,93226,1,0,0:0:0:0:
320,192,93285,1,0,0:0:0:0:
192,192,93343,1,0,0:0:0:0:
64,192,93401,1,0,0:0:0:0:
448,192,93459,1,0,0:0:0:0:
320,192,93517,1,0,0:0:0:0:
64,192,93575,1,0,0:0:0:0:
448,192,93633,1,0,0:0:0:0:
192,192,93692,1,0,0:0:0:0:
64,192,93750,1,0,0:0:0:0:
448,192,93808,1,0,0:0:0:0:
192,192,93866,1,0,0:0:0:0:
320,192,93924,1,0,0:0:0:0:
448,192,93982,1,0,0:0:0:0:
64,192,94040,1,0,0:0:0:0:
320,192,94099,1,0,0:0:0:0:
448,192,94157,1,0,0:0:0:0:
64,192,94215,1,0,0:0:0:0:
192,192,94273,1,0,0:0:0:0:
448,192,94331,1,0,0:0:0:0:
192,192,94389,1,0,0:0:0:0:
320,192,94447,1,0,0:0:0:0:
448,192,94506,1,0,0:0:0:0:
192,192,94564,1,0,0:0:0:0:
64,192,94622,1,0,0:0:0:0:
448,192,94680,1,0,0:0:0:0:
64,192,94738,1,0,0:0:0:0:
320,192,94796,1,0,0:0:0:0:
192,192,94854,1,0,0:0:0:0:
448,192,94913,1,0,0:0:0:0:
320,192,94971,1,0,0:0:0:0:
192,192,95029,1,0,0:0:0:0:
64,192,95087,1,0,0:0:0:0:
448,192,95145,1,0,0:0:0:0:
320,192,95203,1,0,0:0:0:0:
64,192,95261,1,0,0:0:0:0:
448,192,95319,1,0,0:0:0:0:
320,192,95378,1,0,0:0:0:0:
448,192,95436,1,0,0:0:0:0:
64,192,95494,1,0,0:0:0:0:
192,192,95552,1,0,0:0:0:0:
320,192,95610,1,0,0:0:0:0:
64,192,95668,1,0,0:0:0:0:
448,192,95726,1,0,0:0:0:0:
320,192,95785,1,0,0:0:0:0:
192,192,95843,1,0,0:0:0:0:
448,192,95901,1,0,0:0:0:0:
320,192,95959,1,0,0:0:0:0:
64,192,96017,1,0,0:0:0:0:
192,192,96075,1,0,0:0:0:0:
64,192,96133,1,0,0:0:0:0:
448,192,96192,1,0,0:0:0:0:
320,192,96250,1,0,0:0:0:0:
192,192,96308,1,0,0:0:0:0:
448,192,96366,1,0,0:0:0:0:
320,192,96424,1,0,0:0:0:0:
64,192,96482,1,0,0:0:0:0:
448,192,96540,1,0,0:0:0:0:
192,192,96599,1,0,0:0:0:0:
320,192,96657,1,0,0:0:0:0:
448,192,96715,1,0,0:0:0:0:
64,192,96773,1,0,0:0:0:0:
192,192,96831,1,0,0:0:0:0:
320,192,96889,1,0,0:0:0:0:
64,192,96947,1,0,0:0:0:0:
448,192,97006,1,0,0:0:0:0:
320,192,97064,1,0,0:0:0:0:
64,192,97122,1,0,0:0:0:0:
320,192,97180,1,0,0:0:0:0:
192,192,97238,1,0,0:0:0:0:
64,192,97296,1,0,0:0:0:0:
320,192,97354,1,0,0:0:0:0:
448,192,97413,1,0,0:0:0:0:
64,192,97471,1,0,0:0:0:0:
448,192,97529,1,0,0:0:0:0:
192,192,97587,1,0,0:0:0:0:
320,192,97645,1,0,0:0:0:0:
64,192,97703,1,0,0:0:0:0:
192,192,97761,1,0,0:0:0:0:
448,192,97819,1,0,0:0:0:0:
64,192,97878,1,0,0:0:0:0:
320,192,97936,1,0,0:0:0:0:
192,192,97994,1,0,0:0:0:0:
64,192,98052,1,0,0:0:0:0:
448,192,98110,1,0,0:0:0:0:
320,192,98168,1,0,0:0:0:0:
448,192,98226,1,0,0:0:0:0:
64,192,98285,1,0,0:0:0:0:
192,192,98343,1,0,0:0:0:0:
320,192,98401,1,0,0:0:0:0:
64,192,98459,1,0,0:0:0:0:
192,192,98517,1,0,0:0:0:0:
448,192,98575,1,0,0:0:0:0:
320,192,98633,1,0,0:0:0:0:
192,192,98692,1,0,0:0:0:0:
64,192,98750,1,0,0:0:0:0:
448,192,98808,1,0,0:0:0:0:
192,192,98866,1,0,0:0:0:0:
448,192,98924,1,0,0:0:0:0:
320,192,98982,1,0,0:0:0:0:
64,192,99040,1,0,0:0:0:0:
192,192,99099,1,0,0:0:0:0:
448,192,99157,1,0,0:0:0:0:
64,192,99215,1,0,0:0:0:0:
320,192,99273,1,0,0:0:0:0:
192,192,99331,1,0,0:0:0:0:
64,192,99389,1,0,0:0:0:0:
448,192,99447,1,0,0:0:0:0:
192,192,99506,1,0,0:0:0:0:
320,192,99564,1,0,0:0:0:0:
192,192,99622,1,0,0:0:0:0:
64,192,99680,1,0,0:0:0:0:
448,192,99738,1,0,0:0:0:0:
320,192,99796,1,0,0:0:0:0:
192,192,99854,1,0,0:0:0:0:
448,192,99913,1,0,0:0:0:0:
64,192,99971,1,0,0:0:0:0:
320,192,100029,1,0,0:0:0:0:
192,192,100087,1,0,0:0:0:0:
64,192,100145,1,0,0:0:0:0:
320,192,100203,1,0,0:0:0:0:
192,192,100261,1,0,0:0:0:0:
320,192,100319,1,0,0:0:0:0:
448,192,100378,1,0,0:0:0:0:
64,192,100436,1,0,0:0:0:0:
192,192,100494,1,0,0:0:0:0:
320,192,100552,1,0,0:0:0:0:
64,192,100610,1,0,0:0:0:0:
192,192,100668,1,0,0:0:0:0:
448,192,100726,1,0,0:0:0:0:
64,192,100785,1,0,0:0:0:0:
320,192,100843,1,0,0:0:0:0:
192,192,100901,1,0,0:0:0:0:
64,192,100959,1,0,0:0:0:0:
448,192,101017,1,0,0:0:0:0:
320,192,101075,1,0,0:0:0:0:
64,192,101133,1,0,0:0:0:0:
448,192,101192,1,0,0:0:0:0:
320,192,101250,1,0,0:0:0:0:
192,192,101308,1,0,0:0:0:0:
448,192,101366,1,0,0:0:0:0:
64,192,101424,1,0,0:0:0:0:
192,192,101482,1,0,0:0:0:0:
320,192,101540,1,0,0:0:0:0:
448,192,101599,1,0,0:0:0:0:
64,192,101657,1,0,0:0:0:0:
192,192,101715,1,0,0:0:0:0:
320,192,101773,1,0,0:0:0:0:
64,192,101831,1,0,0:0:0:0:
448,192,101889,1,0,0:0:0:0:
320,192,101947,1,0,0:0:0:0:
64,192,102006,1,0,0:0:0:0:
320,192,102064,1,0,0:0:0:0:
192,192,102122,1,0,0:0:0:0:
64,192,102180,1,0,0:0:0:0:
448,192,102238,1,0,0:0:0:0:
320,192,102296,1,0,0:0:0:0:
64,192,102354,1,0,0:0:0:0:
448,192,102413,1,0,0:0:0:0:
192,192,102471,1,0,0:0:0:0:
320,192,102529,1,0,0:0:0:0:
448,192,102587,1,0,0:0:0:0:
64,192,102645,1,0,0:0:0:0:
192,192,102703,1,0,0:0:0:0:
64,192,102761,1,0,0:0:0:0:
448,192,102819,1,0,0:0:0:0:
320,192,102878,1,0,0:0:0:0:
64,192,102936,1,0,0:0:0:0:
448,192,102994,1,0,0:0:0:0:
192,192,103052,1,0,0:0:0:0:
448,192,103110,1,0,0:0:0:0:
320,192,103168,1,0,0:0:0:0:
192,192,103226,1,0,0:0:0:0:
64,192,103285,1,0,0:0:0:0:
448,192,103343,1,0,0:0:0:0:
192,192,103401,1,0,0:0:0:0:
320,192,103459,1,0,0:0:0:0:
448,192,103517,1,0,0:0:0:0:
64,192,103575,1,0,0:0:0:0:
192,192,103633,1,0,0:0:0:0:
320,192,103692,1,0,0:0:0:0:
64,192,103750,1,0,0:0:0:0:
448,192,103808,1,0,0:0:0:0:
320,192,103866,1,0,0:0:0:0:
64,192,103924,1,0,0:0:0:0:
448,192,103982,1,0,0:0:0:0:
320,192,104040,1,0,0:0:0:0:
192,192,104099,1,0,0:0:0:0:
64,192,104157,1,0,0:0:0:0:
448,192,104215,1,0,0:0:0:0:
192,192,104273,1,0,0:0:0:0:
320,192,104331,1,0,0:0:0:0:
448,192,104389,1,0,0:0:0:0:
64,192,104447,1,0,0:0:0:0:
192,192,104506,1,0,0:0:0:0:
448,192,104564,1,0,0:0:0:0:
64,192,104622,1,0,0:0:0:0:
320,192,104680,1,0,0:0:0:0:
192,192,104738,1,0,0:0:0:0:
64,192,104796,1,0,0:0:0:0:
448,192,104854,1,0,0:0:0:0:
320,192,104913,1,0,0:0:0:0:
192,192,104971,1,0,0:0:0:0:
64,192,105029,1,0,0:0:0:0:
448,192,105087,1,0,0:0:0:0:
320,192,105145,1,0,0:0:0:0:
192,192,105203,1,0,0:0:0:0:
448,192,105261,1,0,0:0:0:0:
64,192,105319,1,0,0:0:0:0:
192,192,105378,1,0,0:0:0:0:
320,192,105436,1,0,0:0:0:0:
64,192,105494,1,0,0:0:0:0:
320,192,105552,1,0,0:0:0:0:
448,192,105610,1,0,0:0:0:0:
192,192,105668,1,0,0:0:0:0:
320,192,105726,1,0,0:0:0:0:
64,192,105785,1,0,0:0:0:0:
448,192,105843,1,0,0:0:0:0:
64,192,105901,1,0,0:0:0:0:
192,192,105959,1,0,0:0:0:0:
320,192,106017,1,0,0:0:0:0:
448,192,106075,1,0,0:0:0:0:
64,192,106133,1,0,0:0:0:0:
320,192,106192,1,0,0:0:0:0:
192,192,106250,1,0,0:0:0:0:
64,192,106308,1,0,0:0:0:0:
448,192,106366,1,0,0:0:0:0:
192,192,106424,1,0,0:0:0:0:
320,192,106482,1,0,0:0:0:0:
64,192,106540,1,0,0:0:0:0:
320,192,106599,1,0,0:0:0:0:
192,192,106657,1,0,0:0:0:0:
64,192,106715,1,0,0:0:0:0:
448,192,106773,1,0,0:0:0:0:
320,192,106831,1,0,0:0:0:0:
192,192,106889,1,0,0:0:0:0:
64,192,106947,1,0,0:0:0:0:
448,192,107006,1,0,0:0:0:0:
320,192,107064,1,0,0:0:0:0:
64,192,107122,1,0,0:0:0:0:
192,192,107180,1,0,0:0:0:0:
448,192,107238,1,0,0:0:0:0:
192,192,107296,1,0,0:0:0:0:
320,192,107354,1,0,0:0:0:0:
448,192,107413,1,0,0:0:0:0:
64,192,107471,1,0,0:0:0:0:
192,192,107529,1,0,0:0:0:0:
320,192,107587,1,0,0:0:0:0:
448,192,107645,1,0,0:0:0:0:
64,192,107703,1,0,0:0:0:0:
320,192,107761,1,0,0:0:0:0:
192,192,107819,1,0,0:0:0:0:
64,192,107878,1,0,0:0:0:0:
448,192,107936,1,0,0:0:0:0:
320,192,107994,1,0,0:0:0:0:
64,192,108052,1,0,0:0:0:0:
448,192,108110,1,0,0:0:0:0:
320,192,108168,1,0,0:0:0:0:
64,192,108226,1,0,0:0:0:0:
192,192,108285,1,0,0:0:0:0:
64,192,108343,1,0,0:0:0:0:
448,192,108401,1,0,0:0:0:0:
192,192,108459,1,0,0:0:0:0:
64,192,108517,1,0,0:0:0:0:
320,192,108575,1,0,0:0:0:0:
192,192,108633,1,0,0:0:0:0:
320,192,108692,1,0,0:0:0:0:
448,192,108750,1,0,0:0:0:0:
64,192,108808,1,0,0:0:0:0:
192,192,108866,1,0,0:0:0:0:
320,192,108924,1,0,0:0:0:0:
64,192,109273,1,0,0:0:0:0:
448,192,109971,1,0,0:0:0:0:
192,192,110668,1,0,0:0:0:0:
64,192,110886,1,0,0:0:0:0:
448,192,110930,1,0,0:0:0:0:
320,192,110974,1,0,0:0:0:0:
192,192,111017,1,0,0:0:0:0:
64,192,111104,1,0,0:0:0:0:
448,192,111192,1,0,0:0:0:0:
192,192,111279,1,0,0:0:0:0:
320,192,111366,1,0,0:0:0:0:
192,192,111453,1,0,0:0:0:0:
448,192,111540,1,0,0:0:0:0:
64,192,111628,1,0,0:0:0:0:
448,192,111715,1,0,0:0:0:0:
192,192,111715,1,0,0:0:0:0:
320,192,111802,1,0,0:0:0:0:
64,192,111889,1,0,0:0:0:0:
448,192,111976,1,0,0:0:0:0:
192,192,112064,1,0,0:0:0:0:
64,192,112064,1,0,0:0:0:0:
448,192,112151,1,0,0:0:0:0:
320,192,112238,1,0,0:0:0:0:
64,192,112325,1,0,0:0:0:0:
192,192,112413,1,0,0:0:0:0:
320,192,112500,1,0,0:0:0:0:
448,192,112587,1,0,0:0:0:0:
192,192,112587,1,0,0:0:0:0:
64,192,112674,1,0,0:0:0:0:
320,192,112761,1,0,0:0:0:0:
448,192,112761,1,0,0:0:0:0:
192,192,112849,1,0,0:0:0:0:
64,192,112936,1,0,0:0:0:0:
448,192,113023,1,0,0:0:0:0:
64,192,113110,1,0,0:0:0:0:
320,192,113110,1,0,0:0:0:0:
192,192,113197,1,0,0:0:0:0:
448,192,113285,1,0,0:0:0:0:
320,192,113372,1,0,0:0:0:0:
192,192,113459,1,0,0:0:0:0:
64,192,113459,1,0,0:0:0:0:
320,192,113546,1,0,0:0:0:0:
64,192,113633,1,0,0:0:0:0:
192,192,113721,1,0,0:0:0:0:
448,192,113808,1,0,0:0:0:0:
192,192,113895,1,0,0:0:0:0:
64,192,113982,1,0,0:0:0:0:
320,192,113982,1,0,0:0:0:0:
448,192,114069,1,0,0:0:0:0:
64,192,114157,1,0,0:0:0:0:
192,192,114157,1,0,0:0:0:0:
448,192,114244,1,0,0:0:0:0:
192,192,114331,1,0,0:0:0:0:
320,192,114418,1,0,0:0:0:0:
192,192,114506,1,0,0:0:0:0:
448,192,114506,1,0,0:0:0:0:
64,192,114593,1,0,0:0:0:0:
448,192,114680,1,0,0:0:0:0:
320,192,114767,1,0,0:0:0:0:
192,192,114854,1,0,0:0:0:0:
64,192,114854,1,0,0:0:0:0:
320,192,114942,1,0,0:0:0:0:
64,192,115029,1,0,0:0:0:0:
448,192,115116,1,0,0:0:0:0:
192,192,115203,1,0,0:0:0:0:
320,192,115290,1,0,0:0:0:0:
192,192,115378,1,0,0:0:0:0:
448,192,115378,1,0,0:0:0:0:
64,192,115465,1,0,0:0:0:0:
320,192,115552,1,0,0:0:0:0:
448,192,115552,1,0,0:0:0:0:
192,192,115639,1,0,0:0:0:0:
64,192,115726,1,0,0:0:0:0:
448,192,115814,1,0,0:0:0:0:
64,192,115901,1,0,0:0:0:0:
320,192,115901,1,0,0:0:0:0:
192,192,115988,1,0,0:0:0:0:
448,192,116075,1,0,0:0:0:0:
64,192,116163,1,0,0:0:0:0:
320,192,116250,1,0,0:0:0:0:
448,192,116250,1,0,0:0:0:0:
64,192,116337,1,0,0:0:0:0:
192,192,116424,1,0,0:0:0:0:
448,192,116511,1,0,0:0:0:0:
320,192,116599,1,0,0:0:0:0:
192,192,116686,1,0,0:0:0:0:
64,192,116773,1,0,0:0:0:0:
320,192,116773,1,0,0:0:0:0:
448,192,116860,1,0,0:0:0:0:
192,192,116947,1,0,0:0:0:0:
64,192,116947,1,0,0:0:0:0:
320,192,117035,1,0,0:0:0:0:
64,192,117122,1,0,0:0:0:0:
448,192,117209,1,0,0:0:0:0:
320,192,117296,1,0,0:0:0:0:
64,192,117296,1,0,0:0:0:0:
192,192,117383,1,0,0:0:0:0:
448,192,117471,1,0,0:0:0:0:
64,192,117558,1,0,0:0:0:0:
320,192,117645,1,0,0:0:0:0:
448,192,117645,1,0,0:0:0:0:
64,192,117732,1,0,0:0:0:0:
192,192,117819,1,0,0:0:0:0:
448,192,117907,1,0,0:0:0:0:
64,192,117994,1,0,0:0:0:0:
320,192,118081,1,0,0:0:0:0:
192,192,118168,1,0,0:0:0:0:
448,192,118168,1,0,0:0:0:0:
64,192,118256,1,0,0:0:0:0:
320,192,118343,1,0,0:0:0:0:
448,192,118343,1,0,0:0:0:0:
64,192,118430,1,0,0:0:0:0:
192,192,118517,1,0,0:0:0:0:
448,192,118604,1,0,0:0:0:0:
64,192,118692,1,0,0:0:0:0:
320,192,118692,1,0,0:0:0:0:
192,192,118779,1,0,0:0:0:0:
448,192,118866,1,0,0:0:0:0:
320,192,118953,1,0,0:0:0:0:
64,192,119040,1,0,0:0:0:0:
192,192,119040,1,0,0:0:0:0:
320,192,119128,1,0,0:0:0:0:
64,192,119215,1,0,0:0:0:0:
448,192,119302,1,0,0:0:0:0:
320,192,119389,1,0,0:0:0:0:
192,192,119476,1,0,0:0:0:0:
64,192,119564,1,0,0:0:0:0:
320,192,119564,1,0,0:0:0:0:
448,192,119651,1,0,0:0:0:0:
64,192,119738,1,0,0:0:0:0:
192,192,119738,1,0,0:0:0:0:
320,192,119825,1,0,0:0:0:0:
192,192,119913,1,0,0:0:0:0:
448,192,120000,1,0,0:0:0:0:
64,192,120087,1,0,0:0:0:0:
320,192,120087,1,0,0:0:0:0:
192,192,120174,1,0,0:0:0:0:
448,192,120261,1,0,0:0:0:0:
64,192,120349,1,0,0:0:0:0:
320,192,120436,1,0,0:0:0:0:
448,192,120436,1,0,0:0:0:0:
192,192,120523,1,0,0:0:0:0:
64,192,120610,1,0,0:0:0:0:
448,192,120697,1,0,0:0:0:0:
192,192,120785,1,0,0:0:0:0:
320,192,120872,1,0,0:0:0:0:
192,192,120959,1,0,0:0:0:0:
448,192,120959,1,0,0:0:0:0:
64,192,121046,1,0,0:0:0:0:
320,192,121133,1,0,0:0:0:0:
448,192,121133,1,0,0:0:0:0:
192,192,121221,1,0,0:0:0:0:
320,192,121308,1,0,0:0:0:0:
64,192,121395,1,0,0:0:0:0:
448,192,121482,1,0,0:0:0:0:
192,192,121482,1,0,0:0:0:0:
320,192,121569,1,0,0:0:0:0:
64,192,121657,1,0,0:0:0:0:
448,192,121744,1,0,0:0:0:0:
192,192,121831,1,0,0:0:0:0:
64,192,121831,1,0,0:0:0:0:
448,192,121918,1,0,0:0:0:0:
64,192,122006,1,0,0:0:0:0:
320,192,122006,1,0,0:0:0:0:
192,192,122093,1,0,0:0:0:0:
448,192,122180,1,0,0:0:0:0:
320,192,122267,1,0,0:0:0:0:
192,192,122354,1,0,0:0:0:0:
448,192,122354,1,0,0:0:0:0:
64,192,122442,1,0,0:0:0:0:
320,192,122529,1,0,0:0:0:0:
448,192,122529,1,0,0:0:0:0:
192,192,122616,1,0,0:0:0:0:
64,192,122703,1,0,0:0:0:0:
448,192,122790,1,0,0:0:0:0:
64,192,122878,1,0,0:0:0:0:
320,192,122878,1,0,0:0:0:0:
192,192,122965,1,0,0:0:0:0:
448,192,123052,1,0,0:0:0:0:
64,192,123139,1,0,0:0:0:0:
320,192,123226,1,0,0:0:0:0:
448,192,123226,1,0,0:0:0:0:
64,192,123314,1,0,0:0:0:0:
192,192,123401,1,0,0:0:0:0:
448,192,123488,1,0,0:0:0:0:
320,192,123575,1,0,0:0:0:0:
192,192,123663,1,0,0:0:0:0:
64,192,123750,1,0,0:0:0:0:
320,192,123750,1,0,0:0:0:0:
448,192,123837,1,0,0:0:0:0:
192,192,123924,1,0,0:0:0:0:
64,192,123924,1,0,0:0:0:0:
320,192,124011,1,0,0:0:0:0:
448,192,124099,1,0,0:0:0:0:
64,192,124186,1,0,0:0:0:0:
448,192,124273,1,0,0:0:0:0:
192,192,124273,1,0,0:0:0:0:
320,192,124360,1,0,0:0:0:0:
64,192,124447,1,0,0:0:0:0:
192,192,124535,1,0,0:0:0:0:
320,192,124622,1,0,0:0:0:0:
448,192,124622,1,0,0:0:0:0:
192,192,124709,1,0,0:0:0:0:
448,192,124796,1,0,0:0:0:0:
320,192,124883,1,0,0:0:0:0:
64,192,124971,1,0,0:0:0:0:
320,192,125058,1,0,0:0:0:0:
448,192,125145,1,0,0:0:0:0:
192,192,125145,1,0,0:0:0:0:
64,192,125232,1,0,0:0:0:0:
448,192,125319,1,0,0:0:0:0:
320,192,125319,1,0,0:0:0:0:
64,192,125407,1,0,0:0:0:0:
320,192,125494,1,0,0:0:0:0:
192,192,125581,1,0,0:0:0:0:
320,192,125668,1,0,0:0:0:0:
64,192,125668,1,0,0:0:0:0:
448,192,125756,1,0,0:0:0:0:
64,192,125843,1,0,0:0:0:0:
192,192,125930,1,0,0:0:0:0:
320,192,126017,1,0,0:0:0:0:
448,192,126017,1,0,0:0:0:0:
192,192,126104,1,0,0:0:0:0:
448,192,126192,1,0,0:0:0:0:
64,192,126279,1,0,0:0:0:0:
320,192,126366,1,0,0:0:0:0:
192,192,126453,1,0,0:0:0:0:
320,192,126540,1,0,0:0:0:0:
64,192,126540,1,0,0:0:0:0:
448,192,126628,1,0,0:0:0:0:
192,192,126715,1,0,0:0:0:0:
64,192,126715,1,0,0:0:0:0:
320,192,126802,1,0,0:0:0:0:
448,192,126889,1,0,0:0:0:0:
64,192,126976,1,0,0:0:0:0:
448,192,127064,1,0,0:0:0:0:
192,192,127064,1,0,0:0:0:0:
320,192,127151,1,0,0:0:0:0:
64,192,127238,1,0,0:0:0:0:
448,192,127325,1,0,0:0:0:0:
192,192,127413,1,0,0:0:0:0:
64,192,127413,1,0,0:0:0:0:
448,192,127500,1,0,0:0:0:0:
320,192,127587,1,0,0:0:0:0:
64,192,127674,1,0,0:0:0:0:
192,192,127761,1,0,0:0:0:0:
320,192,127849,1,0,0:0:0:0:
448,192,127936,1,0,0:0:0:0:
192,192,127936,1,0,0:0:0:0:
64,192,128023,1,0,0:0:0:0:
320,192,128110,1,0,0:0:0:0:
448,192,128110,1,0,0:0:0:0:
192,192,128197,1,0,0:0:0:0:
448,192,128285,1,0,0:0:0:0:
64,192,128372,1,0,0:0:0:0:
192,192,128459,1,0,0:0:0:0:
448,192,128459,1,0,0:0:0:0:
320,192,128546,1,0,0:0:0:0:
64,192,128633,1,0,0:0:0:0:
448,192,128721,1,0,0:0:0:0:
192,192,128808,1,0,0:0:0:0:
64,192,128808,1,0,0:0:0:0:
448,192,128895,1,0,0:0:0:0:
320,192,128982,1,0,0:0:0:0:
64,192,129069,1,0,0:0:0:0:
448,192,129157,1,0,0:0:0:0:
192,192,129244,1,0,0:0:0:0:
320,192,129331,1,0,0:0:0:0:
64,192,129331,1,0,0:0:0:0:
448,192,129418,1,0,0:0:0:0:
192,192,129506,1,0,0:0:0:0:
64,192,129506,1,0,0:0:0:0:
448,192,129593,1,0,0:0:0:0:
320,192,129680,1,0,0:0:0:0:
64,192,129767,1,0,0:0:0:0:
448,192,129854,1,0,0:0:0:0:
192,192,129854,1,0,0:0:0:0:
320,192,129942,1,0,0:0:0:0:
64,192,130029,1,0,0:0:0:0:
192,192,130116,1,0,0:0:0:0:
448,192,130203,1,0,0:0:0:0:
320,192,130203,1,0,0:0:0:0:
192,192,130290,1,0,0:0:0:0:
448,192,130378,1,0,0:0:0:0:
64,192,130465,1,0,0:0:0:0:
192,192,130552,1,0,0:0:0:0:
320,192,130639,1,0,0:0:0:0:
448,192,130726,1,0,0:0:0:0:
192,192,130726,1,0,0:0:0:0:
64,192,130814,1,0,0:0:0:0:
448,192,130901,1,0,0:0:0:0:
320,192,130901,1,0,0:0:0:0:
192,192,130988,1,0,0:0:0:0:
320,192,131075,1,0,0:0:0:0:
64,192,131163,1,0,0:0:0:0:
448,192,131250,1,0,0:0:0:0:
192,192,131250,1,0,0:0:0:0:
448,192,131424,1,0,0:0:0:0:
192,192,131599,1,0,0:0:0:0:
64,192,131599,1,0,0:0:0:0:
320,192,131773,1,0,0:0:0:0:
64,192,131860,1,0,0:0:0:0:
192,192,131947,1,0,0:0:0:0:
448,192,131947,1,0,0:0:0:0:
192,192,132122,1,0,0:0:0:0:
320,192,132296,1,0,0:0:0:0:
448,192,132296,1,0,0:0:0:0:
64,192,132471,1,0,0:0:0:0:
320,192,132645,1,0,0:0:0:0:
448,192,132645,1,0,0:0:0:0:
320,192,132819,1,0,0:0:0:0:
448,192,132819,1,0,0:0:0:0:
448,192,132994,1,0,0:0:0:0:
64,192,132994,1,0,0:0:0:0:
320,192,133168,1,0,0:0:0:0:
64,192,133168,1,0,0:0:0:0:
192,192,133343,1,0,0:0:0:0:
448,192,133517,1,0,0:0:0:0:
192,192,133517,1,0,0:0:0:0:
320,192,133692,1,0,0:0:0:0:
448,192,133692,1,0,0:0:0:0:
192,192,133779,1,0,0:0:0:0:
448,192,133866,1,0,0:0:0:0:
64,192,133953,1,0,0:0:0:0:
320,192,134040,1,0,0:0:0:0:
192,192,134099,1,0,0:0:0:0:
320,192,134157,1,0,0:0:0:0:
448,192,134215,1,0,0:0:0:0:
64,192,134273,1,0,0:0:0:0:
192,192,134331,1,0,0:0:0:0:
320,192,134389,1,0,0:0:0:0:
448,192,134447,1,0,0:0:0:0:
64,192,134506,1,0,0:0:0:0:
320,192,134564,1,0,0:0:0:0:
192,192,134622,1,0,0:0:0:0:
64,192,134680,1,0,0:0:0:0:
448,192,134738,1,0,0:0:0:0:
320,192,134796,1,0,0:0:0:0:
64,192,134854,1,0,0:0:0:0:
448,192,134913,1,0,0:0:0:0:
320,192,134971,1,0,0:0:0:0:
192,192,135029,1,0,0:0:0:0:
64,192,135087,1,0,0:0:0:0:
448,192,135145,1,0,0:0:0:0:
192,192,135203,1,0,0:0:0:0:
320,192,135261,1,0,0:0:0:0:
448,192,135319,1,0,0:0:0:0:
64,192,135378,1,0,0:0:0:0:
320,192,135436,1,0,0:0:0:0:
448,192,135494,1,0,0:0:0:0:
192,192,135552,1,0,0:0:0:0:
320,192,135610,1,0,0:0:0:0:
64,192,135668,1,0,0:0:0:0:
448,192,135726,1,0,0:0:0:0:
320,192,135785,1,0,0:0:0:0:
192,192,135843,1,0,0:0:0:0:
448,192,135901,1,0,0:0:0:0:
64,192,135959,1,0,0:0:0:0:
320,192,136017,1,0,0:0:0:0:
448,192,136075,1,0,0:0:0:0:
64,192,136133,1,0,0:0:0:0:
192,192,136192,1,0,0:0:0:0:
64,192,136250,1,0,0:0:0:0:
320,192,136308,1,0,0:0:0:0:
448,192,136366,1,0,0:0:0:0:
64,192,136424,1,0,0:0:0:0:
320,192,136482,1,0,0:0:0:0:
192,192,136540,1,0,0:0:0:0:
320,192,136599,1,0,0:0:0:0:
448,192,136657,1,0,0:0:0:0:
64,192,136715,1,0,0:0:0:0:
192,192,136773,1,0,0:0:0:0:
320,192,136831,1,0,0:0:0:0:
64,192,136889,1,0,0:0:0:0:
448,192,136947,1,0,0:0:0:0:
320,192,137006,1,0,0:0:0:0:
192,192,137064,1,0,0:0:0:0:
64,192,137122,1,0,0:0:0:0:
448,192,137180,1,0,0:0:0:0:
320,192,137238,1,0,0:0:0:0:
448,192,137296,1,0,0:0:0:0:
64,192,137354,1,0,0:0:0:0:
192,192,137413,1,0,0:0:0:0:
320,192,137471,1,0,0:0:0:0:
64,192,137529,1,0,0:0:0:0:
448,192,137587,1,0,0:0:0:0:
320,192,137645,1,0,0:0:0:0:
192,192,137703,1,0,0:0:0:0:
64,192,137761,1,0,0:0:0:0:
448,192,137819,1,0,0:0:0:0:
320,192,137878,1,0,0:0:0:0:
64,192,137936,1,0,0:0:0:0:
320,192,137994,1,0,0:0:0:0:
192,192,138052,1,0,0:0:0:0:
64,192,138110,1,0,0:0:0:0:
448,192,138168,1,0,0:0:0:0:
192,192,138226,1,0,0:0:0:0:
320,192,138285,1,0,0:0:0:0:
448,192,138343,1,0,0:0:0:0:
64,192,138401,1,0,0:0:0:0:
192,192,138459,1,0,0:0:0:0:
320,192,138517,1,0,0:0:0:0:
448,192,138575,1,0,0:0:0:0:
64,192,138633,1,0,0:0:0:0:
320,192,138692,1,0,0:0:0:0:
192,192,138750,1,0,0:0:0:0:
64,192,138808,1,0,0:0:0:0:
320,192,138866,1,0,0:0:0:0:
448,192,138924,1,0,0:0:0:0:
64,192,138982,1,0,0:0:0:0:
448,192,139040,1,0,0:0:0:0:
192,192,139099,1,0,0:0:0:0:
320,192,139157,1,0,0:0:0:0:
448,192,139215,1,0,0:0:0:0:
64,192,139273,1,0,0:0:0:0:
192,192,139331,1,0,0:0:0:0:
64,192,139389,1,0,0:0:0:0:
448,192,139447,1,0,0:0:0:0:
320,192,139506,1,0,0:0:0:0:
64,192,139564,1,0,0:0:0:0:
448,192,139622,1,0,0:0:0:0:
192,192,139680,1,0,0:0:0:0:
320,192,139738,1,0,0:0:0:0:
448,192,139796,1,0,0:0:0:0:
64,192,139854,1,0,0:0:0:0:
192,192,139913,1,0,0:0:0:0:
320,192,139971,1,0,0:0:0:0:
64,192,140029,1,0,0:0:0:0:
320,192,140087,1,0,0:0:0:0:
448,192,140145,1,0,0:0:0:0:
64,192,140203,1,0,0:0:0:0:
320,192,140261,1,0,0:0:0:0:
192,192,140319,1,0,0:0:0:0:
64,192,140378,1,0,0:0:0:0:
320,192,140436,1,0,0:0:0:0:
192,192,140494,1,0,0:0:0:0:
448,192,140552,1,0,0:0:0:0:
320,192,140610,1,0,0:0:0:0:
192,192,140668,1,0,0:0:0:0:
448,192,140726,1,0,0:0:0:0:
192,192,140785,1,0,0:0:0:0:
64,192,140843,1,0,0:0:0:0:
448,192,140901,1,0,0:0:0:0:
320,192,140959,1,0,0:0:0:0:
64,192,141017,1,0,0:0:0:0:
192,192,141075,1,0,0:0:0:0:
320,192,141133,1,0,0:0:0:0:
448,192,141192,1,0,0:0:0:0:
64,192,141250,1,0,0:0:0:0:
192,192,141308,1,0,0:0:0:0:
448,192,141366,1,0,0:0:0:0:
64,192,141424,1,0,0:0:0:0:
192,192,141482,1,0,0:0:0:0:
320,192,141540,1,0,0:0:0:0:
448,192,141599,1,0,0:0:0:0:
64,192,141657,1,0,0:0:0:0:
192,192,141715,1,0,0:0:0:0:
320,192,141773,1,0,0:0:0:0:
192,192,141831,1,0,0:0:0:0:
448,192,141889,1,0,0:0:0:0:
320,192,141947,1,0,0:0:0:0:
64,192,142006,1,0,0:0:0:0:
448,192,142064,1,0,0:0:0:0:
192,192,142122,1,0,0:0:0:0:
448,192,142180,1,0,0:0:0:0:
320,192,142238,1,0,0:0:0:0:
64,192,142296,1,0,0:0:0:0:
448,192,142354,1,0,0:0:0:0:
192,192,142413,1,0,0:0:0:0:
320,192,142471,1,0,0:0:0:0:
448,192,142529,1,0,0:0:0:0:
64,192,142587,1,0,0:0:0:0:
192,192,142645,1,0,0:0:0:0:
320,192,142703,1,0,0:0:0:0:
64,192,142761,1,0,0:0:0:0:
448,192,142819,1,0,0:0:0:0:
64,192,142878,1,0,0:0:0:0:
320,192,142936,1,0,0:0:0:0:
448,192,142994,1,0,0:0:0:0:
192,192,143052,1,0,0:0:0:0:
64,192,143110,1,0,0:0:0:0:
448,192,143168,1,0,0:0:0:0:
320,192,143226,1,0,0:0:0:0:
192,192,143285,1,0,0:0:0:0:
64,192,143343,1,0,0:0:0:0:
448,192,143401,1,0,0:0:0:0:
320,192,143459,1,0,0:0:0:0:
64,192,143517,1,0,0:0:0:0:
448,192,143575,1,0,0:0:0:0:
192,192,143633,1,0,0:0:0:0:
320,192,143692,1,0,0:0:0:0:
448,192,143750,1,0,0:0:0:0:
64,192,143808,1,0,0:0:0:0:
192,192,143866,1,0,0:0:0:0:
64,192,143924,1,0,0:0:0:0:
448,192,143982,1,0,0:0:0:0:
192,192,144040,1,0,0:0:0:0:
320,192,144099,1,0,0:0:0:0:
448,192,144157,1,0,0:0:0:0:
192,192,144215,1,0,0:0:0:0:
64,192,144273,1,0,0:0:0:0:
320,192,144331,1,0,0:0:0:0:
192,192,144389,1,0,0:0:0:0:
320,192,144447,1,0,0:0:0:0:
448,192,144506,1,0,0:0:0:0:
64,192,144564,1,0,0:0:0:0:
320,192,144622,1,0,0:0:0:0:
192,192,144680,1,0,0:0:0:0:
64,192,144738,1,0,0:0:0:0:
448,192,144796,1,0,0:0:0:0:
320,192,144854,1,0,0:0:0:0:
64,192,144913,1,0,0:0:0:0:
320,192,144971,1,0,0:0:0:0:
192,192,145029,1,0,0:0:0:0:
64,192,145087,1,0,0:0:0:0:
448,192,145145,1,0,0:0:0:0:
320,192,145203,1,0,0:0:0:0:
192,192,145261,1,0,0:0:0:0:
320,192,145319,1,0,0:0:0:0:
64,192,145378,1,0,0:0:0:0:
448,192,145436,1,0,0:0:0:0:
320,192,145494,1,0,0:0:0:0:
192,192,145552,1,0,0:0:0:0:
64,192,145610,1,0,0:0:0:0:
448,192,145668,1,0,0:0:0:0:
192,192,145726,1,0,0:0:0:0:
320,192,145785,1,0,0:0:0:0:
448,192,145843,1,0,0:0:0:0:
64,192,145901,1,0,0:0:0:0:
192,192,145959,1,0,0:0:0:0:
448,192,146017,1,0,0:0:0:0:
64,192,146075,1,0,0:0:0:0:
192,192,146133,1,0,0:0:0:0:
320,192,146192,1,0,0:0:0:0:
448,192,146250,1,0,0:0:0:0:
64,192,146308,1,0,0:0:0:0:
320,192,146366,1,0,0:0:0:0:
192,192,146424,1,0,0:0:0:0:
64,192,146482,1,0,0:0:0:0:
448,192,146540,1,0,0:0:0:0:
192,192,146599,1,0,0:0:0:0:
64,192,146657,1,0,0:0:0:0:
320,192,146715,1,0,0:0:0:0:
192,192,146773,1,0,0:0:0:0:
448,192,146831,1,0,0:0:0:0:
64,192,146889,1,0,0:0:0:0:
192,192,146947,1,0,0:0:0:0:
320,192,147006,1,0,0:0:0:0:
64,192,147064,1,0,0:0:0:0:
448,192,147122,1,0,0:0:0:0:
192,192,147180,1,0,0:0:0:0:
64,192,147238,1,0,0:0:0:0:
448,192,147296,1,0,0:0:0:0:
320,192,147354,1,0,0:0:0:0:
448,192,147413,1,0,0:0:0:0:
192,192,147471,1,0,0:0:0:0:
64,192,147529,1,0,0:0:0:0:
448,192,147587,1,0,0:0:0:0:
192,192,147645,1,0,0:0:0:0:
320,192,147703,1,0,0:0:0:0:
192,192,147761,1,0,0:0:0:0:
64,192,147819,1,0,0:0:0:0:
448,192,147878,1,0,0:0:0:0:
320,192,147936,1,0,0:0:0:0:
192,192,147994,1,0,0:0:0:0:
448,192,148052,1,0,0:0:0:0:
64,192,148110,1,0,0:0:0:0:
192,192,148168,1,0,0:0:0:0:
320,192,148226,1,0,0:0:0:0:
448,192,148285,1,0,0:0:0:0:
64,192,148343,1,0,0:0:0:0:
192,192,148401,1,0,0:0:0:0:
64,192,148459,1,0,0:0:0:0:
448,192,148517,1,0,0:0:0:0:
320,192,148575,1,0,0:0:0:0:
192,192,148633,1,0,0:0:0:0:
448,192,148692,1,0,0:0:0:0:
64,192,148750,1,0,0:0:0:0:
192,192,148808,1,0,0:0:0:0:
320,192,148866,1,0,0:0:0:0:
448,192,148924,1,0,0:0:0:0:
64,192,148982,1,0,0:0:0:0:
192,192,149040,1,0,0:0:0:0:
448,192,149099,1,0,0:0:0:0:
192,192,149157,1,0,0:0:0:0:
320,192,149215,1,0,0:0:0:0:
448,192,149273,1,0,0:0:0:0:
64,192,149331,1,0,0:0:0:0:
320,192,149389,1,0,0:0:0:0:
192,192,149447,1,0,0:0:0:0:
64,192,149506,1,0,0:0:0:0:
448,192,149564,1,0,0:0:0:0:
320,192,149622,1,0,0:0:0:0:
192,192,149680,1,0,0:0:0:0:
64,192,149738,1,0,0:0:0:0:
448,192,149796,1,0,0:0:0:0:
192,192,149854,1,0,0:0:0:0:
320,192,149913,1,0,0:0:0:0:
448,192,149971,1,0,0:0:0:0:
192,192,150029,1,0,0:0:0:0:
64,192,150087,1,0,0:0:0:0:
448,192,150145,1,0,0:0:0:0:
64,192,150203,1,0,0:0:0:0:
320,192,150261,1,0,0:0:0:0:
192,192,150319,1,0,0:0:0:0:
64,192,150378,1,0,0:0:0:0:
448,192,150436,1,0,0:0:0:0:
320,192,150494,1,0,0:0:0:0:
448,192,150552,1,0,0:0:0:0:
64,192,150610,1,0,0:0:0:0:
192,192,150668,1,0,0:0:0:0:
448,192,150726,1,0,0:0:0:0:
64,192,150785,1,0,0:0:0:0:
320,192,150843,1,0,0:0:0:0:
192,192,150901,1,0,0:0:0:0:
64,192,150959,1,0,0:0:0:0:
448,192,151017,1,0,0:0:0:0:
320,192,151075,1,0,0:0:0:0:
192,192,151133,1,0,0:0:0:0:
448,192,151192,1,0,0:0:0:0:
192,192,151250,1,0,0:0:0:0:
64,192,151308,1,0,0:0:0:0:
448,192,151366,1,0,0:0:0:0:
320,192,151424,1,0,0:0:0:0:
64,192,151482,1,0,0:0:0:0:
448,192,151540,1,0,0:0:0:0:
320,192,151599,1,0,0:0:0:0:
192,192,151657,1,0,0:0:0:0:
64,192,151715,1,0,0:0:0:0:
448,192,151773,1,0,0:0:0:0:
320,192,151831,1,0,0:0:0:0:
192,192,151889,1,0,0:0:0:0:
320,192,151947,1,0,0:0:0:0:
64,192,152006,1,0,0:0:0:0:
448,192,152064,1,0,0:0:0:0:
320,192,152122,1,0,0:0:0:0:
192,192,152180,1,0,0:0:0:0:
448,192,152238,1,0,0:0:0:0:
64,192,152296,1,0,0:0:0:0:
192,192,152354,1,0,0:0:0:0:
320,192,152413,1,0,0:0:0:0:
448,192,152471,1,0,0:0:0:0:
64,192,152529,1,0,0:0:0:0:
192,192,152587,1,0,0:0:0:0:
320,192,152645,1,0,0:0:0:0:
64,192,152703,1,0,0:0:0:0:
192,192,152761,1,0,0:0:0:0:
448,192,152819,1,0,0:0:0:0:
320,192,152878,1,0,0:0:0:0:
64,192,152936,1,0,0:0:0:0:
320,192,152994,1,0,0:0:0:0:
192,192,153052,1,0,0:0:0:0:
64,192,153110,1,0,0:0:0:0:
448,192,153168,1,0,0:0:0:0:
192,192,153226,1,0,0:0:0:0:
320,192,153285,1,0,0:0:0:0:
192,192,153343,1,0,0:0:0:0:
64,192,153401,1,0,0:0:0:0:
448,192,153459,1,0,0:0:0:0:
320,192,153517,1,0,0:0:0:0:
192,192,153575,1,0,0:0:0:0:
448,192,153924,1,0,0:0:0:0:
64,192,154622,1,0,0:0:0:0:
320,192,155319,1,0,0:0:0:0:
192,192,156017,1,0,0:0:0:0:
320,192,156366,1,0,0:0:0:0:
448,192,157064,1,0,0:0:0:0:
64,192,157587,1,0,0:0:0:0:
448,192,157761,1,0,0:0:0:0:
320,192,158110,1,0,0:0:0:0:
64,192,158285,1,0,0:0:0:0:
448,192,158808,1,0,0:0:0:0:
64,192,159331,1,0,0:0:0:0:
320,192,159506,1,0,0:0:0:0:
448,192,159854,1,0,0:0:0:0:
192,192,160203,1,0,0:0:0:0:
320,192,160552,1,0,0:0:0:0:
64,192,160901,1,0,0:0:0:0:
320,192,161075,1,0,0:0:0:0:
192,192,161424,1,0,0:0:0:0:
448,192,161599,1,0,0:0:0:0:
192,192,162296,1,0,0:0:0:0:
448,192,162645,1,0,0:0:0:0:
64,192,162994,1,0,0:0:0:0:
320,192,163343,1,0,0:0:0:0:
192,192,163692,1,0,0:0:0:0:
448,192,164040,1,0,0:0:0:0:
64,192,164389,1,0,0:0:0:0:
320,192,164738,1,0,0:0:0:0:
448,192,166133,1,0,0:0:0:0:
192,192,166366,1,0,0:0:0:0:
320,192,166599,1,0,0:0:0:0:
64,192,166831,1,0,0:0:0:0:
448,192,167180,1,0,0:0:0:0:
64,192,167529,1,0,0:0:0:0:
192,192,167703,1,0,0:0:0:0:
320,192,167878,1,0,0:0:0:0:
64,192,168052,1,0,0:0:0:0:
448,192,168226,1,0,0:0:0:0:
320,192,168575,1,0,0:0:0:0:
192,192,168750,1,0,0:0:0:0:
448,192,168924,1,0,0:0:0:0:
64,192,169273,1,0,0:0:0:0:
320,192,169447,1,0,0:0:0:0:
192,192,169622,1,0,0:0:0:0:
320,192,169971,1,0,0:0:0:0:
64,192,170494,1,0,0:0:0:0:
448,192,170668,1,0,0:0:0:0:
192,192,170843,1,0,0:0:0:0:
320,192,171017,1,0,0:0:0:0:
64,192,171366,1,0,0:0:0:0:
320,192,171540,1,0,0:0:0:0:
448,192,171715,1,0,0:0:0:0:
64,192,172064,1,0,0:0:0:0:
320,192,172413,1,0,0:0:0:0:
448,192,172761,1,0,0:0:0:0:
192,192,173110,1,0,0:0:0:0:
320,192,173459,1,0,0:0:0:0:
192,192,173633,1,0,0:0:0:0:
448,192,173808,1,0,0:0:0:0:
64,192,174157,1,0,0:0:0:0:
320,192,174506,1,0,0:0:0:0:
192,192,174738,1,0,0:0:0:0:
64,192,175087,1,0,0:0:0:0:
320,192,175319,1,0,0:0:0:0:
448,192,175552,1,0,0:0:0:0:
192,192,177296,1,0,0:0:0:0:
320,192,177529,1,0,0:0:0:0:
64,192,177761,1,0,0:0:0:0:
320,192,177994,1,0,0:0:0:0:
448,192,178343,1,0,0:0:0:0:
320,192,178692,1,0,0:0:0:0:
64,192,179040,1,0,0:0:0:0:
192,192,179215,1,0,0:0:0:0:
64,192,179389,1,0,0:0:0:0:
448,192,180087,1,0,0:0:0:0:
192,192,180436,1,0,0:0:0:0:
320,192,180785,1,0,0:0:0:0:
192,192,181133,1,0,0:0:0:0:
64,192,181657,1,0,0:0:0:0:
448,192,181831,1,0,0:0:0:0:
320,192,182006,1,0,0:0:0:0:
448,192,182180,1,0,0:0:0:0:
192,192,182878,1,0,0:0:0:0:
320,192,183226,1,0,0:0:0:0:
64,192,183575,1,0,0:0:0:0:
448,192,183750,1,0,0:0:0:0:
192,192,184099,1,0,0:0:0:0:
448,192,184622,1,0,0:0:0:0:
64,192,184971,1,0,0:0:0:0:
192,192,185319,1,0,0:0:0:0:
448,192,185494,1,0,0:0:0:0:
192,192,186017,1,0,0:0:0:0:
64,192,186366,1,0,0:0:0:0:
320,192,186715,1,0,0:0:0:0:
192,192,186889,1,0,0:0:0:0:
64,192,187064,1,0,0:0:0:0:
448,192,187238,1,0,0:0:0:0:
192,192,188110,1,0,0:0:0:0:
320,192,188459,1,0,0:0:0:0:
192,192,188808,1,0,0:0:0:0:
448,192,188982,1,0,0:0:0:0:
64,192,190203,1,0,0:0:0:0:
320,192,190378,1,0,0:0:0:0:
64,192,190552,1,0,0:0:0:0:
448,192,191250,1,0,0:0:0:0:
192,192,191599,1,0,0:0:0:0:
320,192,191947,1,0,0:0:0:0:
192,192,192296,1,0,0:0:0:0:
448,192,192994,1,0,0:0:0:0:
192,192,193168,1,0,0:0:0:0:
448,192,193343,1,0,0:0:0:0:
320,192,194040,1,0,0:0:0:0:
64,192,194389,1,0,0:0:0:0:
448,192,194738,1,0,0:0:0:0:
64,192,195087,1,0,0:0:0:0:
320,192,195261,1,0,0:0:0:0:
192,192,195785,1,0,0:0:0:0:
448,192,196133,1,0,0:0:0:0:
320,192,196482,1,0,0:0:0:0:
64,192,196657,1,0,0:0:0:0:
448,192,197180,1,0,0:0:0:0:
192,192,197529,1,0,0:0:0:0:
320,192,197878,1,0,0:0:0:0:
192,192,198052,1,0,0:0:0:0:
64,192,198226,1,0,0:0:0:0:
320,192,198401,1,0,0:0:0:0:
192,192,199622,1,0,0:0:0:0:
448,192,199622,1,0,0:0:0:0:
64,192,200145,1,0,0:0:0:0:
320,192,200145,1,0,0:0:0:0:
320,192,200668,1,0,0:0:0:0:
64,192,200668,1,0,0:0:0:0:
192,192,200756,1,0,0:0:0:0:
448,192,200843,1,0,0:0:0:0:
64,192,200930,1,0,0:0:0:0:
320,192,201017,1,0,0:0:0:0:
192,192,201075,1,0,0:0:0:0:
320,192,201133,1,0,0:0:0:0:
448,192,201192,1,0,0:0:0:0:
64,192,201250,1,0,0:0:0:0:
192,192,201308,1,0,0:0:0:0:
320,192,201366,1,0,0:0:0:0:
448,192,201424,1,0,0:0:0:0:
64,192,201482,1,0,0:0:0:0:
320,192,201540,1,0,0:0:0:0:
192,192,201599,1,0,0:0:0:0:
64,192,201657,1,0,0:0:0:0:
448,192,201715,1,0,0:0:0:0:
320,192,201773,1,0,0:0:0:0:
64,192,201831,1,0,0:0:0:0:
448,192,201889,1,0,0:0:0:0:
320,192,201947,1,0,0:0:0:0:
192,192,202006,1,0,0:0:0:0:
64,192,202064,1,0,0:0:0:0:
448,192,202122,1,0,0:0:0:0:
192,192,202180,1,0,0:0:0:0:
320,192,202238,1,0,0:0:0:0:
448,192,202296,1,0,0:0:0:0:
64,192,202354,1,0,0:0:0:0:
320,192,202413,1,0,0:0:0:0:
448,192,202471,1,0,0:0:0:0:
192,192,202529,1,0,0:0:0:0:
320,192,202587,1,0,0:0:0:0:
64,192,202645,1,0,0:0:0:0:
448,192,202703,1,0,0:0:0:0:
320,192,202761,1,0,0:0:0:0:
192,192,202819,1,0,0:0:0:0:
448,192,202878,1,0,0:0:0:0:
64,192,202936,1,0,0:0:0:0:
320,192,202994,1,0,0:0:0:0:
448,192,203052,1,0,0:0:0:0:
64,192,203110,1,0,0:0:0:0:
192,192,203168,1,0,0:0:0:0:
64,192,203226,1,0,0:0:0:0:
320,192,203285,1,0,0:0:0:0:
448,192,203343,1,0,0:0:0:0:
64,192,203401,1,0,0:0:0:0:
320,192,203459,1,0,0:0:0:0:
192,192,203517,1,0,0:0:0:0:
320,192,203575,1,0,0:0:0:0:
448,192,203633,1,0,0:0:0:0:
64,192,203692,1,0,0:0:0:0:
192,192,203750,1,0,0:0:0:0:
320,192,203808,1,0,0:0:0:0:
64,192,203866,1,0,0:0:0:0:
448,192,203924,1,0,0:0:0:0:
320,192,203982,1,0,0:0:0:0:
192,192,204040,1,0,0:0:0:0:
64,192,204099,1,0,0:0:0:0:
448,192,204157,1,0,0:0:0:0:
320,192,204215,1,0,0:0:0:0:
448,192,204273,1,0,0:0:0:0:
64,192,204331,1,0,0:0:0:0:
192,192,204389,1,0,0:0:0:0:
320,192,204447,1,0,0:0:0:0:
64,192,204506,1,0,0:0:0:0:
448,192,204564,1,0,0:0:0:0:
320,192,204622,1,0,0:0:0:0:
192,192,204680,1,0,0:0:0:0:
64,192,204738,1,0,0:0:0:0:
448,192,204796,1,0,0:0:0:0:
320,192,204854,1,0,0:0:0:0:
64,192,204913,1,0,0:0:0:0:
320,192,204971,1,0,0:0:0:0:
192,192,205029,1,0,0:0:0:0:
64,192,205087,1,0,0:0:0:0:
448,192,205145,1,0,0:0:0:0:
192,192,205203,1,0,0:0:0:0:
320,192,205261,1,0,0:0:0:0:
448,192,205319,1,0,0:0:0:0:
64,192,205378,1,0,0:0:0:0:
192,192,205436,1,0,0:0:0:0:
320,192,205494,1,0,0:0:0:0:
448,192,205552,1,0,0:0:0:0:
64,192,205610,1,0,0:0:0:0:
320,192,205668,1,0,0:0:0:0:
192,192,205726,1,0,0:0:0:0:
64,192,205785,1,0,0:0:0:0:
320,192,205843,1,0,0:0:0:0:
448,192,205901,1,0,0:0:0:0:
64,192,205959,1,0,0:0:0:0:
448,192,206017,1,0,0:0:0:0:
192,192,206075,1,0,0:0:0:0:
320,192,206133,1,0,0:0:0:0:
448,192,206192,1,0,0:0:0:0:
64,192,206250,1,0,0:0:0:0:
192,192,206308,1,0,0:0:0:0:
64,192,206366,1,0,0:0:0:0:
448,192,206424,1,0,0:0:0:0:
320,192,206482,1,0,0:0:0:0:
64,192,206540,1,0,0:0:0:0:
448,192,206599,1,0,0:0:0:0:
192,192,206657,1,0,0:0:0:0:
320,192,206715,1,0,0:0:0:0:
448,192,206773,1,0,0:0:0:0:
64,192,206831,1,0,0:0:0:0:
192,192,206889,1,0,0:0:0:0:
320,192,206947,1,0,0:0:0:0:
64,192,207006,1,0,0:0:0:0:
320,192,207064,1,0,0:0:0:0:
448,192,207122,1,0,0:0:0:0:
64,192,207180,1,0,0:0:0:0:
320,192,207238,1,0,0:0:0:0:
192,192,207296,1,0,0:0:0:0:
64,192,207354,1,0,0:0:0:0:
320,192,207413,1,0,0:0:0:0:
192,192,207471,1,0,0:0:0:0:
448,192,207529,1,0,0:0:0:0:
320,192,207587,1,0,0:0:0:0:
192,192,207645,1,0,0:0:0:0:
448,192,207703,1,0,0:0:0:0:
192,192,207761,1,0,0:0:0:0:
64,192,207819,1,0,0:0:0:0:
448,192,207878,1,0,0:0:0:0:
320,192,207936,1,0,0:0:0:0:
64,192,207994,1,0,0:0:0:0:
192,192,208052,1,0,0:0:0:0:
320,192,208110,1,0,0:0:0:0:
448,192,208168,1,0,0:0:0:0:
64,192,208226,1,0,0:0:0:0:
192,192,208285,1,0,0:0:0:0:
448,192,208343,1,0,0:0:0:0:
64,192,208401,1,0,0:0:0:0:
192,192,208459,1,0,0:0:0:0:
320,192,208517,1,0,0:0:0:0:
448,192,208575,1,0,0:0:0:0:
64,192,208633,1,0,0:0:0:0:
192,192,208692,1,0,0:0:0:0:
320,192,208750,1,0,0:0:0:0:
192,192,208808,1,0,0:0:0:0:
448,192,208866,1,0,0:0:0:0:
320,192,208924,1,0,0:0:0:0:
64,192,208982,1,0,0:0:0:0:
448,192,209040,1,0,0:0:0:0:
192,192,209099,1,0,0:0:0:0:
448,192,209157,1,0,0:0:0:0:
320,192,209215,1,0,0:0:0:0:
64,192,209273,1,0,0:0:0:0:
448,192,209331,1,0,0:0:0:0:
192,192,209389,1,0,0:0:0:0:
320,192,209447,1,0,0:0:0:0:
448,192,209506,1,0,0:0:0:0:
64,192,209564,1,0,0:0:0:0:
192,192,209622,1,0,0:0:0:0:
320,192,209680,1,0,0:0:0:0:
64,192,209738,1,0,0:0:0:0:
448,192,209796,1,0,0:0:0:0:
64,192,209854,1,0,0:0:0:0:
320,192,209913,1,0,0:0:0:0:
448,192,209971,1,0,0:0:0:0:
192,192,210029,1,0,0:0:0:0:
64,192,210087,1,0,0:0:0:0:
448,192,210145,1,0,0:0:0:0:
320,192,210203,1,0,0:0:0:0:
192,192,210261,1,0,0:0:0:0:
64,192,210319,1,0,0:0:0:0:
448,192,210378,1,0,0:0:0:0:
320,192,210436,1,0,0:0:0:0:
64,192,210494,1,0,0:0:0:0:
448,192,210552,1,0,0:0:0:0:
192,192,210610,1,0,0:0:0:0:
320,192,210668,1,0,0:0:0:0:
448,192,210726,1,0,0:0:0:0:
64,192,210785,1,0,0:0:0:0:
192,192,210843,1,0,0:0:0:0:
64,192,210901,1,0,0:0:0:0:
448,192,210959,1,0,0:0:0:0:
192,192,211017,1,0,0:0:0:0:
320,192,211075,1,0,0:0:0:0:
448,192,211133,1,0,0:0:0:0:
192,192,211192,1,0,0:0:0:0:
64,192,211250,1,0,0:0:0:0:
320,192,211308,1,0,0:0:0:0:
192,192,211366,1,0,0:0:0:0:
320,192,211424,1,0,0:0:0:0:
448,192,211482,1,0,0:0:0:0:
64,192,211540,1,0,0:0:0:0:
320,192,211599,1,0,0:0:0:0:
192,192,211657,1,0,0:0:0:0:
64,192,211715,1,0,0:0:0:0:
448,192,211773,1,0,0:0:0:0:
320,192,211831,1,0,0:0:0:0:
64,192,211889,1,0,0:0:0:0:
320,192,211947,1,0,0:0:0:0:
192,192,212006,1,0,0:0:0:0:
64,192,212064,1,0,0:0:0:0:
448,192,212122,1,0,0:0:0:0:
320,192,212180,1,0,0:0:0:0:
192,192,212238,1,0,0:0:0:0:
320,192,212296,1,0,0:0:0:0:
64,192,212354,1,0,0:0:0:0:
448,192,212413,1,0,0:0:0:0:
320,192,212471,1,0,0:0:0:0:
192,192,212529,1,0,0:0:0:0:
64,192,212587,1,0,0:0:0:0:
448,192,212645,1,0,0:0:0:0:
192,192,212703,1,0,0:0:0:0:
320,192,212761,1,0,0:0:0:0:
448,192,212819,1,0,0:0:0:0:
64,192,212878,1,0,0:0:0:0:
192,192,212936,1,0,0:0:0:0:
448,192,212994,1,0,0:0:0:0:
64,192,213052,1,0,0:0:0:0:
192,192,213110,1,0,0:0:0:0:
320,192,213168,1,0,0:0:0:0:
448,192,213226,1,0,0:0:0:0:
64,192,213285,1,0,0:0:0:0:
320,192,213343,1,0,0:0:0:0:
192,192,213401,1,0,0:0:0:0:
64,192,213459,1,0,0:0:0:0:
448,192,213517,1,0,0:0:0:0:
192,192,213575,1,0,0:0:0:0:
64,192,213633,1,0,0:0:0:0:
320,192,213692,1,0,0:0:0:0:
192,192,213750,1,0,0:0:0:0:
448,192,213808,1,0,0:0:0:0:
64,192,213866,1,0,0:0:0:0:
192,192,213924,1,0,0:0:0:0:
320,192,213982,1,0,0:0:0:0:
64,192,214040,1,0,0:0:0:0:
448,192,214099,1,0,0:0:0:0:
192,192,214157,1,0,0:0:0:0:
64,192,214215,1,0,0:0:0:0:
448,192,214273,1,0,0:0:0:0:
320,192,214331,1,0,0:0:0:0:
448,192,214389,1,0,0:0:0:0:
192,192,214447,1,0,0:0:0:0:
64,192,214506,1,0,0:0:0:0:
448,192,214564,1,0,0:0:0:0:
192,192,214622,1,0,0:0:0:0:
320,192,214680,1,0,0:0:0:0:
192,192,214738,1,0,0:0:0:0:
64,192,214796,1,0,0:0:0:0:
448,192,214854,1,0,0:0:0:0:
320,192,214913,1,0,0:0:0:0:
192,192,214971,1,0,0:0:0:0:
448,192,215029,1,0,0:0:0:0:
64,192,215087,1,0,0:0:0:0:
192,192,215145,1,0,0:0:0:0:
320,192,215203,1,0,0:0:0:0:
448,192,215261,1,0,0:0:0:0:
64,192,215319,1,0,0:0:0:0:
192,192,215378,1,0,0:0:0:0:
64,192,215436,1,0,0:0:0:0:
448,192,215494,1,0,0:0:0:0:
320,192,215552,1,0,0:0:0:0:
192,192,215610,1,0,0:0:0:0:
448,192,215668,1,0,0:0:0:0:
64,192,215726,1,0,0:0:0:0:
192,192,215785,1,0,0:0:0:0:
320,192,215843,1,0,0:0:0:0:
448,192,215901,1,0,0:0:0:0:
64,192,215959,1,0,0:0:0:0:
192,192,216017,1,0,0:0:0:0:
448,192,216075,1,0,0:0:0:0:
192,192,216133,1,0,0:0:0:0:
320,192,216192,1,0,0:0:0:0:
448,192,216250,1,0,0:0:0:0:
64,192,216308,1,0,0:0:0:0:
320,192,216366,1,0,0:0:0:0:
192,192,216424,1,0,0:0:0:0:
64,192,216482,1,0,0:0:0:0:
448,192,216540,1,0,0:0:0:0:
320,192,216599,1,0,0:0:0:0:
192,192,216657,1,0,0:0:0:0:
64,192,216715,1,0,0:0:0:0:
448,192,216773,1,0,0:0:0:0:
192,192,216831,1,0,0:0:0:0:
320,192,216889,1,0,0:0:0:0:
448,192,216947,1,0,0:0:0:0:
192,192,217006,1,0,0:0:0:0:
64,192,217064,1,0,0:0:0:0:
448,192,217122,1,0,0:0:0:0:
64,192,217180,1,0,0:0:0:0:
320,192,217238,1,0,0:0:0:0:
192,192,217296,1,0,0:0:0:0:
64,192,217354,1,0,0:0:0:0:
448,192,217413,1,0,0:0:0:0:
320,192,217471,1,0,0:0:0:0:
448,192,217529,1,0,0:0:0:0:
64,192,217587,1,0,0:0:0:0:
192,192,217645,1,0,0:0:0:0:
448,192,217703,1,0,0:0:0:0:
64,192,217761,1,0,0:0:0:0:
320,192,217819,1,0,0:0:0:0:
192,192,217878,1,0,0:0:0:0:
64,192,217936,1,0,0:0:0:0:
448,192,217994,1,0,0:0:0:0:
320,192,218052,1,0,0:0:0:0:
192,192,218110,1,0,0:0:0:0:
448,192,218168,1,0,0:0:0:0:
192,192,218226,1,0,0:0:0:0:
64,192,218285,1,0,0:0:0:0:
448,192,218343,1,0,0:0:0:0:
320,192,218401,1,0,0:0:0:0:
64,192,218459,1,0,0:0:0:0:
448,192,218517,1,0,0:0:0:0:
320,192,218575,1,0,0:0:0:0:
192,192,218633,1,0,0:0:0:0:
64,192,218692,1,0,0:0:0:0:
448,192,218750,1,0,0:0:0:0:
320,192,218808,1,0,0:0:0:0:
192,192,218866,1,0,0:0:0:0:
320,192,218924,1,0,0:0:0:0:
64,192,218982,1,0,0:0:0:0:
448,192,219040,1,0,0:0:0:0:
320,192,219099,1,0,0:0:0:0:
192,192,219157,1,0,0:0:0:0:
448,192,219215,1,0,0:0:0:0:
64,192,219273,1,0,0:0:0:0:
192,192,219331,1,0,0:0:0:0:
320,192,219389,1,0,0:0:0:0:
448,192,219447,1,0,0:0:0:0:
64,192,219506,1,0,0:0:0:0:
192,192,219564,1,0,0:0:0:0:
320,192,219622,1,0,0:0:0:0:
64,192,219680,1,0,0:0:0:0:
192,192,219738,1,0,0:0:0:0:
448,192,219796,1,0,0:0:0:0:
320,192,219854,1,0,0:0:0:0:
64,192,219913,1,0,0:0:0:0:
320,192,219971,1,0,0:0:0:0:
192,192,220029,1,0,0:0:0:0:
64,192,220087,1,0,0:0:0:0:
448,192,220145,1,0,0:0:0:0:
192,192,220203,1,0,0:0:0:0:
320,192,220261,1,0,0:0:0:0:
192,192,220319,1,0,0:0:0:0:
64,192,220378,1,0,0:0:0:0:
448,192,220436,1,0,0:0:0:0:
320,192,220494,1,0,0:0:0:0:
192,192,220552,1,0,0:0:0:0:
64,192,220610,1,0,0:0:0:0:
448,192,220668,1,0,0:0:0:0:
192,192,220726,1,0,0:0:0:0:
320,192,220785,1,0,0:0:0:0:
448,192,220843,1,0,0:0:0:0:
64,192,220901,1,0,0:0:0:0:
192,192,220959,1,0,0:0:0:0:
320,192,221017,1,0,0:0:0:0:
448,192,221075,1,0,0:0:0:0:
64,192,221133,1,0,0:0:0:0:
192,192,221192,1,0,0:0:0:0:
320,192,221250,1,0,0:0:0:0:
448,192,221250,1,0,0:0:0:0:
64,192,221424,1,0,0:0:0:0:
64,192,221599,1,0,0:0:0:0:
448,192,221599,1,0,0:0:0:0:
320,192,221773,1,0,0:0:0:0:
192,192,221947,1,0,0:0:0:0:
64,192,221947,1,0,0:0:0:0:
192,192,222122,1,0,0:0:0:0:
64,192,222122,1,0,0:0:0:0:
320,192,222296,1,0,0:0:0:0:
64,192,222296,1,0,0:0:0:0:
192,192,222471,1,0,0:0:0:0:
64,192,222645,1,0,0:0:0:0:
448,192,222645,1,0,0:0:0:0:
320,192,222819,1,0,0:0:0:0:
448,192,222819,1,0,0:0:0:0:
64,192,222994,1,0,0:0:0:0:
320,192,222994,1,0,0:0:0:0:
192,192,223168,1,0,0:0:0:0:
320,192,223256,1,0,0:0:0:0:
192,192,223343,1,0,0:0:0:0:
64,192,223343,1,0,0:0:0:0:
448,192,223401,1,0,0:0:0:0:
320,192,223459,1,0,0:0:0:0:
64,192,223517,1,0,0:0:0:0:
448,192,223575,1,0,0:0:0:0:
320,192,223633,1,0,0:0:0:0:
192,192,223692,1,0,0:0:0:0:
64,192,223750,1,0,0:0:0:0:
192,192,223808,1,0,0:0:0:0:
448,192,223866,1,0,0:0:0:0:
64,192,223924,1,0,0:0:0:0:
192,192,223982,1,0,0:0:0:0:
320,192,224040,1,0,0:0:0:0:
64,192,224099,1,0,0:0:0:0:
448,192,224157,1,0,0:0:0:0:
192,192,224215,1,0,0:0:0:0:
320,192,224273,1,0,0:0:0:0:
448,192,224331,1,0,0:0:0:0:
64,192,224389,1,0,0:0:0:0:
320,192,224447,1,0,0:0:0:0:
64,192,224506,1,0,0:0:0:0:
192,192,224564,1,0,0:0:0:0:
320,192,224622,1,0,0:0:0:0:
64,192,224680,1,0,0:0:0:0:
448,192,224738,1,0,0:0:0:0:
320,192,224796,1,0,0:0:0:0:
448,192,224854,1,0,0:0:0:0:
64,192,224913,1,0,0:0:0:0:
192,192,224971,1,0,0:0:0:0:
320,192,225029,1,0,0:0:0:0:
64,192,225087,1,0,0:0:0:0:
448,192,225145,1,0,0:0:0:0:
192,192,225203,1,0,0:0:0:0:
64,192,225261,1,0,0:0:0:0:
448,192,225319,1,0,0:0:0:0:
320,192,225378,1,0,0:0:0:0:
192,192,225436,1,0,0:0:0:0:
448,192,225494,1,0,0:0:0:0:
192,192,225552,1,0,0:0:0:0:
320,192,225610,1,0,0:0:0:0:
64,192,225668,1,0,0:0:0:0:
192,192,225726,1,0,0:0:0:0:
448,192,225785,1,0,0:0:0:0:
320,192,225843,1,0,0:0:0:0:
448,192,225901,1,0,0:0:0:0:
64,192,225959,1,0,0:0:0:0:
192,192,226017,1,0,0:0:0:0:
320,192,226075,1,0,0:0:0:0:
448,192,226133,1,0,0:0:0:0:
64,192,226192,1,0,0:0:0:0:
320,192,226250,1,0,0:0:0:0:
192,192,226308,1,0,0:0:0:0:
448,192,226366,1,0,0:0:0:0:
320,192,226424,1,0,0:0:0:0:
64,192,226482,1,0,0:0:0:0:
448,192,226540,1,0,0:0:0:0:
64,192,226599,1,0,0:0:0:0:
192,192,226657,1,0,0:0:0:0:
320,192,226715,1,0,0:0:0:0:
64,192,226773,1,0,0:0:0:0:
448,192,226831,1,0,0:0:0:0:
320,192,226889,1,0,0:0:0:0:
192,192,226947,1,0,0:0:0:0:
448,192,227006,1,0,0:0:0:0:
64,192,227064,1,0,0:0:0:0:
192,192,227122,1,0,0:0:0:0:
320,192,227180,1,0,0:0:0:0:
448,192,227238,1,0,0:0:0:0:
320,192,227296,1,0,0:0:0:0:
64,192,227354,1,0,0:0:0:0:
448,192,227413,1,0,0:0:0:0:
320,192,227471,1,0,0:0:0:0:
192,192,227529,1,0,0:0:0:0:
448,192,227587,1,0,0:0:0:0:
192,192,227645,1,0,0:0:0:0:
64,192,227703,1,0,0:0:0:0:
448,192,227761,1,0,0:0:0:0:
320,192,227819,1,0,0:0:0:0:
64,192,227878,1,0,0:0:0:0:
192,192,227936,1,0,0:0:0:0:
320,192,227994,1,0,0:0:0:0:
64,192,228052,1,0,0:0:0:0:
448,192,228110,1,0,0:0:0:0:
320,192,228168,1,0,0:0:0:0:
64,192,228226,1,0,0:0:0:0:
192,192,228285,1,0,0:0:0:0:
64,192,228343,1,0,0:0:0:0:
448,192,228401,1,0,0:0:0:0:
320,192,228459,1,0,0:0:0:0:
64,192,228517,1,0,0:0:0:0:
192,192,228575,1,0,0:0:0:0:
448,192,228633,1,0,0:0:0:0:
192,192,228692,1,0,0:0:0:0:
320,192,228750,1,0,0:0:0:0:
448,192,228808,1,0,0:0:0:0:
192,192,228866,1,0,0:0:0:0:
320,192,228924,1,0,0:0:0:0:
64,192,228982,1,0,0:0:0:0:
192,192,229040,1,0,0:0:0:0:
448,192,229099,1,0,0:0:0:0:
320,192,229157,1,0,0:0:0:0:
64,192,229215,1,0,0:0:0:0:
448,192,229273,1,0,0:0:0:0:
320,192,229331,1,0,0:0:0:0:
448,192,229389,1,0,0:0:0:0:
64,192,229447,1,0,0:0:0:0:
192,192,229506,1,0,0:0:0:0:
448,192,229564,1,0,0:0:0:0:
320,192,229622,1,0,0:0:0:0:
64,192,229680,1,0,0:0:0:0:
320,192,229738,1,0,0:0:0:0:
192,192,229796,1,0,0:0:0:0:
64,192,229854,1,0,0:0:0:0:
448,192,229913,1,0,0:0:0:0:
192,192,229971,1,0,0:0:0:0:
320,192,230029,1,0,0:0:0:0:
192,192,230087,1,0,0:0:0:0:
64,192,230145,1,0,0:0:0:0:
448,192,230203,1,0,0:0:0:0:
192,192,230261,1,0,0:0:0:0:
64,192,230319,1,0,0:0:0:0:
448,192,230378,1,0,0:0:0:0:
64,192,230436,1,0,0:0:0:0:
192,192,230494,1,0,0:0:0:0:
320,192,230552,1,0,0:0:0:0:
64,192,230610,1,0,0:0:0:0:
448,192,230668,1,0,0:0:0:0:
320,192,230726,1,0,0:0:0:0:
448,192,230785,1,0,0:0:0:0:
64,192,230843,1,0,0:0:0:0:
192,192,230901,1,0,0:0:0:0:
320,192,230959,1,0,0:0:0:0:
64,192,231017,1,0,0:0:0:0:
448,192,231075,1,0,0:0:0:0:
64,192,231133,1,0,0:0:0:0:
192,192,231192,1,0,0:0:0:0:
320,192,231250,1,0,0:0:0:0:
448,192,231308,1,0,0:0:0:0:
192,192,231366,1,0,0:0:0:0:
64,192,231424,1,0,0:0:0:0:
192,192,231482,1,0,0:0:0:0:
448,192,231540,1,0,0:0:0:0:
320,192,231599,1,0,0:0:0:0:
64,192,231657,1,0,0:0:0:0:
192,192,231715,1,0,0:0:0:0:
448,192,231773,1,0,0:0:0:0:
64,192,231831,1,0,0:0:0:0:
320,192,231889,1,0,0:0:0:0:
192,192,231947,1,0,0:0:0:0:
64,192,232006,1,0,0:0:0:0:
448,192,232064,1,0,0:0:0:0:
320,192,232122,1,0,0:0:0:0:
448,192,232180,1,0,0:0:0:0:
64,192,232238,1,0,0:0:0:0:
192,192,232296,1,0,0:0:0:0:
320,192,232354,1,0,0:0:0:0:
64,192,232413,1,0,0:0:0:0:
192,192,232471,1,0,0:0:0:0:
448,192,232529,1,0,0:0:0:0:
320,192,232587,1,0,0:0:0:0:
192,192,232645,1,0,0:0:0:0:
64,192,232703,1,0,0:0:0:0:
448,192,232761,1,0,0:0:0:0:
192,192,232819,1,0,0:0:0:0:
448,192,232878,1,0,0:0:0:0:
320,192,232936,1,0,0:0:0:0:
64,192,232994,1,0,0:0:0:0:
192,192,233052,1,0,0:0:0:0:
320,192,233110,1,0,0:0:0:0:
64,192,233168,1,0,0:0:0:0:
320,192,233226,1,0,0:0:0:0:
448,192,233285,1,0,0:0:0:0:
192,192,233343,1,0,0:0:0:0:
320,192,233401,1,0,0:0:0:0:
64,192,233459,1,0,0:0:0:0:
448,192,233517,1,0,0:0:0:0:
320,192,233575,1,0,0:0:0:0:
192,192,233633,1,0,0:0:0:0:
64,192,233692,1,0,0:0:0:0:
448,192,233750,1,0,0:0:0:0:
192,192,233808,1,0,0:0:0:0:
320,192,233866,1,0,0:0:0:0:
192,192,233924,1,0,0:0:0:0:
64,192,233982,1,0,0:0:0:0:
448,192,234040,1,0,0:0:0:0:
192,192,234099,1,0,0:0:0:0:
320,192,234157,1,0,0:0:0:0:
448,192,234215,1,0,0:0:0:0:
320,192,234273,1,0,0:0:0:0:
64,192,234331,1,0,0:0:0:0:
192,192,234389,1,0,0:0:0:0:
448,192,234447,1,0,0:0:0:0:
320,192,234506,1,0,0:0:0:0:
192,192,234564,1,0,0:0:0:0:
448,192,234622,1,0,0:0:0:0:
64,192,234680,1,0,0:0:0:0:
192,192,234738,1,0,0:0:0:0:
448,192,234796,1,0,0:0:0:0:
320,192,234854,1,0,0:0:0:0:
64,192,234913,1,0,0:0:0:0:
320,192,234971,1,0,0:0:0:0:
192,192,235029,1,0,0:0:0:0:
64,192,235087,1,0,0:0:0:0:
448,192,235145,1,0,0:0:0:0:
320,192,235203,1,0,0:0:0:0:
192,192,235261,1,0,0:0:0:0:
448,192,235319,1,0,0:0:0:0:
320,192,235378,1,0,0:0:0:0:
64,192,235436,1,0,0:0:0:0:
192,192,235494,1,0,0:0:0:0:
320,192,235552,1,0,0:0:0:0:
64,192,235610,1,0,0:0:0:0:
320,192,235668,1,0,0:0:0:0:
448,192,235726,1,0,0:0:0:0:
64,192,235785,1,0,0:0:0:0:
192,192,235843,1,0,0:0:0:0:
448,192,235901,1,0,0:0:0:0:
320,192,235959,1,0,0:0:0:0:
448,192,236017,1,0,0:0:0:0:
64,192,236075,1,0,0:0:0:0:
192,192,236133,1,0,0:0:0:0:
448,192,236192,1,0,0:0:0:0:
320,192,236250,1,0,0:0:0:0:
64,192,236308,1,0,0:0:0:0:
448,192,236366,1,0,0:0:0:0:
192,192,236424,1,0,0:0:0:0:
320,192,236482,1,0,0:0:0:0:
448,192,236540,1,0,0:0:0:0:
64,192,236599,1,0,0:0:0:0:
192,192,236657,1,0,0:0:0:0:
64,192,236715,1,0,0:0:0:0:
448,192,236773,1,0,0:0:0:0:
320,192,236831,1,0,0:0:0:0:
64,192,236889,1,0,0:0:0:0:
448,192,236947,1,0,0:0:0:0:
192,192,237006,1,0,0:0:0:0:
448,192,237064,1,0,0:0:0:0:
320,192,237122,1,0,0:0:0:0:
192,192,237180,1,0,0:0:0:0:
64,192,237238,1,0,0:0:0:0:
448,192,237296,1,0,0:0:0:0:
192,192,237354,1,0,0:0:0:0:
320,192,237413,1,0,0:0:0:0:
448,192,237471,1,0,0:0:0:0:
64,192,237529,1,0,0:0:0:0:
192,192,237587,1,0,0:0:0:0:
320,192,237645,1,0,0:0:0:0:
64,192,237703,1,0,0:0:0:0:
320,192,237761,1,0,0:0:0:0:
448,192,237819,1,0,0:0:0:0:
64,192,237878,1,0,0:0:0:0:
192,192,237936,1,0,0:0:0:0:
320,192,237994,1,0,0:0:0:0:
64,192,238052,1,0,0:0:0:0:
448,192,238110,1,0,0:0:0:0:
320,192,238168,1,0,0:0:0:0:
64,192,238226,1,0,0:0:0:0:
448,192,238285,1,0,0:0:0:0:
192,192,238343,1,0,0:0:0:0:
64,192,238401,1,0,0:0:0:0:
192,192,238459,1,0,0:0:0:0:
320,192,238517,1,0,0:0:0:0:
64,192,238575,1,0,0:0:0:0:
448,192,238633,1,0,0:0:0:0:
320,192,238692,1,0,0:0:0:0:
192,192,238750,1,0,0:0:0:0:
320,192,238808,1,0,0:0:0:0:
64,192,238866,1,0,0:0:0:0:
192,192,238924,1,0,0:0:0:0:
448,192,238982,1,0,0:0:0:0:
64,192,239040,1,0,0:0:0:0:
320,192,239099,1,0,0:0:0:0:
64,192,239157,1,0,0:0:0:0:
192,192,239215,1,0,0:0:0:0:
320,192,239273,1,0,0:0:0:0:
64,192,239331,1,0,0:0:0:0:
448,192,239389,1,0,0:0:0:0:
320,192,239447,1,0,0:0:0:0:
448,192,239506,1,0,0:0:0:0:
64,192,239564,1,0,0:0:0:0:
192,192,239622,1,0,0:0:0:0:
320,192,239680,1,0,0:0:0:0:
64,192,239738,1,0,0:0:0:0:
448,192,239796,1,0,0:0:0:0:
64,192,239854,1,0,0:0:0:0:
192,192,239913,1,0,0:0:0:0:
320,192,239971,1,0,0:0:0:0:
448,192,240029,1,0,0:0:0:0:
64,192,240087,1,0,0:0:0:0:
320,192,240145,1,0,0:0:0:0:
192,192,240203,1,0,0:0:0:0:
64,192,240261,1,0,0:0:0:0:
448,192,240319,1,0,0:0:0:0:
192,192,240378,1,0,0:0:0:0:
320,192,240436,1,0,0:0:0:0:
448,192,240494,1,0,0:0:0:0:
320,192,240552,1,0,0:0:0:0:
64,192,240610,1,0,0:0:0:0:
192,192,240668,1,0,0:0:0:0:
448,192,240726,1,0,0:0:0:0:
64,192,240785,1,0,0:0:0:0:
320,192,240843,1,0,0:0:0:0:
64,192,240901,1,0,0:0:0:0:
192,192,240959,1,0,0:0:0:0:
448,192,241017,1,0,0:0:0:0:
320,192,241075,1,0,0:0:0:0:
192,192,241133,1,0,0:0:0:0:
448,192,241192,1,0,0:0:0:0:
192,192,241250,1,0,0:0:0:0:
320,192,241308,1,0,0:0:0:0:
64,192,241366,1,0,0:0:0:0:
192,192,241424,1,0,0:0:0:0:
448,192,241482,1,0,0:0:0:0:
320,192,241540,1,0,0:0:0:0:
448,192,241599,1,0,0:0:0:0:
64,192,241657,1,0,0:0:0:0:
192,192,241715,1,0,0:0:0:0:
320,192,241773,1,0,0:0:0:0:
64,192,241831,1,0,0:0:0:0:
192,192,241889,1,0,0:0:0:0:
64,192,241947,1,0,0:0:0:0:
448,192,242006,1,0,0:0:0:0:
320,192,242064,1,0,0:0:0:0:
192,192,242122,1,0,0:0:0:0:
448,192,242180,1,0,0:0:0:0:
64,192,242238,1,0,0:0:0:0:
448,192,242296,1,0,0:0:0:0:
192,192,242354,1,0,0:0:0:0:
320,192,242413,1,0,0:0:0:0:
448,192,242471,1,0,0:0:0:0:
64,192,242529,1,0,0:0:0:0:
192,192,242587,1,0,0:0:0:0:
64,192,242645,1,0,0:0:0:0:
448,192,242703,1,0,0:0:0:0:
320,192,242761,1,0,0:0:0:0:
192,192,242819,1,0,0:0:0:0:
64,192,242878,1,0,0:0:0:0:
448,192,242936,1,0,0:0:0:0:
192,192,242994,1,0,0:0:0:0:
320,192,243052,1,0,0:0:0:0:
448,192,243110,1,0,0:0:0:0:
64,192,243168,1,0,0:0:0:0:
192,192,243226,1,0,0:0:0:0:
320,192,243285,1,0,0:0:0:0:
64,192,243343,1,0,0:0:0:0:
448,192,243401,1,0,0:0:0:0:
192,192,243459,1,0,0:0:0:0:
64,192,243517,1,0,0:0:0:0:
448,192,243575,1,0,0:0:0:0:
320,192,243633,1,0,0:0:0:0:
192,192,243692,1,0,0:0:0:0:
448,192,243750,1,0,0:0:0:0:
192,192,244273,1,0,0:0:0:0:
448,192,244273,1,0,0:0:0:0:
64,192,244796,1,0,0:0:0:0:
192,192,244796,1,0,0:0:0:0:
448,192,244840,1,0,0:0:0:0:
320,192,244883,1,0,0:0:0:0:
192,192,244927,1,0,0:0:0:0:
64,192,244971,1,0,0:0:0:0:
320,192,245058,1,0,0:0:0:0:
448,192,245145,1,0,0:0:0:0:
192,192,245232,1,0,0:0:0:0:
320,192,245319,1,0,0:0:0:0:
64,192,245319,1,0,0:0:0:0:
192,192,245407,1,0,0:0:0:0:
448,192,245494,1,0,0:0:0:0:
64,192,245581,1,0,0:0:0:0:
192,192,245668,1,0,0:0:0:0:
448,192,245668,1,0,0:0:0:0:
320,192,245726,1,0,0:0:0:0:
192,192,245785,1,0,0:0:0:0:
64,192,245843,1,0,0:0:0:0:
448,192,245901,1,0,0:0:0:0:
320,192,245959,1,0,0:0:0:0:
192,192,246017,1,0,0:0:0:0:
64,192,246075,1,0,0:0:0:0:
448,192,246133,1,0,0:0:0:0:
192,192,246192,1,0,0:0:0:0:
320,192,246250,1,0,0:0:0:0:
448,192,246308,1,0,0:0:0:0:
64,192,246366,1,0,0:0:0:0:
192,192,246424,1,0,0:0:0:0:
448,192,246482,1,0,0:0:0:0:
64,192,246540,1,0,0:0:0:0:
192,192,246599,1,0,0:0:0:0:
320,192,246657,1,0,0:0:0:0:
448,192,246715,1,0,0:0:0:0:
64,192,246773,1,0,0:0:0:0:
320,192,246831,1,0,0:0:0:0:
192,192,246889,1,0,0:0:0:0:
64,192,246947,1,0,0:0:0:0:
448,192,247006,1,0,0:0:0:0:
192,192,247064,1,0,0:0:0:0:
64,192,247122,1,0,0:0:0:0:
320,192,247180,1,0,0:0:0:0:
192,192,247238,1,0,0:0:0:0:
448,192,247296,1,0,0:0:0:0:
64,192,247354,1,0,0:0:0:0:
192,192,247413,1,0,0:0:0:0:
320,192,247471,1,0,0:0:0:0:
64,192,247529,1,0,0:0:0:0:
448,192,247587,1,0,0:0:0:0:
192,192,247645,1,0,0:0:0:0:
64,192,247703,1,0,0:0:0:0:
448,192,247761,1,0,0:0:0:0:
320,192,247819,1,0,0:0:0:0:
448,192,247878,1,0,0:0:0:0:
192,192,247936,1,0,0:0:0:0:
64,192,247994,1,0,0:0:0:0:
448,192,248052,1,0,0:0:0:0:
192,192,248110,1,0,0:0:0:0:
320,192,248168,1,0,0:0:0:0:
192,192,248226,1,0,0:0:0:0:
64,192,248285,1,0,0:0:0:0:
448,192,248343,1,0,0:0:0:0:
320,192,248401,1,0,0:0:0:0:
192,192,248459,1,0,0:0:0:0:
448,192,248517,1,0,0:0:0:0:
64,192,248575,1,0,0:0:0:0:
192,192,248633,1,0,0:0:0:0:
320,192,248692,1,0,0:0:0:0:
448,192,248750,1,0,0:0:0:0:
64,192,248808,1,0,0:0:0:0:
192,192,248866,1,0,0:0:0:0:
64,192,248924,1,0,0:0:0:0:
448,192,248982,1,0,0:0:0:0:
320,192,249040,1,0,0:0:0:0:
192,192,249099,1,0,0:0:0:0:
448,192,249157,1,0,0:0:0:0:
64,192,249215,1,0,0:0:0:0:
192,192,249273,1,0,0:0:0:0:
320,192,249331,1,0,0:0:0:0:
448,192,249389,1,0,0:0:0:0:
64,192,249447,1,0,0:0:0:0:
192,192,249506,1,0,0:0:0:0:
448,192,249564,1,0,0:0:0:0:
192,192,249622,1,0,0:0:0:0:
320,192,249680,1,0,0:0:0:0:
448,192,249738,1,0,0:0:0:0:
64,192,249796,1,0,0:0:0:0:
320,192,249854,1,0,0:0:0:0:
192,192,249913,1,0,0:0:0:0:
64,192,249971,1,0,0:0:0:0:
448,192,250029,1,0,0:0:0:0:
320,192,250087,1,0,0:0:0:0:
192,192,250145,1,0,0:0:0:0:
64,192,250203,1,0,0:0:0:0:
448,192,250261,1,0,0:0:0:0:
192,192,250319,1,0,0:0:0:0:
320,192,250378,1,0,0:0:0:0:
448,192,250436,1,0,0:0:0:0:
192,192,250494,1,0,0:0:0:0:
64,192,250552,1,0,0:0:0:0:
448,192,250610,1,0,0:0:0:0:
64,192,250668,1,0,0:0:0:0:
320,192,250726,1,0,0:0:0:0:
192,192,250785,1,0,0:0:0:0:
64,192,250843,1,0,0:0:0:0:
448,192,250901,1,0,0:0:0:0:
320,192,250959,1,0,0:0:0:0:
448,192,251017,1,0,0:0:0:0:
64,192,251075,1,0,0:0:0:0:
192,192,251133,1,0,0:0:0:0:
448,192,251192,1,0,0:0:0:0:
64,192,251250,1,0,0:0:0:0:
320,192,251308,1,0,0:0:0:0:
192,192,251366,1,0,0:0:0:0:
64,192,251424,1,0,0:0:0:0:
448,192,251482,1,0,0:0:0:0:
320,192,251540,1,0,0:0:0:0:
192,192,251599,1,0,0:0:0:0:
448,192,251657,1,0,0:0:0:0:
192,192,251715,1,0,0:0:0:0:
64,192,251773,1,0,0:0:0:0:
448,192,251831,1,0,0:0:0:0:
192,192,251889,1,0,0:0:0:0:
320,192,251947,1,0,0:0:0:0:
448,192,252006,1,0,0:0:0:0:
192,192,252064,1,0,0:0:0:0:
320,192,252122,1,0,0:0:0:0:
64,192,252180,1,0,0:0:0:0:
192,192,252238,1,0,0:0:0:0:
320,192,252296,1,0,0:0:0:0:
64,192,252354,1,0,0:0:0:0:
320,192,252413,1,0,0:0:0:0:
448,192,252471,1,0,0:0:0:0:
64,192,252529,1,0,0:0:0:0:
192,192,252587,1,0,0:0:0:0:
448,192,252645,1,0,0:0:0:0:
320,192,252703,1,0,0:0:0:0:
192,192,252761,1,0,0:0:0:0:
64,192,252819,1,0,0:0:0:0:
448,192,252878,1,0,0:0:0:0:
320,192,252936,1,0,0:0:0:0:
64,192,252994,1,0,0:0:0:0:
448,192,253052,1,0,0:0:0:0:
320,192,253110,1,0,0:0:0:0:
192,192,253168,1,0,0:0:0:0:
64,192,253226,1,0,0:0:0:0:
448,192,253285,1,0,0:0:0:0:
320,192,253343,1,0,0:0:0:0:
192,192,253401,1,0,0:0:0:0:
320,192,253459,1,0,0:0:0:0:
64,192,253517,1,0,0:0:0:0:
192,192,253575,1,0,0:0:0:0:
448,192,253633,1,0,0:0:0:0:
64,192,253692,1,0,0:0:0:0:
320,192,253750,1,0,0:0:0:0:
64,192,253808,1,0,0:0:0:0:
192,192,253866,1,0,0:0:0:0:
448,192,253924,1,0,0:0:0:0:
64,192,253982,1,0,0:0:0:0:
320,192,254040,1,0,0:0:0:0:
192,192,254099,1,0,0:0:0:0:
64,192,254157,1,0,0:0:0:0:
448,192,254215,1,0,0:0:0:0:
320,192,254273,1,0,0:0:0:0:
192,192,254331,1,0,0:0:0:0:
448,192,254389,1,0,0:0:0:0:
64,192,254447,1,0,0:0:0:0:
448,192,254506,1,0,0:0:0:0:
192,192,254564,1,0,0:0:0:0:
64,192,254622,1,0,0:0:0:0:
320,192,254680,1,0,0:0:0:0:
448,192,254738,1,0,0:0:0:0:
64,192,254796,1,0,0:0:0:0:
192,192,254854,1,0,0:0:0:0:
320,192,254913,1,0,0:0:0:0:
448,192,254971,1,0,0:0:0:0:
64,192,255029,1,0,0:0:0:0:
192,192,255087,1,0,0:0:0:0:
448,192,255145,1,0,0:0:0:0:
64,192,255203,1,0,0:0:0:0:
320,192,255261,1,0,0:0:0:0:
192,192,255319,1,0,0:0:0:0:
64,192,255378,1,0,0:0:0:0:
448,192,255436,1,0,0:0:0:0:
320,192,255494,1,0,0:0:0:0:
448,192,255552,1,0,0:0:0:0:
64,192,255610,1,0,0:0:0:0:
320,192,255668,1,0,0:0:0:0:
192,192,255726,1,0,0:0:0:0:
64,192,255785,1,0,0:0:0:0:
320,192,255843,1,0,0:0:0:0:
448,192,255901,1,0,0:0:0:0:
192,192,255959,1,0,0:0:0:0:
320,192,256017,1,0,0:0:0:0:
192,192,256075,1,0,0:0:0:0:
64,192,256133,1,0,0:0:0:0:
448,192,256192,1,0,0:0:0:0:
192,192,256250,1,0,0:0:0:0:
320,192,256308,1,0,0:0:0:0:
448,192,256366,1,0,0:0:0:0:
64,192,256424,1,0,0:0:0:0:
192,192,256482,1,0,0:0:0:0:
448,192,256540,1,0,0:0:0:0:
192,192,256599,1,0,0:0:0:0:
320,192,256657,1,0,0:0:0:0:
448,192,256715,1,0,0:0:0:0:
64,192,256773,1,0,0:0:0:0:
192,192,256831,1,0,0:0:0:0:
320,192,256889,1,0,0:0:0:0:
192,192,256947,1,0,0:0:0:0:
448,192,257006,1,0,0:0:0:0:
64,192,257064,1,0,0:0:0:0:
192,192,257122,1,0,0:0:0:0:
320,192,257180,1,0,0:0:0:0:
448,192,257238,1,0,0:0:0:0:
64,192,257296,1,0,0:0:0:0:
320,192,257354,1,0,0:0:0:0:
192,192,257413,1,0,0:0:0:0:
64,192,257471,1,0,0:0:0:0:
448,192,257529,1,0,0:0:0:0:
320,192,257587,1,0,0:0:0:0:
64,192,257645,1,0,0:0:0:0:
448,192,257703,1,0,0:0:0:0:
320,192,257761,1,0,0:0:0:0:
192,192,257819,1,0,0:0:0:0:
64,192,257878,1,0,0:0:0:0:
448,192,257936,1,0,0:0:0:0:
192,192,257994,1,0,0:0:0:0:
320,192,258052,1,0,0:0:0:0:
448,192,258110,1,0,0:0:0:0:
64,192,258168,1,0,0:0:0:0:
320,192,258226,1,0,0:0:0:0:
448,192,258285,1,0,0:0:0:0:
192,192,258343,1,0,0:0:0:0:
320,192,258401,1,0,0:0:0:0:
64,192,258459,1,0,0:0:0:0:
448,192,258517,1,0,0:0:0:0:
320,192,258575,1,0,0:0:0:0:
192,192,258633,1,0,0:0:0:0:
448,192,258692,1,0,0:0:0:0:
64,192,258750,1,0,0:0:0:0:
320,192,258808,1,0,0:0:0:0:
448,192,258866,1,0,0:0:0:0:
64,192,258924,1,0,0:0:0:0:
192,192,258982,1,0,0:0:0:0:
64,192,259040,1,0,0:0:0:0:
320,192,259099,1,0,0:0:0:0:
448,192,259157,1,0,0:0:0:0:
64,192,259215,1,0,0:0:0:0:
320,192,259273,1,0,0:0:0:0:
192,192,259331,1,0,0:0:0:0:
320,192,259389,1,0,0:0:0:0:
448,192,259447,1,0,0:0:0:0:
64,192,259506,1,0,0:0:0:0:
192,192,259564,1,0,0:0:0:0:
320,192,259622,1,0,0:0:0:0:
64,192,259680,1,0,0:0:0:0:
448,192,259738,1,0,0:0:0:0:
320,192,259796,1,0,0:0:0:0:
192,192,259854,1,0,0:0:0:0:
64,192,259913,1,0,0:0:0:0:
448,192,259971,1,0,0:0:0:0:
320,192,260029,1,0,0:0:0:0:
448,192,260087,1,0,0:0:0:0:
64,192,260145,1,0,0:0:0:0:
192,192,260203,1,0,0:0:0:0:
320,192,260261,1,0,0:0:0:0:
64,192,260319,1,0,0:0:0:0:
448,192,260378,1,0,0:0:0:0:
320,192,260436,1,0,0:0:0:0:
192,192,260494,1,0,0:0:0:0:
64,192,260552,1,0,0:0:0:0:
448,192,260610,1,0,0:0:0:0:
320,192,260668,1,0,0:0:0:0:
64,192,260726,1,0,0:0:0:0:
320,192,260785,1,0,0:0:0:0:
192,192,260843,1,0,0:0:0:0:
64,192,260901,1,0,0:0:0:0:
448,192,260959,1,0,0:0:0:0:
192,192,261017,1,0,0:0:0:0:
320,192,261075,1,0,0:0:0:0:
448,192,261133,1,0,0:0:0:0:
64,192,261192,1,0,0:0:0:0:
192,192,261250,1,0,0:0:0:0:
320,192,261308,1,0,0:0:0:0:
448,192,261366,1,0,0:0:0:0:
64,192,261424,1,0,0:0:0:0:
320,192,261482,1,0,0:0:0:0:
192,192,261540,1,0,0:0:0:0:
64,192,261599,1,0,0:0:0:0:
320,192,261657,1,0,0:0:0:0:
448,192,261715,1,0,0:0:0:0:
64,192,261773,1,0,0:0:0:0:
448,192,261831,1,0,0:0:0:0:
192,192,261889,1,0,0:0:0:0:
320,192,261947,1,0,0:0:0:0:
448,192,262006,1,0,0:0:0:0:
64,192,262064,1,0,0:0:0:0:
192,192,262122,1,0,0:0:0:0:
64,192,262180,1,0,0:0:0:0:
448,192,262238,1,0,0:0:0:0:
320,192,262296,1,0,0:0:0:0:
64,192,262354,1,0,0:0:0:0:
448,192,262413,1,0,0:0:0:0:
192,192,262471,1,0,0:0:0:0:
320,192,262529,1,0,0:0:0:0:
448,192,262587,1,0,0:0:0:0:
64,192,262645,1,0,0:0:0:0:
192,192,262703,1,0,0:0:0:0:
320,192,262761,1,0,0:0:0:0:
64,192,262819,1,0,0:0:0:0:
320,192,262878,1,0,0:0:0:0:
448,192,262936,1,0,0:0:0:0:
64,192,262994,1,0,0:0:0:0:
192,192,263052,1,0,0:0:0:0:
448,192,263110,1,0,0:0:0:0:
64,192,263168,1,0,0:0:0:0:
192,192,263226,1,0,0:0:0:0:
320,192,263285,1,0,0:0:0:0:
448,192,263343,1,0,0:0:0:0:
64,192,263401,1,0,0:0:0:0:
192,192,263459,1,0,0:0:0:0:
320,192,263517,1,0,0:0:0:0:
192,192,263575,1,0,0:0:0:0:
448,192,263633,1,0,0:0:0:0:
64,192,263692,1,0,0:0:0:0:
192,192,263750,1,0,0:0:0:0:
320,192,263808,1,0,0:0:0:0:
64,192,263866,1,0,0:0:0:0:
448,192,263924,1,0,0:0:0:0:
320,192,263982,1,0,0:0:0:0:
192,192,264040,1,0,0:0:0:0:
64,192,264099,1,0,0:0:0:0:
448,192,264157,1,0,0:0:0:0:
320,192,264215,1,0,0:0:0:0:
192,192,264273,1,0,0:0:0:0:
448,192,264331,1,0,0:0:0:0:
320,192,264389,1,0,0:0:0:0:
64,192,264447,1,0,0:0:0:0:
192,192,264506,1,0,0:0:0:0:
448,192,264564,1,0,0:0:0:0:
192,192,264622,1,0,0:0:0:0:
320,192,264680,1,0,0:0:0:0:
448,192,264738,1,0,0:0:0:0:
64,192,264796,1,0,0:0:0:0:
320,192,264854,1,0,0:0:0:0:
192,192,264913,1,0,0:0:0:0:
320,192,264971,1,0,0:0:0:0:
448,192,265029,1,0,0:0:0:0:
64,192,265087,1,0,0:0:0:0:
192,192,265145,1,0,0:0:0:0:
320,192,265203,1,0,0:0:0:0:
448,192,265203,1,0,0:0:0:0:
64,192,265378,1,0,0:0:0:0:
64,192,265552,1,0,0:0:0:0:
448,192,265552,1,0,0:0:0:0:
320,192,265726,1,0,0:0:0:0:
64,192,265814,1,0,0:0:0:0:
320,192,265901,1,0,0:0:0:0:
192,192,265901,1,0,0:0:0:0:
64,192,266075,1,0,0:0:0:0:
448,192,266250,1,0,0:0:0:0:
64,192,266250,1,0,0:0:0:0:
192,192,266424,1,0,0:0:0:0:
320,192,266599,1,0,0:0:0:0:
448,192,266599,1,0,0:0:0:0:
320,192,266773,1,0,0:0:0:0:
448,192,266773,1,0,0:0:0:0:
192,192,266947,1,0,0:0:0:0:
448,192,266947,1,0,0:0:0:0:
64,192,267122,1,0,0:0:0:0:
448,192,267296,1,0,0:0:0:0:
192,192,267471,1,0,0:0:0:0:
64,192,267471,1,0,0:0:0:0:
448,192,267645,1,0,0:0:0:0:
64,192,267645,1,0,0:0:0:0:
192,192,267819,1,0,0:0:0:0:
320,192,267907,1,0,0:0:0:0:
192,192,267994,1,0,0:0:0:0:
64,192,267994,1,0,0:0:0:0:
448,192,268052,1,0,0:0:0:0:
320,192,268110,1,0,0:0:0:0:
64,192,268168,1,0,0:0:0:0:
448,192,268226,1,0,0:0:0:0:
320,192,268285,1,0,0:0:0:0:
192,192,268343,1,0,0:0:0:0:
448,192,268401,1,0,0:0:0:0:
64,192,268459,1,0,0:0:0:0:
192,192,268517,1,0,0:0:0:0:
320,192,268575,1,0,0:0:0:0:
64,192,268633,1,0,0:0:0:0:
448,192,268692,1,0,0:0:0:0:
320,192,268750,1,0,0:0:0:0:
64,192,268808,1,0,0:0:0:0:
448,192,268866,1,0,0:0:0:0:
192,192,268924,1,0,0:0:0:0:
320,192,268982,1,0,0:0:0:0:
448,192,269040,1,0,0:0:0:0:
64,192,269099,1,0,0:0:0:0:
192,192,269157,1,0,0:0:0:0:
448,192,269215,1,0,0:0:0:0:
64,192,269273,1,0,0:0:0:0:
192,192,269331,1,0,0:0:0:0:
320,192,269389,1,0,0:0:0:0:
64,192,269447,1,0,0:0:0:0:
320,192,269506,1,0,0:0:0:0:
448,192,269564,1,0,0:0:0:0:
192,192,269622,1,0,0:0:0:0:
64,192,269680,1,0,0:0:0:0:
320,192,269738,1,0,0:0:0:0:
192,192,269796,1,0,0:0:0:0:
448,192,269854,1,0,0:0:0:0:
320,192,269913,1,0,0:0:0:0:
64,192,269971,1,0,0:0:0:0:
448,192,270029,1,0,0:0:0:0:
320,192,270087,1,0,0:0:0:0:
192,192,270145,1,0,0:0:0:0:
320,192,270203,1,0,0:0:0:0:
64,192,270261,1,0,0:0:0:0:
448,192,270319,1,0,0:0:0:0:
320,192,270378,1,0,0:0:0:0:
64,192,270436,1,0,0:0:0:0:
192,192,270494,1,0,0:0:0:0:
64,192,270552,1,0,0:0:0:0:
448,192,270610,1,0,0:0:0:0:
320,192,270668,1,0,0:0:0:0:
192,192,270726,1,0,0:0:0:0:
448,192,270785,1,0,0:0:0:0:
64,192,270843,1,0,0:0:0:0:
320,192,270901,1,0,0:0:0:0:
192,192,270959,1,0,0:0:0:0:
448,192,271017,1,0,0:0:0:0:
320,192,271075,1,0,0:0:0:0:
64,192,271133,1,0,0:0:0:0:
448,192,271192,1,0,0:0:0:0:
320,192,271250,1,0,0:0:0:0:
192,192,271308,1,0,0:0:0:0:
64,192,271366,1,0,0:0:0:0:
448,192,271424,1,0,0:0:0:0:
192,192,271482,1,0,0:0:0:0:
320,192,271540,1,0,0:0:0:0:
448,192,271599,1,0,0:0:0:0:
64,192,271657,1,0,0:0:0:0:
192,192,271715,1,0,0:0:0:0:
448,192,271773,1,0,0:0:0:0:
64,192,271831,1,0,0:0:0:0:
320,192,271889,1,0,0:0:0:0:
192,192,271947,1,0,0:0:0:0:
64,192,272006,1,0,0:0:0:0:
448,192,272064,1,0,0:0:0:0:
320,192,272122,1,0,0:0:0:0:
64,192,272180,1,0,0:0:0:0:
448,192,272238,1,0,0:0:0:0:
192,192,272296,1,0,0:0:0:0:
64,192,272354,1,0,0:0:0:0:
448,192,272413,1,0,0:0:0:0:
192,192,272471,1,0,0:0:0:0:
320,192,272529,1,0,0:0:0:0:
448,192,272587,1,0,0:0:0:0:
64,192,272645,1,0,0:0:0:0:
320,192,272703,1,0,0:0:0:0:
448,192,272761,1,0,0:0:0:0:
64,192,272819,1,0,0:0:0:0:
192,192,272878,1,0,0:0:0:0:
448,192,272936,1,0,0:0:0:0:
192,192,272994,1,0,0:0:0:0:
320,192,273052,1,0,0:0:0:0:
448,192,273110,1,0,0:0:0:0:
192,192,273168,1,0,0:0:0:0:
64,192,273226,1,0,0:0:0:0:
448,192,273285,1,0,0:0:0:0:
64,192,273343,1,0,0:0:0:0:
320,192,273401,1,0,0:0:0:0:
192,192,273459,1,0,0:0:0:0:
448,192,273517,1,0,0:0:0:0:
320,192,273575,1,0,0:0:0:0:
192,192,273633,1,0,0:0:0:0:
64,192,273692,1,0,0:0:0:0:
448,192,273750,1,0,0:0:0:0:
320,192,273808,1,0,0:0:0:0:
64,192,273866,1,0,0:0:0:0:
448,192,273924,1,0,0:0:0:0:
320,192,273982,1,0,0:0:0:0:
448,192,274040,1,0,0:0:0:0:
64,192,274099,1,0,0:0:0:0:
192,192,274157,1,0,0:0:0:0:
320,192,274215,1,0,0:0:0:0:
64,192,274273,1,0,0:0:0:0:
448,192,274331,1,0,0:0:0:0:
320,192,274389,1,0,0:0:0:0:
192,192,274447,1,0,0:0:0:0:
448,192,274506,1,0,0:0:0:0:
320,192,274564,1,0,0:0:0:0:
64,192,274622,1,0,0:0:0:0:
192,192,274680,1,0,0:0:0:0:
64,192,274738,1,0,0:0:0:0:
448,192,274796,1,0,0:0:0:0:
320,192,274854,1,0,0:0:0:0:
192,192,274913,1,0,0:0:0:0:
448,192,274971,1,0,0:0:0:0:
320,192,275029,1,0,0:0:0:0:
64,192,275087,1,0,0:0:0:0:
448,192,275145,1,0,0:0:0:0:
192,192,275203,1,0,0:0:0:0:
320,192,275261,1,0,0:0:0:0:
448,192,275319,1,0,0:0:0:0:
64,192,275378,1,0,0:0:0:0:
192,192,275436,1,0,0:0:0:0:
320,192,275494,1,0,0:0:0:0:
64,192,275552,1,0,0:0:0:0:
448,192,275610,1,0,0:0:0:0:
320,192,275668,1,0,0:0:0:0:
64,192,275726,1,0,0:0:0:0:
320,192,275785,1,0,0:0:0:0:
192,192,275843,1,0,0:0:0:0:
64,192,275901,1,0,0:0:0:0:
320,192,275959,1,0,0:0:0:0:
448,192,276017,1,0,0:0:0:0:
64,192,276075,1,0,0:0:0:0:
448,192,276133,1,0,0:0:0:0:
192,192,276192,1,0,0:0:0:0:
320,192,276250,1,0,0:0:0:0:
64,192,276308,1,0,0:0:0:0:
192,192,276366,1,0,0:0:0:0:
448,192,276424,1,0,0:0:0:0:
64,192,276482,1,0,0:0:0:0:
320,192,276540,1,0,0:0:0:0:
192,192,276599,1,0,0:0:0:0:
64,192,276657,1,0,0:0:0:0:
448,192,276715,1,0,0:0:0:0:
320,192,276773,1,0,0:0:0:0:
448,192,276831,1,0,0:0:0:0:
64,192,276889,1,0,0:0:0:0:
192,192,276947,1,0,0:0:0:0:
320,192,277006,1,0,0:0:0:0:
64,192,277064,1,0,0:0:0:0:
192,192,277122,1,0,0:0:0:0:
448,192,277180,1,0,0:0:0:0:
320,192,277238,1,0,0:0:0:0:
192,192,277296,1,0,0:0:0:0:
64,192,277354,1,0,0:0:0:0:
448,192,277413,1,0,0:0:0:0:
192,192,277471,1,0,0:0:0:0:
448,192,277529,1,0,0:0:0:0:
320,192,277587,1,0,0:0:0:0:
64,192,277645,1,0,0:0:0:0:
192,192,277703,1,0,0:0:0:0:
448,192,277761,1,0,0:0:0:0:
64,192,277819,1,0,0:0:0:0:
320,192,277878,1,0,0:0:0:0:
192,192,277936,1,0,0:0:0:0:
64,192,277994,1,0,0:0:0:0:
448,192,278052,1,0,0:0:0:0:
192,192,278110,1,0,0:0:0:0:
320,192,278168,1,0,0:0:0:0:
192,192,278226,1,0,0:0:0:0:
64,192,278285,1,0,0:0:0:0:
448,192,278343,1,0,0:0:0:0:
320,192,278401,1,0,0:0:0:0:
192,192,278459,1,0,0:0:0:0:
448,192,278517,1,0,0:0:0:0:
64,192,278575,1,0,0:0:0:0:
320,192,278633,1,0,0:0:0:0:
192,192,278692,1,0,0:0:0:0:
64,192,278750,1,0,0:0:0:0:
320,192,278808,1,0,0:0:0:0:
192,192,278866,1,0,0:0:0:0:
320,192,278924,1,0,0:0:0:0:
448,192,278982,1,0,0:0:0:0:
64,192,279040,1,0,0:0:0:0:
192,192,279099,1,0,0:0:0:0:
320,192,279157,1,0,0:0:0:0:
64,192,279215,1,0,0:0:0:0:
192,192,279273,1,0,0:0:0:0:
448,192,279331,1,0,0:0:0:0:
64,192,279389,1,0,0:0:0:0:
320,192,279447,1,0,0:0:0:0:
192,192,279506,1,0,0:0:0:0:
64,192,279564,1,0,0:0:0:0:
448,192,279622,1,0,0:0:0:0:
320,192,279680,1,0,0:0:0:0:
64,192,279738,1,0,0:0:0:0:
448,192,279796,1,0,0:0:0:0:
320,192,279854,1,0,0:0:0:0:
192,192,279913,1,0,0:0:0:0:
448,192,279971,1,0,0:0:0:0:
64,192,280029,1,0,0:0:0:0:
192,192,280087,1,0,0:0:0:0:
320,192,280145,1,0,0:0:0:0:
448,192,280203,1,0,0:0:0:0:
64,192,280261,1,0,0:0:0:0:
192,192,280319,1,0,0:0:0:0:
320,192,280378,1,0,0:0:0:0:
64,192,280436,1,0,0:0:0:0:
448,192,280494,1,0,0:0:0:0:
320,192,280552,1,0,0:0:0:0:
64,192,280610,1,0,0:0:0:0:
320,192,280668,1,0,0:0:0:0:
192,192,280726,1,0,0:0:0:0:
64,192,280785,1,0,0:0:0:0:
448,192,280843,1,0,0:0:0:0:
320,192,280901,1,0,0:0:0:0:
64,192,280959,1,0,0:0:0:0:
448,192,281017,1,0,0:0:0:0:
192,192,281075,1,0,0:0:0:0:
320,192,281133,1,0,0:0:0:0:
448,192,281192,1,0,0:0:0:0:
64,192,281250,1,0,0:0:0:0:
192,192,281308,1,0,0:0:0:0:
64,192,281366,1,0,0:0:0:0:
448,192,281424,1,0,0:0:0:0:
320,192,281482,1,0,0:0:0:0:
64,192,281540,1,0,0:0:0:0:
448,192,281599,1,0,0:0:0:0:
192,192,281657,1,0,0:0:0:0:
448,192,281715,1,0,0:0:0:0:
320,192,281773,1,0,0:0:0:0:
192,192,281831,1,0,0:0:0:0:
64,192,281889,1,0,0:0:0:0:
448,192,281947,1,0,0:0:0:0:
192,192,282006,1,0,0:0:0:0:
320,192,282064,1,0,0:0:0:0:
448,192,282122,1,0,0:0:0:0:
64,192,282180,1,0,0:0:0:0:
192,192,282238,1,0,0:0:0:0:
320,192,282296,1,0,0:0:0:0:
64,192,282354,1,0,0:0:0:0:
448,192,282413,1,0,0:0:0:0:
320,192,282471,1,0,0:0:0:0:
64,192,282529,1,0,0:0:0:0:
448,192,282587,1,0,0:0:0:0:
320,192,282645,1,0,0:0:0:0:
192,192,282703,1,0,0:0:0:0:
64,192,282761,1,0,0:0:0:0:
448,192,282819,1,0,0:0:0:0:
192,192,282878,1,0,0:0:0:0:
320,192,282936,1,0,0:0:0:0:
448,192,282994,1,0,0:0:0:0:
64,192,283052,1,0,0:0:0:0:
192,192,283110,1,0,0:0:0:0:
448,192,283168,1,0,0:0:0:0:
64,192,283226,1,0,0:0:0:0:
320,192,283285,1,0,0:0:0:0:
192,192,283343,1,0,0:0:0:0:
64,192,283401,1,0,0:0:0:0:
448,192,283459,1,0,0:0:0:0:
320,192,283517,1,0,0:0:0:0:
192,192,283575,1,0,0:0:0:0:
64,192,283633,1,0,0:0:0:0:
448,192,283692,1,0,0:0:0:0:
320,192,283750,1,0,0:0:0:0:
192,192,283808,1,0,0:0:0:0:
448,192,283866,1,0,0:0:0:0:
64,192,283924,1,0,0:0:0:0:
192,192,283982,1,0,0:0:0:0:
320,192,284040,1,0,0:0:0:0:
64,192,284099,1,0,0:0:0:0:
320,192,284157,1,0,0:0:0:0:
448,192,284215,1,0,0:0:0:0:
192,192,284273,1,0,0:0:0:0:
320,192,284331,1,0,0:0:0:0:
64,192,284389,1,0,0:0:0:0:
448,192,284447,1,0,0:0:0:0:
64,192,284506,1,0,0:0:0:0:
192,192,284564,1,0,0:0:0:0:
320,192,284622,1,0,0:0:0:0:
448,192,284680,1,0,0:0:0:0:
64,192,284738,1,0,0:0:0:0:
320,192,284796,1,0,0:0:0:0:
192,192,284854,1,0,0:0:0:0:
64,192,284913,1,0,0:0:0:0:
448,192,284971,1,0,0:0:0:0:
192,192,285029,1,0,0:0:0:0:
320,192,285087,1,0,0:0:0:0:
64,192,285145,1,0,0:0:0:0:
320,192,285203,1,0,0:0:0:0:
192,192,285261,1,0,0:0:0:0:
64,192,285319,1,0,0:0:0:0:
448,192,285378,1,0,0:0:0:0:
320,192,285436,1,0,0:0:0:0:
192,192,285494,1,0,0:0:0:0:
64,192,285552,1,0,0:0:0:0:
448,192,285610,1,0,0:0:0:0:
320,192,285668,1,0,0:0:0:0:
64,192,285726,1,0,0:0:0:0:
192,192,285785,1,0,0:0:0:0:
448,192,285843,1,0,0:0:0:0:
192,192,285901,1,0,0:0:0:0:
320,192,285959,1,0,0:0:0:0:
448,192,286017,1,0,0:0:0:0:
64,192,286075,1,0,0:0:0:0:
192,192,286133,1,0,0:0:0:0:
320,192,286192,1,0,0:0:0:0:
448,192,286250,1,0,0:0:0:0:
64,192,286308,1,0,0:0:0:0:
320,192,286366,1,0,0:0:0:0:
192,192,286424,1,0,0:0:0:0:
64,192,286482,1,0,0:0:0:0:
448,192,286540,1,0,0:0:0:0:
320,192,286599,1,0,0:0:0:0:
64,192,286657,1,0,0:0:0:0:
448,192,286715,1,0,0:0:0:0:
320,192,286773,1,0,0:0:0:0:
64,192,286831,1,0,0:0:0:0:
192,192,286889,1,0,0:0:0:0:
64,192,286947,1,0,0:0:0:0:
448,192,287006,1,0,0:0:0:0:
192,192,287064,1,0,0:0:0:0:
64,192,287122,1,0,0:0:0:0:
320,192,287180,1,0,0:0:0:0:
192,192,287238,1,0,0:0:0:0:
320,192,287296,1,0,0:0:0:0:
448,192,287354,1,0,0:0:0:0:
64,192,287413,1,0,0:0:0:0:
192,192,287471,1,0,0:0:0:0:
320,192,287529,1,0,0:0:0:0:
64,192,287878,1,0,0:0:0:0:
448,192,288575,1,0,0:0:0:0:
192,192,289273,1,0,0:0:0:0:
320,192,289971,1,0,0:0:0:0:
