osu file format v14

[General]
AudioFilename: -------Hatsukoi no Ehon-another story-- Arrange ver.-ENG-.mp3
AudioLeadIn: 0
PreviewTime: 140328
Countdown: 0
SampleSet: Soft
StackLeniency: 0.7
Mode: 0
LetterboxInBreaks: 0
WidescreenStoryboard: 1

[Editor]
Bookmarks: 27907,38012,48117,55696,60749,65170,83170,98643,108749,118854,129157,133459,140801,151696
DistanceSpacing: 0.3
BeatDivisor: 4
GridSize: 8
TimelineZoom: 1.7

[Metadata]
Title:Hatsukoi no Ehon -another story-
TitleUnicode:初恋の絵本 -another story-
Artist:Mafumafu feat. HoneyWorks
ArtistUnicode:まふまふ feat. HoneyWorks
Creator:maxandcheese
Version:Insane
Source:
Tags:love picture book vocals cover
BeatmapID:881180
BeatmapSetID:402580

[Difficulty]
HPDrainRate:7
CircleSize:4
OverallDifficulty:7
ApproachRate:9
SliderMultiplier:1.8
SliderTickRate:1

[Events]
//Background and Video events
0,0,"hatsukoi.png",0,0
//Break Periods
//Storyboard Layer 0 (Background)
//Storyboard Layer 1 (Fail)
//Storyboard Layer 2 (Pass)
//Storyboard Layer 3 (Foreground)
//Storyboard Sound Samples

[TimingPoints]
494,344.827586206897,4,2,3,60,1,0
1873,-200,4,2,3,30,0,0
10752,-200,4,2,3,5,0,0
12591,315.789473684211,4,2,1,5,1,0
12591,-100,4,2,1,70,0,0
14643,-133.333333333333,4,2,1,70,0,0
15275,-100,4,2,1,70,0,0
25380,-100,4,2,3,70,0,0
27907,-133.333333333333,4,2,3,55,0,0
32959,-100,4,2,3,55,0,0
33275,-100,4,2,3,20,0,0
33433,-100,4,2,3,55,0,0
34064,-100,4,2,3,35,0,0
34222,-100,4,2,3,55,0,0
34538,-100,4,2,3,35,0,0
34696,-100,4,2,3,55,0,0
35170,-100,4,2,3,40,0,0
35486,-100,4,2,3,65,0,0
35801,-100,4,2,3,55,0,0
38012,-100,4,2,6,55,0,0
38170,-100,4,2,3,55,0,0
43854,-100,4,2,3,60,0,0
44486,-100,4,2,3,65,0,0
45591,-100,4,2,1,70,0,0
65801,-100,4,2,1,85,0,1
83170,-100,4,2,1,85,0,0
83249,-100,4,2,1,80,0,0
84117,-100,4,2,1,75,0,0
85064,-100,4,2,1,70,0,0
87275,-125,4,2,1,70,0,0
88538,-100,4,2,1,70,0,0
98643,-100,4,2,1,60,0,0
99117,-166.666666666667,4,2,1,70,0,0
99907,-100,4,2,1,65,0,0
100380,-142.857142857143,4,2,1,70,0,0
101170,-100,4,2,1,70,0,0
108749,-200,4,2,20,60,0,0
108828,-200,4,2,1,50,0,0
113801,-200,4,2,20,50,0,0
113880,-200,4,2,1,50,0,0
116170,-200,4,2,1,55,0,0
117907,-83.3333333333333,4,2,1,55,0,0
118143,-83.3333333333333,4,2,1,5,0,0
118222,-90.9090909090909,4,2,1,55,0,0
118459,-90.9090909090909,4,2,1,5,0,0
118538,-100,4,2,1,55,0,0
118775,-100,4,2,1,5,0,0
118854,-100,4,2,20,60,0,0
118933,-100,4,2,1,60,0,0
123749,-100,4,2,1,65,0,0
123907,-100,4,2,20,70,0,0
123986,-100,4,2,1,65,0,0
127696,-100,4,2,1,70,0,0
127854,-100,4,2,1,65,0,0
128012,-100,4,2,1,60,0,0
128170,-100,4,2,1,55,0,0
128328,-100,4,2,1,50,0,0
128486,-100,4,2,1,45,0,0
128643,-100,4,2,1,40,0,0
134012,-100,4,2,1,70,0,0
134328,-100,4,2,1,45,0,0
134643,-100,4,2,1,50,0,0
134959,-100,4,2,1,55,0,0
135275,-100,4,2,1,60,0,0
135591,-100,4,2,1,65,0,0
135907,-100,4,2,1,70,0,0
136222,-100,4,2,1,75,0,0
141591,-100,4,2,1,85,0,1
159196,-100,4,2,1,85,0,0
159275,-200,4,2,1,85,0,1
159591,-100,4,2,1,85,0,0
159907,-166.666666666667,4,2,1,85,0,1
160222,-100,4,2,1,85,0,0
160538,-142.857142857143,4,2,1,85,0,1
160854,-100,4,2,1,85,0,0
161170,-100,4,2,1,85,0,1
167170,-100,4,2,0,85,0,1
169380,-100,4,2,1,85,0,1
178538,-76.9230769230769,4,2,1,85,0,1
179170,-76.9230769230769,4,2,1,85,0,0
179643,-76.9230769230769,4,2,1,75,0,0
179959,-76.9230769230769,4,2,1,65,0,0
180275,-76.9230769230769,4,2,1,45,0,0
180591,-76.9230769230769,4,2,1,35,0,0
180907,-76.9230769230769,4,2,1,25,0,0
181222,-76.9230769230769,4,2,1,15,0,0
181538,-76.9230769230769,4,2,1,5,0,0

[Colours]
Combo1 : 104,100,98
Combo2 : 208,153,152
Combo3 : 192,192,192
Combo4 : 128,128,255

[HitObjects]
112,128,12591,5,0,0:0:0:0:
112,128,12670,1,0,0:0:0:0:
112,128,12749,2,0,B|145:177|221:169|221:169|271:228,1,180
341,122,13222,1,0,0:0:0:0:
184,94,13380,1,0,0:0:0:0:
296,10,13538,1,0,0:0:0:0:
317,133,13696,1,0,0:0:0:0:
170,62,13854,1,0,0:0:0:0:
164,202,14012,6,0,B|176:341|176:341|208:307,1,180
203,311,14407,1,0,0:0:0:0:
203,311,14486,1,0,0:0:0:0:
164,202,14643,6,0,L|156:102,2,90.0000034332277
323,132,15275,6,0,P|368:120|457:230,1,180
364,221,15749,1,0,0:0:0:0:
364,221,15828,1,0,0:0:0:0:
364,221,15907,1,0,0:0:0:0:
228,284,16064,1,0,0:0:0:0:
336,353,16222,2,0,B|290:239,1,90
188,216,16538,6,0,L|10:176,1,180
188,216,17012,2,0,B|94:195|94:195|68:158|81:107,1,180
84,92,17407,1,0,0:0:0:0:
98,74,17486,1,0,0:0:0:0:
116,61,17564,1,0,0:0:0:0:
137,55,17643,1,0,0:0:0:0:
187,134,17801,6,0,B|234:217|234:217|315:238,1,180
248,352,18275,1,0,0:0:0:0:
129,276,18433,1,0,0:0:0:0:
29,370,18591,1,0,0:0:0:0:
0,215,18749,1,0,0:0:0:0:
161,203,18907,1,0,0:0:0:0:
16,296,19064,6,0,B|75:294|136:327|136:327|212:313,1,180
161,203,19538,1,0,0:0:0:0:
291,281,19696,2,0,L|309:181,1,90
306,192,19933,1,0,0:0:0:0:
306,192,20012,2,0,L|387:133,1,90
456,318,20328,5,0,0:0:0:0:
398,222,20486,1,0,0:0:0:0:
223,293,20643,2,0,B|268:314|268:314|325:320,1,90
178,192,20959,2,0,B|137:196|137:196|92:217,1,90
274,205,21275,1,0,0:0:0:0:
211,78,21433,1,0,0:0:0:0:
370,145,21591,2,0,P|384:96|373:52,1,90
243,140,21907,1,0,0:0:0:0:
366,263,22064,2,0,L|445:332,2,90
258,316,22538,2,0,P|209:332|165:323,1,90
247,137,22854,5,0,0:0:0:0:
256,192,22933,12,0,24749,0:0:0:0:
112,192,25222,5,0,0:0:0:0:
112,192,25301,1,0,0:0:0:0:
112,192,25380,1,0,0:0:0:0:
229,108,25538,1,0,0:0:0:0:
229,108,25617,1,0,0:0:0:0:
229,108,25696,1,0,0:0:0:0:
257,257,25854,2,0,L|276:323,2,45
378,134,26169,5,0,0:0:0:0:
381,120,26248,1,0,0:0:0:0:
384,106,26327,1,0,0:0:0:0:
458,234,26485,1,0,0:0:0:0:
455,248,26564,1,0,0:0:0:0:
452,262,26643,1,0,0:0:0:0:
285,225,26801,1,0,0:0:0:0:
285,225,26880,1,0,0:0:0:0:
285,225,26959,5,0,0:0:0:0:
188,354,27117,1,0,0:0:0:0:
188,354,27196,1,0,0:0:0:0:
188,354,27275,1,0,0:0:0:0:
285,225,27433,1,0,0:0:0:0:
126,221,27591,2,0,B|88:224|88:224|35:200,1,90
124,91,27906,6,0,L|264:98,1,135
258,97,28222,2,0,B|253:142|253:142|258:187,1,67.5000025749208
342,263,28538,1,0,0:0:0:0:
222,298,28696,1,0,0:0:0:0:
180,194,28854,1,0,0:0:0:0:
241,314,29012,1,0,0:0:0:0:
343,203,29169,6,0,P|310:174|250:164,1,101.250003862381
254,163,29485,2,0,L|277:85,1,67.5000025749208
403,114,29801,1,0,0:0:0:0:
336,198,29959,1,0,0:0:0:0:
236,79,30117,1,0,0:0:0:0:
210,213,30275,1,0,0:0:0:0:
47,272,30433,6,0,B|26:233|26:233|19:181,1,67.5000025749208
102,206,30748,2,0,B|114:163|114:163|146:121,1,67.5000025749208
186,200,31064,2,0,B|225:179|225:179|277:172,1,67.5000025749208
254,259,31380,1,0,0:0:0:0:
254,259,31538,1,0,0:0:0:0:
102,206,31696,6,0,P|115:164|180:99,1,135.000005149842
284,143,32169,1,0,0:0:0:0:
284,143,32248,1,0,0:0:0:0:
284,143,32327,1,0,0:0:0:0:
254,259,32485,2,0,P|222:289|191:310,2,67.5000025749208
399,323,32959,6,0,P|381:252|390:217,1,90
452,142,33275,1,0,0:0:0:0:
475,267,33433,1,0,0:0:0:0:
331,160,33591,2,0,P|286:158|244:175,1,90
324,375,33906,1,0,0:0:0:0:
301,250,34064,1,0,0:0:0:0:
152,307,34222,6,0,L|119:269,2,45
