osu file format v14

[General]
AudioFilename: -------Hatsukoi no Ehon-another story-- Arrange ver.-ENG-.mp3
AudioLeadIn: 0
PreviewTime: 140328
Countdown: 0
SampleSet: Soft
StackLeniency: 0.5
Mode: 0
LetterboxInBreaks: 0
WidescreenStoryboard: 0

[Editor]
Bookmarks: 27907,38012,48117,55696,60749,65170,83170,98643,108749,118854,129157,133459,140801,151696,184538
DistanceSpacing: 0.8
BeatDivisor: 4
GridSize: 8
TimelineZoom: 1.7

[Metadata]
Title:Hatsukoi no Ehon -another story-
TitleUnicode:初恋の絵本 -another story-
Artist:Mafumafu feat. HoneyWorks
ArtistUnicode:まふまふ feat. HoneyWorks
Creator:maxandcheese
Version:Extra
Source:
Tags:love picture book vocals cover
BeatmapID:875469
BeatmapSetID:402580

[Difficulty]
HPDrainRate:7.6
CircleSize:4
OverallDifficulty:8
ApproachRate:9.3
SliderMultiplier:1.8
SliderTickRate:1

[Events]
//Background and Video events
0,0,"hatsukoi.png",0,0
//Break Periods
2,63275,65169
2,129159,133458
2,137801,140247
//Storyboard Layer 0 (Background)
//Storyboard Layer 1 (Fail)
//Storyboard Layer 2 (Pass)
//Storyboard Layer 3 (Foreground)
//Storyboard Sound Samples

[TimingPoints]
494,344.827586206897,4,2,3,60,1,0
1873,-200,4,2,3,30,0,0
10752,-200,4,2,3,5,0,0
12591,315.789473684211,4,2,1,5,1,0
12591,-100,4,2,1,70,0,0
14643,-133.333333333333,4,2,1,70,0,0
15275,-100,4,2,1,70,0,0
25380,-100,4,2,3,70,0,0
27907,-133.333333333333,4,2,3,55,0,0
32959,-100,4,2,3,55,0,0
33275,-100,4,2,3,20,0,0
33433,-100,4,2,3,55,0,0
34064,-100,4,2,3,35,0,0
34222,-100,4,2,3,55,0,0
34538,-100,4,2,3,35,0,0
34696,-100,4,2,3,55,0,0
35170,-100,4,2,3,40,0,0
35486,-100,4,2,3,65,0,0
35801,-100,4,2,3,55,0,0
38012,-100,4,2,6,55,0,0
38170,-100,4,2,3,55,0,0
43854,-100,4,2,3,60,0,0
44486,-100,4,2,3,65,0,0
45591,-100,4,2,1,70,0,0
65801,-100,4,2,1,85,0,1
83170,-100,4,2,1,85,0,0
83249,-100,4,2,1,80,0,0
84117,-100,4,2,1,75,0,0
85064,-100,4,2,1,70,0,0
87275,-125,4,2,1,70,0,0
88538,-100,4,2,1,70,0,0
98643,-100,4,2,1,60,0,0
99117,-166.666666666667,4,2,1,70,0,0
99907,-100,4,2,1,65,0,0
100380,-142.857142857143,4,2,1,70,0,0
101170,-100,4,2,1,70,0,0
108749,-200,4,2,20,60,0,0
108828,-200,4,2,1,50,0,0
113801,-200,4,2,20,50,0,0
113880,-200,4,2,1,50,0,0
116170,-200,4,2,1,55,0,0
117907,-83.3333333333333,4,2,1,55,0,0
118143,-83.3333333333333,4,2,1,5,0,0
118222,-90.9090909090909,4,2,1,55,0,0
118459,-90.9090909090909,4,2,1,5,0,0
118538,-100,4,2,1,55,0,0
118775,-100,4,2,1,5,0,0
118854,-100,4,2,20,100,0,0
118933,-100,4,2,1,60,0,0
123749,-100,4,2,1,65,0,0
123907,-100,4,2,20,100,0,0
123986,-100,4,2,1,65,0,0
127696,-100,4,2,1,70,0,0
127854,-100,4,2,1,65,0,0
128012,-100,4,2,1,60,0,0
128170,-100,4,2,1,55,0,0
128328,-100,4,2,1,50,0,0
128486,-100,4,2,1,45,0,0
128643,-100,4,2,1,40,0,0
134012,-100,4,2,1,70,0,0
134328,-100,4,2,1,45,0,0
134643,-100,4,2,1,50,0,0
134959,-100,4,2,1,55,0,0
135275,-100,4,2,1,60,0,0
135591,-100,4,2,1,65,0,0
135907,-100,4,2,1,70,0,0
136222,-100,4,2,1,75,0,0
141591,-100,4,2,1,85,0,1
159275,-200,4,2,1,85,0,1
159591,-100,4,2,1,85,0,1
159907,-166.666666666667,4,2,1,85,0,1
160222,-100,4,2,1,85,0,1
160538,-142.857142857143,4,2,1,85,0,1
160854,-100,4,2,1,85,0,1
161170,-100,4,2,1,85,0,1
161801,-100,4,2,1,85,0,0
167170,-100,4,2,0,85,0,0
169380,-100,4,2,1,85,0,0
171906,-100,4,2,1,85,0,1
175933,-100,4,2,1,5,0,1
176012,-100,4,2,1,85,0,1
176248,-100,4,2,1,5,0,1
176327,-100,4,2,1,85,0,1
176564,-100,4,2,1,5,0,1
176643,-100,4,2,1,85,0,1
176880,-100,4,2,1,5,0,1
176959,-100,4,2,1,85,0,1
178538,-76.9230769230769,4,2,1,85,0,1
179170,-76.9230769230769,4,2,1,85,0,0
179643,-76.9230769230769,4,2,1,75,0,0
179959,-76.9230769230769,4,2,1,65,0,0
180275,-76.9230769230769,4,2,1,45,0,0
180591,-76.9230769230769,4,2,1,35,0,0
180907,-76.9230769230769,4,2,1,25,0,0
181222,-76.9230769230769,4,2,1,15,0,0
181538,-76.9230769230769,4,2,1,5,0,0
184540.891304348,652.173913043478,4,2,3,60,1,0

[Colours]
Combo1 : 104,100,98
Combo2 : 208,153,152
Combo3 : 192,192,192
Combo4 : 128,128,255

[HitObjects]
395,149,1873,6,0,P|396:203|380:257,2,90
117,235,3252,2,0,P|116:181|132:127,2,90,2|0|0,0:0|0:0|0:0,0:0:0:0:
117,235,4287,1,0,0:0:0:0:
212,39,4631,6,0,P|257:35|301:39,1,90,2|0,0:0|0:0,0:0:0:0:
299,344,5321,2,0,P|254:348|210:344,1,90,2|0,0:0|0:0,0:0:0:0:
257,123,6011,5,2,0:0:0:0:
388,246,6356,1,0,0:0:0:0:
253,241,6700,1,2,0:0:0:0:
322,184,7045,1,0,0:0:0:0:
292,338,7390,6,0,P|249:323|199:282,1,90,2|0,0:0|0:0,0:0:0:0:
150,329,8080,6,0,P|146:278|234:231,1,157.5,2|0,0:0|0:0,0:0:0:0:
253,232,8769,2,0,P|305:228|343:193,1,90,2|0,0:0|0:0,0:0:0:0:
344,112,9459,2,0,L|353:17,2,90,2|0|2,0:0|0:0|0:0,0:0:0:0:
344,112,12591,5,2,0:0:0:0:
344,112,12670,1,0,0:0:0:0:
344,112,12749,2,0,P|339:163|315:216,1,90,4|0,0:0|0:0,0:0:0:0:
167,106,13064,2,0,L|285:138,1,90,2|0,0:0|0:0,0:0:0:0:
253,129,13301,1,8,0:0:0:0:
253,129,13380,1,8,0:3:0:0:
472,120,13538,1,0,0:0:0:0:
347,210,13696,1,0,0:0:0:0:
456,248,13854,1,2,0:0:0:0:
336,96,14012,6,0,B|281:32|204:57|204:57|160:32,1,180,4|8,0:0|0:0,0:0:0:0:
175,40,14407,1,8,0:0:0:0:
175,40,14486,1,8,0:0:0:0:
89,161,14643,2,0,L|36:68,2,90.0000034332277,8|8|8,0:3|0:3|0:3,0:0:0:0:
253,129,15275,6,0,B|272:118|272:118|308:128|308:128|362:105|428:136,1,180,4|0,0:0|0:0,0:0:0:0:
350,247,15749,2,0,L|355:196,2,45,4|4|4,0:1|0:1|0:1,0:0:0:0:
209,214,16064,1,2,0:0:0:0:
216,235,16143,1,0,0:0:0:0:
224,256,16222,2,0,L|287:332,1,90,4|0,0:0|0:0,0:0:0:0:
93,241,16538,6,0,B|51:239|19:266|19:266|15:201|98:175,1,180,4|0,0:0|0:0,0:0:0:0:
227,34,17012,2,0,L|208:216,1,180,4|0,0:0|0:0,0:0:0:0:
206,235,17407,1,0,0:0:0:0:
204,257,17486,1,2,0:0:0:0:
202,279,17564,1,0,0:0:0:0:
200,301,17643,1,2,0:0:0:0:
68,186,17801,6,0,B|120:152|96:81|96:81|166:61,1,180,4|0,0:0|0:0,0:0:0:0:
319,162,18275,1,2,0:0:0:0:
158,209,18433,1,0,0:0:0:0:
242,84,18591,1,8,0:0:0:0:
284,255,18749,1,8,0:3:0:0:
173,126,18907,1,2,0:0:0:0:
127,273,19064,6,0,P|197:335|304:334,1,180,4|0,0:0|0:0,0:0:0:0:
256,192,19538,1,2,0:0:0:0:
231,42,19696,2,0,L|352:64,1,90,4|0,2:0|2:0,2:0:0:0:
320,58,19933,1,0,0:0:0:0:
320,58,20012,2,0,P|352:104|368:152,1,90,4|2,0:0|0:0,0:0:0:0:
256,192,20328,6,0,L|157:227,1,90,6|0,0:0|0:0,0:0:0:0:
82,308,20643,1,2,0:0:0:0:
205,136,20801,1,0,0:0:0:0:
46,176,20959,1,2,0:0:0:0:
241,268,21117,1,0,0:0:0:0:
31,251,21275,1,2,0:0:0:0:
256,192,21433,1,0,0:0:0:0:
115,105,21591,5,0,0:0:0:0:
141,286,21749,1,2,0:0:0:0:
252,82,21907,5,0,0:0:0:0:
249,278,22064,1,2,0:0:0:0:
379,112,22222,5,0,0:0:0:0:
350,293,22380,1,6,0:0:0:0:
141,286,22538,1,2,0:0:0:0:
364,196,22696,1,0,0:0:0:0:
138,294,22854,6,0,B|103:294|76:316|76:316|19:243|74:196|74:196|135:242|182:212|182:212|249:164|295:227|295:227|345:306|435:276|493:223|494:141|453:67|392:16|392:16|330:52|247:4,1,990,6|0,0:0|0:0,0:0:0:0:
186,0,24749,2,0,B|114:48|141:154|141:154|186:120|253:121,1,270,8|0,0:3|0:0,0:0:0:0:
253,120,25301,1,0,0:0:0:0:
288,128,25380,5,2,0:0:0:0:
398,249,25538,1,0,0:0:0:0:
406,217,25617,1,0,0:0:0:0:
406,185,25696,1,2,0:0:0:0:
245,222,25854,1,0,0:0:0:0:
269,246,25933,1,0,0:0:0:0:
301,254,26012,1,2,0:0:0:0:
368,64,26170,5,0,0:0:0:0:
328,48,26249,1,0,0:0:0:0:
280,56,26328,1,2,0:0:0:0:
174,237,26486,1,0,0:0:0:0:
126,245,26565,1,0,0:0:0:0:
86,229,26643,1,2,0:0:0:0:
323,155,26801,1,0,0:0:0:0:
371,147,26880,1,0,0:0:0:0:
411,163,26959,1,2,0:0:0:0:
330,346,27117,1,0,0:0:0:0:
282,354,27196,1,0,0:0:0:0:
242,338,27274,1,2,0:0:0:0:
169,197,27433,1,0,0:0:0:0:
443,250,27591,2,0,B|395:245|337:203,1,90,4|4,0:0|0:2,0:0:0:0:
169,197,27907,6,0,L|210:97,1,101.250003862381
159,55,28222,2,0,P|195:94|230:116,1,67.5000025749208
374,108,28538,1,0,0:0:0:0:
258,195,28696,2,0,L|168:195,1,67.5000025749208
132,103,29012,1,0,0:0:0:0:
212,265,29169,6,0,L|312:306,1,101.250003862381
354,255,29484,2,0,P|315:291|293:326,1,67.5000025749208
425,199,29801,1,0,0:0:0:0:
352,104,29959,2,0,P|304:118|256:122,1,67.5000025749208
220,174,30275,1,4,0:0:0:0:
425,199,30433,6,0,P|427:160|405:110,1,67.5000025749208
354,168,30749,2,0,P|340:198|317:222,1,67.5000025749208
220,174,31064,2,0,P|258:169|304:138,1,67.5000025749208
419,132,31380,2,0,B|379:85|379:85|315:84,1,101.250003862381
282,49,31696,6,0,P|325:79|364:88,1,67.5000025749208
178,113,32012,2,0,P|151:134|121:147,1,67.5000025749208
112,152,32249,1,8,0:3:0:0:
102,155,32328,1,8,0:3:0:0:
84,75,32486,1,0,0:0:0:0:
154,36,32643,1,0,0:0:0:0:
173,114,32801,1,0,0:0:0:0:
45,242,32959,6,4,P|88:276|129:288,1,90,4|0,0:0|0:0,0:0:0:0:
284,225,33275,1,8,0:0:0:0:
163,135,33433,1,0,0:0:0:0:
214,313,33591,1,0,0:0:0:0:
346,167,33749,2,0,P|296:172|231:199,1,90
362,271,34064,5,8,0:0:0:0:
450,130,34222,1,0,0:0:0:0:
450,130,34301,1,0,0:0:0:0:
450,130,34380,1,0,0:0:0:0:
353,283,34538,1,8,0:0:0:0:
316,137,34696,1,0,0:0:0:0:
459,221,34854,5,0,0:0:0:0:
459,221,35012,1,0,0:0:0:0:
420,49,35170,1,8,0:0:0:0:
420,49,35328,1,8,0:0:0:0:
272,207,35486,2,0,B|305:187|305:187|323:102,1,90,4|0,0:0|0:0,0:0:0:0:
109,247,35801,5,0,0:0:0:0:
264,321,35959,1,0,0:0:0:0:
109,199,36117,1,0,0:0:0:0:
264,321,36275,1,0,0:0:0:0:
109,150,36433,1,0,0:0:0:0:
264,321,36591,1,0,0:0:0:0:
264,92,36749,5,0,0:0:0:0:
125,299,36907,2,0,L|169:279,1,45
304,216,37064,1,4,0:0:0:0:
109,150,37222,1,0,0:0:0:0:
264,321,37380,1,8,0:3:0:0:
232,182,37538,1,0,0:0:0:0:
232,182,37617,1,0,0:0:0:0:
232,182,37696,1,0,0:0:0:0:
165,280,37854,1,0,0:0:0:0:
333,188,38012,6,0,P|325:144|296:100,1,90,6|0,0:0|0:0,0:0:0:0:
189,69,38328,2,4,P|130:65|25:4,2,180,2|0|6,0:0|0:0|0:0,0:0:0:0:
301,105,39275,6,0,L|382:57,1,90,4|0,0:0|0:0,0:0:0:0:
433,163,39591,2,4,B|439:252|439:252|396:341,2,180,2|0|6,0:0|0:0|0:0,0:0:0:0:
330,219,40538,6,0,P|282:205|242:219,1,90,4|0,0:0|0:0,0:0:0:0:
154,292,40854,2,4,P|241:311|330:298,2,180,6|0|2,0:0|0:0|0:0,0:0:0:0:
244,217,41801,6,0,L|262:129,1,90,4|0,0:0|0:0,0:0:0:0:
262,128,42038,1,0,0:0:0:0:
262,128,42117,1,2,0:0:0:0:
98,197,42275,1,0,0:0:0:0:
82,213,42591,1,0,0:0:0:0:
278,119,42749,1,6,0:0:0:0:
71,227,42907,1,0,0:0:0:0:
68,230,42986,1,0,0:0:0:0:
65,233,43064,5,10,0:0:0:0:
116,99,43222,1,0,0:0:0:0:
217,197,43380,1,2,0:0:0:0:
103,304,43538,1,8,0:3:0:0:
189,191,43696,1,0,0:0:0:0:
317,277,43854,5,0,0:0:0:0:
301,91,44012,1,2,0:0:0:0:
176,253,44170,1,0,0:0:0:0:
376,173,44328,1,8,0:0:0:0:
186,133,44486,1,0,0:0:0:0:
186,133,44564,1,0,0:0:0:0:
186,133,44643,5,6,0:0:0:0:
317,277,44801,2,0,L|349:313,1,45
434,284,44959,1,2,0:0:0:0:
443,194,45117,1,0,0:0:0:0:
453,104,45275,1,2,0:0:0:0:
317,277,45591,6,0,P|252:281|168:264,1,135
183,269,45907,2,0,P|223:223|239:159,1,90,8|0,0:0|0:0,0:0:0:0:
369,82,46222,1,0,0:0:0:0:
345,207,46380,1,2,0:0:0:0:
210,103,46538,1,8,0:0:0:0:
379,75,46696,1,0,0:0:0:0:
399,305,46854,6,0,P|422:261|428:166,1,135
429,177,47170,2,0,L|323:213,1,90,8|0,0:0|0:0,0:0:0:0:
121,290,47486,1,0,0:0:0:0:
320,332,47643,1,2,0:0:0:0:
137,335,47801,1,8,0:0:0:0:
237,242,47959,1,0,0:0:0:0:
32,250,48117,5,0,0:0:0:0:
246,120,48275,1,0,0:0:0:0:
267,117,48354,1,0,0:0:0:0:
289,115,48433,1,8,0:0:0:0:
181,269,48591,1,0,0:0:0:0:
95,143,48749,2,0,L|68:56,1,90,0|2,0:0|0:0,0:0:0:0:
237,29,49064,6,0,L|324:49,1,90,8|0,0:0|0:0,0:0:0:0:
346,56,49301,1,0,0:0:0:0:
368,60,49380,1,0,0:0:0:0:
304,197,49538,1,0,0:0:0:0:
179,188,49696,2,0,P|137:202|108:236,1,90,8|0,0:0|0:0,0:0:0:0:
304,197,50012,1,0,0:0:0:0:
218,351,50170,1,2,0:0:0:0:
217,117,50328,2,0,B|274:121|274:121|359:85,1,135,8|0,0:0|0:0,0:0:0:0:
345,90,50643,6,0,L|391:196,1,90,4|0,0:0|0:0,0:0:0:0:
339,305,50959,1,8,0:0:0:0:
160,223,51117,1,0,0:0:0:0:
258,54,51275,2,0,L|204:148,1,90,0|2,0:0|0:0,0:0:0:0:
199,328,51591,1,8,0:0:0:0:
199,328,51749,1,0,0:0:0:0:
106,151,51907,6,0,B|129:112|129:112|183:77,1,90
345,87,52222,2,0,B|383:112|383:112|406:151,1,90,8|0,0:0|0:0,0:0:0:0:
155,269,52538,1,0,0:0:0:0:
262,117,52696,1,2,0:0:0:0:
91,183,52854,1,8,0:0:0:0:
277,215,53012,1,0,0:0:0:0:
117,70,53170,6,0,B|117:25|117:25|163:36,1,90
279,170,53486,2,0,B|277:216|277:216|233:204,1,90,8|0,0:0|0:0,0:0:0:0:
254,32,53801,1,0,0:0:0:0:
391,107,53959,1,2,0:0:0:0:
152,155,54117,2,0,L|230:101,1,90,8|0,0:0|0:0,0:0:0:0:
391,107,54433,5,0,0:0:0:0:
362,258,54591,2,0,L|310:274,2,45,0|0|10,0:0|0:0|0:0,0:0:0:0:
232,103,54907,1,0,0:0:0:0:
251,113,54986,1,0,0:0:0:0:
270,123,55064,2,0,L|252:188,1,45,10|0,0:0|0:0,0:0:0:0:
287,276,55222,1,2,0:0:0:0:
306,286,55301,1,0,0:0:0:0:
325,296,55379,2,0,L|343:231,1,45,10|0,0:0|0:0,0:0:0:0:
436,194,55538,1,8,0:0:0:0:
257,166,55696,5,0,1:1:0:0:
257,166,55854,1,0,1:1:0:0:
158,147,56012,2,0,P|122:120|112:77,1,90
185,81,56328,2,0,P|204:41|245:24,1,90,0|2,0:0|0:0,0:0:0:0:
260,95,56643,2,0,P|302:107|326:144,1,90
295,240,56959,5,0,1:1:0:0:
295,240,57116,1,0,1:1:0:0:
326,144,57275,2,0,B|360:113|360:113|403:109,1,90
391,180,57591,2,0,B|427:208|427:208|438:250,1,90,0|2,0:0|0:0,0:0:0:0:
367,253,57907,2,0,B|345:293|345:293|305:312,1,90
74,225,58222,6,0,L|36:131,2,90,0|0|0,1:1|1:1|0:0,0:0:0:0:
225,158,58696,2,0,L|188:268,1,90,8|0,0:3|0:0,0:0:0:0:
95,306,59012,1,2,0:0:0:0:
296,203,59169,2,0,L|259:313,1,90,8|0,0:3|0:0,0:0:0:0:
357,77,59486,6,0,P|309:57|259:61,1,90,4|0,1:2|0:0,0:0:0:0:
126,278,59801,1,0,0:0:0:0:
126,278,59959,2,0,P|110:235|136:103,1,180,4|0,1:2|0:0,0:0:0:0:
133,106,60354,1,0,0:0:0:0:
133,106,60433,1,8,1:1:0:0:
296,203,60591,1,0,0:0:0:0:
316,212,60669,1,0,0:0:0:0:
336,221,60749,1,8,1:2:0:0:
368,288,65801,6,0,P|403:226|401:153,1,135,4|0,0:0|0:0,0:0:0:0:
347,117,66117,2,0,P|291:126|237:123,1,90,8|2,1:2|0:0,0:0:0:0:
140,265,66433,1,0,0:0:0:0:
288,319,66591,1,2,0:0:0:0:
325,198,66749,1,8,1:2:0:0:
213,293,66907,1,0,0:0:0:0:
174,120,67064,6,0,L|40:107,1,135
25,35,67380,2,0,P|84:34|128:54,1,90,8|2,1:2|0:0,0:0:0:0:
102,232,67696,1,0,0:0:0:0:
202,67,67854,1,2,0:0:0:0:
316,146,68012,1,8,1:2:0:0:
209,212,68170,1,0,0:0:0:0:
375,52,68328,6,0,L|397:142,1,90
209,212,68643,2,0,L|231:102,1,90,8|2,1:2|0:0,0:0:0:0:
357,261,68959,2,0,P|325:298|272:329,1,90,0|2,0:0|0:0,0:0:0:0:
226,123,69275,2,0,P|258:86|311:55,1,90,8|0,1:2|0:0,0:0:0:0:
276,245,69591,5,0,0:0:0:0:
420,153,69749,1,0,0:0:0:0:
420,153,69828,1,0,0:0:0:0:
420,153,69907,1,8,1:2:0:0:
226,123,70064,1,2,0:0:0:0:
343,78,70222,2,0,L|424:19,1,90,0|2,0:0|0:0,0:0:0:0:
304,227,70538,1,8,1:2:0:0:
147,214,70696,1,0,0:0:0:0:
147,214,70775,1,0,0:0:0:0:
147,214,70854,6,0,B|151:290|151:290|181:345,1,135,4|0,0:0|0:0,0:0:0:0:
249,323,71170,2,0,L|336:281,1,90,8|2,1:2|0:0,0:0:0:0:
471,150,71486,1,0,0:0:0:0:
471,150,71643,1,2,0:0:0:0:
293,81,71801,2,0,P|222:49|152:57,1,135,8|0,1:2|0:0,0:0:0:0:
173,124,72117,6,0,P|128:160|61:178,1,90,4|0,0:0|0:0,0:0:0:0:
56,66,72433,1,8,1:2:0:0:
244,138,72591,1,2,0:0:0:0:
164,256,72749,1,0,0:0:0:0:
98,171,72907,1,2,0:0:0:0:
277,202,73064,1,8,1:2:0:0:
224,306,73222,1,0,0:0:0:0:
393,256,73380,6,0,P|395:202|383:153,1,90,4|0,0:0|0:0,0:0:0:0:
281,87,73696,2,0,P|255:124|222:153,1,90,8|2,1:2|0:0,0:0:0:0:
316,309,74012,1,0,0:0:0:0:
168,208,74170,2,0,B|121:195|121:195|81:165,2,90,2|8|0,0:0|1:2|0:0,0:0:0:0:
344,248,74643,6,0,L|382:151,1,90,4|2,0:0|0:0,0:0:0:0:
382,151,74880,1,0,0:0:0:0:
381,133,74959,1,2,1:1:0:0:
369,120,75038,1,0,0:0:0:0:
351,121,75117,1,2,0:0:0:0:
338,133,75196,1,0,0:0:0:0:
328,138,75275,6,0,P|281:153|231:142,1,90,4|2,0:0|0:0,0:0:0:0:
201,130,75512,1,0,0:0:0:0:
170,100,75591,1,2,1:1:0:0:
163,54,75670,1,0,0:0:0:0:
135,17,75749,1,2,1:1:0:0:
87,6,75828,1,0,0:0:0:0:
58,37,75907,6,0,L|17:172,1,135,4|0,0:0|0:0,0:0:0:0:
84,195,76222,2,0,P|127:178|197:198,1,90,8|2,1:2|0:0,0:0:0:0:
274,306,76538,1,0,0:0:0:0:
137,251,76696,1,2,0:0:0:0:
265,168,76854,1,8,1:2:0:0:
170,325,77012,1,0,0:0:0:0:
265,168,77170,6,0,P|326:165|374:145,1,90
440,299,77486,2,0,P|379:296|331:276,1,90,8|2,1:2|0:0,0:0:0:0:
468,197,77801,1,0,0:0:0:0:
328,98,77959,1,2,0:0:0:0:
465,27,78117,1,8,1:2:0:0:
471,220,78275,1,2,0:0:0:0:
271,98,78433,6,0,P|226:100|163:145,1,90,0|2,0:0|0:0,0:0:0:0:
427,115,78749,1,8,1:2:0:0:
260,198,78907,1,2,0:0:0:0:
389,310,79064,2,0,L|408:217,1,90,0|2,0:0|0:0,0:0:0:0:
260,198,79380,1,8,1:2:0:0:
327,362,79538,1,0,0:0:0:0:
147,252,79696,6,0,P|115:207|121:122,1,135
188,113,80012,2,0,L|313:94,1,90,8|2,1:2|0:0,0:0:0:0:
312,92,80249,1,0,0:0:0:0:
347,86,80328,1,0,0:0:0:0:
401,230,80486,1,2,0:0:0:0:
176,188,80643,1,8,1:2:0:0:
269,305,80801,1,0,0:0:0:0:
269,305,80880,1,0,0:0:0:0:
269,305,80959,6,0,P|302:257|364:226,1,90,4|0,0:0|0:0,0:0:0:0:
405,141,81275,2,0,P|409:200|380:263,1,90,12|0,1:2|0:0,0:0:0:0:
354,317,81591,5,2,0:0:0:0:
200,64,81907,1,10,1:2:0:0:
328,240,82222,5,6,0:0:0:0:
176,240,82538,5,2,0:0:0:0:
256,112,82854,5,2,0:0:0:0:
256,192,83170,5,2,0:0:0:0:
256,192,83249,12,0,85380,0:0:0:0:
167,255,86012,5,4,0:0:0:0:
357,102,86328,1,0,0:0:0:0:
336,226,86486,1,0,0:0:0:0:
446,144,86643,1,0,0:0:0:0:
274,169,86801,1,0,0:0:0:0:
427,305,86959,1,0,0:0:0:0:
318,88,87117,1,0,0:0:0:0:
167,255,87275,5,12,0:0:0:0:
195,232,87353,1,0,0:0:0:0:
229,223,87432,1,0,0:0:0:0:
264,231,87511,1,0,0:0:0:0:
292,252,87590,1,0,0:0:0:0:
320,275,87669,1,0,0:0:0:0:
354,286,87748,1,0,0:0:0:0:
389,279,87827,1,0,0:0:0:0:
419,259,87907,6,0,L|430:222,1,36,12|0,0:0|0:0,0:0:0:0:
366,161,88064,2,0,L|355:195,1,36
220,353,88222,2,0,L|230:318,1,36,12|0,0:1|0:0,0:0:0:0:
167,255,88379,2,0,L|156:289,1,36
412,364,88538,6,0,P|403:301|379:231,1,135
354,195,88854,1,8,0:0:0:0:
176,264,89012,1,0,0:0:0:0:
176,264,89091,1,0,0:0:0:0:
176,264,89170,1,0,0:0:0:0:
240,72,89328,1,0,0:0:0:0:
277,278,89486,1,8,0:0:0:0:
372,181,89643,1,0,0:0:0:0:
166,186,89801,6,0,P|119:169|63:99,1,135
106,44,90117,2,0,P|162:41|219:50,1,90,8|0,0:0|0:0,0:0:0:0:
301,186,90433,2,0,L|149:186,1,135
187,255,90749,2,0,B|239:255|239:255|296:276,1,90,8|0,0:0|0:0,0:0:0:0:
115,348,91064,5,0,0:0:0:0:
0,208,91222,1,0,0:0:0:0:
0,323,91380,1,8,0:0:0:0:
109,166,91538,1,0,0:0:0:0:
251,252,91696,2,0,P|225:215|217:172,2,90,0|0|8,0:0|0:0|0:0,0:0:0:0:
376,156,92170,1,0,0:0:0:0:
217,172,92328,6,0,L|64:205,1,135
69,130,92643,2,0,B|54:85|54:85|65:44,1,90,8|0,0:0|0:0,0:0:0:0:
291,222,92959,1,0,0:0:0:0:
155,90,93117,1,0,0:0:0:0:
157,263,93275,2,0,P|178:303|214:333,1,90,8|0,0:0|0:0,0:0:0:0:
366,152,93591,6,0,L|232:98,1,135,4|0,0:0|0:0,0:0:0:0:
289,47,93907,2,0,P|347:28|380:27,1,90,8|0,0:0|0:0,0:0:0:0:
371,247,94222,1,0,0:0:0:0:
465,95,94380,1,0,0:0:0:0:
257,164,94538,1,8,0:0:0:0:
346,89,94696,1,0,0:0:0:0:
439,289,94854,6,0,L|368:331,1,60
320,346,95064,1,0,0:0:0:0:
248,333,95170,2,0,P|215:323|180:299,2,60,8|0|0,0:0|0:0|0:0,0:0:0:0:
320,269,95486,2,0,B|323:237|323:237|301:217|306:147,1,120
312,80,95801,6,12,B|283:52|283:52|186:79|151:53,1,135,8|0,0:0|0:0,0:0:0:0:
120,48,96117,6,0,B|34:41|16:136|16:136|52:173,1,180,4|8,0:0|0:0,0:0:0:0:
168,256,96591,1,0,0:0:0:0:
236,126,96749,1,0,0:0:0:0:
65,283,96907,1,0,0:0:0:0:
286,222,97064,1,8,0:0:0:0:
103,173,97222,1,0,0:0:0:0:
312,226,97380,6,0,L|363:237,3,45,6|0|0|0,0:0|0:0|0:0|0:0,0:0:0:0:
473,260,97696,2,0,L|446:225,1,45,10|0,0:0|0:0,0:0:0:0:
376,166,97854,2,0,L|385:122,1,45,2|0,0:0|0:0,0:0:0:0:
460,69,98012,1,6,0:0:0:0:
448,26,98090,1,0,0:0:0:0:
412,0,98169,1,0,0:0:0:0:
368,4,98248,1,0,0:0:0:0:
337,34,98328,2,0,L|314:87,1,45,2|0,0:0|0:0,0:0:0:0:
278,157,98486,1,2,0:0:0:0:
241,182,98564,1,0,0:0:0:0:
196,178,98643,5,8,0:0:0:0:
394,76,98801,1,8,0:0:0:0:
372,300,98959,1,8,0:0:0:0:
255,107,99117,6,0,P|277:91|302:83,1,53.9999983520508
471,129,99433,1,0,0:0:0:0:
443,303,99591,2,0,P|420:318|395:326,1,53.9999983520508
123,259,99907,5,8,0:0:0:0:
293,204,100064,1,8,0:0:0:0:
443,303,100222,1,8,0:0:0:0:
209,237,100380,6,0,L|227:160,1,62.9999980773926,8|0,0:1|0:0,0:0:0:0:
347,148,100696,1,0,0:0:0:0:
445,227,100854,2,0,L|463:304,1,62.9999980773926,8|0,0:3|0:0,0:0:0:0:
171,270,101170,5,4,0:0:0:0:
154,278,101486,1,8,0:0:0:0:
263,146,101643,1,0,0:0:0:0:
363,310,101801,2,0,P|389:264|394:222,1,90
294,228,102117,2,0,P|268:182|263:140,1,90,8|0,0:0|0:0,0:0:0:0:
362,140,102433,6,0,B|377:123|383:99|383:99|402:92|450:108|477:98|477:98|491:77|501:68,3,180,4|8|0|8,0:0|0:0|0:0|0:0,0:0:0:0:
262,145,103696,6,0,P|270:189|294:228,1,90,4|0,0:0|0:0,0:0:0:0:
438,30,104012,1,8,0:0:0:0:
427,169,104170,1,0,0:0:0:0:
295,39,104328,2,0,P|253:56|218:82,1,90
156,235,104643,1,8,0:0:0:0:
307,152,104801,2,0,L|250:144,1,45
64,276,104959,6,0,B|96:265|129:280|129:280|160:297|195:280,1,135,4|0,0:0|0:0,0:0:0:0:
236,278,105275,1,8,0:0:0:0:
307,152,105433,1,2,0:0:0:0:
374,278,105591,1,0,0:0:0:0:
225,49,105907,1,8,0:0:0:0:
225,49,105986,1,0,0:0:0:0:
225,49,106064,1,0,0:0:0:0:
225,49,106143,1,0,0:0:0:0:
225,49,106222,6,0,B|262:77|262:77|343:59|387:101,1,180,4|2,0:0|0:0,0:0:0:0:
408,131,106617,1,0,0:0:0:0:
424,172,106695,1,0,0:0:0:0:
423,217,106774,1,0,0:0:0:0:
404,257,106854,2,0,L|365:293,3,45
243,217,107170,2,0,L|212:183,3,45,2|0|0|0,0:0|0:0|0:0|0:0,0:0:0:0:
181,150,107486,5,2,0:0:0:0:
149,117,107564,1,0,0:0:0:0:
122,88,107643,1,0,0:0:0:0:
166,101,107722,1,0,0:0:0:0:
209,112,107801,1,2,0:0:0:0:
254,120,107880,1,0,0:0:0:0:
299,122,107959,1,2,0:0:0:0:
343,117,108038,1,0,0:0:0:0:
387,105,108117,2,0,B|427:113|472:32|472:32|506:89|495:162|495:162|447:154|413:182,1,315,6|0,0:0|0:0,0:0:0:0:
434,168,108749,6,0,L|426:265,1,90
306,319,109380,2,0,L|298:222,1,90
113,105,110012,6,0,P|146:63|180:49,1,90
232,173,110643,2,0,P|265:215|299:229,1,90
130,303,111275,6,0,L|67:228,1,90
113,105,111906,2,0,L|187:167,1,90
397,105,112538,6,0,B|356:99|356:99|308:107,1,90
321,242,113170,2,0,B|280:247|280:247|232:239,1,90
256,8,113801,6,0,L|256:112,1,90
256,192,114275,1,0,0:0:0:0:
256,286,114433,2,0,L|256:376,1,90
144,208,115064,6,0,L|86:185,1,45
101,282,115380,2,0,L|159:305,1,45
136,199,115696,2,0,L|78:176,1,45
136,200,116170,1,4,0:0:0:0:
336,200,116328,5,0,0:0:0:0:
405,110,116643,1,0,0:0:0:0:
494,180,116959,1,0,0:0:0:0:
426,277,117275,1,0,0:0:0:0:
336,200,117591,1,0,0:0:0:0:
157,289,117907,6,0,B|181:292|181:292|200:270|200:270|225:280|225:280|238:259|238:259|259:277|259:277|284:289|324:274,1,161.999995056153
323,211,118222,6,0,P|293:148|221:104,1,148.50000453186
165,142,118538,6,0,B|133:171|101:172|101:172|105:138|93:86,1,135
146,54,118854,6,0,B|161:35|161:35|201:50|244:28,1,90
396,207,119169,1,2,0:0:0:0:
353,93,119327,1,0,0:0:0:0:
292,179,119485,2,0,P|257:222|138:215,1,180,0|2,0:0|0:0,0:0:0:0:
246,72,119959,1,0,0:0:0:0:
396,207,120117,6,0,L|381:395,1,180,0|2,0:0|0:0,0:0:0:0:
215,273,120591,1,0,0:0:0:0:
304,162,120748,1,0,0:0:0:0:
304,162,120906,1,0,0:0:0:0:
394,286,121064,2,0,P|452:298|497:259,1,90,2|0,0:0|0:0,0:0:0:0:
429,53,121380,5,0,0:0:0:0:
431,202,121538,1,0,0:0:0:0:
306,47,121696,1,2,0:0:0:0:
478,128,121854,1,0,0:0:0:0:
310,222,122012,2,0,B|222:197|222:197|122:207,1,180,0|2,0:0|0:0,0:0:0:0:
0,327,122485,1,0,0:0:0:0:
216,295,122643,6,0,L|305:302,1,90
217,126,122959,2,0,L|127:118,1,90,2|0,0:0|0:0,0:0:0:0:
380,230,123275,1,0,0:0:0:0:
363,64,123433,1,0,0:0:0:0:
258,227,123591,1,2,0:0:0:0:
431,140,123748,1,4,0:0:0:0:
351,295,123906,6,0,P|316:338|197:331,1,180,4|2,0:0|0:0,0:0:0:0:
345,199,124380,1,0,0:0:0:0:
206,91,124538,2,0,P|121:72|55:129,1,180,0|2,0:0|0:0,0:0:0:0:
77,298,125012,1,0,0:0:0:0:
345,225,125169,1,2,0:0:0:0:
328,193,125248,1,0,0:0:0:0:
298,172,125327,1,0,0:0:0:0:
263,163,125406,1,0,0:0:0:0:
228,172,125485,1,2,0:0:0:0:
196,189,125564,1,0,0:0:0:0:
160,196,125643,1,0,0:0:0:0:
124,189,125722,1,0,0:0:0:0:
94,169,125800,5,2,0:0:0:0:
289,77,125959,1,0,0:0:0:0:
271,237,126117,1,2,0:0:0:0:
132,66,126275,1,0,0:0:0:0:
48,288,126433,5,2,0:0:0:0:
94,305,126511,1,0,0:0:0:0:
143,311,126590,1,0,0:0:0:0:
191,303,126669,1,0,0:0:0:0:
236,283,126748,1,2,0:0:0:0:
283,267,126827,1,0,0:0:0:0:
332,264,126906,1,0,0:0:0:0:
381,271,126985,1,0,0:0:0:0:
429,284,127064,1,2,0:0:0:0:
454,246,127143,1,0,0:0:0:0:
467,198,127221,1,0,0:0:0:0:
464,149,127300,1,0,0:0:0:0:
447,103,127379,1,2,0:0:0:0:
401,120,127458,1,0,0:0:0:0:
352,124,127537,1,0,0:0:0:0:
304,112,127616,1,0,0:0:0:0:
261,87,127695,5,6,0:0:0:0:
256,192,127775,12,0,128959,0:0:0:0:
261,87,134012,5,4,0:0:0:0:
394,273,134327,1,2,0:0:0:0:
436,175,134485,1,0,0:0:0:0:
290,286,134643,1,2,0:0:0:0:
331,188,134801,1,0,0:0:0:0:
355,371,134959,1,2,0:0:0:0:
184,300,135117,1,0,0:0:0:0:
265,105,135275,5,2,0:0:0:0:
56,133,135433,1,0,0:0:0:0:
224,205,135591,1,2,0:0:0:0:
90,33,135748,1,0,0:0:0:0:
9,228,135906,1,10,0:0:0:0:
265,105,136064,1,8,0:0:0:0:
184,300,136222,1,10,0:0:0:0:
436,175,136380,1,8,0:0:0:0:
233,192,140801,5,2,0:0:0:0:
233,192,140880,1,0,0:0:0:0:
233,192,140959,1,0,0:0:0:0:
330,302,141117,1,2,0:0:0:0:
240,199,141433,1,2,0:0:0:0:
240,199,141512,1,0,0:0:0:0:
240,199,141591,6,0,B|204:231|204:231|158:216|111:174,1,135,4|0,0:0|0:0,0:0:0:0:
167,127,141907,2,0,L|210:47,1,90,8|2,1:2|0:0,0:0:0:0:
375,171,142222,1,0,0:0:0:0:
201,225,142380,1,2,0:0:0:0:
287,59,142538,1,8,1:2:0:0:
286,191,142696,1,0,0:0:0:0:
489,144,142854,6,0,P|440:126|392:72,1,90
263,149,143169,2,0,P|253:200|208:257,1,90,8|0,1:2|0:0,0:0:0:0:
423,314,143486,1,0,0:0:0:0:
381,193,143643,1,2,0:0:0:0:
222,326,143801,1,8,1:2:0:0:
350,308,143959,1,0,0:0:0:0:
129,216,144117,6,0,P|140:160|157:132,1,90
34,28,144433,2,0,P|45:84|62:112,1,90,8|2,1:2|0:0,0:0:0:0:
206,197,144749,1,0,0:0:0:0:
120,50,144907,1,2,0:0:0:0:
216,213,145064,1,8,1:2:0:0:
294,77,145222,1,0,0:0:0:0:
380,276,145380,6,0,L|400:176,1,90,0|2,0:0|0:0,0:0:0:0:
216,214,145696,1,8,1:2:0:0:
312,351,145854,1,2,0:0:0:0:
309,306,145932,1,0,0:0:0:0:
306,261,146012,1,0,0:0:0:0:
109,306,146170,1,2,0:0:0:0:
216,214,146328,1,8,1:2:0:0:
417,319,146486,1,0,0:0:0:0:
417,319,146564,1,0,0:0:0:0:
417,319,146643,6,0,P|426:259|412:182,1,135,4|0,0:0|0:0,0:0:0:0:
341,178,146959,2,0,B|300:192|300:192|253:191,1,90,8|2,1:2|0:0,0:0:0:0:
153,85,147275,2,0,P|115:65|81:25,2,90,0|2|8,0:0|0:0|1:2,0:0:0:0:
386,109,147749,1,0,0:0:0:0:
213,283,147907,6,0,L|76:260,1,135,4|0,0:0|0:0,0:0:0:0:
95,190,148222,2,0,B|134:161|195:158,1,90,8|2,1:2|0:0,0:0:0:0:
242,370,148538,1,0,0:0:0:0:
317,188,148696,1,2,0:0:0:0:
391,335,148854,1,8,1:2:0:0:
240,266,149012,1,0,0:0:0:0:
424,140,149170,6,0,P|400:83|377:62,1,90,4|0,0:0|0:0,0:0:0:0:
225,113,149486,1,8,1:2:0:0:
318,254,149643,1,2,0:0:0:0:
320,107,149801,1,0,0:0:0:0:
149,257,149959,1,2,0:0:0:0:
312,182,150117,1,8,1:2:0:0:
291,315,150275,1,0,0:0:0:0:
100,224,150433,5,4,0:0:0:0:
55,187,150511,1,0,0:0:0:0:
30,134,150590,1,0,0:0:0:0:
33,76,150669,1,0,0:0:0:0:
68,31,150748,1,8,0:0:0:0:
124,27,150827,1,0,0:0:0:0:
164,69,150906,1,2,0:0:0:0:
174,126,150985,1,0,0:0:0:0:
160,182,151064,5,4,0:0:0:0:
174,243,151143,1,0,0:0:0:0:
222,281,151221,1,2,0:0:0:0:
284,289,151300,1,0,0:0:0:0:
343,268,151379,1,12,0:1:0:0:
386,223,151458,1,0,0:0:0:0:
408,164,151537,1,10,0:0:0:0:
406,102,151616,1,0,0:0:0:0:
374,49,151695,5,4,0:0:0:0:
232,198,151854,1,0,0:0:0:0:
486,124,152012,1,8,1:2:0:0:
216,74,152170,1,2,0:0:0:0:
359,241,152328,2,0,P|318:278|261:295,1,90,0|2,0:0|0:0,0:0:0:0:
208,120,152643,1,8,1:2:0:0:
328,152,152801,1,0,0:0:0:0:
150,48,152959,6,0,P|88:104|76:158,1,135
148,161,153275,2,0,B|183:148|183:148|181:207,1,90,8|2,1:2|0:0,0:0:0:0:
196,343,153591,1,0,0:0:0:0:
39,248,153749,1,2,0:0:0:0:
231,275,153907,1,8,1:2:0:0:
98,305,154064,1,0,0:0:0:0:
191,63,154222,6,0,L|173:182,1,90
358,129,154538,1,8,1:2:0:0:
318,264,154696,2,0,B|278:240|278:240|254:202,1,90,2|0,0:0|0:0,0:0:0:0:
443,252,155012,1,2,0:0:0:0:
358,129,155170,1,8,1:2:0:0:
462,157,155328,1,0,0:0:0:0:
254,203,155486,6,0,P|199:205|120:256,1,135
180,296,155801,2,0,L|272:313,1,90,8|2,1:2|0:0,0:0:0:0:
311,321,156038,1,0,0:0:0:0:
358,330,156117,1,0,0:0:0:0:
280,191,156275,1,2,0:0:0:0:
414,260,156433,1,8,1:2:0:0:
371,128,156591,1,0,0:0:0:0:
166,205,156749,6,0,P|123:188|91:158,1,90,4|0,0:0|0:0,0:0:0:0:
120,17,157064,2,0,P|163:34|195:64,1,90,8|2,1:2|0:0,0:0:0:0:
93,303,157380,1,0,0:0:0:0:
265,161,157538,1,2,0:0:0:0:
461,225,157696,1,8,1:2:0:0:
268,264,157854,1,0,0:0:0:0:
285,41,158012,6,0,P|325:78|336:162,1,135,4|0,0:0|0:0,0:0:0:0:
265,161,158328,2,0,B|217:156|217:156|162:163,1,90,8|2,1:2|0:0,0:0:0:0:
322,345,158643,1,0,0:0:0:0:
136,297,158801,1,2,0:0:0:0:
346,252,158959,1,8,1:2:0:0:
94,281,159117,1,0,0:0:0:0:
94,281,159196,1,0,0:0:0:0:
94,281,159275,6,0,P|85:219|94:183,1,90,4|10,0:0|0:0,0:0:0:0:
100,148,159670,1,0,0:0:0:0:
144,155,159748,1,10,0:0:0:0:
188,152,159827,1,0,0:0:0:0:
231,138,159907,6,0,B|264:117|264:117|296:147|342:140,1,107.999996704102,4|10,0:0|0:0,0:0:0:0:
380,146,160301,1,0,0:0:0:0:
416,185,160379,1,10,0:0:0:0:
433,236,160458,1,0,0:0:0:0:
428,289,160538,6,0,P|362:282|302:295,1,125.999996154785,4|10,0:0|0:0,0:0:0:0:
240,293,160933,1,0,0:0:0:0:
179,276,161011,1,10,0:0:0:0:
134,233,161090,1,0,0:0:0:0:
115,174,161170,6,0,L|144:120,1,45,14|0,0:0|0:0,0:0:0:0:
282,69,161328,2,0,L|253:123,1,45,2|0,0:0|0:0,0:0:0:0:
287,266,161486,2,0,L|316:212,1,45,10|0,0:0|0:0,0:0:0:0:
454,161,161644,2,0,L|425:215,1,45,2|0,0:0|0:0,0:0:0:0:
241,338,161801,6,0,L|143:306,1,90,4|0,0:0|0:0,0:0:0:0:
143,306,162038,1,0,0:0:0:0:
127,301,162117,1,2,0:0:0:0:
112,296,162196,1,0,0:0:0:0:
97,291,162275,1,14,0:0:0:0:
28,122,162433,1,0,0:0:0:0:
216,160,162591,1,0,0:0:0:0:
224,168,162670,1,0,0:0:0:0:
232,176,162749,1,2,0:0:0:0:
240,184,162828,1,0,0:0:0:0:
248,192,162907,1,2,0:0:0:0:
256,200,162986,1,0,0:0:0:0:
264,208,163064,6,0,L|357:227,1,90,4|0,0:0|0:0,0:0:0:0:
365,230,163301,1,0,0:0:0:0:
378,233,163380,1,2,0:0:0:0:
371,134,163538,2,0,P|320:120|186:150,1,180,4|0,0:0|0:0,0:0:0:0:
187,152,163933,1,0,0:0:0:0:
178,162,164012,1,10,0:0:0:0:
174,336,164170,1,2,0:0:0:0:
351,234,164329,5,6,0:0:0:0:
368,219,164407,1,0,0:0:0:0:
383,202,164486,1,0,0:0:0:0:
395,184,164565,1,0,0:0:0:0:
404,163,164644,1,2,0:0:0:0:
410,141,164723,1,0,0:0:0:0:
413,119,164802,1,0,0:0:0:0:
412,97,164881,1,0,0:0:0:0:
408,75,164960,5,2,0:0:0:0:
375,85,165038,1,0,0:0:0:0:
342,91,165117,1,0,0:0:0:0:
308,92,165196,1,0,0:0:0:0:
275,90,165275,1,2,0:0:0:0:
242,84,165354,1,0,0:0:0:0:
210,74,165433,1,0,0:0:0:0:
179,59,165512,1,0,0:0:0:0:
150,42,165592,6,0,P|116:130|146:238,1,180,2|6,0:0|0:0,0:0:0:0:
155,250,165986,1,0,0:0:0:0:
199,257,166064,1,0,0:0:0:0:
243,265,166143,1,0,0:0:0:0:
287,273,166222,6,0,L|332:281,1,45,2|0,0:0|0:0,0:0:0:0:
229,138,166380,2,0,L|182:133,1,45,2|0,0:0|0:0,0:0:0:0:
331,280,166538,1,2,0:0:0:0:
320,332,166616,1,0,0:0:0:0:
281,368,166695,1,2,0:0:0:0:
228,375,166774,1,0,0:0:0:0:
181,351,166853,1,2,0:0:0:0:
188,99,167170,5,2,0:0:0:0:
201,131,167801,5,2,0:0:0:0:
211,165,168433,5,2,0:0:0:0:
222,199,169064,5,2,0:0:0:0:
155,54,169380,1,4,0:0:0:0:
365,116,169696,5,2,0:0:0:0:
191,208,169854,1,0,0:0:0:0:
348,220,170012,1,2,0:0:0:0:
233,84,170170,1,0,0:0:0:0:
168,272,170328,1,2,0:0:0:0:
313,156,170486,1,0,0:0:0:0:
104,112,170643,5,10,0:0:0:0:
245,299,170801,1,0,0:0:0:0:
315,94,170959,1,2,0:0:0:0:
88,216,171117,1,8,0:0:0:0:
358,282,171275,1,4,0:0:0:0:
341,250,171353,1,0,0:0:0:0:
329,216,171432,1,0,0:0:0:0:
326,181,171511,1,0,0:0:0:0:
332,145,171590,1,4,0:0:0:0:
346,112,171669,1,0,0:0:0:0:
354,77,171748,1,0,0:0:0:0:
353,41,171827,1,0,0:0:0:0:
346,6,171907,6,0,P|262:32|204:29,1,135,4|0,0:1|0:0,0:0:0:0:
145,44,172222,2,0,L|173:141,1,90,12|2,1:2|0:0,0:0:0:0:
224,285,172538,1,0,0:0:0:0:
116,195,172696,1,2,0:0:0:0:
285,162,172854,1,8,1:2:0:0:
309,323,173012,1,0,0:0:0:0:
133,358,173169,6,0,P|133:313|148:270,1,90,0|2,0:2|0:0,0:0:0:0:
227,162,173486,2,0,P|242:205|242:250,1,90,8|2,1:2|0:0,0:0:0:0:
341,105,173801,1,0,0:0:0:0:
362,283,173959,1,2,0:0:0:0:
227,162,174117,1,8,1:2:0:0:
358,184,174275,1,0,0:0:0:0:
143,186,174433,6,0,L|165:99,1,90,0|2,0:0|0:0,0:0:0:0:
167,257,174749,2,0,P|122:258|85:235,1,90,8|0,1:2|0:0,0:0:0:0:
262,310,175064,1,0,0:0:0:0:
298,177,175222,1,2,0:0:0:0:
186,200,175380,1,8,1:2:0:0:
358,224,175538,1,0,0:0:0:0:
353,105,175696,6,0,P|315:71|222:68,1,135
216,134,176012,2,0,P|245:181|318:221,1,135,8|0,1:2|0:0,0:0:0:0:
385,227,176328,2,0,P|391:284|348:355,1,135
282,340,176643,2,0,P|234:313|146:319,1,135,8|0,1:2|0:0,0:0:0:0:
98,231,176959,5,4,0:1:0:0:
353,105,177275,1,4,0:0:0:0:
302,258,177591,5,2,0:0:0:0:
119,108,177907,1,10,1:2:0:0:
301,139,178222,1,6,0:0:0:0:
219,252,178538,2,0,B|176:232|152:248|152:248|128:240|128:240|101:259|57:251|57:251|63:211|96:187,1,233.999989288331,2|2,0:0|0:0,0:0:0:0:
301,139,179170,1,2,0:0:0:0:
256,192,179249,12,0,182012,0:0:0:0:
