osu file format v14

[General]
AudioFilename: audio.mp3
AudioLeadIn: 0
PreviewTime: 57215
Countdown: 1
SampleSet: Soft
StackLeniency: 0.7
Mode: 0
LetterboxInBreaks: 0
WidescreenStoryboard: 0

[Editor]
Bookmarks: 96981
DistanceSpacing: 0.8
BeatDivisor: 8
GridSize: 16
TimelineZoom: 1.1

[Metadata]
Title:Rinne Tenshou ( Short Ver.)
TitleUnicode:Rinne Tenshou ( Short Ver.)
Artist:Mafumafu
ArtistUnicode:Mafumafu
Creator:Akumaii
Version:Extra
Source:
Tags:
BeatmapID:1659556
BeatmapSetID:790982

[Difficulty]
HPDrainRate:6
CircleSize:4
OverallDifficulty:7
ApproachRate:9.2
SliderMultiplier:1.4
SliderTickRate:1

[Events]
//Background and Video events
0,0,"maxresdefault.jpg",0,0
//Break Periods
//Storyboard Layer 0 (Background)
//Storyboard Layer 1 (Fail)
//Storyboard Layer 2 (Pass)
//Storyboard Layer 3 (Foreground)
//Storyboard Sound Samples

[TimingPoints]
2350,315.789473684211,4,2,0,100,1,0
57771,-100,4,2,0,100,0,1
67757,-100,4,2,0,100,0,0

[HitObjects]
272,64,2350,5,0,0:0:0:0:
112,80,2665,1,2,0:0:0:0:
144,192,2823,5,8,0:0:0:0:
320,256,2981,1,8,0:0:0:0:
400,80,3244,1,0,0:0:0:0:
355,65,3349,1,0,0:0:0:0:
309,62,3454,1,0,0:0:0:0:
263,70,3559,1,0,0:0:0:0:
224,160,3771,1,0,0:0:0:0:
144,80,3928,1,0,0:0:0:0:
112,160,4244,6,2,P|80:240|96:288,1,140,4|2,0:0|0:0,0:0:0:0:
256,304,4639,1,0,0:0:0:0:
256,304,4718,1,0,0:0:0:0:
256,304,4797,1,0,0:0:0:0:
384,208,4955,1,0,0:0:0:0:
304,112,5113,1,0,0:0:0:0:
160,64,5271,1,0,0:0:0:0:
128,144,5428,6,4,P|80:192|80:224,1,70
64,240,5744,1,0,0:0:0:0:
192,304,6060,1,0,0:0:0:0:
304,240,6244,1,0,0:0:0:0:
336,208,6297,1,0,0:0:0:0:
368,176,6350,1,0,0:0:0:0:
272,96,6665,5,0,0:0:0:0:
192,112,6968,1,0,0:0:0:0:
112,192,7126,1,0,0:0:0:0:
112,192,7205,1,0,0:0:0:0:
112,192,7284,1,0,0:0:0:0:
112,288,7442,1,0,0:0:0:0:
176,336,7613,1,0,0:0:0:0:
256,320,7718,5,0,0:0:0:0:
432,288,7876,1,0,0:0:0:0:
384,160,8034,1,0,0:0:0:0:
288,80,8192,1,0,0:0:0:0:
160,80,8350,1,0,0:0:0:0:
64,192,8507,1,0,0:0:0:0:
160,272,8666,1,0,0:0:0:0:
160,272,8705,1,0,0:0:0:0:
160,272,8784,2,0,P|208:320|224:320,1,70
320,288,9139,6,4,P|384:272|400:192,1,140
320,96,9573,1,0,0:0:0:0:
320,96,9652,1,0,0:0:0:0:
320,96,9731,1,0,0:0:0:0:
192,128,9889,1,0,0:0:0:0:
160,192,10047,6,2,L|96:240,1,70
192,320,10323,1,0,0:0:0:0:
352,288,10481,1,0,0:0:0:0:
384,208,10639,1,0,0:0:0:0:
384,128,10797,2,2,P|368:80|336:64,1,70
288,48,11113,1,0,0:0:0:0:
240,112,11271,1,0,0:0:0:0:
160,48,11586,1,0,0:0:0:0:
128,112,11902,1,0,0:0:0:0:
128,224,12034,6,2,L|176:240,2,35
208,240,12336,1,0,0:0:0:0:
352,256,12494,1,0,0:0:0:0:
352,144,12613,1,0,0:0:0:0:
352,144,12692,1,0,0:0:0:0:
352,144,12771,1,0,0:0:0:0:
208,96,12928,1,0,0:0:0:0:
112,64,13086,2,0,P|64:128|64:144,1,70
192,160,13402,1,0,0:0:0:0:
112,272,13560,1,0,0:0:0:0:
144,304,13718,6,8,P|208:336|272:288,1,140
464,272,14350,1,0,0:0:0:0:
432,144,14468,1,0,0:0:0:0:
400,112,14546,1,0,0:0:0:0:
368,96,14626,1,0,0:0:0:0:
272,96,14784,1,0,0:0:0:0:
224,128,14942,2,2,L|160:160,1,70
112,224,15218,6,4,P|80:256|80:288,1,70
192,320,15534,1,0,0:0:0:0:
288,320,15692,1,0,0:0:0:0:
288,224,15850,1,0,0:0:0:0:
384,224,16007,1,0,0:0:0:0:
384,224,16086,1,0,0:0:0:0:
384,224,16165,1,0,0:0:0:0:
400,112,16481,6,0,P|352:80|272:64,1,140
208,64,16915,2,0,L|144:64,2,35
256,160,17244,1,0,0:0:0:0:
208,272,17402,1,0,0:0:0:0:
288,304,17560,1,0,0:0:0:0:
400,320,17718,1,0,0:0:0:0:
416,240,17863,1,0,0:0:0:0:
400,160,17981,2,0,P|400:112|384:80,1,70
272,144,18297,6,0,P|240:192|240:224,1,70
224,256,18534,1,0,0:0:0:0:
192,288,18613,1,0,0:0:0:0:
352,320,18928,2,0,P|416:272|432:208,1,140
432,176,19363,1,0,0:0:0:0:
416,128,19442,1,0,0:0:0:0:
384,96,19521,1,0,0:0:0:0:
272,64,19665,1,0,0:0:0:0:
224,176,19823,1,0,0:0:0:0:
336,288,19981,1,0,0:0:0:0:
64,336,20139,5,0,0:0:0:0:
176,304,20297,1,0,0:0:0:0:
144,272,20402,1,0,0:0:0:0:
115,234,20507,1,0,0:0:0:0:
101,190,20613,1,0,0:0:0:0:
96,144,20718,1,0,0:0:0:0:
117,100,20823,1,0,0:0:0:0:
146,64,20929,1,0,0:0:0:0:
186,39,21034,1,0,0:0:0:0:
336,48,21086,1,0,0:0:0:0:
448,320,21244,1,0,0:0:0:0:
352,320,23034,6,0,L|288:320,2,46.6666666666667
176,288,23507,1,0,0:0:0:0:
96,224,23665,2,0,P|64:176|64:144,1,70
160,128,23981,2,0,P|192:160|192:192,1,70
240,240,24402,1,0,0:0:0:0:
288,272,24560,1,0,0:0:0:0:
400,288,24718,2,0,P|432:240|432:208,1,70
432,128,25034,6,0,P|416:80|384:64,1,70
240,80,25350,1,0,0:0:0:0:
128,208,25665,1,0,0:0:0:0:
192,272,25823,1,0,0:0:0:0:
304,320,25981,2,0,L|384:272,1,93.3333333333333
416,256,26402,1,0,0:0:0:0:
432,208,26507,1,0,0:0:0:0:
416,160,26560,1,0,0:0:0:0:
368,96,26863,6,0,P|320:48|304:48,1,70
208,64,27192,2,0,P|144:80|128:96,1,70
128,128,27507,1,0,0:0:0:0:
112,224,27665,1,0,0:0:0:0:
144,272,27810,1,0,0:0:0:0:
192,320,27928,2,0,P|256:320|304:272,1,116.666666666667
352,256,28521,6,0,P|384:224|384:176,1,93.3333333333333
368,144,28876,1,0,0:0:0:0:
288,96,29034,1,0,0:0:0:0:
160,64,29350,2,0,P|112:80|96:112,1,70
80,240,29665,1,0,0:0:0:0:
176,304,29928,1,0,0:0:0:0:
176,304,30060,1,0,0:0:0:0:
224,320,30192,2,0,B|288:320|320:288|320:288|320:240,1,140
256,160,30665,5,0,0:0:0:0:
192,144,30823,1,0,0:0:0:0:
80,192,30981,2,0,P|32:240|32:256,1,70
112,320,31297,1,0,0:0:0:0:
224,288,31455,1,0,0:0:0:0:
320,256,31757,2,0,P|384:224|384:192,1,93.3333333333333
208,80,32086,5,0,0:0:0:0:
96,224,32244,1,0,0:0:0:0:
208,320,32402,1,0,0:0:0:0:
400,240,32507,1,0,0:0:0:0:
320,144,32718,6,0,P|288:64|272:48,1,93.3333333333333
224,64,33086,1,0,0:0:0:0:
192,96,33139,1,0,0:0:0:0:
160,128,33192,1,0,0:0:0:0:
144,176,33244,1,0,0:0:0:0:
144,256,33402,6,0,P|96:272|80:304,1,70
64,336,33718,1,0,0:0:0:0:
272,320,33928,1,0,0:0:0:0:
352,288,34086,1,0,0:0:0:0:
384,192,34244,2,0,P|400:160|384:128,1,70
256,48,34507,1,0,0:0:0:0:
144,112,34665,1,0,0:0:0:0:
128,192,34823,1,0,0:0:0:0:
160,256,34981,5,0,0:0:0:0:
208,304,35139,2,0,P|256:336|272:320,1,70
352,320,35455,2,0,P|400:320|416:288,1,70
416,240,35771,1,0,0:0:0:0:
352,128,35916,5,0,0:0:0:0:
320,96,35969,1,0,0:0:0:0:
288,64,36021,1,0,0:0:0:0:
240,48,36192,1,0,0:0:0:0:
176,48,36350,2,0,P|112:80|80:144,1,140
64,192,36823,1,0,0:0:0:0:
64,240,36968,2,0,P|112:304|128:304,1,93.3333333333333
224,304,37297,5,0,0:0:0:0:
288,272,37455,1,0,0:0:0:0:
368,224,37613,1,0,0:0:0:0:
352,96,37771,1,0,0:0:0:0:
240,64,38034,2,0,P|160:48|144:64,1,93.3333333333333
112,96,38350,1,0,0:0:0:0:
96,224,38613,6,0,P|112:288|144:304,1,93.3333333333333
272,320,38981,1,0,0:0:0:0:
400,224,39086,1,0,0:0:0:0:
352,80,39244,1,0,0:0:0:0:
288,64,39402,2,0,P|224:48|208:48,1,70
144,64,39718,6,0,P|96:80|80:96,1,70
64,160,40034,2,0,P|32:240|32:288,1,116.666666666667
112,320,40455,1,0,0:0:0:0:
240,336,40613,1,0,0:0:0:0:
432,256,40771,1,0,0:0:0:0:
432,128,40928,1,0,0:0:0:0:
320,48,41086,1,0,0:0:0:0:
240,48,41244,6,0,P|176:96|160:160,1,140
320,320,41718,1,0,0:0:0:0:
384,160,42034,1,0,0:0:0:0:
240,64,42192,1,0,0:0:0:0:
128,160,42350,2,0,P|80:192|64:208,1,70
208,320,42665,1,0,0:0:0:0:
352,304,42771,1,0,0:0:0:0:
416,240,42928,5,0,0:0:0:0:
432,192,42981,1,0,0:0:0:0:
434,157,43034,1,0,0:0:0:0:
423,124,43086,1,0,0:0:0:0:
304,96,43244,2,0,P|224:80|192:96,1,116.666666666667
128,192,43718,1,0,0:0:0:0:
256,320,43876,1,0,0:0:0:0:
352,208,44034,2,0,P|400:192|416:160,1,70
352,80,44350,5,0,0:0:0:0:
240,160,44507,1,0,0:0:0:0:
224,48,44613,1,0,0:0:0:0:
128,48,44771,2,0,L|64:96,1,70
96,240,45086,1,0,0:0:0:0:
144,304,45244,2,0,P|192:352|224:352,1,93.3333333333333
352,320,45665,1,0,0:0:0:0:
400,208,45823,1,0,0:0:0:0:
320,64,45981,1,0,0:0:0:0:
144,80,46139,6,0,P|96:144|96:208,1,140
192,288,46613,1,0,0:0:0:0:
256,320,46771,1,0,0:0:0:0:
256,208,46928,1,0,0:0:0:0:
368,224,47086,1,0,0:0:0:0:
320,176,47402,1,0,0:0:0:0:
320,80,47560,1,0,0:0:0:0:
224,160,47718,1,0,0:0:0:0:
160,64,47823,1,0,0:0:0:0:
224,224,47981,1,0,0:0:0:0:
272,272,48139,6,0,P|336:304|368:304,1,93.3333333333333
400,256,48455,1,0,0:0:0:0:
432,208,48613,1,0,0:0:0:0:
384,112,48771,1,0,0:0:0:0:
272,48,48928,1,0,0:0:0:0:
160,112,49086,1,0,0:0:0:0:
208,192,49192,1,0,0:0:0:0:
160,256,49350,1,0,0:0:0:0:
208,304,49455,6,0,P|240:336|272:336,1,70
368,272,49876,1,0,0:0:0:0:
320,224,50034,1,0,0:0:0:0:
336,160,50139,1,0,0:0:0:0:
240,112,50297,2,0,P|176:96|160:96,1,70
112,240,50560,1,0,0:0:0:0:
176,288,50718,1,0,0:0:0:0:
272,304,50876,2,0,L|320:320,1,46.6666666666667
336,256,51086,1,0,0:0:0:0:
400,256,51297,1,0,0:0:0:0:
336,160,51507,6,0,P|272:144|256:144,1,70
160,208,51823,1,0,0:0:0:0:
96,320,51981,1,0,0:0:0:0:
32,160,52139,1,0,0:0:0:0:
144,48,52297,1,0,0:0:0:0:
240,96,52455,2,0,P|272:112|304:144,1,70
240,304,52876,5,0,0:0:0:0:
448,80,53507,1,0,0:0:0:0:
160,144,53981,1,0,0:0:0:0:
144,272,54244,1,0,0:0:0:0:
240,272,54402,1,0,0:0:0:0:
320,240,54560,1,0,0:0:0:0:
352,128,54718,1,0,0:0:0:0:
256,80,54876,1,0,0:0:0:0:
144,64,55034,1,0,0:0:0:0:
96,224,55192,6,0,P|144:304|160:304,1,116.666666666667
336,240,55600,1,0,0:0:0:0:
336,80,55771,1,0,0:0:0:0:
160,96,55928,1,0,0:0:0:0:
320,224,56192,1,0,0:0:0:0:
368,128,56350,1,0,0:0:0:0:
144,64,56665,1,0,0:0:0:0:
80,240,56823,1,0,0:0:0:0:
272,304,57034,1,0,0:0:0:0:
416,224,57257,6,0,P|464:176|480:144,1,93.3333333333333
336,112,57771,2,0,P|256:48|208:48,1,140
96,160,58244,1,0,0:0:0:0:
224,288,58402,1,0,0:0:0:0:
352,288,58521,2,0,L|464:224,1,116.666666666667
288,64,58876,1,0,0:0:0:0:
96,144,59034,1,0,0:0:0:0:
224,320,59192,1,0,0:0:0:0:
384,288,59350,6,0,P|400:288|432:256,1,46.6666666666667
368,96,59613,1,0,0:0:0:0:
128,64,59942,2,0,P|80:96|64:128,1,93.3333333333333
160,304,60244,1,0,0:0:0:0:
352,208,60560,1,0,0:0:0:0:
240,48,60718,1,0,0:0:0:0:
112,160,60876,2,0,P|80:208|80:240,1,70
208,320,61297,1,0,0:0:0:0:
432,128,61600,1,0,0:0:0:0:
224,64,61771,6,0,P|160:64|144:80,1,70
192,272,62086,1,0,0:0:0:0:
400,272,62402,2,0,P|448:224|448:208,1,70
320,80,62718,1,0,0:0:0:0:
128,208,62981,1,0,0:0:0:0:
224,288,63139,1,0,0:0:0:0:
432,320,63455,6,0,P|448:288|448:192,1,116.666666666667
272,80,64086,1,0,0:0:0:0:
176,160,64244,1,0,0:0:0:0:
128,288,64402,2,0,P|160:320|192:336,1,70
352,224,64823,1,0,0:0:0:0:
224,48,64981,1,0,0:0:0:0:
112,288,65139,1,0,0:0:0:0:
368,304,65455,6,0,P|416:304|448:288,1,70
240,64,65876,1,0,0:0:0:0:
96,320,66244,1,0,0:0:0:0:
416,240,66534,1,0,0:0:0:0:
256,80,66692,1,0,0:0:0:0:
80,224,66850,1,0,0:0:0:0:
288,304,67034,1,0,0:0:0:0:
400,128,67192,1,0,0:0:0:0:
160,64,67297,1,0,0:0:0:0:
80,336,67442,1,0,0:0:0:0:
448,224,67600,1,0,0:0:0:0:
320,80,67915,5,0,0:0:0:0:
176,48,68034,1,0,0:0:0:0:
96,288,68192,1,0,0:0:0:0:
368,240,68350,1,0,0:0:0:0:
336,128,68665,2,0,P|320:112|272:80,1,70
96,208,68981,1,0,0:0:0:0:
256,304,69139,1,0,0:0:0:0:
432,96,69297,1,0,0:0:0:0:
144,48,69455,1,0,0:0:0:0:
96,192,69731,6,0,P|64:224|48:256,1,70
288,304,70034,1,0,0:0:0:0:
432,96,70350,1,0,0:0:0:0:
176,64,70507,2,0,P|144:80|112:128,1,93.3333333333333
48,288,70955,1,0,0:0:0:0:
224,288,71139,1,0,0:0:0:0:
368,96,71402,1,0,0:0:0:0:
192,32,71560,1,0,0:0:0:0:
384,208,71718,1,0,0:0:0:0:
176,288,71876,1,0,0:0:0:0:
160,320,72192,6,0,P|112:272|112:240,1,87.5
192,192,72534,1,0,0:0:0:0:
336,128,72823,1,0,0:0:0:0:
304,208,72981,1,0,0:0:0:0:
256,288,73139,1,0,0:0:0:0:
128,128,73350,1,0,0:0:0:0:
256,112,73507,1,0,0:0:0:0:
384,96,73665,1,0,0:0:0:0:
400,304,73823,1,0,0:0:0:0:
288,256,73981,1,0,0:0:0:0:
176,192,74113,1,0,0:0:0:0:
400,64,74297,1,0,0:0:0:0:
256,176,74613,5,0,0:0:0:0:
336,320,74928,1,0,0:0:0:0:
192,288,75086,1,0,0:0:0:0:
112,160,75244,1,0,0:0:0:0:
288,80,75402,1,0,0:0:0:0:
416,192,75560,1,0,0:0:0:0:
288,320,75718,1,0,0:0:0:0:
128,160,75823,6,0,P|96:80|144:48,1,140
448,48,76297,1,0,0:0:0:0:
208,288,76507,1,0,0:0:0:0:
256,96,76771,1,0,0:0:0:0:
464,336,77086,1,0,0:0:0:0:
160,288,77244,1,0,0:0:0:0:
384,48,77402,1,0,0:0:0:0:
96,304,78613,5,0,0:0:0:0:
64,64,78771,1,0,0:0:0:0:
208,144,78889,1,0,0:0:0:0:
336,256,79086,1,0,0:0:0:0:
496,288,79244,1,0,0:0:0:0:
384,96,79402,1,0,0:0:0:0:
160,64,79560,1,0,0:0:0:0:
64,272,79797,6,0,P|112:176|144:160,1,140
176,336,80428,1,0,0:0:0:0:
224,224,80586,1,0,0:0:0:0:
224,224,80665,1,0,0:0:0:0:
224,224,80743,1,0,0:0:0:0:
320,256,80902,1,0,0:0:0:0:
368,224,81060,6,0,P|400:192|416:160,1,70
352,96,81376,1,0,0:0:0:0:
256,112,81534,1,0,0:0:0:0:
160,144,81692,1,0,0:0:0:0:
96,240,81850,1,0,0:0:0:0:
176,304,82007,2,0,P|208:320|240:320,1,52.5
320,304,82205,1,0,0:0:0:0:
352,288,82284,1,0,0:0:0:0:
416,208,82600,5,0,0:0:0:0:
400,128,82876,2,0,P|368:80|352:80,1,70
304,80,83113,1,0,0:0:0:0:
256,96,83192,1,0,0:0:0:0:
208,128,83350,1,0,0:0:0:0:
160,192,83507,1,0,0:0:0:0:
208,288,83665,1,0,0:0:0:0:
288,320,83823,6,0,P|336:320|368:304,1,70
448,240,84100,1,0,0:0:0:0:
400,128,84257,1,0,0:0:0:0:
304,64,84415,2,0,P|256:48|224:48,1,70
192,64,84665,1,0,0:0:0:0:
192,64,84731,1,0,0:0:0:0:
144,96,85047,1,0,0:0:0:0:
96,192,85323,1,0,0:0:0:0:
160,288,85481,6,0,L|208:288,2,35
256,288,85797,1,0,0:0:0:0:
352,272,85955,2,0,P|400:256|432:240,1,70
448,176,86271,1,0,0:0:0:0:
368,112,86428,1,0,0:0:0:0:
272,80,86586,1,0,0:0:0:0:
192,80,86705,2,0,P|128:96|112:112,1,70
80,176,87034,1,0,0:0:0:0:
128,240,87178,5,0,0:0:0:0:
192,304,87494,1,0,0:0:0:0:
320,288,87810,1,0,0:0:0:0:
384,208,87968,1,0,0:0:0:0:
384,208,88047,1,0,0:0:0:0:
384,208,88126,1,0,0:0:0:0:
400,80,88244,1,0,0:0:0:0:
336,32,88402,1,0,0:0:0:0:
272,64,88560,1,0,0:0:0:0:
224,96,88717,5,0,0:0:0:0:
176,128,88876,1,0,0:0:0:0:
144,176,89034,2,0,P|112:224|112:240,1,70
160,304,89350,2,0,P|192:320|208:320,1,46.6666666666667
400,240,89626,1,0,0:0:0:0:
352,96,89942,1,0,0:0:0:0:
288,80,90218,2,0,P|256:80|240:96,1,52.5
208,144,90402,2,0,L|189:185,2,35
176,208,90692,1,0,0:0:0:0:
224,288,90850,1,0,0:0:0:0:
416,208,91007,1,0,0:0:0:0:
352,112,91165,1,0,0:0:0:0:
240,80,91323,1,0,0:0:0:0:
128,112,91481,1,0,0:0:0:0:
96,192,91639,2,0,P|80:224|80:272,1,70
128,304,91915,1,0,0:0:0:0:
176,320,91994,1,0,0:0:0:0:
224,320,92073,1,0,0:0:0:0:
320,288,92389,2,0,P|384:272|400:256,1,87.5
416,176,92705,1,0,0:0:0:0:
368,80,92823,1,0,0:0:0:0:
368,80,92903,1,0,0:0:0:0:
368,80,92981,1,0,0:0:0:0:
272,80,93139,1,0,0:0:0:0:
240,192,93297,1,0,0:0:0:0:
160,240,93455,1,0,0:0:0:0:
96,128,93613,1,0,0:0:0:0:
208,96,93771,2,0,P|224:80|272:80,1,70
304,96,94086,1,0,0:0:0:0:
368,192,94244,1,0,0:0:0:0:
224,256,94363,1,0,0:0:0:0:
224,256,94441,1,0,0:0:0:0:
224,256,94521,1,0,0:0:0:0:
160,176,94836,2,0,L|128:112,1,70
160,48,95152,1,0,0:0:0:0:
256,48,95271,2,0,L|288:80,2,35
320,96,95586,1,0,0:0:0:0:
384,224,95744,1,0,0:0:0:0:
304,336,95902,1,0,0:0:0:0:
176,272,96060,1,0,0:0:0:0:
128,128,96218,1,0,0:0:0:0:
256,48,96376,1,0,0:0:0:0:
384,144,96534,2,0,P|432:160|448:176,1,70
400,272,96850,1,0,0:0:0:0:
208,304,96968,1,0,0:0:0:0:
288,64,97126,1,0,0:0:0:0:
