osu file format v14

[General]
AudioFilename: audio.mp3
AudioLeadIn: 0
PreviewTime: 57215
Countdown: 1
SampleSet: Soft
StackLeniency: 0.7
Mode: 0
LetterboxInBreaks: 0
EpilepsyWarning: 1
WidescreenStoryboard: 0

[Editor]
Bookmarks: 96981
DistanceSpacing: 1
BeatDivisor: 4
GridSize: 16
TimelineZoom: 1.1

[Metadata]
Title:Rinne Tensei (Short Ver.)
TitleUnicode:Rinne Tensei (Short Ver.)
Artist:Mafumafu
ArtistUnicode:Mafumafu
Creator:Akumaii
Version:Extra
Source:
Tags:Mafumafu Ressurection Rinne Tensei Rinne Tenshou Vocaloid Female Anime Reincarnation
BeatmapID:1660391
BeatmapSetID:791439

[Difficulty]
HPDrainRate:6
CircleSize:4
OverallDifficulty:8
ApproachRate:9.2
SliderMultiplier:1.4
SliderTickRate:1

[Events]
//Background and Video events
0,0,"maxresdefault.jpg",0,0
Video,0,"[MV] 輪廻転生まふまふ [オリジナル曲].mp4"
//Break Periods
//Storyboard Layer 0 (Background)
//Storyboard Layer 1 (Fail)
//Storyboard Layer 2 (Pass)
//Storyboard Layer 3 (Foreground)
//Storyboard Sound Samples

[TimingPoints]
3966,306.122448979592,4,2,0,100,1,0
36261,306.122448979592,4,2,0,100,1,0
43072,306.122448979592,4,2,0,100,1,0
57771,-100,4,2,0,100,0,1
67757,-100,4,2,0,100,0,0

[HitObjects]
283,57,2435,6,2,P|214:80|186:100,1,105
144,192,2894,1,8,0:0:0:0:
320,256,3047,1,8,0:0:0:0:
368,176,3277,2,14,L|384:128,1,35
355,65,3430,1,0,0:0:0:0:
263,70,3659,1,0,0:0:0:0:
208,144,3812,1,0,0:0:0:0:
176,112,3889,1,0,0:0:0:0:
144,80,3966,1,0,0:0:0:0:
112,160,4272,6,2,P|80:240|96:288,1,140,4|2,0:0|0:0,0:0:0:0:
256,304,4731,1,0,0:0:0:0:
256,304,4807,1,0,0:0:0:0:
256,304,4884,1,0,0:0:0:0:
384,208,5037,1,0,0:0:0:0:
316,135,5190,1,0,0:0:0:0:
241,88,5343,1,0,0:0:0:0:
128,144,5496,6,4,P|80:192|80:224,1,70
64,240,5784,1,0,0:0:0:0:
96,336,5955,1,0,0:0:0:0:
199,315,6108,1,0,0:0:0:0:
291,253,6261,1,0,0:0:0:0:
291,253,6338,1,0,0:0:0:0:
291,253,6414,1,0,0:0:0:0:
272,96,6721,5,0,0:0:0:0:
192,112,7007,1,0,0:0:0:0:
118,179,7180,1,0,0:0:0:0:
118,179,7256,1,0,0:0:0:0:
118,179,7333,1,0,0:0:0:0:
112,288,7486,1,0,0:0:0:0:
176,336,7639,1,0,0:0:0:0:
256,320,7792,5,0,0:0:0:0:
374,279,7945,1,0,0:0:0:0:
384,160,8098,1,0,0:0:0:0:
299,79,8251,2,0,P|251:63|235:63,1,35
155,86,8404,1,0,0:0:0:0:
95,173,8557,1,0,0:0:0:0:
147,260,8710,1,0,0:0:0:0:
147,260,8787,1,0,0:0:0:0:
147,260,8863,2,0,P|195:308|211:308,1,70
320,288,9170,6,4,P|384:272|400:192,1,140
320,96,9629,1,0,0:0:0:0:
320,96,9705,1,0,0:0:0:0:
320,96,9782,1,0,0:0:0:0:
192,128,9935,1,0,0:0:0:0:
160,192,10088,6,2,L|96:240,1,70
192,320,10394,1,0,0:0:0:0:
312,300,10547,1,0,0:0:0:0:
381,215,10700,1,0,0:0:0:0:
384,128,10853,2,2,P|368:80|336:64,1,70
288,48,11159,1,0,0:0:0:0:
288,48,11236,1,0,0:0:0:0:
288,48,11312,1,0,0:0:0:0:
160,48,11619,1,0,0:0:0:0:
128,112,11925,1,0,0:0:0:0:
128,224,12060,6,2,L|176:240,2,35
208,240,12384,1,0,0:0:0:0:
323,245,12537,1,0,0:0:0:0:
352,144,12613,1,0,0:0:0:0:
352,144,12690,1,0,0:0:0:0:
352,144,12767,1,0,0:0:0:0:
234,99,12996,1,0,0:0:0:0:
131,65,13149,2,0,P|83:129|83:145,1,70
61,188,13455,1,0,0:0:0:0:
112,272,13608,1,0,0:0:0:0:
144,304,13761,6,8,P|208:336|272:288,1,140
464,272,14374,1,0,0:0:0:0:
400,128,14527,1,0,0:0:0:0:
400,128,14603,1,0,0:0:0:0:
400,128,14680,1,0,0:0:0:0:
288,96,14833,1,0,0:0:0:0:
208,128,14986,2,2,L|144:160,1,70
112,224,15292,6,4,P|80:256|80:288,1,70
192,320,15598,1,0,0:0:0:0:
279,277,15751,1,0,0:0:0:0:
349,229,15904,1,0,0:0:0:0:
444,198,16057,1,0,0:0:0:0:
444,198,16134,1,0,0:0:0:0:
444,198,16210,1,0,0:0:0:0:
403,124,16517,6,0,P|355:92|283:77,1,105
243,73,16823,1,0,0:0:0:0:
176,73,16976,2,0,L|112:73,2,35
235,162,17282,1,0,0:0:0:0:
208,272,17435,1,0,0:0:0:0:
288,304,17588,2,0,P|336:320|352:320,1,35
400,320,17741,1,0,0:0:0:0:
416,240,17894,1,0,0:0:0:0:
400,160,18047,2,0,P|400:112|389:108,1,35
344,72,18200,1,0,0:0:0:0:
272,144,18353,6,0,P|240:192|240:224,1,70
208,272,18583,1,0,0:0:0:0:
208,272,18659,1,0,0:0:0:0:
352,320,18966,2,0,P|416:272|432:208,1,140
384,96,19425,1,0,0:0:0:0:
384,96,19501,1,0,0:0:0:0:
384,96,19578,1,0,0:0:0:0:
272,64,19731,1,0,0:0:0:0:
224,176,19884,1,0,0:0:0:0:
336,288,20037,1,0,0:0:0:0:
70,313,20190,5,0,0:0:0:0:
87,270,20267,1,0,0:0:0:0:
104,237,20343,1,0,0:0:0:0:
119,202,20420,1,0,0:0:0:0:
143,168,20496,1,0,0:0:0:0:
168,137,20573,1,0,0:0:0:0:
195,112,20649,2,0,L|242:85,1,35
316,53,20802,1,0,0:0:0:0:
340,129,20955,2,0,L|356:169,1,35
382,288,21108,1,0,0:0:0:0:
199,330,21261,1,0,0:0:0:0:
352,320,23073,6,0,L|304:320,2,35
176,288,23557,1,0,0:0:0:0:
96,224,23710,2,0,P|64:176|64:144,1,70
160,128,24017,2,0,P|192:160|192:192,1,70
224,224,24323,1,0,0:0:0:0:
274,291,24476,1,0,0:0:0:0:
334,315,24629,1,0,0:0:0:0:
400,288,24782,2,0,P|432:240|432:208,1,70
432,128,25088,6,0,P|416:80|385:46,1,70
294,67,25394,2,0,P|255:75|225:102,1,70
128,208,25700,1,0,0:0:0:0:
192,272,25853,1,0,0:0:0:0:
272,352,26006,2,0,L|352:304,1,93.3333333333333
432,304,26312,1,0,0:0:0:0:
432,240,26466,1,0,0:0:0:0:
432,240,26542,1,0,0:0:0:0:
432,240,26619,1,0,0:0:0:0:
368,96,26925,6,0,P|320:48|304:48,1,70
208,64,27231,2,0,P|144:80|128:96,1,70
128,128,27537,1,0,0:0:0:0:
73,226,27690,1,0,0:0:0:0:
115,284,27843,1,0,0:0:0:0:
176,304,27996,2,0,P|240:304|304:288,1,122.5
326,279,28455,1,0,0:0:0:0:
352,256,28608,6,0,P|384:224|384:176,1,93.3333333333333
368,144,28915,1,0,0:0:0:0:
288,96,29068,1,0,0:0:0:0:
160,64,29297,2,0,P|112:80|109:87,1,35
83,139,29527,1,0,0:0:0:0:
80,217,29680,2,0,P|80:266|92:283,1,70
168,309,29986,1,0,0:0:0:0:
234,318,30139,1,0,0:0:0:0:
307,338,30292,2,0,B|365:328|373:305|372:275,1,70
369,213,30598,1,0,0:0:0:0:
256,160,30751,5,0,0:0:0:0:
176,144,30904,1,0,0:0:0:0:
80,192,31057,2,0,P|32:240|32:256,1,70
112,320,31363,1,0,0:0:0:0:
223,292,31517,1,0,0:0:0:0:
325,265,31670,2,0,P|352:253|377:206,1,70
341,119,31976,1,0,0:0:0:0:
235,77,32129,5,0,0:0:0:0:
163,148,32244,1,0,0:0:0:0:
126,248,32435,1,0,0:0:0:0:
202,320,32588,1,0,0:0:0:0:
320,281,32741,6,0,P|288:201|272:185,1,93.3333333333333
263,188,33047,1,0,0:0:0:0:
231,172,33124,1,0,0:0:0:0:
199,156,33200,1,0,0:0:0:0:
167,140,33277,1,0,0:0:0:0:
99,164,33353,6,0,P|51:180|35:212,1,70
54,313,33659,1,0,0:0:0:0:
167,332,33812,2,0,P|214:340|231:328,1,70
352,288,34119,1,0,0:0:0:0:
384,192,34272,2,0,P|400:160|384:128,1,70
270,38,34578,2,0,P|214:55|208:66,1,70
128,192,34884,1,0,0:0:0:0:
160,256,35037,5,0,0:0:0:0:
208,304,35152,2,0,P|256:336|285:332,1,70
352,320,35496,2,0,P|400:320|423:288,1,70
416,240,35784,1,0,0:0:0:0:
390,175,35879,1,0,0:0:0:0:
339,127,35955,2,0,L|313:105,2,35
272,64,36261,1,0,0:0:0:0:
176,48,36376,2,0,P|112:80|80:144,1,140
64,192,36823,1,0,0:0:0:0:
64,240,36968,2,0,P|112:304|128:304,1,105
224,304,37332,5,0,0:0:0:0:
288,272,37485,1,0,0:0:0:0:
368,224,37638,1,0,0:0:0:0:
352,96,37791,1,0,0:0:0:0:
240,64,38073,2,0,P|160:48|144:64,1,93.3333333333333
112,96,38403,1,0,0:0:0:0:
87,167,38556,1,0,0:0:0:0:
102,226,38709,6,0,P|112:257|130:273,1,35
173,317,38863,1,0,0:0:0:0:
272,320,39016,1,0,0:0:0:0:
400,224,39169,1,0,0:0:0:0:
352,80,39297,1,0,0:0:0:0:
288,64,39475,2,0,P|224:48|208:48,1,70
144,64,39731,6,0,P|96:80|80:96,1,70
64,160,40011,2,0,P|32:240|32:288,1,116.666666666667
112,320,40393,1,0,0:0:0:0:
240,336,40546,1,0,0:0:0:0:
432,256,40718,1,0,0:0:0:0:
429,166,40852,2,0,P|427:136|414:102,1,35
358,69,41005,1,0,0:0:0:0:
288,48,41158,1,0,0:0:0:0:
240,48,41312,6,0,P|176:96|161:136,1,105
222,240,41618,1,0,0:0:0:0:
320,320,41771,1,0,0:0:0:0:
384,160,42077,1,0,0:0:0:0:
240,64,42230,1,0,0:0:0:0:
128,160,42383,2,0,P|80:192|64:208,1,70
208,320,42665,1,0,0:0:0:0:
352,304,42842,1,0,0:0:0:0:
416,208,42919,5,0,0:0:0:0:
416,208,42995,1,0,0:0:0:0:
416,208,43072,1,0,0:0:0:0:
423,124,43148,1,0,0:0:0:0:
304,96,43301,2,0,P|224:80|192:96,1,116.666666666667
128,192,43760,1,0,0:0:0:0:
256,320,43876,1,0,0:0:0:0:
352,208,44066,2,0,P|400:192|416:160,1,70
352,80,44373,5,0,0:0:0:0:
240,160,44526,1,0,0:0:0:0:
224,48,44679,1,0,0:0:0:0:
128,48,44832,2,0,L|64:96,1,70
96,240,45086,1,0,0:0:0:0:
144,304,45291,2,0,P|192:352|218:353,1,70
352,320,45674,1,0,0:0:0:0:
400,208,45827,1,0,0:0:0:0:
320,64,45980,1,0,0:0:0:0:
144,80,46133,6,0,P|96:144|96:208,1,140
192,288,46592,1,0,0:0:0:0:
260,310,46745,2,0,P|294:289|306:262,1,70
343,224,47051,1,0,0:0:0:0:
403,163,47204,1,0,0:0:0:0:
302,164,47434,1,0,0:0:0:0:
302,68,47560,1,0,0:0:0:0:
206,148,47740,1,0,0:0:0:0:
142,52,47893,1,0,0:0:0:0:
165,226,48021,1,0,0:0:0:0:
256,286,48199,6,0,P|320:318|352:318,1,93.3333333333333
384,270,48505,1,0,0:0:0:0:
429,200,48658,2,0,P|436:159|408:122,1,70
272,48,48964,1,0,0:0:0:0:
196,127,49117,2,0,P|171:168|169:192,1,70
160,256,49424,1,0,0:0:0:0:
208,304,49577,6,0,P|240:336|272:336,1,70
368,272,49959,1,0,0:0:0:0:
320,224,50112,1,0,0:0:0:0:
240,112,50342,2,0,P|176:96|160:96,1,70
112,240,50648,1,0,0:0:0:0:
176,288,50801,1,0,0:0:0:0:
272,304,50954,2,0,L|352:320,1,70
400,256,51413,1,0,0:0:0:0:
336,160,51566,6,0,P|272:144|256:144,1,70
160,208,51873,1,0,0:0:0:0:
96,320,52026,1,0,0:0:0:0:
32,160,52179,1,0,0:0:0:0:
144,48,52332,1,0,0:0:0:0:
240,96,52485,2,0,P|272:112|304:144,1,70
212,214,52714,1,0,0:0:0:0:
212,214,52791,1,0,0:0:0:0:
212,214,52867,1,0,0:0:0:0:
240,304,52944,5,0,0:0:0:0:
448,80,53556,1,0,0:0:0:0:
251,98,53862,2,0,P|196:91|176:125,1,70
144,272,54322,1,0,0:0:0:0:
224,288,54475,2,0,L|285:241,1,70
352,128,54781,1,0,0:0:0:0:
248,85,54934,2,0,P|199:62|155:55,1,70
96,224,55240,6,0,P|144:304|176:304,1,122.5
264,282,55623,1,0,0:0:0:0:
336,240,55776,1,0,0:0:0:0:
336,80,55929,1,0,0:0:0:0:
160,96,56082,1,0,0:0:0:0:
320,224,56235,1,0,0:0:0:0:
368,128,56464,1,0,0:0:0:0:
218,126,56617,2,0,L|158:158,1,35
155,158,56770,1,0,0:0:0:0:
80,240,56924,1,0,0:0:0:0:
176,272,57077,1,0,0:0:0:0:
272,304,57230,1,0,0:0:0:0:
416,224,57383,6,0,P|464:208|480:192,1,70
336,112,57842,2,0,P|256:48|208:48,1,140
96,160,58301,1,0,0:0:0:0:
224,288,58454,1,0,0:0:0:0:
352,288,58607,2,0,L|432:215,1,105
429,156,58913,2,0,P|375:91|362:87,1,70
262,112,59219,1,0,0:0:0:0:
211,264,59373,1,0,0:0:0:0:
347,253,59526,2,0,P|372:206|374:172,1,70
254,88,59832,1,0,0:0:0:0:
128,64,59985,6,0,P|96:80|64:112,1,70
149,298,60291,2,0,P|200:299|224:272,1,70
352,208,60597,1,0,0:0:0:0:
243,80,60750,2,0,P|195:89|185:98,1,35
112,160,60980,2,0,P|80:208|80:240,1,70
208,320,61286,1,0,0:0:0:0:
341,234,61439,1,0,0:0:0:0:
392,180,61592,1,0,0:0:0:0:
432,128,61745,1,0,0:0:0:0:
224,64,61898,6,0,P|160:64|129:91,1,105
270,250,62434,2,0,P|318:202|318:186,1,70
320,80,62740,1,0,0:0:0:0:
128,208,63046,1,0,0:0:0:0:
224,288,63199,1,0,0:0:0:0:
432,320,63429,6,0,P|464:272|448:192,1,140
387,128,63888,1,0,0:0:0:0:
272,80,64117,1,0,0:0:0:0:
176,160,64270,1,0,0:0:0:0:
128,288,64424,2,0,P|160:336|195:337,1,70
225,343,64730,1,0,0:0:0:0:
352,224,64883,1,0,0:0:0:0:
224,48,65036,1,0,0:0:0:0:
112,288,65189,1,0,0:0:0:0:
368,304,65495,6,0,P|416:304|448:288,1,70
240,64,65954,1,0,0:0:0:0:
139,163,66107,1,0,0:0:0:0:
173,303,66260,2,0,P|226:302|247:289,1,70
416,240,66566,1,0,0:0:0:0:
256,80,66719,1,0,0:0:0:0:
80,224,66873,1,0,0:0:0:0:
288,304,67179,1,0,0:0:0:0:
416,128,67332,1,0,0:0:0:0:
160,48,67485,1,0,0:0:0:0:
118,280,67638,1,0,0:0:0:0:
118,280,67714,1,0,0:0:0:0:
118,280,67791,2,0,P|162:268|187:231,1,70
320,80,68097,5,0,0:0:0:0:
176,48,68250,1,0,0:0:0:0:
132,290,68403,1,0,0:0:0:0:
249,279,68556,1,0,0:0:0:0:
367,229,68709,2,0,P|388:193|387:136,1,70
165,92,69015,1,0,0:0:0:0:
152,244,69168,1,0,0:0:0:0:
300,304,69322,1,0,0:0:0:0:
432,96,69475,1,0,0:0:0:0:
127,203,69628,1,0,0:0:0:0:
127,203,69781,6,0,P|130:252|150:297,1,70
288,304,70087,1,0,0:0:0:0:
354,257,70240,2,0,P|382:230|380:223,1,35
355,170,70393,1,0,0:0:0:0:
176,64,70546,2,0,P|144:80|112:128,1,93.3333333333333
99,151,70852,1,0,0:0:0:0:
48,288,71005,1,0,0:0:0:0:
224,288,71158,1,0,0:0:0:0:
308,198,71311,1,0,0:0:0:0:
368,96,71464,1,0,0:0:0:0:
192,32,71617,1,0,0:0:0:0:
384,208,71770,1,0,0:0:0:0:
176,288,71924,1,0,0:0:0:0:
160,320,72077,1,0,0:0:0:0:
160,320,72230,6,0,P|112:272|112:240,1,87.5
166,183,72536,2,0,P|184:118|196:109,1,70
336,128,72842,1,0,0:0:0:0:
304,208,72995,1,0,0:0:0:0:
256,288,73148,1,0,0:0:0:0:
128,128,73301,1,0,0:0:0:0:
256,112,73454,1,0,0:0:0:0:
384,96,73607,1,0,0:0:0:0:
400,304,73760,1,0,0:0:0:0:
288,256,73913,1,0,0:0:0:0:
176,192,74066,1,0,0:0:0:0:
414,62,74219,1,0,0:0:0:0:
464,256,74373,1,0,0:0:0:0:
312,163,74526,1,0,0:0:0:0:
375,304,74679,1,0,0:0:0:0:
336,320,74985,5,0,0:0:0:0:
192,288,75138,1,0,0:0:0:0:
112,160,75291,1,0,0:0:0:0:
288,80,75444,1,0,0:0:0:0:
416,192,75597,1,0,0:0:0:0:
288,320,75750,1,0,0:0:0:0:
149,138,75903,1,0,0:0:0:0:
149,138,76056,2,0,P|130:85|160:60,1,70
448,48,76362,1,0,0:0:0:0:
208,288,76592,1,0,0:0:0:0:
256,96,76822,1,0,0:0:0:0:
360,195,76975,1,0,0:0:0:0:
464,336,77128,1,0,0:0:0:0:
160,288,77281,1,0,0:0:0:0:
384,48,77434,1,0,0:0:0:0:
55,189,78658,2,0,L|43:150,1,35
64,64,78811,5,0,0:0:0:0:
208,144,78964,1,0,0:0:0:0:
336,256,79117,1,0,0:0:0:0:
496,288,79270,1,0,0:0:0:0:
384,96,79424,1,0,0:0:0:0:
160,64,79577,1,0,0:0:0:0:
64,272,79730,5,0,0:0:0:0:
64,272,79806,1,0,0:0:0:0:
64,272,79883,2,0,P|112:176|144:160,1,140
176,336,80495,1,0,0:0:0:0:
224,224,80648,1,0,0:0:0:0:
224,224,80725,1,0,0:0:0:0:
224,224,80801,1,0,0:0:0:0:
320,256,80954,1,0,0:0:0:0:
368,224,81107,6,0,P|400:192|416:160,1,70
352,96,81413,1,0,0:0:0:0:
256,112,81566,1,0,0:0:0:0:
160,144,81719,1,0,0:0:0:0:
96,240,81873,1,0,0:0:0:0:
176,304,82026,1,0,0:0:0:0:
288,320,82179,1,0,0:0:0:0:
320,304,82255,1,0,0:0:0:0:
352,288,82332,1,0,0:0:0:0:
416,208,82638,5,0,0:0:0:0:
400,128,82944,2,0,P|368:80|352:80,1,70
304,80,83153,1,0,0:0:0:0:
256,96,83232,1,0,0:0:0:0:
176,160,83403,1,0,0:0:0:0:
128,240,83556,1,0,0:0:0:0:
208,288,83709,1,0,0:0:0:0:
288,320,83862,6,0,P|336:320|368:304,1,70
448,240,84168,1,0,0:0:0:0:
400,128,84322,1,0,0:0:0:0:
304,64,84475,2,0,P|256:48|224:48,1,70
192,64,84704,1,0,0:0:0:0:
192,64,84781,1,0,0:0:0:0:
136,98,84934,1,0,0:0:0:0:
69,159,85087,1,0,0:0:0:0:
108,249,85393,1,0,0:0:0:0:
160,288,85521,6,0,L|208:288,2,35
256,288,85852,1,0,0:0:0:0:
352,272,86005,2,0,P|400:256|432:240,1,70
448,176,86311,1,0,0:0:0:0:
368,112,86464,1,0,0:0:0:0:
272,80,86617,1,0,0:0:0:0:
192,80,86770,2,0,P|128:96|112:112,1,70
80,176,87077,1,0,0:0:0:0:
128,240,87230,5,0,0:0:0:0:
192,304,87383,1,0,0:0:0:0:
192,304,87536,1,0,0:0:0:0:
320,288,87842,1,0,0:0:0:0:
384,208,87995,1,0,0:0:0:0:
384,208,88072,1,0,0:0:0:0:
384,208,88148,1,0,0:0:0:0:
400,80,88301,1,0,0:0:0:0:
336,32,88454,1,0,0:0:0:0:
272,64,88607,1,0,0:0:0:0:
215,101,88760,2,0,P|174:124|156:147,1,70
96,240,89066,2,0,P|64:288|64:304,1,70
160,304,89373,2,0,P|192:320|208:320,1,46.6666666666667
400,240,89679,1,0,0:0:0:0:
352,96,89985,1,0,0:0:0:0:
272,80,90291,1,0,0:0:0:0:
240,112,90444,2,0,L|221:153,2,35
176,208,90750,1,0,0:0:0:0:
224,288,90903,5,0,0:0:0:0:
416,208,91056,1,0,0:0:0:0:
352,112,91209,1,0,0:0:0:0:
240,80,91362,1,0,0:0:0:0:
128,112,91515,1,0,0:0:0:0:
96,192,91668,2,0,P|80:224|80:272,1,70
128,304,91975,1,0,0:0:0:0:
128,304,92051,1,0,0:0:0:0:
128,304,92128,1,0,0:0:0:0:
320,288,92434,6,0,P|384:272|400:256,1,87.5
416,176,92740,1,0,0:0:0:0:
368,80,92893,1,0,0:0:0:0:
368,80,92969,1,0,0:0:0:0:
368,80,93046,1,0,0:0:0:0:
272,80,93199,1,0,0:0:0:0:
211,175,93352,2,0,P|163:219|148:240,1,70
73,322,93658,1,0,0:0:0:0:
207,330,93811,2,0,P|247:336|271:314,1,70
386,304,94117,1,0,0:0:0:0:
397,187,94270,1,0,0:0:0:0:
316,142,94403,5,0,0:0:0:0:
316,142,94500,1,0,0:0:0:0:
316,142,94577,1,0,0:0:0:0:
264,124,94883,2,0,L|208:74,1,70
200,21,95189,1,0,0:0:0:0:
279,36,95342,2,0,L|311:68,2,35
352,130,95648,2,0,L|382:198,1,70
336,299,95954,1,0,0:0:0:0:
176,272,96107,5,0,0:0:0:0:
145,166,96260,2,0,P|132:119|155:93,1,70
266,82,96566,2,0,P|309:111|317:154,1,70
370,200,96873,1,0,0:0:0:0:
231,233,97026,1,0,0:0:0:0:
288,64,97179,1,0,0:0:0:0:
384,112,97332,1,0,0:0:0:0:
416,208,97485,1,0,0:0:0:0:
400,304,97638,1,0,0:0:0:0:
304,320,97791,6,0,P|272:320|256:304,1,52.5
192,224,98097,1,0,0:0:0:0:
144,128,98250,1,0,0:0:0:0:
224,80,98403,2,0,P|240:48|272:48,1,70
384,80,98709,1,0,0:0:0:0:
368,240,98862,1,0,0:0:0:0:
272,304,99015,1,0,0:0:0:0:
176,288,99168,2,0,P|144:288|112:256,1,70
256,192,99494,12,0,104296,0:0:0:0:
