osu file format v14

[General]
AudioFilename: audio.mp3
AudioLeadIn: 0
PreviewTime: 192915
Countdown: 0
SampleSet: Drum
StackLeniency: 0.4
Mode: 0
LetterboxInBreaks: 0
WidescreenStoryboard: 0

[Editor]
Bookmarks: 6262,13120,40548,47405,174322
DistanceSpacing: 4.3
BeatDivisor: 4
GridSize: 32
TimelineZoom: 2.1

[Metadata]
Title:I wanna be a girl
TitleUnicode:女の子になりたい
Artist:mafumafu
ArtistUnicode:まふまふ
Creator:Yukiyo
Version:Onegai!
Source:
Tags:kagura iro onna no ko novelty DeviousPanda onnanoko ni naritai 神楽色アーティファクト Kagurairo Artifact japanese pop j-pop jpop 田中秀和 Tanaka Hidekazu monaca
BeatmapID:2235450
BeatmapSetID:1067733

[Difficulty]
HPDrainRate:5.7
CircleSize:4
OverallDifficulty:8.1
ApproachRate:8.7
SliderMultiplier:1.9
SliderTickRate:1

[Events]
//Background and Video events
Video,-150,"nya.mp4"
0,0,"lml9tog8osz11.jpg",0,0
//Break Periods
//Storyboard Layer 0 (Background)
//Storyboard Layer 1 (Fail)
//Storyboard Layer 2 (Pass)
//Storyboard Layer 3 (Foreground)
//Storyboard Layer 4 (Overlay)
//Storyboard Sound Samples

[TimingPoints]
915,428.571428571429,4,2,1,30,1,0
915,-133.333333333333,4,2,1,30,0,0
4772,-133.333333333333,4,2,1,40,0,0
5200,-222.222222222221,4,2,1,60,0,0
6057,-100,4,2,2,70,0,0
6111,-100,4,2,1,70,0,0
7450,-100,4,3,3,55,0,0
7557,-100,4,3,4,55,0,0
7772,-100,4,2,2,70,0,0
7825,-100,4,2,1,70,0,0
8629,-100,4,2,2,70,0,0
8682,-100,4,2,1,70,0,0
9165,-100,4,3,3,55,0,0
9271,-100,4,2,1,55,0,0
9272,-100,4,3,4,55,0,0
9486,-100,4,2,2,70,0,0
9539,-100,4,2,1,70,0,0
10128,-100,4,2,1,55,0,0
10129,-100,4,3,5,55,0,0
10343,-100,4,2,2,70,0,0
10396,-100,4,2,1,70,0,0
11200,-100,4,2,2,70,0,0
11253,-100,4,2,1,70,0,0
11522,-100,4,3,4,55,0,0
11843,-100,4,3,5,55,0,0
12057,-100,4,2,2,70,0,0
12110,-100,4,2,1,70,0,0
12915,-125,4,3,1,60,0,0
33486,-125,4,2,2,60,0,0
33539,-125,4,3,1,60,0,0
35200,-125,4,2,2,60,0,0
35253,-125,4,3,1,60,0,0
35629,-125,4,2,2,60,0,0
35682,-125,4,3,1,60,0,0
39486,-125,4,2,2,60,0,0
39539,-125,4,3,1,60,0,0
40343,-133.333333333333,4,2,2,60,0,0
40397,-133.333333333333,4,2,1,60,0,0
46665,-133.333333333333,4,3,4,45,0,0
46772,-133.333333333333,4,3,5,45,0,0
46986,-133.333333333333,4,3,6,45,0,0
47200,-64.5161290322581,4,2,2,60,0,0
47254,-64.5161290322581,4,2,1,60,0,0
47522,-64.5161290322581,4,2,2,60,0,0
47576,-64.5161290322581,4,2,1,60,0,0
48379,-100,4,3,3,60,0,0
48593,-100,4,3,4,60,0,0
48700,-100,4,3,5,60,0,0
48915,-64.5161290322581,4,2,2,60,0,0
48969,-64.5161290322581,4,2,1,60,0,0
49236,-64.5161290322581,4,2,2,60,0,0
49290,-64.5161290322581,4,2,1,60,0,0
50415,-64.5161290322581,4,3,3,60,0,0
50522,-64.5161290322581,4,2,1,60,0,0
50629,-100,4,2,2,50,0,0
50682,-100,4,2,1,50,0,0
52343,-100,4,2,2,50,0,0
52396,-100,4,2,1,50,0,0
54057,-68.9655172413793,4,2,1,60,0,0
54379,-68.9655172413793,4,2,2,60,0,0
54432,-68.9655172413793,4,2,1,60,0,0
55237,-68.9655172413793,4,2,2,60,0,0
55290,-68.9655172413793,4,2,1,60,0,0
55557,-68.9655172413793,4,3,3,60,0,0
55772,-68.9655172413793,4,2,2,60,0,0
55825,-68.9655172413793,4,2,1,60,0,0
56415,-68.9655172413793,4,3,4,60,0,0
56522,-68.9655172413793,4,2,1,60,0,0
57486,-100,4,2,2,75,0,1
57540,-100,4,2,1,75,0,1
59200,-100,4,2,2,75,0,1
59254,-100,4,2,1,75,0,1
60915,-100,4,2,2,75,0,1
60969,-100,4,2,1,75,0,1
62629,-100,4,2,2,75,0,1
62683,-100,4,2,1,75,0,1
64343,-100,4,2,2,75,0,1
64397,-100,4,2,1,75,0,1
66057,-100,4,2,2,75,0,1
66111,-100,4,2,1,75,0,1
67772,-100,4,2,2,75,0,1
67826,-100,4,2,1,75,0,1
69486,-74.0740740740741,4,3,3,60,0,1
69700,-74.0740740740741,4,2,1,75,0,1
69807,-74.0740740740741,4,3,5,60,0,1
70021,-74.0740740740741,4,2,1,75,0,1
70129,-74.0740740740741,4,3,4,60,0,1
70343,-74.0740740740741,4,2,2,75,0,1
70397,-74.0740740740741,4,2,1,75,0,1
70772,-74.0740740740741,4,2,1,80,0,1
71200,-100,4,2,2,75,0,1
71254,-100,4,2,1,75,0,1
72915,-100,4,2,2,75,0,1
72969,-100,4,2,1,75,0,1
74629,-100,4,2,2,75,0,1
74683,-100,4,2,1,75,0,1
76343,-100,4,2,2,75,0,1
76397,-100,4,2,1,75,0,1
78057,-100,4,2,2,75,0,1
78111,-100,4,2,1,75,0,1
79772,-100,4,2,2,75,0,1
79826,-100,4,2,1,75,0,1
80629,-71.4285714285714,4,2,1,75,0,1
81057,-100,4,2,1,75,0,1
81486,-100,4,2,2,75,0,1
81540,-100,4,2,1,75,0,1
83200,-100,4,2,2,75,0,1
83254,-100,4,2,1,75,0,1
84915,-100,4,2,2,75,0,1
84969,-100,4,2,1,75,0,1
86629,-100,4,2,2,70,0,0
86682,-100,4,2,1,70,0,0
87272,-100,4,3,5,55,0,0
87486,-100,4,2,2,70,0,0
87539,-100,4,2,1,70,0,0
88343,-83.3333333333333,4,2,2,70,0,0
88396,-83.3333333333333,4,2,1,70,0,0
88665,-83.3333333333333,4,3,4,55,0,0
88986,-83.3333333333333,4,3,5,55,0,0
89200,-83.3333333333333,4,2,2,70,0,0
89253,-83.3333333333333,4,2,1,70,0,0
90057,-100,4,2,1,60,0,0
90058,-100,4,3,1,60,0,0
102807,-66.6666666666667,4,3,1,60,0,0
103022,-66.6666666666667,4,3,1,5,0,0
103129,-76.9230769230769,4,3,1,60,0,0
103772,-100,4,3,1,60,0,0
112343,-76.9230769230769,4,3,2,60,0,0
112397,-76.9230769230769,4,3,1,60,0,0
112772,-76.9230769230769,4,3,2,60,0,0
112826,-76.9230769230769,4,3,1,60,0,0
114057,-100,4,3,1,60,0,0
116629,-66.6666666666667,4,3,2,60,0,0
116682,-66.6666666666667,4,3,1,60,0,0
117486,-133.333333333333,4,2,2,60,0,0
117540,-133.333333333333,4,2,1,60,0,0
123700,-133.333333333333,4,3,4,45,0,0
123807,-133.333333333333,4,3,5,45,0,0
124129,-133.333333333333,4,3,6,45,0,0
124343,-66.6666666666667,4,2,2,60,0,0
124397,-66.6666666666667,4,2,1,60,0,0
124665,-66.6666666666667,4,2,2,60,0,0
124719,-66.6666666666667,4,2,1,60,0,0
125415,-100,4,2,1,60,0,0
125522,-100,4,3,3,60,0,0
125736,-100,4,3,4,60,0,0
125843,-100,4,3,5,60,0,0
126057,-66.6666666666667,4,2,2,60,0,0
126111,-66.6666666666667,4,2,1,60,0,0
126379,-66.6666666666667,4,2,2,60,0,0
126433,-66.6666666666667,4,2,1,60,0,0
127129,-100,4,2,1,60,0,0
127558,-100,4,3,3,60,0,0
127665,-100,4,2,1,60,0,0
127772,-100,4,2,2,50,0,0
127825,-100,4,2,1,50,0,0
129486,-100,4,2,2,50,0,0
129539,-100,4,2,1,50,0,0
131200,-66.6666666666667,4,2,2,60,0,0
131254,-66.6666666666667,4,2,1,60,0,0
131522,-66.6666666666667,4,2,2,60,0,0
131576,-66.6666666666667,4,2,1,60,0,0
132057,-66.6666666666667,4,2,2,60,0,0
132111,-66.6666666666667,4,2,1,60,0,0
132379,-66.6666666666667,4,2,2,60,0,0
132433,-66.6666666666667,4,2,1,60,0,0
132700,-66.6666666666667,4,3,3,60,0,0
132915,-66.6666666666667,4,2,2,60,0,0
132969,-66.6666666666667,4,2,1,60,0,0
133558,-66.6666666666667,4,3,4,60,0,0
133665,-66.6666666666667,4,2,1,60,0,0
134629,-100,4,2,2,75,0,1
134682,-100,4,2,1,75,0,1
136343,-100,4,2,2,75,0,1
136396,-100,4,2,1,75,0,1
138057,-100,4,2,2,75,0,1
138110,-100,4,2,1,75,0,1
139772,-100,4,2,2,75,0,1
139825,-100,4,2,1,75,0,1
141486,-100,4,2,2,75,0,1
141539,-100,4,2,1,75,0,1
143200,-100,4,2,2,75,0,1
143253,-100,4,2,1,75,0,1
144915,-100,4,2,2,75,0,1
144968,-100,4,2,1,75,0,1
146629,-66.6666666666667,4,3,3,60,0,1
146843,-66.6666666666667,4,2,1,75,0,1
146950,-66.6666666666667,4,3,5,60,0,1
147164,-66.6666666666667,4,2,1,75,0,1
147272,-66.6666666666667,4,3,4,60,0,1
147486,-66.6666666666667,4,2,1,85,0,1
147915,-66.6666666666667,4,2,1,80,0,1
148343,-100,4,2,2,75,0,1
148397,-100,4,2,1,75,0,1
150057,-100,4,2,2,75,0,1
150111,-100,4,2,1,75,0,1
151772,-100,4,2,2,75,0,1
151826,-100,4,2,1,75,0,1
153486,-100,4,2,2,75,0,1
153540,-100,4,2,1,75,0,1
155200,-100,4,2,2,75,0,1
155254,-100,4,2,1,75,0,1
156915,-100,4,2,2,75,0,1
156969,-100,4,2,1,75,0,1
157772,-71.4285714285714,4,2,1,75,0,1
158200,-100,4,2,1,75,0,1
158629,-100,4,2,2,75,0,1
158683,-100,4,2,1,75,0,1
160343,-100,4,2,2,60,0,0
160397,-100,4,2,1,60,0,0
162057,-100,4,2,2,60,0,0
162111,-100,4,2,1,60,0,0
163236,-100,4,3,3,50,0,0
163343,-100,4,3,4,50,0,0
163557,-100,4,3,5,50,0,0
163665,-100,4,2,1,60,0,0
163772,-100,4,2,2,60,0,0
163826,-100,4,2,1,60,0,0
166665,-100,4,3,3,50,0,0
166772,-100,4,3,4,50,0,0
166986,-100,4,3,5,50,0,0
167093,-100,4,3,5,60,0,0
167094,-100,4,2,1,60,0,0
167200,-100,4,2,2,60,0,0
167254,-100,4,2,1,60,0,0
170093,-100,4,3,3,50,0,0
170200,-100,4,3,4,50,0,0
170414,-100,4,3,5,50,0,0
170522,-100,4,2,1,60,0,0
170629,-100,4,2,2,60,0,0
170683,-100,4,2,1,60,0,0
172343,-100,4,2,2,60,0,0
172397,-100,4,2,1,60,0,0
174057,-125,4,2,2,60,0,0
174111,-125,4,2,1,60,0,0
180700,-125,4,3,3,50,0,0
180915,-66.6666666666667,4,2,2,60,0,0
180968,-66.6666666666667,4,2,1,60,0,0
181236,-66.6666666666667,4,2,2,60,0,0
181289,-66.6666666666667,4,2,1,60,0,0
181986,-83.3333333333333,4,2,1,60,0,0
182200,-83.3333333333333,4,3,3,50,0,0
182415,-83.3333333333333,4,3,4,50,0,0
182629,-66.6666666666667,4,2,2,60,0,0
182682,-66.6666666666667,4,2,1,60,0,0
182950,-66.6666666666667,4,2,2,60,0,0
183003,-66.6666666666667,4,2,1,60,0,0
183700,-66.6666666666667,4,3,3,50,0,0
183807,-66.6666666666667,4,3,4,50,0,0
183915,-83.3333333333333,4,2,1,60,0,0
184343,-100,4,2,2,60,0,0
184397,-100,4,2,1,60,0,0
186057,-100,4,2,2,60,0,0
186111,-100,4,2,1,60,0,0
187772,-66.6666666666667,4,2,2,70,0,0
187825,-66.6666666666667,4,2,1,70,0,0
188093,-66.6666666666667,4,2,2,70,0,0
188146,-66.6666666666667,4,2,1,70,0,0
188629,-66.6666666666667,4,2,2,70,0,0
188682,-66.6666666666667,4,2,1,70,0,0
188950,-66.6666666666667,4,2,2,70,0,0
189003,-66.6666666666667,4,2,1,70,0,0
189271,-66.6666666666667,4,2,1,40,0,0
189272,-66.6666666666667,4,3,3,40,0,0
189486,-66.6666666666667,4,2,2,70,0,0
189539,-66.6666666666667,4,2,1,70,0,0
189807,-66.6666666666667,4,2,2,70,0,0
189860,-66.6666666666667,4,2,1,70,0,0
190343,-66.6666666666667,4,2,2,70,0,0
190396,-66.6666666666667,4,2,1,70,0,0
190665,-66.6666666666667,4,2,2,70,0,0
190718,-66.6666666666667,4,2,1,70,0,0
191200,-66.6666666666667,4,2,2,70,0,0
191253,-66.6666666666667,4,2,1,70,0,0
191522,-66.6666666666667,4,2,2,70,0,0
191575,-66.6666666666667,4,2,1,70,0,0
191843,-66.6666666666667,4,2,2,70,0,0
191896,-66.6666666666667,4,2,1,70,0,0
192915,-66.6666666666667,4,3,3,60,0,0
192986,-66.6666666666667,4,3,4,60,0,0
193057,-66.6666666666667,4,3,5,60,0,0
193129,-66.6666666666667,4,3,6,60,0,0
193343,-100,4,2,2,75,0,0
193397,-100,4,2,1,75,0,0
194629,-153.846153846153,4,2,1,60,0,0
195486,-153.846153846153,4,3,5,50,0,0
195700,-153.846153846153,4,2,1,60,0,0
196343,-66.6666666666667,4,3,3,50,0,0
196414,-66.6666666666667,4,3,4,50,0,0
196485,-66.6666666666667,4,3,5,50,0,0
196557,-66.6666666666667,4,3,6,50,0,0
196772,-66.6666666666667,4,2,2,60,0,0
196825,-66.6666666666667,4,2,1,60,0,0
198057,-66.6666666666667,4,3,3,50,0,0
198200,-66.6666666666667,4,3,4,50,0,0
198343,-66.6666666666667,4,3,5,50,0,0
198486,-66.6666666666667,4,3,6,50,0,0
198629,-66.6666666666667,4,3,5,50,0,0
198772,-66.6666666666667,4,3,4,50,0,0
198915,-66.6666666666667,4,3,3,50,0,0
199058,-66.6666666666667,4,3,4,50,0,0
199201,-66.6666666666667,4,3,5,50,0,0
199343,-153.846153846153,4,2,2,60,0,0
199397,-153.846153846153,4,2,1,60,0,0
199772,-153.846153846153,4,2,2,60,0,0
199826,-153.846153846153,4,2,1,60,0,0
201486,-153.846153846153,4,2,2,60,0,0
201540,-153.846153846153,4,2,1,60,0,0
203200,-100,4,2,2,60,0,0
203254,-100,4,2,1,60,0,0
204915,-66.6666666666667,4,2,2,60,0,0
204968,-66.6666666666667,4,2,1,60,0,0
205236,-66.6666666666667,4,2,2,60,0,0
205289,-66.6666666666667,4,2,1,60,0,0
205557,-66.6666666666667,4,2,2,60,0,0
205610,-66.6666666666667,4,2,1,60,0,0
205986,-100,4,2,1,60,0,0
206629,-90.9090909090909,4,2,2,80,0,1
206682,-90.9090909090909,4,2,1,80,0,1
208343,-90.9090909090909,4,2,2,80,0,1
208396,-90.9090909090909,4,2,1,80,0,1
210057,-90.9090909090909,4,2,2,80,0,1
210110,-90.9090909090909,4,2,1,80,0,1
211772,-90.9090909090909,4,2,2,80,0,1
211825,-90.9090909090909,4,2,1,80,0,1
213486,-90.9090909090909,4,2,2,80,0,1
213539,-90.9090909090909,4,2,1,80,0,1
215200,-90.9090909090909,4,2,2,80,0,1
215253,-90.9090909090909,4,2,1,80,0,1
216057,-66.6666666666667,4,2,1,80,0,1
216272,-90.9090909090909,4,2,1,80,0,1
216915,-90.9090909090909,4,2,2,80,0,1
216968,-90.9090909090909,4,2,1,80,0,1
218629,-90.9090909090909,4,2,2,80,0,1
218682,-90.9090909090909,4,2,1,80,0,1
220343,-90.9090909090909,4,2,2,80,0,1
220396,-90.9090909090909,4,2,1,80,0,1
222077,428.571428571429,4,2,1,50,1,0
222077,-90.9090909090909,4,2,2,70,0,0
222131,-90.9090909090909,4,2,1,70,0,0
222399,-90.9090909090909,4,2,2,70,0,0
222453,-90.9090909090909,4,2,1,70,0,0
222935,-90.9090909090909,4,2,2,70,0,0
222989,-90.9090909090909,4,2,1,70,0,0
223256,-90.9090909090909,4,2,2,70,0,0
223310,-90.9090909090909,4,2,1,70,0,0
223791,-71.4285714285714,4,2,2,70,0,0
223845,-71.4285714285714,4,2,1,70,0,0
224113,-71.4285714285714,4,2,2,70,0,0
224166,-71.4285714285714,4,2,1,70,0,0
224649,-71.4285714285714,4,2,2,70,0,0
224702,-71.4285714285714,4,2,1,70,0,0
224970,-71.4285714285714,4,2,2,70,0,0
225023,-71.4285714285714,4,2,1,70,0,0
225506,-71.4285714285714,4,2,2,70,0,0
225559,-71.4285714285714,4,2,1,70,0,0
225827,-71.4285714285714,4,2,2,70,0,0
225880,-71.4285714285714,4,2,1,70,0,0
226363,-71.4285714285714,4,2,2,70,0,0
226416,-71.4285714285714,4,2,1,70,0,0
229041,428.571428571429,4,2,1,50,1,0
229077,-71.4285714285714,4,2,1,60,0,0
229792,-71.4285714285714,4,2,1,55,0,0
230649,-71.4285714285714,4,2,1,50,0,0
231506,-71.4285714285714,4,2,1,45,0,0
232363,-71.4285714285714,4,2,1,40,0,0
233220,-71.4285714285714,4,2,1,35,0,0
234077,-71.4285714285714,4,2,1,30,0,0
234935,-71.4285714285714,4,2,1,25,0,0
235792,-71.4285714285714,4,2,1,20,0,0
236649,-71.4285714285714,4,2,1,15,0,0
237506,-71.4285714285714,4,2,1,5,0,0

[Colours]
Combo1 : 140,218,255
Combo2 : 255,187,221
Combo3 : 228,228,228

[HitObjects]
337,48,915,5,4,0:1:0:0:
337,48,1557,1,0,0:0:0:0:
337,48,1772,2,0,L|243:37,1,71.2500027179719,0|0,1:0|0:0,0:0:0:0:
214,141,2200,2,0,L|284:132,1,71.2500027179719,0|0,1:0|0:0,0:0:0:0:
142,87,2629,2,0,P|123:154|161:213,1,142.500005435944,0|2,1:0|0:0,0:0:0:0:
161,213,3272,1,2,0:0:0:0:
351,171,3486,2,0,L|502:209,1,142.500005435944,2|0,1:2|0:0,0:0:0:0:
295,375,4129,6,0,P|268:323|306:234,1,142.500005435944,0|0,1:0|0:0,0:0:0:0:
439,144,4772,1,0,0:0:0:0:
369,200,4986,1,0,0:0:0:0:
286,31,5200,2,0,L|190:18,1,85.4999973907472,0|0,1:0|0:0,0:0:0:0:
201,19,6057,6,0,P|156:34|126:70,1,95,6|0,2:1|0:0,0:0:0:0:
45,139,6379,2,0,L|202:163,1,142.5,6|8,0:3|0:1,0:0:0:0:
273,107,6807,1,8,0:1:0:0:
273,107,6915,6,0,P|317:122|347:158,1,95,6|0,0:3|0:0,0:0:0:0:
429,227,7237,2,0,L|342:240,1,47.5,4|0,0:0|0:0,0:0:0:0:
302,227,7450,1,8,0:0:0:0:
302,227,7557,1,8,0:0:0:0:
216,364,7772,6,0,P|152:335|134:284,1,95,6|0,2:1|0:0,0:0:0:0:
166,240,8093,2,0,L|193:76,1,142.5,6|8,3:0|0:1,0:0:0:0:
289,7,8522,1,8,0:1:0:0:
289,7,8629,6,0,P|359:6|397:44,1,95,6|0,0:0|0:0,0:0:0:0:
386,98,8950,2,0,L|407:178,1,47.5,4|0,0:1|0:0,0:0:0:0:
357,215,9165,1,8,0:0:0:0:
357,215,9272,1,8,0:0:0:0:
286,374,9486,6,0,P|267:322|228:274,1,95,6|0,0:1|0:0,0:0:0:0:
170,251,9807,2,0,P|113:293|44:295,1,142.5,6|8,0:3|0:0,0:0:0:0:
4,109,10343,5,6,0:2:0:0:
121,24,10665,1,6,0:3:0:0:
140,169,10879,1,8,0:1:0:0:
140,169,10986,1,8,0:1:0:0:
268,44,11200,6,0,P|313:27|360:20,1,95,6|0,0:2|0:0,0:0:0:0:
490,169,11522,2,0,P|443:162|398:145,1,95,8|0,0:0|0:0,0:0:0:0:
398,145,11843,1,8,0:0:0:0:
233,129,12057,2,0,L|246:223,1,95,4|8,0:2|0:1,0:0:0:0:
206,314,12379,1,2,0:1:0:0:
206,314,12486,2,0,L|160:301,3,47.5,10|8|8|8,0:1|0:1|0:1|0:1,0:0:0:0:
66,341,12915,5,6,0:0:0:0:
30,193,13129,5,12,0:0:0:0:
94,253,13343,1,2,0:0:0:0:
114,168,13557,1,12,0:0:0:0:
205,3,13772,5,2,0:0:0:0:
272,54,13986,1,12,0:0:0:0:
221,122,14201,1,2,0:0:0:0:
153,70,14415,1,12,0:0:0:0:
350,15,14629,5,2,0:0:0:0:
426,54,14843,1,12,0:0:0:0:
498,95,15057,1,2,0:0:0:0:
369,199,15272,5,12,0:0:0:0:
368,199,15379,2,0,P|418:174|474:179,1,114,2|12,2:0|0:0,0:0:0:0:
460,358,15915,1,2,0:0:0:0:
459,358,16022,2,0,P|479:322|480:285,1,76,2|0,2:0|0:0,0:0:0:0:
393,302,16343,6,0,L|295:315,1,76,2|12,0:0|0:0,0:0:0:0:
143,294,16772,1,2,0:0:0:0:
224,351,16986,1,12,0:0:0:0:
233,252,17200,1,2,0:0:0:0:
165,47,17415,5,12,0:0:0:0:
252,0,17629,1,2,0:0:0:0:
249,98,17843,1,12,0:0:0:0:
368,229,18057,6,0,P|404:221|436:199,1,76,2|12,0:0|0:0,0:0:0:0:
510,130,18379,2,0,P|478:108|442:101,1,76,2|2,0:2|0:2,0:0:0:0:
442,101,18700,1,12,0:0:0:0:
360,17,18915,2,0,L|269:7,1,76,2|12,0:0|0:0,0:0:0:0:
99,80,19343,1,2,0:0:0:0:
165,0,19557,2,0,L|176:50,1,38,12|0,0:0|0:0,0:0:0:0:
209,135,19772,6,0,L|198:210,1,76,2|12,0:0|0:0,0:0:0:0:
108,240,20093,2,0,L|119:316,1,76,2|2,0:2|0:2,0:0:0:0:
191,374,20415,1,12,0:0:0:0:
298,294,20629,2,0,B|378:283|355:343|451:331,1,152,2|2,0:0|0:0,0:0:0:0:
348,201,21272,1,12,0:0:0:0:
222,316,21486,6,0,P|167:326|121:305,1,76,2|12,0:0|0:0,0:0:0:0:
104,240,21807,2,0,P|53:216|3:224,1,76,2|2,0:2|0:2,0:0:0:0:
34,215,22129,1,12,0:3:0:0:
89,99,22343,2,0,B|179:96|148:155|242:146,1,152,2|2,0:0|0:0,0:0:0:0:
315,88,22986,1,12,0:0:0:0:
413,101,23200,5,2,0:0:0:0:
437,253,23522,1,2,0:2:0:0:
294,206,23843,1,12,0:3:0:0:
415,90,24057,2,0,P|427:43|430:5,1,76,2|12,0:0|0:0,0:0:0:0:
251,122,24486,2,0,P|255:159|265:196,1,76,2|12,0:0|0:0,0:0:0:0:
439,260,24915,5,2,0:0:0:0:
335,361,25129,1,12,0:0:0:0:
261,269,25343,2,0,L|177:253,1,76,2|12,0:0|0:0,0:0:0:0:
144,326,25665,2,0,L|52:335,1,76,2|2,0:2|0:2,0:0:0:0:
0,282,25986,2,0,L|20:228,1,38,12|0,0:0|0:0,0:0:0:0:
81,175,26200,1,2,0:0:0:0:
38,92,26415,1,12,0:0:0:0:
259,11,26629,5,4,0:2:0:0:
162,28,26843,2,0,P|188:95|192:162,1,114,12|2,0:0|0:2,0:0:0:0:
185,147,27272,2,0,P|149:134|111:131,1,76,12|2,0:0|0:0,0:0:0:0:
35,180,27700,1,12,0:0:0:0:
104,253,27915,1,2,0:0:0:0:
8,275,28129,1,12,0:0:0:0:
175,193,28343,5,2,0:0:0:0:
260,219,28557,1,12,0:0:0:0:
345,248,28772,1,2,0:0:0:0:
450,217,28986,5,12,0:0:0:0:
450,217,29093,2,0,P|429:256|411:334,1,114,2|12,0:2|0:0,0:0:0:0:
249,358,29629,1,2,0:0:0:0:
249,358,29736,2,0,P|303:337|346:331,1,76,2|2,0:2|0:2,0:0:0:0:
320,333,30057,5,2,0:0:0:0:
364,190,30272,1,12,0:0:0:0:
300,258,30486,1,2,0:0:0:0:
273,168,30700,1,12,0:0:0:0:
374,45,30915,5,2,0:0:0:0:
448,0,31129,1,12,0:0:0:0:
492,74,31343,1,2,0:0:0:0:
418,119,31557,1,12,0:0:0:0:
268,100,31772,6,0,P|235:82|199:71,1,76,2|12,0:0|0:0,0:0:0:0:
136,113,32093,2,0,L|148:197,1,76,2|2,0:2|0:2,0:0:0:0:
146,188,32415,1,12,0:0:0:0:
27,338,32629,2,0,L|55:219,1,114,2|2,0:0|0:2,0:0:0:0:
26,149,33057,1,2,0:0:0:0:
26,149,33165,1,2,0:2:0:0:
26,149,33272,1,12,0:0:0:0:
127,276,33486,6,0,L|143:379,1,76,6|12,0:1|0:0,0:0:0:0:
225,344,33807,2,0,P|269:318|311:312,1,76,2|2,0:2|0:2,0:0:0:0:
373,325,34129,1,12,0:0:0:0:
503,205,34343,2,0,P|447:203|404:239,1,114,2|2,0:0|0:2,0:0:0:0:
317,235,34772,1,8,0:1:0:0:
296,229,34879,1,8,0:1:0:0:
277,224,34986,1,12,0:0:0:0:
201,115,35200,6,0,P|141:132|98:200,1,114,6|0,0:2|0:0,0:0:0:0:
24,218,35629,2,0,L|10:83,1,114,6|0,0:1|0:0,0:0:0:0:
12,104,36057,1,10,0:3:0:0:
101,35,36272,1,8,0:0:0:0:
101,35,36379,1,8,0:1:0:0:
203,80,36593,1,8,0:1:0:0:
203,80,36700,1,8,0:0:0:0:
301,1,36915,6,0,P|355:2|411:32,1,114,6|0,0:0|0:0,0:0:0:0:
415,42,37343,2,0,L|402:136,1,76,2|12,0:0|0:0,0:0:0:0:
332,183,37772,1,2,0:0:0:0:
427,270,38093,1,2,0:2:0:0:
297,313,38415,1,12,0:0:0:0:
297,313,38629,6,0,P|249:297|206:292,1,76,2|12,0:0|0:0,0:0:0:0:
147,358,39057,2,0,P|100:371|45:371,1,76,2|12,0:0|0:0,0:0:0:0:
50,128,39486,1,6,0:2:0:0:
104,207,39700,2,0,L|86:307,1,76,4|2,0:0|0:0,0:0:0:0:
192,339,40022,2,0,L|176:252,1,76,8|0,0:1|0:0,0:0:0:0:
192,177,40343,6,0,P|232:180|288:197,1,71.2500027179719,6|0,0:2|0:0,0:0:0:0:
315,262,40665,2,0,P|351:255|408:233,1,71.2500027179719,2|0,0:0|0:0,0:0:0:0:
384,245,40986,1,0,0:0:0:0:
485,216,41200,1,6,0:3:0:0:
366,100,41415,2,0,P|351:133|341:167,2,71.2500027179719,2|2|2,0:0|0:3|0:0,0:0:0:0:
276,6,42057,5,6,0:3:0:0:
252,1,42165,1,0,0:0:0:0:
230,3,42272,1,0,0:0:0:0:
205,12,42379,2,0,P|174:31|140:39,1,71.2500027179719,2|0,0:0|0:0,0:0:0:0:
65,8,42700,1,2,0:0:0:0:
23,191,42915,2,0,P|41:140|70:95,1,106.875004076958,2|0,0:3|0:0,0:0:0:0:
149,120,43343,2,0,P|181:123|242:112,1,71.2500027179719,2|0,0:3|0:0,0:0:0:0:
413,40,43772,6,0,L|353:23,1,35.625001358986,6|0,0:3|0:0,0:0:0:0:
225,181,44200,1,2,0:3:0:0:
291,119,44415,1,2,0:0:0:0:
425,176,44629,1,2,0:3:0:0:
425,176,44736,2,0,P|441:208|451:243,1,71.2500027179719,2|0,0:0|0:0,0:0:0:0:
428,318,45057,1,2,0:3:0:0:
327,281,45272,1,2,0:0:0:0:
233,373,45486,6,0,L|247:260,1,106.875004076958,6|0,0:3|0:0,0:0:0:0:
191,207,45915,2,0,L|181:123,1,71.2500027179719,2|0,0:3|0:0,0:0:0:0:
170,34,46343,1,8,0:3:0:0:
170,34,46450,1,8,0:0:0:0:
96,109,46664,1,8,0:0:0:0:
96,109,46771,1,8,0:0:0:0:
67,15,46986,1,8,0:0:0:0:
195,117,47200,6,0,B|229:83|229:83|221:182,1,147.250001123428,14|0,0:1|0:0,0:0:0:0:
303,156,47522,2,0,B|333:162|350:188|336:210|306:230|306:230|356:237,1,147.250001123428,6|0,0:0|0:0,0:0:0:0:
429,198,47843,2,0,B|467:228|433:256|433:256|460:311|398:302,1,147.250001123428,12|0,0:3|0:0,0:0:0:0:
254,366,48272,1,8,0:1:0:0:
254,366,48379,2,0,P|210:348|163:351,1,95,8|8,0:0|0:0,0:0:0:0:
89,376,48700,1,8,0:0:0:0:
42,263,48915,6,0,P|16:210|95:196,1,147.250001123428,14|0,0:1|0:0,0:0:0:0:
186,197,49236,2,0,P|212:144|133:130,1,147.250001123428,6|0,0:0|0:0,0:0:0:0:
35,7,49557,2,0,P|5:65|65:91,1,147.250001123428,12|0,0:3|0:0,0:0:0:0:
207,35,49986,1,8,0:3:0:0:
229,16,50093,1,8,0:3:0:0:
256,4,50200,1,12,0:1:0:0:
285,0,50307,1,8,0:3:0:0:
314,5,50414,1,8,0:0:0:0:
340,18,50521,1,8,0:0:0:0:
355,39,50629,6,0,L|340:132,1,95,14|0,0:1|0:0,0:0:0:0:
293,297,51057,1,2,0:3:0:0:
459,230,51272,1,2,0:0:0:0:
459,230,51379,1,2,0:0:0:0:
459,230,51486,1,2,0:3:0:0:
281,199,51700,1,2,0:3:0:0:
349,368,51915,1,2,0:3:0:0:
407,163,52129,1,2,0:3:0:0:
219,256,52343,6,0,L|125:241,1,95,6|2,0:2|0:3,0:0:0:0:
0,221,52772,1,2,0:3:0:0:
191,172,52986,1,2,0:3:0:0:
191,172,53093,1,2,0:2:0:0:
191,172,53200,2,0,P|215:117|214:51,1,95,2|2,0:3|0:3,0:0:0:0:
76,11,53522,2,0,P|98:53|139:76,1,95,2|2,0:0|0:3,0:0:0:0:
269,25,53843,2,0,L|315:16,1,47.5,2|2,0:3|0:3,0:0:0:0:
477,63,54057,6,0,P|480:126|418:143,1,137.750004203797,12|0,0:1|0:3,0:0:0:0:
330,74,54379,2,0,B|240:85|240:85|208:117|208:117|110:125,1,206.625006305695,6|12,0:0|0:3,0:0:0:0:
0,221,54807,5,8,0:3:0:0:
0,221,54915,2,0,P|-3:284|58:301,1,137.750004203797,14|0,0:1|0:3,0:0:0:0:
147,231,55236,2,0,B|237:242|237:242|269:274|269:274|367:282,1,206.625006305695,6|8,0:2|0:0,0:0:0:0:
499,171,55772,6,0,B|456:160|429:167|429:167|421:208|374:226,1,137.750004203797,14|0,0:1|0:0,0:0:0:0:
331,314,56093,2,0,B|288:325|261:318|261:318|253:277|206:259,1,137.750004203797,6|8,0:3|0:3,0:0:0:0:
139,204,56415,2,0,P|104:204|73:218,1,68.8750021018983,8|2,0:0|0:0,0:0:0:0:
25,292,56629,1,10,0:3:0:0:
223,224,56843,1,8,0:3:0:0:
260,214,56950,1,8,0:3:0:0:
289,205,57057,5,14,0:3:0:0:
290,189,57165,1,8,0:3:0:0:
289,175,57272,1,8,0:3:0:0:
289,161,57379,1,8,0:3:0:0:
287,148,57486,6,0,P|274:103|245:63,1,95,6|8,0:0|0:3,0:0:0:0:
68,153,57915,2,0,P|54:199|50:246,1,95,6|8,0:3|0:3,0:0:0:0:
103,313,58236,1,2,0:0:0:0:
103,313,58343,2,0,L|173:304,1,47.5,6|0,0:3|0:0,0:0:0:0:
154,210,58557,2,0,L|224:219,1,47.5,8|0,0:3|0:0,0:0:0:0:
326,287,58772,2,0,L|278:280,1,47.5,6|0,0:3|0:0,0:0:0:0:
377,184,58986,2,0,L|329:190,1,47.5,8|0,0:3|0:0,0:0:0:0:
229,24,59200,6,0,P|295:45|338:101,1,142.5,6|0,0:1|0:0,0:0:0:0:
355,114,59629,2,0,L|370:14,1,95,6|8,0:3|0:3,0:0:0:0:
451,7,59950,1,2,0:0:0:0:
451,7,60057,2,0,L|443:53,1,47.5,6|0,0:3|0:0,0:0:0:0:
379,105,60272,2,0,L|386:151,1,47.5,8|0,0:3|0:0,0:0:0:0:
326,294,60486,2,0,L|318:247,1,47.5,6|0,0:3|0:0,0:0:0:0:
254,196,60701,2,0,L|261:149,1,47.5,8|0,0:3|0:0,0:0:0:0:
216,20,60915,6,0,P|145:21|90:65,1,142.5,6|0,0:0|0:0,0:0:0:0:
76,82,61343,2,0,L|86:192,1,95,6|8,0:3|0:3,0:0:0:0:
159,217,61665,1,2,0:0:0:0:
159,217,61772,2,0,L|144:291,1,47.5,6|0,0:3|0:0,0:0:0:0:
66,302,61986,2,0,L|81:376,1,47.5,8|0,0:3|0:0,0:0:0:0:
4,181,62200,2,0,L|15:134,1,47.5,6|0,0:3|0:0,0:0:0:0:
109,127,62415,2,0,L|103:79,1,47.5,8|0,0:3|0:0,0:0:0:0:
178,3,62629,6,0,P|245:26|294:84,1,142.5,6|0,0:1|0:0,0:0:0:0:
294,102,63057,2,0,L|271:213,1,95,6|8,0:3|0:3,0:0:0:0:
215,256,63379,1,2,0:0:0:0:
215,256,63486,2,0,L|222:323,1,47.5,6|0,0:3|0:0,0:0:0:0:
302,384,63700,2,0,L|306:336,1,47.5,8|0,0:3|0:0,0:0:0:0:
335,220,63915,2,0,L|339:172,1,47.5,6|0,0:3|0:0,0:0:0:0:
432,102,64129,2,0,L|436:149,1,47.5,8|0,0:3|0:0,0:0:0:0:
487,303,64343,6,0,L|361:283,1,95,6|8,0:0|0:3,0:0:0:0:
320,224,64665,1,2,0:0:0:0:
320,224,64772,1,6,0:3:0:0:
311,250,64879,1,2,0:0:0:0:
295,276,64986,1,8,0:3:0:0:
257,300,65093,1,2,0:0:0:0:
209,306,65200,2,0,L|161:300,1,47.5,6|0,0:3|0:0,0:0:0:0:
54,251,65415,2,0,L|103:243,1,47.5,8|0,0:3|0:0,0:0:0:0:
220,199,65629,2,0,L|172:193,1,47.5,6|0,0:3|0:0,0:0:0:0:
65,144,65844,2,0,L|114:136,1,47.5,8|0,0:3|0:0,0:0:0:0:
199,44,66057,5,6,0:1:0:0:
310,62,66272,1,8,0:3:0:0:
427,83,66486,1,6,0:3:0:0:
368,270,66700,5,8,0:3:0:0:
368,270,66807,1,2,0:0:0:0:
368,270,66915,2,0,P|339:228|330:169,1,95,6|8,0:3|0:3,0:0:0:0:
461,103,67236,2,0,P|450:148|422:187,1,95,2|2,0:0|0:0,0:0:0:0:
254,159,67557,1,8,0:3:0:0:
254,159,67772,6,0,P|212:135|166:125,1,95,6|8,0:0|0:3,0:0:0:0:
0,155,68200,1,6,0:3:0:0:
180,221,68415,1,8,0:3:0:0:
89,89,68629,1,6,0:3:0:0:
116,291,68843,5,8,0:3:0:0:
149,313,68950,1,2,0:0:0:0:
187,317,69057,1,6,0:3:0:0:
229,300,69165,1,2,0:0:0:0:
254,267,69272,1,8,0:3:0:0:
292,245,69379,1,2,0:0:0:0:
333,249,69486,6,0,P|337:294|261:289,1,128.250000489235,8|8,0:0|0:3,0:0:0:0:
239,158,69807,2,0,P|242:113|166:118,1,128.250000489235,8|0,0:0|0:0,0:0:0:0:
102,261,70129,2,0,P|105:305|29:300,2,128.250000489235,8|6|8,0:0|0:1|0:0,0:0:0:0:
40,92,70772,5,10,0:0:0:0:
49,74,70879,1,10,0:0:0:0:
58,55,70986,1,10,0:0:0:0:
68,40,71093,1,10,0:0:0:0:
76,21,71200,6,0,P|124:20|169:34,1,95,6|8,0:0|0:3,0:0:0:0:
233,157,71629,2,0,P|280:157|325:143,1,95,6|8,0:3|0:3,0:0:0:0:
392,86,71950,1,2,0:0:0:0:
392,86,72057,2,0,L|475:98,1,47.5,6|0,0:3|0:0,0:0:0:0:
442,183,72272,2,0,L|525:195,1,47.5,8|0,0:3|0:0,0:0:0:0:
320,164,72486,2,0,L|272:170,1,47.5,6|0,0:3|0:0,0:0:0:0:
271,261,72701,2,0,L|223:267,1,47.5,8|0,0:3|0:0,0:0:0:0:
6,290,72915,6,0,P|75:294|121:347,1,142.5,6|0,0:1|0:0,0:0:0:0:
131,369,73343,2,0,L|146:275,1,95,6|8,0:3|0:3,0:0:0:0:
91,220,73665,1,2,0:0:0:0:
91,220,73772,2,0,L|102:158,1,47.5,6|0,0:3|0:0,0:0:0:0:
23,150,73986,2,0,L|12:88,1,47.5,8|0,0:3|0:0,0:0:0:0:
183,94,74200,2,0,L|174:140,1,47.5,6|0,0:3|0:0,0:0:0:0:
251,24,74414,2,0,L|259:70,1,47.5,8|0,0:3|0:0,0:0:0:0:
334,210,74629,6,0,L|390:189,3,47.5,6|2|8|2,0:0|0:0|0:3|0:0,0:0:0:0:
451,165,75057,2,0,P|463:221|452:288,1,95,6|8,0:3|0:3,0:0:0:0:
409,325,75379,1,2,0:0:0:0:
409,325,75486,2,0,L|362:316,1,47.5,6|0,0:3|0:0,0:0:0:0:
325,243,75700,2,0,L|278:251,1,47.5,8|0,0:3|0:0,0:0:0:0:
101,246,75915,2,0,L|147:237,1,47.5,6|0,0:3|0:0,0:0:0:0:
185,164,76129,2,0,L|231:172,1,47.5,8|0,0:3|0:0,0:0:0:0:
408,227,76343,6,0,L|444:80,1,142.5,6|0,0:1|0:0,0:0:0:0:
445,70,76772,2,0,P|401:89|354:92,1,95,6|8,0:3|0:3,0:0:0:0:
284,40,77093,1,2,0:0:0:0:
284,40,77200,2,0,L|231:35,1,47.5,6|0,0:3|0:0,0:0:0:0:
231,135,77415,2,0,L|178:140,1,47.5,8|0,0:3|0:0,0:0:0:0:
17,103,77629,2,0,L|70:98,1,47.5,6|0,0:3|0:0,0:0:0:0:
70,198,77844,2,0,L|123:203,1,47.5,8|0,0:3|0:0,0:0:0:0:
259,285,78057,6,0,L|366:271,1,95,6|8,0:0|0:3,0:0:0:0:
451,262,78379,1,2,0:0:0:0:
451,262,78486,1,6,0:3:0:0:
426,236,78593,1,2,0:0:0:0:
410,201,78700,1,8,0:3:0:0:
417,149,78807,1,2,0:0:0:0:
442,108,78915,2,0,P|455:88|465:67,1,47.5,6|0,0:3|0:0,0:0:0:0:
323,0,79129,2,0,P|320:23|322:47,1,47.5,8|0,0:3|0:0,0:0:0:0:
337,168,79343,2,0,P|350:148|360:127,1,47.5,6|0,0:3|0:0,0:0:0:0:
227,59,79557,2,0,P|224:82|226:106,1,47.5,8|0,0:3|0:0,0:0:0:0:
287,242,79772,6,0,P|288:290|272:334,1,95,6|8,0:0|0:3,0:0:0:0:
194,370,80093,1,2,0:0:0:0:
194,370,80200,2,0,L|121:358,1,47.5,6|0,0:3|0:0,0:0:0:0:
86,283,80415,2,0,L|21:293,1,47.5,8|0,0:3|0:0,0:0:0:0:
125,73,80629,2,0,B|198:96|218:205|117:245|106:141,1,199.499993911743,6|0,0:3|0:0,0:0:0:0:
118,180,81057,1,6,0:3:0:0:
233,51,81272,1,8,0:3:0:0:
233,51,81486,6,0,B|311:57|280:103|361:101,1,142.5,6|0,0:1|0:0,0:0:0:0:
375,99,81915,2,0,L|361:207,1,95,6|8,0:3|0:3,0:0:0:0:
447,353,82343,1,6,0:3:0:0:
475,262,82557,1,8,0:3:0:0:
475,262,82664,1,2,0:0:0:0:
380,278,82878,1,2,0:0:0:0:
380,278,82985,1,8,0:3:0:0:
344,366,83200,6,0,P|298:380|252:372,1,95,6|8,0:0|0:3,0:0:0:0:
187,323,83522,1,2,0:0:0:0:
187,323,83629,2,0,L|198:261,1,47.5,6|2,0:3|0:0,0:0:0:0:
108,268,83843,2,0,L|97:206,1,47.5,8|2,0:3|0:0,0:0:0:0:
99,109,84057,1,6,0:3:0:0:
128,97,84165,1,2,0:0:0:0:
159,98,84272,1,12,0:3:0:0:
183,113,84379,1,2,0:0:0:0:
202,135,84486,1,6,0:3:0:0:
235,162,84593,1,2,0:0:0:0:
282,167,84700,1,12,0:3:0:0:
337,147,84807,1,2,0:0:0:0:
370,108,84915,6,0,L|369:43,1,47.5,6|0,0:1|0:0,0:0:0:0:
246,7,85129,1,12,0:3:0:0:
224,13,85236,1,8,0:3:0:0:
204,19,85343,1,14,0:3:0:0:
185,25,85450,1,8,0:3:0:0:
165,30,85557,2,0,L|118:19,1,47.5,12|0,0:3|0:0,0:0:0:0:
24,132,85772,5,8,0:0:0:0:
19,151,86200,1,8,0:0:0:0:
36,264,86629,6,0,P|81:262|99:303,1,95,6|0,0:1|0:0,0:0:0:0:
148,371,86950,2,0,P|220:323|297:320,1,142.5,6|8,0:3|0:0,0:0:0:0:
343,125,87486,6,0,P|298:123|280:164,1,95,6|0,0:2|0:0,0:0:0:0:
231,231,87807,2,0,P|159:183|82:180,1,142.5,6|8,0:3|0:1,0:0:0:0:
29,64,88343,6,0,B|69:55|69:55|96:62|96:62|162:55,1,113.999996520996,6|0,0:2|0:0,0:0:0:0:
214,0,88665,2,0,B|254:8|254:8|281:1|281:1|347:8,1,113.999996520996,8|0,0:0|0:0,0:0:0:0:
416,40,88986,2,0,L|422:96,1,56.9999982604981,8|0,0:0|0:0,0:0:0:0:
353,174,89200,1,6,0:2:0:0:
423,282,89415,5,8,0:1:0:0:
435,308,89522,1,2,0:1:0:0:
433,334,89629,1,10,0:1:0:0:
406,357,89736,1,8,0:1:0:0:
361,350,89843,1,8,0:1:0:0:
327,312,89950,1,8,0:1:0:0:
282,295,90057,5,6,0:0:0:0:
170,362,91129,2,0,L|123:372,1,47.5,6|8,0:3|0:0,0:0:0:0:
0,261,91343,1,10,0:3:0:0:
26,255,91450,1,8,0:3:0:0:
55,258,91557,1,12,0:3:0:0:
85,274,91665,1,8,0:3:0:0:
103,297,91772,6,0,L|118:203,1,95,2|12,0:0|0:0,0:0:0:0:
141,40,92200,2,0,P|167:79|177:125,1,95,2|12,0:0|0:0,0:0:0:0:
221,202,92522,2,0,L|314:186,1,95,2|0,2:0|0:0,0:0:0:0:
389,232,92843,2,0,L|436:240,1,47.5,12|0,0:0|0:0,0:0:0:0:
512,195,93057,1,2,0:0:0:0:
512,195,93272,1,8,0:0:0:0:
447,21,93486,5,2,0:0:0:0:
278,120,93700,5,12,0:0:0:0:
223,37,93915,1,2,0:0:0:0:
319,31,94129,1,12,0:0:0:0:
375,113,94343,1,2,0:0:0:0:
283,308,94557,5,12,0:0:0:0:
194,263,94772,1,2,0:0:0:0:
274,213,94986,1,12,0:0:0:0:
435,248,95200,6,0,L|421:345,1,95,2|12,0:0|0:0,0:0:0:0:
340,366,95522,2,0,P|273:342|202:348,1,142.5,2|12,0:2|0:0,0:0:0:0:
26,297,96057,2,0,P|73:300|114:322,1,95,2|12,0:0|0:0,0:0:0:0:
253,234,96486,1,2,0:0:0:0:
166,268,96700,1,12,0:0:0:0:
174,115,96915,6,0,L|268:136,1,95,2|12,0:0|0:0,0:0:0:0:
339,95,97236,2,0,L|444:85,1,95,2|2,0:2|0:2,0:0:0:0:
510,135,97557,1,12,0:0:0:0:
481,251,97772,2,0,P|427:274|376:273,1,95,2|8,0:0|0:0,0:0:0:0:
331,203,98093,1,0,0:0:0:0:
331,203,98200,2,0,P|276:181|241:144,1,95,2|12,0:0|0:0,0:0:0:0:
199,20,98629,6,0,P|151:20|106:35,1,95,2|12,0:0|0:0,0:0:0:0:
94,114,98950,2,0,P|61:148|39:190,1,95,2|2,0:2|0:2,0:0:0:0:
100,251,99272,2,0,P|100:298|115:343,2,95,12|2|8,0:3|0:0|0:0,0:0:0:0:
147,163,99915,1,2,0:0:0:0:
147,163,100129,1,12,0:0:0:0:
297,278,100343,6,0,P|308:323|310:371,1,95,2|8,0:0|0:0,0:0:0:0:
197,303,100665,2,0,P|203:255|218:211,1,95,2|0,0:2|0:0,0:0:0:0:
301,167,100986,2,0,L|347:173,1,47.5,12|0,0:3|0:0,0:0:0:0:
480,189,101200,2,0,L|470:94,1,95,2|12,0:0|0:0,0:0:0:0:
379,0,101629,2,0,L|369:95,1,95,2|12,0:0|0:0,0:0:0:0:
278,214,102057,5,2,0:0:0:0:
157,104,102272,2,0,L|105:90,4,47.5,12|2|2|2|12,0:0|0:2|0:0|0:2|0:0,0:0:0:0:
30,80,102807,2,0,L|52:232,1,142.5,2|2,0:2|0:2,0:0:0:0:
50,221,103129,6,0,P|92:216|146:228,1,61.7499971733095,12|0,0:0|0:0,0:0:0:0:
177,150,103343,2,0,P|202:169|223:192,1,61.7499971733095,2|0,0:0|0:0,0:0:0:0:
312,177,103557,2,0,P|317:208|316:239,1,61.7499971733095,12|0,0:0|0:0,0:0:0:0:
252,359,103772,5,6,0:2:0:0:
441,258,103986,5,12,0:0:0:0:
438,350,104200,1,0,0:0:0:0:
358,310,104415,1,12,0:0:0:0:
368,122,104629,5,2,0:0:0:0:
426,51,104843,1,12,0:0:0:0:
497,109,105057,1,2,0:0:0:0:
439,180,105272,1,12,0:0:0:0:
286,263,105486,5,2,0:0:0:0:
198,238,105700,1,12,0:0:0:0:
113,214,105915,1,2,0:0:0:0:
6,77,106129,1,12,0:0:0:0:
6,77,106236,1,2,0:2:0:0:
6,77,106343,5,2,0:0:0:0:
137,192,106665,1,2,0:2:0:0:
260,45,106986,1,8,0:0:0:0:
376,125,107200,6,0,L|478:108,1,95,2|12,0:0|0:0,0:0:0:0:
496,274,107629,1,2,0:0:0:0:
441,359,107843,1,12,0:0:0:0:
261,238,108057,5,2,0:0:0:0:
369,249,108272,1,12,0:0:0:0:
305,332,108486,1,2,0:0:0:0:
199,326,108700,1,12,0:0:0:0:
166,166,108915,6,0,P|193:113|199:47,1,95,2|12,0:0|0:0,0:0:0:0:
21,24,109236,2,0,P|31:70|54:111,1,95,2|2,0:2|0:2,0:0:0:0:
157,179,109557,2,0,L|239:171,1,47.5,12|0,0:0|0:0,0:0:0:0:
287,109,109772,1,2,0:0:0:0:
393,131,109986,1,8,0:0:0:0:
393,131,110093,1,2,0:2:0:0:
427,274,110415,1,12,0:0:0:0:
363,348,110629,6,0,P|333:305|323:239,1,95,2|12,0:0|0:0,0:0:0:0:
383,200,110950,2,0,P|404:147|401:91,1,95,2|2,0:2|0:2,0:0:0:0:
353,31,111272,2,0,L|298:12,1,47.5,12|0,0:0|0:0,0:0:0:0:
234,66,111486,1,2,0:0:0:0:
234,66,111700,1,8,0:0:0:0:
37,128,111915,1,8,0:1:0:0:
45,94,112022,1,8,0:1:0:0:
64,63,112129,1,12,0:0:0:0:
90,39,112236,1,8,0:3:0:0:
121,22,112343,6,0,P|145:78|155:139,1,123.499994346619,6|8,0:2|0:0,0:0:0:0:
207,241,112665,1,8,0:0:0:0:
207,241,112772,2,0,P|241:190|288:149,1,123.499994346619,6|8,0:1|0:0,0:0:0:0:
416,89,113093,1,8,0:0:0:0:
416,89,113200,2,0,P|391:145|381:206,1,123.499994346619,10|8,0:3|0:0,0:0:0:0:
382,316,113522,1,8,0:3:0:0:
392,329,113629,1,8,0:0:0:0:
398,346,113736,2,0,P|337:363|273:341,1,123.499994346619,8|0,0:1|0:0,0:0:0:0:
271,334,114057,6,0,L|287:240,1,95,6|8,0:0|0:3,0:0:0:0:
202,202,114379,2,0,L|185:108,1,95,2|0,0:2|0:0,0:0:0:0:
270,22,114700,2,0,L|261:68,1,47.5,12|0,0:0|0:0,0:0:0:0:
121,173,114915,2,0,P|62:173|8:152,1,95,2|8,0:0|0:0,0:0:0:0:
0,34,115236,2,0,P|33:68|75:89,1,95,2|0,0:2|0:0,0:0:0:0:
155,25,115557,2,0,P|178:19|202:17,1,47.5,12|0,0:0|0:0,0:0:0:0:
297,74,115772,6,0,L|423:96,1,95,2|12,0:0|0:0,0:0:0:0:
512,193,116200,1,2,0:0:0:0:
512,193,116307,2,0,P|468:173|421:168,1,95,8|0,0:0|0:0,0:0:0:0:
366,236,116629,2,0,L|289:221,1,71.2500027179719,6|0,0:2|0:0,0:0:0:0:
114,236,116843,2,0,B|154:201|213:210|213:210|191:239,1,142.500005435944,4|2,0:0|0:0,0:0:0:0:
138,321,117165,2,0,B|159:350|159:350|100:359|60:324,1,142.500005435944,8|0,0:1|0:0,0:0:0:0:
10,245,117486,5,6,0:2:0:0:
54,112,117807,2,0,L|78:213,1,71.2500027179719,2|0,0:0|0:0,0:0:0:0:
141,249,118129,2,0,L|150:202,1,35.625001358986,2|0,0:0|0:0,0:0:0:0:
185,141,118343,1,2,0:3:0:0:
185,141,118557,1,2,0:0:0:0:
277,167,118772,1,2,0:3:0:0:
246,74,118986,1,2,0:0:0:0:
222,230,119200,5,6,0:3:0:0:
222,230,119307,1,0,0:0:0:0:
315,293,119522,2,0,P|349:282|385:281,1,71.2500027179719,2|0,0:0|0:0,0:0:0:0:
409,289,119843,2,0,L|401:352,1,35.625001358986,2|0,0:0|0:0,0:0:0:0:
465,373,120057,1,2,0:3:0:0:
504,218,120272,1,0,0:0:0:0:
438,281,120486,1,2,0:3:0:0:
457,147,120700,1,0,0:0:0:0:
402,80,120915,6,0,P|342:81|288:113,1,106.875004076958,6|0,0:3|0:0,0:0:0:0:
291,117,121343,2,0,L|202:98,1,71.2500027179719,2|2,0:3|0:0,0:0:0:0:
53,64,121772,2,0,L|169:41,2,106.875004076958,2|2|2,0:3|0:0|0:0,0:0:0:0:
28,222,122629,1,6,0:3:0:0:
51,216,122736,2,0,P|82:166|83:122,1,71.2500027179719,0|0,0:0|0:0,0:0:0:0:
95,143,123057,2,0,L|188:134,1,71.2500027179719,2|0,0:3|0:0,0:0:0:0:
280,126,123486,1,8,0:3:0:0:
219,208,123700,1,8,0:0:0:0:
219,208,123807,1,8,0:0:0:0:
294,359,124129,2,0,L|328:350,1,35.625001358986,8|0,0:0|0:0,0:0:0:0:
451,346,124343,6,0,B|459:247|459:247|430:279,1,142.500005435944,14|0,0:1|0:0,0:0:0:0:
347,271,124665,2,0,B|304:265|304:265|334:245|348:223|331:197|301:191,1,142.500005435944,6|0,0:0|0:0,0:0:0:0:
190,225,124986,2,0,B|237:220|219:174|219:174|250:145|213:115,1,142.500005435944,12|0,0:3|0:0,0:0:0:0:
30,32,125415,1,8,0:1:0:0:
90,160,125629,1,0,0:0:0:0:
90,160,125736,2,0,L|111:52,1,95,8|0,0:0|0:0,0:0:0:0:
185,12,126057,6,0,P|254:14|301:65,1,142.500005435944,14|0,0:1|0:0,0:0:0:0:
352,211,126379,2,0,P|421:197|461:140,1,142.500005435944,6|0,0:0|0:0,0:0:0:0:
317,78,126700,2,0,B|266:90|266:90|239:119|239:119|187:128,1,142.500005435944,12|0,0:3|0:0,0:0:0:0:
110,80,127022,1,2,0:0:0:0:
110,80,127129,1,8,0:3:0:0:
61,80,127236,1,8,0:3:0:0:
35,103,127343,1,12,0:1:0:0:
29,131,127450,1,8,0:3:0:0:
38,154,127557,1,8,0:0:0:0:
57,165,127665,1,8,0:0:0:0:
76,171,127772,6,0,P|123:162|205:183,1,95,14|0,0:1|0:0,0:0:0:0:
276,331,128200,1,2,0:3:0:0:
121,244,128415,1,2,0:0:0:0:
121,244,128522,1,2,0:0:0:0:
121,244,128629,1,2,0:3:0:0:
181,369,128843,1,2,0:3:0:0:
280,166,129057,1,2,0:3:0:0:
340,340,129272,1,2,0:3:0:0:
195,198,129486,6,0,L|221:83,1,95,6|2,0:2|0:3,0:0:0:0:
361,0,129915,1,2,0:3:0:0:
371,159,130129,1,2,0:3:0:0:
371,159,130236,1,2,0:0:0:0:
371,158,130343,2,0,P|326:174|279:177,1,95,2|2,0:3|0:3,0:0:0:0:
139,13,130665,2,0,P|186:15|230:32,1,95,2|2,0:0|0:3,0:0:0:0:
272,157,130986,2,0,L|252:230,1,47.5,2|2,0:3|0:3,0:0:0:0:
79,330,131200,6,0,P|43:278|101:255,1,142.5,14|0,0:1|0:3,0:0:0:0:
181,329,131522,2,0,B|275:318|275:318|306:342|306:342|405:333,1,213.750008153916,6|12,0:0|0:3,0:0:0:0:
493,214,131950,5,8,0:3:0:0:
493,214,132057,2,0,P|528:162|470:139,1,142.5,14|0,0:1|0:3,0:0:0:0:
391,212,132379,2,0,B|297:201|297:201|266:225|266:225|167:216,1,213.750008153916,6|8,0:2|0:0,0:0:0:0:
43,64,132915,2,0,B|103:100|159:57|159:57|110:31,1,142.500005435944,14|0,0:1|0:0,0:0:0:0:
241,5,133236,2,0,B|301:-31|357:12|357:12|308:38,1,142.500005435944,6|8,0:3|0:3,0:0:0:0:
378,116,133557,2,0,P|413:123|449:120,1,71.2500027179719,8|2,0:0|0:0,0:0:0:0:
510,56,133772,1,10,0:3:0:0:
289,87,133986,1,8,0:3:0:0:
273,92,134093,1,8,0:3:0:0:
256,97,134200,5,14,0:3:0:0:
258,133,134307,1,8,0:3:0:0:
263,178,134415,1,8,0:3:0:0:
268,216,134522,1,8,0:3:0:0:
272,253,134629,6,0,P|266:301|252:346,1,95,6|8,0:0|0:3,0:0:0:0:
56,291,135057,2,0,P|41:245|36:198,1,95,6|8,0:3|0:3,0:0:0:0:
69,124,135379,1,2,0:0:0:0:
69,124,135486,2,0,L|56:60,1,47.5,6|0,0:3|0:0,0:0:0:0:
149,47,135700,2,0,L|159:1,1,47.5,8|0,0:3|0:0,0:0:0:0:
207,136,135915,2,0,L|216:182,1,47.5,6|0,0:3|0:0,0:0:0:0:
311,179,136129,2,0,L|301:225,1,47.5,8|0,0:3|0:0,0:0:0:0:
373,331,136343,6,0,P|440:313|474:253,1,142.5,6|0,0:1|0:0,0:0:0:0:
462,221,136772,2,0,L|442:123,1,95,6|8,0:3|0:3,0:0:0:0:
372,78,137093,1,2,0:0:0:0:
372,78,137200,2,0,L|298:63,1,47.5,6|0,0:3|0:0,0:0:0:0:
294,158,137415,2,0,L|220:173,1,47.5,8|0,0:3|0:0,0:0:0:0:
82,177,137629,2,0,L|128:186,1,47.5,6|0,0:3|0:0,0:0:0:0:
14,85,137843,2,0,L|60:75,1,47.5,8|0,0:3|0:0,0:0:0:0:
244,0,138057,6,0,L|230:73,3,47.5,6|2|8|2,0:0|0:0|0:3|0:0,0:0:0:0:
293,113,138486,2,0,L|305:215,1,95,6|8,0:3|0:3,0:0:0:0:
240,259,138807,1,2,0:0:0:0:
240,259,138915,2,0,L|229:322,1,47.5,6|0,0:3|0:0,0:0:0:0:
330,376,139129,2,0,L|321:329,1,47.5,8|0,0:3|0:0,0:0:0:0:
456,217,139343,2,0,L|447:263,1,47.5,6|0,0:3|0:0,0:0:0:0:
360,224,139557,2,0,L|351:177,1,47.5,8|0,0:3|0:0,0:0:0:0:
509,54,139772,6,0,P|449:92|379:87,1,142.5,6|0,0:1|0:0,0:0:0:0:
326,18,140200,2,0,L|221:8,1,95,6|8,0:3|0:3,0:0:0:0:
161,54,140522,1,2,0:0:0:0:
161,54,140629,2,0,L|172:117,1,47.5,6|0,0:3|0:0,0:0:0:0:
71,95,140843,2,0,L|60:158,1,47.5,8|0,0:3|0:0,0:0:0:0:
162,236,141057,2,0,L|151:173,1,47.5,6|0,0:3|0:0,0:0:0:0:
65,302,141272,2,0,L|76:239,1,47.5,8|0,0:3|0:0,0:0:0:0:
154,373,141486,6,0,L|263:358,1,95,6|8,0:0|0:3,0:0:0:0:
313,292,141807,1,2,0:0:0:0:
313,292,141915,1,6,0:3:0:0:
325,258,142022,1,2,0:0:0:0:
313,211,142129,1,8,0:3:0:0:
271,185,142236,1,2,0:0:0:0:
221,191,142343,2,0,L|152:213,1,47.5,6|0,0:3|0:0,0:0:0:0:
64,137,142557,2,0,L|133:159,1,47.5,8|0,0:3|0:0,0:0:0:0:
240,95,142772,2,0,L|194:109,1,47.5,6|0,0:3|0:0,0:0:0:0:
60,39,142986,2,0,L|129:61,1,47.5,8|0,0:3|0:0,0:0:0:0:
261,51,143200,5,6,0:1:0:0:
371,27,143415,1,8,0:3:0:0:
477,7,143629,1,6,0:3:0:0:
406,146,143843,1,8,0:3:0:0:
406,146,143950,1,2,0:0:0:0:
406,146,144057,2,0,P|351:126|312:76,1,95,6|8,0:3|0:3,0:0:0:0:
260,41,144379,2,0,P|203:66|149:58,1,95,2|2,0:0|0:0,0:0:0:0:
97,21,144700,2,0,L|61:78,1,47.5,8|0,0:3|0:0,0:0:0:0:
1,186,144915,5,6,0:0:0:0:
1,186,145129,1,8,0:3:0:0:
191,162,145343,1,6,0:3:0:0:
57,105,145557,1,8,0:3:0:0:
183,264,145772,1,6,0:3:0:0:
148,82,145986,5,8,0:3:0:0:
175,63,146093,1,2,0:0:0:0:
218,53,146200,1,6,0:3:0:0:
261,72,146307,1,2,0:0:0:0:
296,115,146415,1,8,0:3:0:0:
344,136,146522,1,2,0:0:0:0:
403,111,146629,6,0,P|434:62|360:49,1,142.5,8|8,0:0|0:3,0:0:0:0:
271,218,146950,2,0,P|240:169|320:159,1,142.5,8|0,0:0|0:0,0:0:0:0:
425,306,147272,2,0,P|456:257|376:247,2,142.5,8|12|8,0:0|0:1|0:0,0:0:0:0:
286,375,147915,5,10,0:0:0:0:
256,368,148022,1,10,0:0:0:0:
227,359,148129,1,10,0:0:0:0:
198,351,148236,1,10,0:0:0:0:
171,339,148343,6,0,L|190:229,1,95,6|8,0:0|0:3,0:0:0:0:
16,115,148772,2,0,L|35:225,1,95,6|8,0:3|0:3,0:0:0:0:
114,230,149093,1,2,0:0:0:0:
114,230,149200,2,0,L|185:241,1,47.5,6|0,0:3|0:0,0:0:0:0:
184,332,149415,2,0,L|255:321,1,47.5,8|0,0:3|0:0,0:0:0:0:
273,196,149629,2,0,L|319:203,1,47.5,6|0,0:3|0:0,0:0:0:0:
360,304,149843,2,0,L|431:293,1,47.5,8|0,0:3|0:0,0:0:0:0:
509,155,150057,6,0,P|451:150|393:75,1,142.5,6|0,0:1|0:0,0:0:0:0:
396,76,150486,2,0,L|288:63,1,95,6|8,0:3|0:3,0:0:0:0:
235,14,150807,1,2,0:0:0:0:
235,14,150915,2,0,L|171:12,1,47.5,6|0,0:3|0:0,0:0:0:0:
40,155,151129,2,0,L|104:153,1,47.5,8|0,0:3|0:0,0:0:0:0:
66,55,151343,2,0,L|130:57,1,47.5,6|0,0:3|0:0,0:0:0:0:
245,170,151557,2,0,L|181:172,1,47.5,8|0,0:3|0:0,0:0:0:0:
38,234,151772,6,0,P|29:304|58:368,1,142.5,6|2,0:0|0:0,0:0:0:0:
81,372,152200,2,0,P|134:347|190:344,1,95,6|8,0:3|0:3,0:0:0:0:
257,353,152522,1,2,0:0:0:0:
257,353,152629,2,0,L|265:292,1,47.5,6|0,0:3|0:0,0:0:0:0:
355,283,152843,2,0,L|347:222,1,47.5,8|0,0:3|0:0,0:0:0:0:
274,135,153057,2,0,L|266:196,1,47.5,6|0,0:3|0:0,0:0:0:0:
164,187,153272,2,0,L|172:248,1,47.5,8|0,0:3|0:0,0:0:0:0:
35,84,153486,6,0,L|184:93,1,142.5,6|0,0:1|0:0,0:0:0:0:
199,92,153915,2,0,L|178:-5,1,95,6|8,0:3|0:3,0:0:0:0:
264,4,154236,1,2,0:0:0:0:
264,4,154343,2,0,L|340:-9,1,47.5,6|0,0:3|0:0,0:0:0:0:
376,65,154557,2,0,L|452:78,1,47.5,8|0,0:3|0:0,0:0:0:0:
411,197,154772,2,0,L|335:210,1,47.5,6|0,0:3|0:0,0:0:0:0:
299,136,154986,2,0,L|223:123,1,47.5,8|0,0:3|0:0,0:0:0:0:
166,39,155200,6,0,P|111:68|48:61,1,95,6|8,0:0|0:3,0:0:0:0:
0,103,155522,1,2,0:0:0:0:
0,103,155629,1,6,0:3:0:0:
29,116,155736,1,2,0:0:0:0:
54,156,155843,1,8,0:3:0:0:
64,197,155950,1,2,0:0:0:0:
61,241,156057,2,0,P|51:268|37:295,1,47.5,6|0,0:3|0:0,0:0:0:0:
144,381,156272,2,0,P|133:359|125:337,1,47.5,8|0,0:3|0:0,0:0:0:0:
175,198,156486,2,0,P|164:219|156:241,1,47.5,6|0,0:3|0:0,0:0:0:0:
251,351,156700,2,0,P|240:329|232:307,1,47.5,8|0,0:3|0:0,0:0:0:0:
277,161,156915,6,0,P|324:151|371:157,1,95,6|8,0:0|0:3,0:0:0:0:
444,202,157236,1,2,0:0:0:0:
444,202,157343,2,0,L|436:278,1,47.5,6|0,0:3|0:0,0:0:0:0:
363,293,157557,2,0,L|379:348,1,47.5,8|0,0:3|0:0,0:0:0:0:
258,161,157772,2,0,B|185:138|165:29|266:-11|277:93,1,199.499993911743,6|0,0:3|0:0,0:0:0:0:
265,54,158200,1,6,0:3:0:0:
22,37,158415,1,8,0:3:0:0:
22,37,158629,6,0,B|101:28|74:93|161:84,1,142.5,6|0,0:1|0:0,0:0:0:0:
170,81,159057,2,0,L|161:127,1,47.5,6|0,0:3|0:0,0:0:0:0:
38,183,159272,2,0,L|60:243,1,47.5,8|0,0:3|0:0,0:0:0:0:
76,369,159486,5,6,0:3:0:0:
84,381,159915,1,0,0:0:0:0:
221,315,160343,6,0,P|258:303|302:303,2,63.3333333333333,6|2|2,0:0|0:0|0:0,0:0:0:0:
344,366,160772,2,0,P|371:319|381:272,2,63.3333333333333,2|2|2,0:3|0:0|0:0,0:0:0:0:
457,309,161200,1,10,0:3:0:0:
472,279,161343,1,2,0:0:0:0:
465,232,161486,1,2,0:0:0:0:
393,192,161629,1,2,0:3:0:0:
360,216,161772,1,2,0:0:0:0:
320,224,161915,1,2,0:0:0:0:
252,147,162057,6,0,B|186:147|209:195|130:190,1,126.666666666667,6|2,0:0|0:0,0:0:0:0:
54,157,162486,2,0,P|36:132|26:82,1,63.3333333333333,2|2,0:3|0:0,0:0:0:0:
48,15,162772,1,2,0:0:0:0:
109,84,162915,2,0,L|155:93,1,47.5,8|0,0:3|0:0,0:0:0:0:
282,0,163236,2,0,L|236:9,1,47.5,8|8,0:0|0:0,0:0:0:0:
310,125,163557,5,8,0:0:0:0:
310,125,163665,1,2,0:3:0:0:
310,125,163772,2,0,B|385:122|352:177|447:171,1,126.666666666667,6|2,0:0|0:0,0:0:0:0:
498,219,164200,2,0,P|502:253|489:312,1,63.3333333333333,2|2,0:3|0:0,0:0:0:0:
431,340,164486,1,2,0:0:0:0:
357,287,164629,2,0,P|311:272|251:278,1,63.3333333333333,10|2,0:3|0:0,0:0:0:0:
226,320,164915,1,2,0:0:0:0:
143,349,165057,1,2,0:3:0:0:
93,333,165200,1,2,0:0:0:0:
68,292,165343,1,2,0:0:0:0:
77,188,165486,6,0,P|115:212|141:258,1,63.3333333333333,2|2,0:3|0:0,0:0:0:0:
171,296,165772,1,2,0:0:0:0:
193,163,165915,2,0,P|211:208|215:261,1,63.3333333333333,2|2,0:3|0:0,0:0:0:0:
201,316,166200,1,2,0:0:0:0:
298,209,166343,2,0,P|298:233|294:257,1,47.5,10|0,0:3|0:0,0:0:0:0:
396,359,166665,2,0,P|392:335|391:311,1,47.5,8|8,0:0|0:0,0:0:0:0:
473,196,166986,5,8,0:0:0:0:
473,196,167093,1,2,0:3:0:0:
473,196,167200,2,0,P|450:137|408:89,1,126.666666666667,6|2,0:0|0:0,0:0:0:0:
333,107,167629,2,0,P|288:121|230:117,1,63.3333333333333,2|2,0:3|0:0,0:0:0:0:
197,82,167915,1,2,0:0:0:0:
130,22,168057,2,0,P|76:27|39:53,1,63.3333333333333,10|2,0:3|0:0,0:0:0:0:
17,105,168343,1,2,0:0:0:0:
55,187,168486,1,2,0:3:0:0:
91,199,168629,1,2,0:0:0:0:
125,199,168772,1,2,0:0:0:0:
196,124,168915,6,0,P|243:99|281:100,2,63.3333333333333,2|2|2,0:3|0:0|0:0,0:0:0:0:
147,207,169343,1,2,0:3:0:0:
152,232,169486,1,2,0:0:0:0:
158,259,169629,1,2,0:0:0:0:
103,347,169772,2,0,P|84:362|62:371,1,47.5,8|0,0:3|0:0,0:0:0:0:
177,258,170093,2,0,P|198:266|217:281,1,47.5,8|8,0:0|0:0,0:0:0:0:
305,353,170415,5,8,0:0:0:0:
305,353,170522,1,2,0:3:0:0:
305,353,170629,2,0,P|371:354|424:322,1,126.666666666667,6|2,0:0|0:0,0:0:0:0:
476,255,171057,1,2,0:3:0:0:
466,219,171200,1,2,0:0:0:0:
441,191,171343,1,2,0:0:0:0:
353,187,171486,1,10,0:3:0:0:
331,203,171629,1,2,0:0:0:0:
294,213,171772,1,2,0:0:0:0:
217,164,171915,1,2,0:3:0:0:
190,136,172057,1,2,0:0:0:0:
144,124,172200,1,2,0:0:0:0:
66,177,172343,6,0,P|47:108|55:38,1,142.5,6|0,0:0|0:0,0:0:0:0:
77,31,172772,2,0,L|146:45,1,47.5,8|0,0:1|0:0,0:0:0:0:
170,121,172986,2,0,L|239:107,1,47.5,8|0,0:1|0:0,0:0:0:0:
327,33,173200,1,2,0:3:0:0:
327,33,173307,2,0,P|297:91|298:157,1,95,2|0,0:3|0:0,0:0:0:0:
293,119,173629,1,2,0:3:0:0:
399,183,173843,5,8,0:1:0:0:
399,183,173950,1,8,0:1:0:0:
399,183,174057,2,0,P|410:238|405:295,1,114,6|2,0:1|0:0,0:0:0:0:
397,314,174486,2,0,L|297:304,1,76,2|2,0:3|0:0,0:0:0:0:
235,343,174915,2,0,L|112:361,2,114,10|2|2,0:3|0:0|0:0,0:0:0:0:
289,258,175772,2,0,P|296:202|284:147,1,114,2|2,0:3|0:0,0:0:0:0:
276,134,176200,2,0,L|202:154,1,76,2|2,0:3|0:0,0:0:0:0:
100,136,176629,1,14,0:3:0:0:
251,21,177272,5,2,0:0:0:0:
251,21,177379,1,2,0:0:0:0:
251,21,177486,2,0,P|321:41|367:27,1,114,6|2,0:3|0:0,0:0:0:0:
380,18,177915,2,0,L|358:103,1,76,2|2,0:3|0:0,0:0:0:0:
422,171,178343,2,0,L|448:314,2,114,10|2|2,0:3|0:0|0:0,0:0:0:0:
310,156,179200,2,0,P|257:174|218:215,1,114,2|0,0:3|0:0,0:0:0:0:
161,276,179629,5,8,0:1:0:0:
161,276,179736,1,8,0:1:0:0:
161,276,179843,2,0,L|170:344,1,38,8|0,0:1|0:0,0:0:0:0:
74,207,180057,1,8,0:3:0:0:
74,207,180165,1,8,0:3:0:0:
74,207,180271,2,0,L|65:275,1,38,8|0,0:3|0:0,0:0:0:0:
16,131,180486,1,8,0:3:0:0:
10,113,180593,1,2,0:3:0:0:
3,94,180700,1,8,0:0:0:0:
143,118,180915,6,0,B|181:24|181:24|125:52,1,142.500005435944,14|0,0:1|3:0,0:0:0:0:
240,162,181236,2,0,B|268:178|269:204|257:229|231:239|231:239|287:251,1,142.500005435944,6|0,0:0|0:0,0:0:0:0:
344,128,181557,2,0,B|382:130|392:105|376:87|376:87|405:69|404:38|339:27,1,142.500005435944,12|0,0:3|0:0,0:0:0:0:
471,160,181986,6,0,L|450:227,1,56.9999982604981,8|8,0:1|0:1,0:0:0:0:
512,279,182200,2,0,L|453:304,1,56.9999982604981,8|8,0:0|0:0,0:0:0:0:
458,382,182415,2,0,L|403:362,1,56.9999982604981,8|8,0:0|0:0,0:0:0:0:
312,350,182629,6,0,B|288:310|244:308|244:308|225:340|177:354,1,142.500005435944,14|0,0:1|0:0,0:0:0:0:
58,271,182950,2,0,B|82:231|126:229|126:229|145:261|193:275,1,142.500005435944,6|0,0:0|0:0,0:0:0:0:
259,219,183272,2,0,P|263:183|260:148,1,71.2500027179719,12|0,0:3|0:0,0:0:0:0:
221,39,183486,5,8,0:1:0:0:
192,32,183593,1,8,0:1:0:0:
163,26,183700,1,8,0:0:0:0:
136,21,183807,1,8,0:0:0:0:
103,12,183915,2,0,P|56:43|31:93,1,113.999996520996,12|0,0:3|0:0,0:0:0:0:
44,173,184236,1,2,0:3:0:0:
43,172,184343,6,0,P|71:211|85:256,1,95,6|0,0:0|0:0,0:0:0:0:
188,376,184772,1,2,0:3:0:0:
10,306,184986,1,2,0:0:0:0:
10,306,185093,1,2,0:0:0:0:
10,306,185200,1,2,0:3:0:0:
165,182,185415,1,2,0:3:0:0:
117,332,185629,1,2,0:3:0:0:
60,132,185843,1,2,0:3:0:0:
241,244,186057,6,0,L|364:223,1,95,6|2,0:0|0:3,0:0:0:0:
466,207,186486,1,2,0:3:0:0:
273,141,186700,1,2,0:3:0:0:
273,141,186807,1,2,0:0:0:0:
273,141,186915,2,0,P|246:76|247:16,1,95,6|0,0:3|0:0,0:0:0:0:
435,100,187236,2,0,B|435:147|409:190,1,95,2|0,0:3|0:0,0:0:0:0:
297,279,187557,2,0,L|236:267,1,47.5,2|0,0:3|0:0,0:0:0:0:
37,169,187772,6,0,P|103:164|92:232,1,142.500005435944,14|0,0:1|0:0,0:0:0:0:
47,371,188093,2,0,P|123:299|244:298,1,213.750008153916,6|8,0:0|0:1,0:0:0:0:
382,60,188629,6,0,P|316:55|327:122,1,142.500005435944,6|0,0:1|0:0,0:0:0:0:
372,261,188950,2,0,P|296:189|175:188,1,213.750008153916,6|8,0:0|0:3,0:0:0:0:
25,73,189486,6,0,B|78:69|78:69|109:83|109:83|164:78,1,142.500005435944,14|0,0:1|0:0,0:0:0:0:
261,108,189807,2,0,P|315:138|277:208,1,142.500005435944,6|0,0:0|0:0,0:0:0:0:
169,234,190129,2,0,P|139:265|122:330,1,71.2500027179719,2|0,0:3|0:0,0:0:0:0:
240,365,190343,6,0,L|396:337,1,142.500005435944,14|0,0:1|0:0,0:0:0:0:
470,247,190665,2,0,P|443:204|353:220,1,142.500005435944,6|0,0:0|0:0,0:0:0:0:
252,262,190986,2,0,P|216:263|183:251,1,71.2500027179719,2|0,0:3|0:0,0:0:0:0:
94,187,191200,6,0,B|87:133|87:133|105:103|105:103|100:12,1,142.500005435944,6|0,0:2|0:0,0:0:0:0:
262,148,191522,2,0,B|313:164|366:128|366:128|340:136|310:126,1,142.500005435944,6|0,0:2|0:0,0:0:0:0:
231,12,191843,2,0,L|202:84,1,71.2500027179719,6|0,0:2|0:0,0:0:0:0:
130,242,192057,5,14,0:3:0:0:
125,257,192272,1,8,0:1:0:0:
150,243,192379,1,8,0:1:0:0:
206,231,192486,1,8,0:3:0:0:
267,245,192593,1,8,0:3:0:0:
315,292,192700,1,8,0:3:0:0:
382,322,192807,1,8,0:3:0:0:
458,320,192915,6,0,L|494:280,3,47.5000018119813,8|8|8|8,0:0|0:0|0:0|0:0,0:0:0:0:
501,170,193343,2,0,P|479:89|429:204,1,285.000010871888,6|2,0:0|0:0,0:0:0:0:
390,305,194200,1,8,0:1:0:0:
369,321,194307,1,8,0:1:0:0:
347,338,194415,1,2,0:3:0:0:
234,293,194629,6,0,P|192:279|119:289,1,92.6249957599642,2|0,0:0|0:0,0:0:0:0:
128,290,195057,2,0,L|138:359,1,61.7499971733095,2|0,0:0|0:0,0:0:0:0:
34,290,195379,1,2,0:0:0:0:
34,290,195486,2,0,L|42:228,1,61.7499971733095,8|8,0:0|0:3,0:0:0:0:
96,162,195807,1,8,0:3:0:0:
96,162,195915,1,8,0:3:0:0:
85,142,196022,1,8,0:3:0:0:
76,122,196129,1,8,0:3:0:0:
68,102,196236,1,8,0:3:0:0:
58,82,196343,6,0,L|123:88,3,47.5000018119813,8|8|8|8,0:0|0:0|0:0|0:0,0:0:0:0:
188,20,196772,2,0,B|265:18|317:78|317:78|304:113|263:132,1,213.750008153916,6|0,0:1|0:0,0:0:0:0:
135,191,197200,6,0,P|130:229|182:253,1,95.0000036239625,6|0,0:3|0:0,0:0:0:0:
292,221,197486,2,0,P|333:198|380:191,1,95.0000036239625,6|0,0:3|0:0,0:0:0:0:
483,251,197772,2,0,L|462:348,1,95.0000036239625,6|0,0:3|0:0,0:0:0:0:
346,363,198057,5,8,0:0:0:0:
275,339,198200,1,8,0:0:0:0:
242,273,198343,1,8,0:0:0:0:
268,138,198486,5,8,0:0:0:0:
282,211,198629,1,8,0:0:0:0:
242,273,198772,1,8,0:0:0:0:
113,318,198915,5,8,0:0:0:0:
169,269,199057,1,8,0:0:0:0:
242,273,199200,1,8,0:0:0:0:
344,347,199343,6,0,L|442:354,1,92.6249957599642,6|0,0:0|0:0,0:0:0:0:
499,313,199772,6,0,L|486:213,1,92.6249957599642,6|0,0:1|0:0,0:0:0:0:
380,206,200200,2,0,L|395:124,1,61.7499971733095,2|0,0:3|0:0,0:0:0:0:
406,67,200522,1,0,0:0:0:0:
406,67,200629,1,2,0:3:0:0:
463,229,200843,1,2,0:3:0:0:
474,120,201057,1,2,0:3:0:0:
367,285,201272,1,2,0:3:0:0:
279,113,201486,6,0,L|263:232,1,92.6249957599642,6|0,0:1|0:0,0:0:0:0:
178,210,201915,2,0,L|190:257,1,30.8749985866547,2|0,0:3|0:0,0:0:0:0:
114,290,202129,2,0,L|99:343,1,30.8749985866547,2|0,0:3|0:0,0:0:0:0:
34,372,202343,1,2,0:3:0:0:
90,167,202557,1,2,0:3:0:0:
193,320,202772,1,2,0:3:0:0:
247,121,202986,1,2,0:3:0:0:
247,121,203200,6,0,P|256:75|287:39,1,95,6|0,0:2|0:0,0:0:0:0:
490,75,203629,1,2,0:3:0:0:
336,112,203843,1,2,0:3:0:0:
400,39,204057,1,2,0:3:0:0:
446,288,204272,5,2,0:3:0:0:
284,324,204486,1,2,0:3:0:0:
377,351,204700,1,2,0:3:0:0:
352,236,204915,6,0,P|409:194|479:188,1,142.500005435944,6|0,0:1|0:3,0:0:0:0:
348,25,205236,2,0,P|329:113|273:164,1,142.500005435944,6|0,0:2|0:3,0:0:0:0:
190,165,205557,2,0,P|207:129|206:87,1,71.2500027179719,6|0,0:2|0:3,0:0:0:0:
93,11,205772,5,4,0:1:0:0:
85,20,205986,2,0,L|54:88,1,47.5,8|8,0:1|0:1,0:0:0:0:
16,244,206200,1,10,0:0:0:0:
67,233,206307,1,10,0:0:0:0:
118,222,206415,1,10,0:0:0:0:
169,211,206522,1,10,0:0:0:0:
219,198,206629,6,0,P|236:248|233:299,1,104.500003189087,6|8,0:0|0:3,0:0:0:0:
371,377,206950,1,2,0:0:0:0:
371,377,207057,2,0,P|346:331|341:279,1,104.500003189087,6|8,0:3|0:3,0:0:0:0:
411,235,207379,1,2,0:0:0:0:
411,235,207486,2,0,L|400:169,1,52.2500015945435,6|0,0:3|0:0,0:0:0:0:
311,199,207700,2,0,L|322:133,1,52.2500015945435,8|0,0:3|0:0,0:0:0:0:
381,35,207915,2,0,L|389:86,1,52.2500015945435,6|0,0:3|0:0,0:0:0:0:
300,0,208129,2,0,L|291:51,1,52.2500015945435,8|0,0:3|0:0,0:0:0:0:
214,193,208343,6,0,L|58:209,1,156.750004783631,6|0,0:1|0:0,0:0:0:0:
43,211,208772,2,0,P|35:150|65:78,1,104.500003189087,6|8,0:3|0:3,0:0:0:0:
105,54,209093,1,2,0:0:0:0:
105,54,209200,2,0,L|186:72,1,52.2500015945435,6|0,0:3|0:0,0:0:0:0:
173,155,209415,2,0,L|254:137,1,52.2500015945435,8|0,0:3|0:0,0:0:0:0:
358,113,209629,2,0,L|306:101,1,52.2500015945435,6|0,0:3|0:0,0:0:0:0:
281,224,209843,2,0,L|229:235,1,52.2500015945435,8|0,0:3|0:0,0:0:0:0:
45,243,210057,6,0,P|116:272|161:335,1,156.750004783631,6|2,0:0|0:0,0:0:0:0:
173,355,210486,2,0,L|197:253,1,104.500003189087,6|8,0:3|0:3,0:0:0:0:
259,190,210807,1,2,0:0:0:0:
259,190,210915,2,0,L|246:115,1,52.2500015945435,6|0,0:3|0:0,0:0:0:0:
346,137,211129,2,0,L|359:62,1,52.2500015945435,8|0,0:3|0:0,0:0:0:0:
210,20,211343,2,0,L|201:71,1,52.2500015945435,6|0,0:3|0:0,0:0:0:0:
107,73,211557,2,0,L|115:124,1,52.2500015945435,8|0,0:3|0:0,0:0:0:0:
195,299,211772,6,0,P|272:288|334:241,1,156.750004783631,6|0,0:1|0:0,0:0:0:0:
353,230,212200,2,0,L|337:346,1,104.500003189087,6|8,0:3|0:3,0:0:0:0:
433,369,212522,1,2,0:0:0:0:
433,369,212629,2,0,L|423:317,1,52.2500015945435,6|0,0:3|0:0,0:0:0:0:
497,290,212843,2,0,L|506:238,1,52.2500015945435,8|0,0:3|0:0,0:0:0:0:
400,162,213057,2,0,L|390:213,1,52.2500015945435,6|0,0:3|0:0,0:0:0:0:
306,219,213272,2,0,L|315:270,1,52.2500015945435,8|0,0:3|0:0,0:0:0:0:
241,356,213486,6,0,P|184:372|111:356,1,104.500003189087,6|8,0:0|0:3,0:0:0:0:
65,320,213807,1,2,0:0:0:0:
65,320,213915,1,6,0:3:0:0:
95,296,214022,1,2,0:0:0:0:
114,258,214129,1,8,0:3:0:0:
110,209,214236,1,2,0:0:0:0:
87,166,214343,2,0,L|80:113,1,52.2500015945435,6|0,0:3|0:0,0:0:0:0:
173,11,214557,2,0,L|166:62,1,52.2500015945435,8|0,0:3|0:0,0:0:0:0:
244,176,214772,2,0,L|237:124,1,52.2500015945435,6|0,0:3|0:0,0:0:0:0:
325,0,214986,2,0,L|319:51,1,52.2500015945435,8|0,0:3|0:0,0:0:0:0:
361,185,215200,6,0,P|421:145|494:150,1,104.500003189087,6|8,0:0|0:3,0:0:0:0:
507,198,215522,1,2,0:0:0:0:
507,198,215629,2,0,L|494:264,1,52.2500015945435,6|0,0:3|0:0,0:0:0:0:
415,279,215843,2,0,L|428:345,1,52.2500015945435,8|0,0:3|0:0,0:0:0:0:
207,364,216057,2,0,B|179:341|147:347|147:347|87:323|90:252|90:252|117:286,1,213.750008153916,6|2,0:3|0:0,0:0:0:0:
189,264,216486,1,6,0:3:0:0:
237,235,216593,1,2,0:0:0:0:
268,190,216700,1,8,0:3:0:0:
280,115,216807,1,2,0:0:0:0:
236,38,216915,6,0,P|189:18|138:25,1,104.500003189087,6|8,0:1|0:3,0:0:0:0:
8,140,217343,1,6,0:3:0:0:
15,166,217450,1,2,0:0:0:0:
42,187,217557,1,8,0:3:0:0:
86,175,217665,1,2,0:0:0:0:
127,135,217772,1,6,0:3:0:0:
185,103,217879,1,2,0:0:0:0:
254,113,217986,1,8,0:3:0:0:
289,153,218093,1,0,0:0:0:0:
302,198,218200,2,0,P|301:222|286:279,1,52.2500015945435,2|2,0:3|0:0,0:0:0:0:
376,360,218415,2,0,P|371:334|370:308,1,52.2500015945435,8|0,0:3|0:0,0:0:0:0:
433,225,218629,5,6,0:0:0:0:
472,206,218736,1,2,0:0:0:0:
487,169,218843,1,8,0:3:0:0:
479,128,218950,1,0,0:0:0:0:
444,99,219057,1,6,0:3:0:0:
394,100,219165,1,2,0:0:0:0:
350,120,219272,1,8,0:3:0:0:
306,147,219379,1,2,0:0:0:0:
246,148,219486,5,6,0:3:0:0:
190,112,219593,1,2,0:0:0:0:
161,50,219700,1,12,0:3:0:0:
118,9,219807,1,2,0:0:0:0:
63,3,219915,1,6,0:3:0:0:
31,24,220022,1,2,0:0:0:0:
22,47,220129,1,12,0:3:0:0:
34,62,220236,1,2,0:0:0:0:
53,62,220343,6,0,L|116:44,1,52.2500015945435,6|0,0:1|0:0,0:0:0:0:
213,15,220557,1,12,0:3:0:0:
253,29,220665,1,8,0:3:0:0:
286,42,220772,1,14,0:3:0:0:
319,58,220879,1,8,0:3:0:0:
352,74,220986,1,12,0:3:0:0:
385,89,221093,1,8,0:3:0:0:
423,106,221200,5,10,0:0:0:0:
481,197,221415,6,0,L|465:187,4,13.0625003986359,2|2|2|2|2,0:0|0:0|0:0|0:0|0:0,0:0:0:0:
423,257,221629,2,0,B|340:259|379:318|283:311,1,156.750004783631,14|0,0:0|0:0,0:0:0:0:
176,338,222077,6,0,P|201:293|201:242,1,104.500003189087,14|0,0:1|0:0,0:0:0:0:
118,226,222398,2,0,L|146:49,1,156.750004783631,6|8,0:0|0:3,0:0:0:0:
329,0,222934,6,0,P|354:45|354:96,1,104.500003189087,6|0,0:0|0:0,0:0:0:0:
270,112,223255,2,0,L|298:289,1,156.750004783631,14|8,0:1|0:1,0:0:0:0:
367,321,223684,1,8,0:1:0:0:
367,321,223791,6,0,P|415:306|376:249,1,132.999995941162,14|0,0:1|0:0,0:0:0:0:
294,259,224112,2,0,B|227:268|227:268|181:305|181:305|95:312,1,199.499993911743,6|2,0:0|0:3,0:0:0:0:
83,177,224648,6,0,P|34:162|74:105,1,132.999995941162,6|0,0:0|0:0,0:0:0:0:
156,115,224969,2,0,B|223:124|223:124|269:161|269:161|355:168,1,199.499993911743,14|8,0:1|0:1,0:0:0:0:
496,104,225505,6,0,P|483:40|432:0,1,132.999995941162,14|0,0:1|0:0,0:0:0:0:
403,88,225827,2,0,B|327:142|258:99|258:99|298:89|330:58,1,199.499993911743,6|2,0:0|0:3,0:0:0:0:
211,5,226362,2,0,P|163:50|155:114,1,132.999995941162,6|0,0:0|0:0,0:0:0:0:
310,293,229041,5,2,0:0:0:0:
256,192,229067,12,0,237612,0:0:0:0:
