osu file format v14

[General]
AudioFilename: audio.mp3
AudioLeadIn: 0
PreviewTime: 192915
Countdown: 0
SampleSet: Drum
StackLeniency: 0.4
Mode: 0
LetterboxInBreaks: 0
WidescreenStoryboard: 1

[Editor]
Bookmarks: 6262,13120,40548,47405,174322
DistanceSpacing: 4.3
BeatDivisor: 4
GridSize: 32
TimelineZoom: 1.7

[Metadata]
Title:I wanna be a girl
TitleUnicode:女の子になりたい
Artist:mafumafu
ArtistUnicode:まふまふ
Creator:Yukiyo
Version:Hard
Source:
Tags:kagura iro onna no ko novelty DeviousPanda onnanoko ni naritai 神楽色アーティファクト Kagurairo Artifact japanese pop j-pop jpop 田中秀和 Tanaka Hidekazu monaca
BeatmapID:2236179
BeatmapSetID:1067733

[Difficulty]
HPDrainRate:4.5
CircleSize:3.9
OverallDifficulty:7
ApproachRate:8
SliderMultiplier:1.7
SliderTickRate:1

[Events]
//Background and Video events
Video,-150,"nya.mp4"
0,0,"lml9tog8osz11.jpg",0,0
//Break Periods
2,160343,173093
//Storyboard Layer 0 (Background)
//Storyboard Layer 1 (Fail)
//Storyboard Layer 2 (Pass)
//Storyboard Layer 3 (Foreground)
//Storyboard Layer 4 (Overlay)
//Storyboard Sound Samples

[TimingPoints]
915,428.571428571429,4,2,1,30,1,0
915,-133.333333333333,4,2,1,30,0,0
4772,-133.333333333333,4,2,1,40,0,0
5200,-222.222222222221,4,2,1,60,0,0
6057,-100,4,2,2,70,0,0
6111,-100,4,2,1,70,0,0
7450,-100,4,3,3,55,0,0
7557,-100,4,3,4,55,0,0
7772,-100,4,2,2,70,0,0
7825,-100,4,2,1,70,0,0
8629,-100,4,2,2,70,0,0
8682,-100,4,2,1,70,0,0
9271,-100,4,2,1,55,0,0
9272,-100,4,3,4,55,0,0
9486,-100,4,2,2,70,0,0
9539,-100,4,2,1,70,0,0
10128,-100,4,2,1,55,0,0
10129,-100,4,3,5,55,0,0
10343,-100,4,2,2,70,0,0
10396,-100,4,2,1,70,0,0
11200,-100,4,2,2,70,0,0
11253,-100,4,2,1,70,0,0
11522,-100,4,3,4,55,0,0
11843,-100,4,3,5,55,0,0
12057,-100,4,2,2,70,0,0
12110,-100,4,2,1,70,0,0
12915,-125,4,3,1,60,0,0
33486,-125,4,2,2,60,0,0
33539,-125,4,3,1,60,0,0
35200,-125,4,2,2,60,0,0
35253,-125,4,3,1,60,0,0
35629,-125,4,2,2,60,0,0
35682,-125,4,3,1,60,0,0
39486,-125,4,2,2,60,0,0
39539,-125,4,3,1,60,0,0
40343,-133.333333333333,4,2,2,60,0,0
40397,-133.333333333333,4,2,1,60,0,0
46665,-133.333333333333,4,3,4,45,0,0
46772,-133.333333333333,4,3,5,45,0,0
46986,-133.333333333333,4,3,6,45,0,0
47200,-74.0740740740741,4,2,2,60,0,0
47254,-74.0740740740741,4,2,1,60,0,0
47522,-74.0740740740741,4,2,2,60,0,0
47576,-74.0740740740741,4,2,1,60,0,0
48379,-100,4,3,3,60,0,0
48593,-100,4,3,4,60,0,0
48700,-100,4,3,5,60,0,0
48915,-74.0740740740741,4,2,2,60,0,0
48969,-74.0740740740741,4,2,1,60,0,0
49236,-74.0740740740741,4,2,2,60,0,0
49290,-74.0740740740741,4,2,1,60,0,0
49986,-100,4,2,1,60,0,0
50415,-100,4,3,3,60,0,0
50522,-100,4,2,1,60,0,0
50629,-100,4,2,2,50,0,0
50682,-100,4,2,1,50,0,0
52343,-100,4,2,2,50,0,0
52396,-100,4,2,1,50,0,0
54057,-68.9655172413793,4,2,1,60,0,0
54379,-68.9655172413793,4,2,2,60,0,0
54432,-68.9655172413793,4,2,1,60,0,0
55237,-68.9655172413793,4,2,2,60,0,0
55290,-68.9655172413793,4,2,1,60,0,0
55557,-68.9655172413793,4,3,3,60,0,0
55772,-68.9655172413793,4,2,2,60,0,0
55825,-68.9655172413793,4,2,1,60,0,0
56415,-68.9655172413793,4,3,4,60,0,0
56522,-68.9655172413793,4,2,1,60,0,0
57057,-80,4,2,1,60,0,0
57486,-100,4,2,2,75,0,1
57540,-100,4,2,1,75,0,1
59200,-100,4,2,2,75,0,1
59254,-100,4,2,1,75,0,1
60915,-100,4,2,2,75,0,1
60969,-100,4,2,1,75,0,1
62629,-100,4,2,2,75,0,1
62683,-100,4,2,1,75,0,1
64343,-100,4,2,2,75,0,1
64397,-100,4,2,1,75,0,1
66057,-100,4,2,2,75,0,1
66111,-100,4,2,1,75,0,1
67772,-100,4,2,2,75,0,1
67826,-100,4,2,1,75,0,1
69486,-74.0740740740741,4,3,3,60,0,1
69700,-74.0740740740741,4,2,1,75,0,1
69807,-74.0740740740741,4,3,5,60,0,1
70021,-74.0740740740741,4,2,1,75,0,1
70129,-74.0740740740741,4,3,4,60,0,1
70343,-74.0740740740741,4,2,2,75,0,1
70397,-74.0740740740741,4,2,1,75,0,1
70772,-86.9565217391304,4,2,1,80,0,1
71200,-100,4,2,2,75,0,1
71254,-100,4,2,1,75,0,1
72915,-100,4,2,2,75,0,1
72969,-100,4,2,1,75,0,1
74629,-100,4,2,2,75,0,1
74683,-100,4,2,1,75,0,1
76343,-100,4,2,2,75,0,1
76397,-100,4,2,1,75,0,1
78057,-100,4,2,2,75,0,1
78111,-100,4,2,1,75,0,1
79772,-100,4,2,2,75,0,1
79826,-100,4,2,1,75,0,1
81486,-100,4,2,2,75,0,1
81540,-100,4,2,1,75,0,1
83200,-100,4,2,2,75,0,1
83254,-100,4,2,1,75,0,1
84915,-100,4,2,2,75,0,1
84969,-100,4,2,1,75,0,1
86629,-100,4,2,2,70,0,0
86682,-100,4,2,1,70,0,0
87271,-100,4,2,1,55,0,0
87272,-100,4,3,5,55,0,0
87486,-100,4,2,2,70,0,0
87539,-100,4,2,1,70,0,0
88343,-83.3333333333333,4,2,2,70,0,0
88396,-83.3333333333333,4,2,1,70,0,0
88665,-83.3333333333333,4,3,4,55,0,0
88986,-83.3333333333333,4,3,5,55,0,0
89200,-83.3333333333333,4,2,2,70,0,0
89253,-83.3333333333333,4,2,1,70,0,0
90057,-125,4,2,1,60,0,0
90058,-125,4,3,1,60,0,0
102807,-83.3333333333333,4,3,1,60,0,0
103129,-142.857142857143,4,3,1,60,0,0
103772,-111.111111111111,4,3,1,60,0,0
112343,-76.9230769230769,4,3,2,60,0,0
112397,-76.9230769230769,4,3,1,60,0,0
112772,-76.9230769230769,4,3,2,60,0,0
112826,-76.9230769230769,4,3,1,60,0,0
114057,-100,4,3,1,60,0,0
116629,-66.6666666666667,4,3,2,60,0,0
116682,-66.6666666666667,4,3,1,60,0,0
117486,-133.333333333333,4,2,2,60,0,0
117540,-133.333333333333,4,2,1,60,0,0
123807,-133.333333333333,4,3,4,45,0,0
123915,-133.333333333333,4,3,5,45,0,0
124129,-133.333333333333,4,3,6,45,0,0
124343,-76.9230769230769,4,2,2,60,0,0
124397,-76.9230769230769,4,2,1,60,0,0
124665,-76.9230769230769,4,2,2,60,0,0
124719,-76.9230769230769,4,2,1,60,0,0
125415,-111.111111111111,4,2,1,60,0,0
125522,-111.111111111111,4,3,3,60,0,0
125736,-111.111111111111,4,3,4,60,0,0
125843,-111.111111111111,4,3,5,60,0,0
126057,-76.9230769230769,4,2,2,60,0,0
126111,-76.9230769230769,4,2,1,60,0,0
126379,-76.9230769230769,4,2,2,60,0,0
126433,-76.9230769230769,4,2,1,60,0,0
127129,-111.111111111111,4,2,1,60,0,0
127558,-111.111111111111,4,3,3,60,0,0
127665,-111.111111111111,4,2,1,60,0,0
127772,-100,4,2,2,50,0,0
127825,-100,4,2,1,50,0,0
129486,-100,4,2,2,50,0,0
129539,-100,4,2,1,50,0,0
131200,-71.4285714285714,4,2,2,60,0,0
131254,-71.4285714285714,4,2,1,60,0,0
131522,-71.4285714285714,4,2,2,60,0,0
131576,-71.4285714285714,4,2,1,60,0,0
132057,-71.4285714285714,4,2,2,60,0,0
132111,-71.4285714285714,4,2,1,60,0,0
132379,-71.4285714285714,4,2,2,60,0,0
132433,-71.4285714285714,4,2,1,60,0,0
132700,-71.4285714285714,4,3,3,60,0,0
132915,-71.4285714285714,4,2,2,60,0,0
132969,-71.4285714285714,4,2,1,60,0,0
133558,-71.4285714285714,4,3,4,60,0,0
133665,-71.4285714285714,4,2,1,60,0,0
134200,-80,4,2,1,60,0,0
134629,-100,4,2,2,75,0,1
134682,-100,4,2,1,75,0,1
136343,-100,4,2,2,75,0,1
136396,-100,4,2,1,75,0,1
138057,-100,4,2,2,75,0,1
138110,-100,4,2,1,75,0,1
139772,-100,4,2,2,75,0,1
139825,-100,4,2,1,75,0,1
141486,-100,4,2,2,75,0,1
141539,-100,4,2,1,75,0,1
143200,-100,4,2,2,75,0,1
143253,-100,4,2,1,75,0,1
144915,-100,4,2,2,75,0,1
144968,-100,4,2,1,75,0,1
146629,-76.9230769230769,4,3,3,60,0,1
146843,-76.9230769230769,4,2,1,75,0,1
146950,-76.9230769230769,4,3,5,60,0,1
147164,-76.9230769230769,4,2,1,75,0,1
147272,-76.9230769230769,4,3,4,60,0,1
147486,-76.9230769230769,4,2,1,85,0,1
147915,-76.9230769230769,4,2,1,80,0,1
148343,-100,4,2,2,75,0,1
148397,-100,4,2,1,75,0,1
150057,-100,4,2,2,75,0,1
150111,-100,4,2,1,75,0,1
151772,-100,4,2,2,75,0,1
151826,-100,4,2,1,75,0,1
153486,-100,4,2,2,75,0,1
153540,-100,4,2,1,75,0,1
155200,-100,4,2,2,75,0,1
155254,-100,4,2,1,75,0,1
156915,-100,4,2,2,75,0,1
156969,-100,4,2,1,75,0,1
158629,-100,4,2,2,75,0,1
158683,-100,4,2,1,75,0,1
160343,-100,4,2,2,60,0,0
160397,-100,4,2,1,60,0,0
162057,-100,4,2,2,60,0,0
162111,-100,4,2,1,60,0,0
163236,-100,4,3,3,50,0,0
163343,-100,4,3,4,50,0,0
163557,-100,4,3,5,50,0,0
163665,-100,4,2,1,60,0,0
163772,-100,4,2,2,60,0,0
163826,-100,4,2,1,60,0,0
166665,-100,4,3,3,50,0,0
166772,-100,4,3,4,50,0,0
166986,-100,4,3,5,50,0,0
167093,-100,4,3,5,60,0,0
167094,-100,4,2,1,60,0,0
167200,-100,4,2,2,60,0,0
167254,-100,4,2,1,60,0,0
170093,-100,4,3,3,50,0,0
170200,-100,4,3,4,50,0,0
170414,-100,4,3,5,50,0,0
170522,-100,4,2,1,60,0,0
170629,-100,4,2,2,60,0,0
170683,-100,4,2,1,60,0,0
172343,-100,4,2,2,60,0,0
172397,-100,4,2,1,60,0,0
174057,-125,4,2,2,60,0,0
174111,-125,4,2,1,60,0,0
180700,-125,4,3,3,50,0,0
180915,-71.4285714285714,4,2,2,60,0,0
180968,-71.4285714285714,4,2,1,60,0,0
181236,-71.4285714285714,4,2,2,60,0,0
181289,-71.4285714285714,4,2,1,60,0,0
181986,-111.111111111111,4,2,1,60,0,0
182200,-111.111111111111,4,3,3,50,0,0
182415,-111.111111111111,4,3,4,50,0,0
182629,-71.4285714285714,4,2,2,60,0,0
182682,-71.4285714285714,4,2,1,60,0,0
182950,-71.4285714285714,4,2,2,60,0,0
183003,-71.4285714285714,4,2,1,60,0,0
183700,-71.4285714285714,4,3,3,50,0,0
183807,-71.4285714285714,4,3,4,50,0,0
183915,-83.3333333333333,4,2,1,60,0,0
184343,-100,4,2,2,60,0,0
184397,-100,4,2,1,60,0,0
186057,-100,4,2,2,60,0,0
186111,-100,4,2,1,60,0,0
187772,-76.9230769230769,4,2,2,70,0,0
187825,-76.9230769230769,4,2,1,70,0,0
188093,-76.9230769230769,4,2,2,70,0,0
188146,-76.9230769230769,4,2,1,70,0,0
188629,-76.9230769230769,4,2,2,70,0,0
188682,-76.9230769230769,4,2,1,70,0,0
188950,-76.9230769230769,4,2,2,70,0,0
189003,-76.9230769230769,4,2,1,70,0,0
189271,-76.9230769230769,4,2,1,40,0,0
189272,-76.9230769230769,4,3,3,40,0,0
189486,-76.9230769230769,4,2,2,70,0,0
189539,-76.9230769230769,4,2,1,70,0,0
189807,-76.9230769230769,4,2,2,70,0,0
189860,-76.9230769230769,4,2,1,70,0,0
190343,-90.9090909090909,4,2,2,70,0,0
190396,-90.9090909090909,4,2,1,70,0,0
190665,-90.9090909090909,4,2,2,70,0,0
190718,-90.9090909090909,4,2,1,70,0,0
191200,-90.9090909090909,4,2,2,70,0,0
191253,-90.9090909090909,4,2,1,70,0,0
191522,-90.9090909090909,4,2,2,70,0,0
191575,-90.9090909090909,4,2,1,70,0,0
191843,-90.9090909090909,4,2,2,70,0,0
191896,-90.9090909090909,4,2,1,70,0,0
192057,-100,4,2,1,70,0,0
192915,-100,4,3,3,60,0,0
192986,-100,4,3,4,60,0,0
193057,-100,4,3,5,60,0,0
193129,-100,4,3,6,60,0,0
193343,-100,4,2,2,75,0,0
193397,-100,4,2,1,75,0,0
193772,-125,4,2,1,75,0,0
194629,-153.846153846153,4,2,1,60,0,0
195486,-153.846153846153,4,3,5,50,0,0
195700,-153.846153846153,4,2,1,60,0,0
196343,-111.111111111111,4,3,3,50,0,0
196414,-111.111111111111,4,3,4,50,0,0
196485,-111.111111111111,4,3,5,50,0,0
196557,-111.111111111111,4,3,6,50,0,0
196772,-83.3333333333333,4,2,2,60,0,0
196825,-83.3333333333333,4,2,1,60,0,0
198057,-83.3333333333333,4,3,3,50,0,0
198200,-83.3333333333333,4,3,4,50,0,0
198343,-83.3333333333333,4,3,5,50,0,0
198486,-83.3333333333333,4,3,6,50,0,0
198629,-83.3333333333333,4,3,5,50,0,0
198772,-83.3333333333333,4,3,4,50,0,0
198915,-83.3333333333333,4,3,3,50,0,0
199058,-83.3333333333333,4,3,4,50,0,0
199201,-83.3333333333333,4,3,5,50,0,0
199343,-117.647058823529,4,2,2,60,0,0
199397,-117.647058823529,4,2,1,60,0,0
199772,-117.647058823529,4,2,2,60,0,0
199826,-117.647058823529,4,2,1,60,0,0
201486,-117.647058823529,4,2,2,60,0,0
201540,-117.647058823529,4,2,1,60,0,0
203200,-100,4,2,2,60,0,0
203254,-100,4,2,1,60,0,0
204915,-71.4285714285714,4,2,2,60,0,0
204968,-71.4285714285714,4,2,1,60,0,0
205236,-71.4285714285714,4,2,2,60,0,0
205289,-71.4285714285714,4,2,1,60,0,0
205557,-71.4285714285714,4,2,2,60,0,0
205610,-71.4285714285714,4,2,1,60,0,0
205986,-100,4,2,1,60,0,0
206629,-90.9090909090909,4,2,2,80,0,1
206682,-90.9090909090909,4,2,1,80,0,1
208343,-90.9090909090909,4,2,2,80,0,1
208396,-90.9090909090909,4,2,1,80,0,1
210057,-90.9090909090909,4,2,2,80,0,1
210110,-90.9090909090909,4,2,1,80,0,1
211772,-90.9090909090909,4,2,2,80,0,1
211825,-90.9090909090909,4,2,1,80,0,1
213486,-90.9090909090909,4,2,2,80,0,1
213539,-90.9090909090909,4,2,1,80,0,1
215200,-90.9090909090909,4,2,2,80,0,1
215253,-90.9090909090909,4,2,1,80,0,1
216915,-90.9090909090909,4,2,2,80,0,1
216968,-90.9090909090909,4,2,1,80,0,1
218629,-90.9090909090909,4,2,2,80,0,1
218682,-90.9090909090909,4,2,1,80,0,1
220343,-90.9090909090909,4,2,2,80,0,1
220396,-90.9090909090909,4,2,1,80,0,1
222077,428.571428571429,4,2,1,50,1,0
222077,-83.3333333333333,4,2,2,70,0,0
222131,-83.3333333333333,4,2,1,70,0,0
222399,-83.3333333333333,4,2,2,70,0,0
222453,-83.3333333333333,4,2,1,70,0,0
222935,-83.3333333333333,4,2,2,70,0,0
222989,-83.3333333333333,4,2,1,70,0,0
223256,-83.3333333333333,4,2,2,70,0,0
223310,-83.3333333333333,4,2,1,70,0,0
223792,-83.3333333333333,4,2,2,70,0,0
223845,-83.3333333333333,4,2,1,70,0,0
224113,-83.3333333333333,4,2,2,70,0,0
224166,-83.3333333333333,4,2,1,70,0,0
224649,-83.3333333333333,4,2,2,70,0,0
224702,-83.3333333333333,4,2,1,70,0,0
224970,-83.3333333333333,4,2,2,70,0,0
225023,-83.3333333333333,4,2,1,70,0,0
225506,-83.3333333333333,4,2,2,70,0,0
225559,-83.3333333333333,4,2,1,70,0,0
225827,-83.3333333333333,4,2,2,70,0,0
225880,-83.3333333333333,4,2,1,70,0,0
226363,-83.3333333333333,4,2,2,70,0,0
226416,-83.3333333333333,4,2,1,70,0,0
229041,428.571428571429,4,2,1,50,1,0
229077,-83.3333333333333,4,2,1,60,0,0
229792,-83.3333333333333,4,2,1,55,0,0
230649,-83.3333333333333,4,2,1,50,0,0
231506,-83.3333333333333,4,2,1,45,0,0
232363,-83.3333333333333,4,2,1,40,0,0
233220,-83.3333333333333,4,2,1,35,0,0
234077,-83.3333333333333,4,2,1,30,0,0
234935,-83.3333333333333,4,2,1,25,0,0
235792,-83.3333333333333,4,2,1,20,0,0
236649,-83.3333333333333,4,2,1,15,0,0
237506,-83.3333333333333,4,2,1,5,0,0

[Colours]
Combo1 : 140,218,255
Combo2 : 255,187,221
Combo3 : 228,228,228

[HitObjects]
112,107,915,6,0,P|148:160|159:222,1,127.500004863739,4|0,0:1|0:0,0:0:0:0:
118,300,1557,1,0,0:0:0:0:
118,300,1772,2,0,L|201:318,1,63.7500024318696,0|0,1:0|0:0,0:0:0:0:
270,230,2200,2,0,L|192:240,1,63.7500024318696,0|0,1:0|0:0,0:0:0:0:
268,318,2629,6,0,B|337:322|314:366|412:361,1,127.500004863739,0|2,1:0|0:0,0:0:0:0:
458,321,3272,1,2,0:0:0:0:
475,214,3486,2,0,P|413:223|383:290,1,127.500004863739,2|0,1:2|0:0,0:0:0:0:
326,343,4129,6,0,L|193:318,1,127.500004863739,0|0,1:0|0:0,0:0:0:0:
114,288,4772,2,0,L|128:371,1,63.7500024318696
28,243,5200,1,0,1:0:0:0:
24,252,5629,1,0,0:0:0:0:
35,148,6057,6,0,P|81:173|108:229,1,85,6|0,2:1|0:0,0:0:0:0:
146,273,6379,2,0,L|283:288,1,127.5,6|8,0:3|0:1,0:0:0:0:
420,301,6915,6,0,P|374:276|347:220,1,85,6|0,0:3|0:0,0:0:0:0:
309,176,7237,2,0,L|172:161,1,127.5,4|8,0:0|0:0,0:0:0:0:
49,82,7772,6,0,L|149:68,1,85,6|0,2:1|0:0,0:0:0:0:
191,8,8093,2,0,B|243:17|243:17|271:39|271:39|309:44,1,127.5,6|8,3:0|0:1,0:0:0:0:
504,86,8629,6,0,L|404:100,1,85,6|0,0:0|0:0,0:0:0:0:
362,160,8950,2,0,B|310:151|310:151|282:129|282:129|243:123,1,127.5,4|8,0:1|0:0,0:0:0:0:
122,141,9486,6,0,P|100:170|122:219,1,85,6|0,0:1|0:0,0:0:0:0:
198,217,9807,2,0,P|216:266|213:351,1,127.5,6|8,0:3|0:0,0:0:0:0:
392,367,10343,6,0,P|414:338|392:289,1,85,6|0,0:2|0:0,0:0:0:0:
316,291,10664,2,0,P|298:242|301:157,1,127.5,6|8,0:3|0:1,0:0:0:0:
365,86,11200,5,6,0:2:0:0:
256,4,11522,1,8,0:0:0:0:
177,121,11843,1,8,0:0:0:0:
99,70,12057,2,0,P|89:151|147:209,1,170,4|10,0:2|0:1,0:0:0:0:
229,237,12700,5,8,0:1:0:0:
229,237,12807,1,8,0:1:0:0:
229,237,12915,2,0,L|214:328,1,68,6|12,0:0|0:0,0:0:0:0:
275,376,13343,1,2,0:0:0:0:
341,310,13557,2,0,L|435:325,1,68,12|2,0:0|0:0,0:0:0:0:
492,221,13986,2,0,L|398:236,1,68,12|2,0:0|0:0,0:0:0:0:
328,217,14415,1,12,0:0:0:0:
328,217,14629,6,0,P|303:168|302:126,1,68,2|12,0:0|0:0,0:0:0:0:
389,39,15057,2,0,P|377:111|365:131,1,68,2|12,0:0|0:0,0:0:0:0:
374,115,15379,2,0,L|260:105,1,102,2|12,2:0|0:0,0:0:0:0:
256,69,15807,1,2,0:2:0:0:
256,69,15915,2,0,L|167:87,1,68,2|12,2:3|0:3,0:0:0:0:
57,100,16343,6,0,L|66:181,1,68,2|12,0:0|0:0,0:0:0:0:
146,219,16772,2,0,L|153:151,1,68,2|12,0:0|0:0,0:0:0:0:
216,85,17200,1,2,0:0:0:0:
216,85,17415,1,12,0:0:0:0:
291,132,17629,2,0,P|327:147|381:144,1,68,2|12,0:0|0:0,0:0:0:0:
465,100,18057,2,0,L|444:179,1,68,2|12,0:0|0:0,0:0:0:0:
429,197,18379,2,0,L|443:280,1,68,2|2,0:2|0:2,0:0:0:0:
465,292,18700,2,0,L|450:341,1,34,12|0,0:0|0:0,0:0:0:0:
395,370,18915,6,0,B|319:371|339:322|257:326,1,136,2|2,0:0|0:0,0:0:0:0:
192,354,19557,1,12,0:0:0:0:
192,354,19772,2,0,P|147:325|106:321,1,68,2|12,0:0|0:0,0:0:0:0:
81,301,20093,2,0,P|128:276|152:243,1,68,2|2,0:2|0:2,0:0:0:0:
163,236,20415,2,0,L|152:180,1,34,12|0,0:0|0:0,0:0:0:0:
152,163,20629,2,0,L|169:73,1,68,2|8,0:0|0:3,0:0:0:0:
234,32,21057,1,2,0:0:0:0:
338,120,21272,1,12,0:0:0:0:
338,120,21486,6,0,L|254:107,1,68,2|12,0:0|0:0,0:0:0:0:
248,79,21807,2,0,L|180:89,1,68,2|2,0:2|0:2,0:0:0:0:
142,107,22129,2,0,L|78:97,1,34,12|0,0:3|0:0,0:0:0:0:
67,91,22343,2,0,L|50:170,1,68,2|8,0:0|0:3,0:0:0:0:
81,242,22772,1,2,0:0:0:0:
157,185,22986,1,12,0:0:0:0:
161,273,23200,6,0,P|158:324|173:381,2,102,2|2|12,0:0|0:2|0:3,0:0:0:0:
161,181,24057,2,0,L|238:201,1,68,2|12,0:0|0:0,0:0:0:0:
279,273,24486,2,0,L|359:258,1,68,2|12,0:0|0:0,0:0:0:0:
476,138,24915,6,0,P|411:131|364:177,1,136,2|2,0:3|0:0,0:0:0:0:
345,260,25557,1,12,0:0:0:0:
315,351,25772,2,0,P|270:364|197:312,1,136,2|2,0:3|0:0,0:0:0:0:
192,226,26415,1,12,0:0:0:0:
239,139,26629,5,4,0:2:0:0:
239,139,26843,2,0,P|247:104|242:52,1,68,12|2,0:0|0:3,0:0:0:0:
170,15,27272,2,0,L|81:10,1,68,12|2,0:0|0:0,0:0:0:0:
18,110,27700,1,12,0:0:0:0:
18,110,27915,2,0,L|85:106,1,68,2|12,0:0|0:0,0:0:0:0:
159,165,28343,5,2,0:0:0:0:
159,165,28557,1,12,0:0:0:0:
256,185,28772,2,0,P|261:154|256:98,1,68,2|12,0:0|0:0,0:0:0:0:
250,94,29093,2,0,P|248:60|257:27,1,68,2|0,0:2|0:0,0:0:0:0:
257,27,29415,1,12,0:0:0:0:
350,0,29629,2,0,L|432:12,1,68,2|8,0:0|0:3,0:0:0:0:
477,77,30057,5,2,0:0:0:0:
477,77,30271,2,0,L|490:166,1,68,12|2,0:0|0:0,0:0:0:0:
405,182,30700,2,0,L|392:271,1,68,12|2,0:0|0:0,0:0:0:0:
378,343,31129,1,12,0:0:0:0:
230,320,31343,1,2,0:0:0:0:
299,380,31557,1,12,0:0:0:0:
290,257,31772,6,0,P|283:215|271:181,1,68,2|12,0:0|0:0,0:0:0:0:
234,183,32093,2,0,P|209:158|171:140,1,68,2|2,0:2|0:2,0:0:0:0:
149,154,32415,2,0,L|95:162,1,34,12|0,0:0|0:0,0:0:0:0:
84,178,32629,1,2,0:0:0:0:
114,268,32843,1,8,0:3:0:0:
114,268,32950,1,2,0:2:0:0:
114,268,33057,2,0,L|97:365,1,68,2|12,0:0|0:0,0:0:0:0:
205,367,33486,6,0,P|241:333|271:324,1,68,6|12,0:1|0:0,0:0:0:0:
288,302,33807,2,0,P|338:306|374:322,1,68,2|2,0:2|0:2,0:0:0:0:
390,349,34129,2,0,P|415:357|440:359,1,34,12|0,0:0|0:0,0:0:0:0:
498,327,34343,2,0,L|506:215,1,102,2|8,0:0|0:3,0:0:0:0:
452,167,34772,1,8,0:1:0:0:
446,156,34879,1,8,0:1:0:0:
441,146,34986,1,12,0:0:0:0:
440,57,35200,6,0,B|386:57|396:99|326:100,1,102,6|0,0:2|0:0,0:0:0:0:
246,78,35629,2,0,P|245:30|305:33,1,102,6|0,0:1|0:0,0:0:0:0:
283,162,36057,2,0,B|239:166|239:166|218:179|218:179|159:180,1,102,10|8,0:3|0:1,0:0:0:0:
112,137,36486,1,8,0:1:0:0:
112,137,36593,2,0,L|19:126,1,68,8|0,0:1|0:0,0:0:0:0:
4,203,36915,6,0,L|17:299,1,68,6|8,0:0|0:3,0:0:0:0:
54,288,37236,2,0,L|42:381,1,68
78,378,37557,2,0,L|114:361,1,34,12|0,0:0|0:0,0:0:0:0:
161,301,37772,2,0,P|175:246|158:178,1,102,2|2,0:0|0:2,0:0:0:0:
107,92,38415,1,12,0:0:0:0:
107,92,38629,6,0,P|111:54|130:8,1,68,2|12,0:0|0:0,0:0:0:0:
233,29,39057,1,2,0:0:0:0:
233,29,39165,2,0,L|317:38,1,68
338,73,39486,2,0,L|394:65,1,34,6|0,0:2|0:0,0:0:0:0:
424,76,39700,2,0,P|465:94|496:135,1,68,4|2,0:0|0:0,0:0:0:0:
512,187,40022,2,0,P|459:196|430:218,1,68,8|0,0:1|0:0,0:0:0:0:
398,278,40343,6,0,L|301:261,2,95.6250036478044,6|2|0,0:2|0:0|0:0,0:0:0:0:
336,368,41200,2,0,L|230:348,1,95.6250036478044,6|0,0:3|0:0,0:0:0:0:
242,350,41629,1,2,0:3:0:0:
170,297,41843,1,2,0:0:0:0:
76,359,42057,6,0,L|86:322,2,31.8750012159348,6|0|0,0:3|0:0|0:0,0:0:0:0:
31,271,42379,2,0,L|27:178,1,63.7500024318696,2|0,0:0|0:0,0:0:0:0:
28,207,42700,1,2,0:0:0:0:
76,125,42915,2,0,B|130:131|118:162|160:164,1,95.6250036478044,2|0,0:3|0:0,0:0:0:0:
186,166,43343,2,0,L|176:238,1,63.7500024318696,2|0,0:3|0:0,0:0:0:0:
219,319,43772,6,0,P|269:291|326:288,1,95.6250036478044,6|0,0:3|0:0,0:0:0:0:
329,291,44200,2,0,L|316:361,1,63.7500024318696,2|2,0:3|0:0,0:0:0:0:
422,322,44629,1,2,0:3:0:0:
422,322,44736,2,0,L|414:245,1,63.7500024318696,2|0,0:0|0:0,0:0:0:0:
395,228,45057,2,0,L|413:155,1,63.7500024318696,2|2,0:3|0:0,0:0:0:0:
446,66,45486,6,0,P|398:68|339:97,1,95.6250036478044,6|0,0:3|0:0,0:0:0:0:
326,100,45915,2,0,L|253:83,1,63.7500024318696,2|0,0:3|0:0,0:0:0:0:
201,24,46343,2,0,L|116:36,1,63.7500024318696,8|0,0:3|0:0,0:0:0:0:
117,68,46665,2,0,L|36:52,1,63.7500024318696,8|0,0:0|0:0,0:0:0:0:
9,74,46986,2,0,L|25:126,1,31.8750012159348,8|0,0:0|0:0,0:0:0:0:
82,171,47200,6,0,P|104:214|106:284,1,114.750000437737,14|0,0:1|0:0,0:0:0:0:
165,382,47522,2,0,P|180:327|217:283,1,114.750000437737,6|0,0:0|0:0,0:0:0:0:
301,266,47843,2,0,L|366:283,1,57.3750002188683,12|0,0:3|0:0,0:0:0:0:
492,263,48272,1,8,0:1:0:0:
492,263,48379,2,0,L|475:171,1,85,8|8,0:0|0:0,0:0:0:0:
415,137,48700,2,0,L|433:80,1,42.5,8|0,0:0|0:0,0:0:0:0:
399,19,48915,6,0,P|336:32|289:75,1,114.750000437737,14|0,0:1|0:0,0:0:0:0:
276,139,49236,2,0,P|206:171|156:165,1,114.750000437737,6|0,0:0|0:0,0:0:0:0:
103,115,49557,2,0,L|38:107,1,57.3750002188683,12|0,0:3|0:0,0:0:0:0:
41,297,49986,2,0,L|13:396,2,85,8|12|8,0:3|0:1|0:0,0:0:0:0:
133,249,50629,6,0,P|181:268|225:326,1,85,14|0,0:1|0:0,0:0:0:0:
285,362,51057,1,2,0:3:0:0:
400,356,51271,1,2,0:0:0:0:
400,356,51379,1,2,0:0:0:0:
400,356,51486,2,0,P|457:336|501:298,1,85,2|2,0:3|0:3,0:0:0:0:
511,229,51915,1,2,0:3:0:0:
419,158,52129,1,2,0:3:0:0:
333,237,52343,6,0,L|236:246,1,85,6|2,0:2|0:3,0:0:0:0:
160,192,52772,1,2,0:3:0:0:
63,199,52986,1,2,0:3:0:0:
63,199,53093,1,2,0:0:0:0:
63,199,53200,2,0,P|68:158|91:122,1,85,2|2,0:3|0:3,0:0:0:0:
106,105,53522,2,0,L|205:91,1,85,2|2,0:0|0:3,0:0:0:0:
210,73,53843,2,0,L|283:60,1,42.5,2|2,0:3|0:3,0:0:0:0:
339,25,54057,6,0,L|316:167,1,123.250003761292,12|0,0:1|0:3,0:0:0:0:
417,125,54379,2,0,L|391:321,1,184.875005641937,6|12,0:0|0:3,0:0:0:0:
255,371,54915,2,0,L|230:247,1,123.250003761292,14|0,0:1|0:3,0:0:0:0:
153,313,55236,2,0,L|116:131,1,184.875005641937,6|8,0:2|0:0,0:0:0:0:
136,42,55772,5,14,0:1:0:0:
323,7,56093,1,6,0:3:0:0:
262,182,56415,1,8,0:0:0:0:
239,81,56629,5,10,0:3:0:0:
49,147,57057,5,14,0:3:0:0:
36,152,57165,1,8,0:3:0:0:
23,158,57272,1,8,0:3:0:0:
11,166,57379,1,8,0:3:0:0:
0,173,57486,6,0,P|-2:238|26:300,1,127.5,6|0,0:0|0:0,0:0:0:0:
47,314,57915,2,0,L|139:308,1,85,6|8,0:3|0:3,0:0:0:0:
204,348,58236,1,2,0:0:0:0:
204,348,58343,1,6,0:3:0:0:
320,274,58557,1,8,0:3:0:0:
293,369,58772,1,6,0:3:0:0:
226,254,58986,1,8,0:3:0:0:
296,182,59200,6,0,L|432:206,1,127.5,6|0,0:1|0:0,0:0:0:0:
438,209,59629,2,0,P|451:169|447:107,1,85,6|8,0:3|0:3,0:0:0:0:
412,64,59950,1,2,0:0:0:0:
412,64,60057,1,6,0:3:0:0:
304,13,60272,2,0,P|253:17|210:31,2,85,8|6|8,0:3|0:3|0:3,0:0:0:0:
251,134,60915,6,0,P|190:136|109:78,1,127.5,6|0,0:0|0:0,0:0:0:0:
118,96,61343,2,0,L|102:217,1,85,6|8,0:3|0:3,0:0:0:0:
153,244,61665,1,2,0:0:0:0:
153,244,61772,1,6,0:3:0:0:
91,322,61986,1,8,0:3:0:0:
189,333,62200,1,6,0:3:0:0:
246,249,62415,1,8,0:3:0:0:
216,156,62629,6,0,P|213:105|251:15,1,127.5,6|0,0:1|0:0,0:0:0:0:
255,27,63057,2,0,L|351:52,1,85,6|8,0:3|0:3,0:0:0:0:
421,32,63379,1,2,0:0:0:0:
421,32,63486,1,6,0:3:0:0:
487,124,63700,2,0,L|504:223,2,85,8|6|8,0:3|0:3|0:3,0:0:0:0:
407,209,64343,5,6,0:0:0:0:
327,258,64557,2,0,L|267:243,5,42.5,8|2|6|2|8|2,0:3|0:0|0:3|0:0|0:3|0:0,0:0:0:0:
237,219,65200,2,0,P|192:236|142:278,1,85,6|8,0:3|0:3,0:0:0:0:
98,336,65629,2,0,P|42:335|-7:309,1,85,6|8,0:3|0:3,0:0:0:0:
1,222,66057,5,6,0:1:0:0:
33,134,66272,1,8,0:3:0:0:
61,48,66486,1,6,0:3:0:0:
136,9,66700,5,8,0:3:0:0:
136,9,66807,1,2,0:0:0:0:
136,9,66915,2,0,P|167:57|189:110,1,85,6|8,0:3|0:3,0:0:0:0:
227,153,67236,2,0,P|245:115|269:79,1,85,2|2,0:0|0:0,0:0:0:0:
330,24,67557,2,0,L|356:65,1,42.5,8|0,0:3|0:0,0:0:0:0:
430,95,67772,6,0,P|456:148|462:201,1,85,6|8,0:0|0:3,0:0:0:0:
388,237,68200,2,0,P|362:290|356:343,1,85,6|8,0:3|0:3,0:0:0:0:
278,376,68629,1,6,0:3:0:0:
197,347,68843,1,8,0:3:0:0:
173,264,69057,1,6,0:3:0:0:
218,183,69272,1,8,0:3:0:0:
294,143,69486,6,0,L|439:168,1,114.750000437737,8|8,0:0|0:3,0:0:0:0:
492,64,69807,2,0,L|361:77,1,114.750000437737,8|0,0:0|0:0,0:0:0:0:
303,46,70129,2,0,L|226:33,1,57.3750002188683,8|0,0:0|0:0,0:0:0:0:
166,49,70343,2,0,B|68:41|125:116|-1:109,1,172.125000656605,6|0,0:1|0:0,0:0:0:0:
0,187,70772,2,0,L|28:229,3,48.8750009322167,10|10|10|10,0:0|0:0|0:0|0:0,0:0:0:0:
110,237,71200,6,0,P|131:273|144:343,1,85,6|8,0:0|0:3,0:0:0:0:
220,384,71629,2,0,P|231:343|252:306,1,85,6|8,0:3|0:3,0:0:0:0:
329,292,71950,1,2,0:0:0:0:
329,292,72057,1,6,0:3:0:0:
429,303,72272,1,8,0:3:0:0:
385,217,72486,1,6,0:3:0:0:
283,211,72700,1,8,0:3:0:0:
204,272,72915,6,0,P|145:293|49:274,1,127.5,6|0,0:1|0:0,0:0:0:0:
67,280,73343,2,0,L|102:188,1,85,6|8,0:3|0:3,0:0:0:0:
80,128,73665,1,2,0:0:0:0:
80,128,73772,1,6,0:3:0:0:
140,47,73986,2,0,P|101:28|59:25,2,85,8|6|8,0:3|0:3|0:3,0:0:0:0:
221,121,74629,6,0,L|274:108,3,42.5,6|2|8|2,0:0|0:0|0:3|0:0,0:0:0:0:
301,88,75057,2,0,L|399:113,1,85,6|8,0:3|0:3,0:0:0:0:
454,81,75379,1,2,0:0:0:0:
454,81,75486,1,6,0:3:0:0:
502,161,75700,1,8,0:3:0:0:
427,234,75915,1,6,0:3:0:0:
474,325,76129,1,8,0:3:0:0:
393,380,76343,6,0,P|329:364|276:303,1,127.5,6|0,0:1|0:0,0:0:0:0:
283,298,76772,2,0,L|313:202,1,85,6|8,0:3|0:3,0:0:0:0:
284,142,77093,1,2,0:0:0:0:
284,142,77200,1,6,0:3:0:0:
299,45,77415,2,0,P|340:59|367:93,2,85,8|6|8,0:3|0:3|0:3,0:0:0:0:
209,84,78057,5,6,0:0:0:0:
112,99,78272,2,0,L|52:71,5,42.5,8|2|6|2|8|2,0:3|0:0|0:3|0:0|0:3|0:0,0:0:0:0:
26,116,78915,2,0,L|45:220,1,85,6|8,0:3|0:3,0:0:0:0:
133,237,79343,2,0,L|117:348,1,85,6|8,0:3|0:3,0:0:0:0:
222,366,79772,6,0,P|272:333|367:327,1,127.5,6|2,0:0|0:0,0:0:0:0:
337,322,80200,1,6,0:3:0:0:
444,366,80415,1,8,0:3:0:0:
498,234,80629,2,0,B|410:230|439:292|340:295,1,170,6|6,0:3|0:3,0:0:0:0:
274,220,81272,6,0,P|225:245|199:351,1,170,8|8,0:3|0:3,0:0:0:0:
110,373,81915,2,0,P|54:357|24:319,1,85,6|8,0:3|0:3,0:0:0:0:
90,263,82343,2,0,L|71:169,1,85,6|8,0:3|0:3,0:0:0:0:
0,125,82772,2,0,L|19:31,1,85,2|8,0:3|0:3,0:0:0:0:
119,14,83200,6,0,B|192:14|158:68|261:62,1,127.5,6|2,0:0|0:0,0:0:0:0:
250,61,83629,2,0,L|235:147,1,85,6|8,0:3|0:3,0:0:0:0:
299,215,84057,2,0,L|321:302,1,85,6|12,0:3|0:3,0:0:0:0:
381,357,84379,1,2,0:0:0:0:
381,357,84486,2,0,P|425:369|484:353,1,85,6|12,0:3|0:3,0:0:0:0:
506,290,84807,5,2,0:0:0:0:
506,290,84915,1,6,0:1:0:0:
446,185,85129,1,12,0:3:0:0:
376,249,85343,1,14,0:3:0:0:
293,186,85557,1,12,0:3:0:0:
230,261,85772,5,8,0:0:0:0:
233,270,86200,1,8,0:0:0:0:
161,347,86629,6,0,P|122:364|84:347,1,85,6|0,0:1|0:0,0:0:0:0:
37,285,86950,2,0,L|67:140,1,127.5,6|8,0:3|0:0,0:0:0:0:
130,41,87486,6,0,P|170:31|204:55,1,85,6|0,0:2|0:0,0:0:0:0:
254,120,87807,2,0,L|274:281,1,127.5,6|8,0:3|0:1,0:0:0:0:
352,343,88343,6,0,P|402:356|450:343,1,101.999996887207,6|0,0:2|0:0,0:0:0:0:
490,274,88665,2,0,P|475:225|440:189,1,101.999996887207,8|0,0:0|0:0,0:0:0:0:
359,190,88986,2,0,P|330:213|308:259,1,50.9999984436036,8|0,0:0|0:0,0:0:0:0:
282,295,89200,1,6,0:2:0:0:
189,350,89415,2,0,L|127:329,5,50.9999984436036,8|2|10|8|8|8,0:1|0:1|0:1|0:1|0:1|0:1,0:0:0:0:
63,356,90057,5,6,0:0:0:0:
17,206,91342,1,10,0:3:0:0:
17,206,91450,1,8,0:3:0:0:
17,206,91557,1,12,0:3:0:0:
75,123,91772,6,0,P|109:124|141:137,1,68,2|12,0:0|0:0,0:0:0:0:
206,187,92200,2,0,P|235:204|268:207,1,68,2|12,0:0|0:0,0:0:0:0:
306,197,92522,2,0,L|314:113,1,68,2|0,2:0|0:0,0:0:0:0:
328,85,92843,2,0,P|342:75|357:66,1,34,12|0,0:0|0:0,0:0:0:0:
406,48,93057,2,0,L|419:133,1,68,2|8,0:0|0:0,0:0:0:0:
467,202,93486,5,2,0:0:0:0:
467,202,93700,1,12,0:0:0:0:
375,185,93914,2,0,P|333:177|300:182,1,68,2|12,0:0|0:0,0:0:0:0:
276,253,94343,2,0,P|241:276|204:288,1,68,2|12,0:0|0:0,0:0:0:0:
138,240,94772,1,2,0:0:0:0:
138,240,94986,1,12,0:0:0:0:
75,154,95200,6,0,L|104:31,2,102,2|2|12,0:0|0:2|0:0,0:0:0:0:
135,230,96057,2,0,L|145:297,1,68,2|12,0:0|0:0,0:0:0:0:
203,354,96379,1,0,0:0:0:0:
203,354,96486,2,0,P|231:337|264:328,1,68,2|12,0:0|0:0,0:0:0:0:
376,336,96915,6,0,P|405:293|414:244,2,102,2|2|12,0:0|0:2|0:0,0:0:0:0:
320,261,97772,2,0,B|269:263|269:263|241:281|241:281|189:282,1,136,2|2,0:0|0:0,0:0:0:0:
107,277,98415,1,12,0:0:0:0:
106,277,98629,6,0,P|102:226|81:179,1,102,2|2,0:0|0:2,0:0:0:0:
30,64,99271,1,12,0:3:0:0:
30,64,99486,2,0,B|86:71|86:71|110:90|110:90|158:93,1,136,2|2,0:0|0:0,0:0:0:0:
230,45,100129,1,12,0:0:0:0:
312,22,100343,6,0,P|353:52|377:97,2,102,2|2|12,0:0|0:2|0:3,0:0:0:0:
237,74,101200,2,0,L|224:165,1,68,2|12,0:0|0:0,0:0:0:0:
314,180,101629,2,0,L|333:274,1,68,2|12,0:0|0:0,0:0:0:0:
264,348,102057,2,0,L|271:296,5,34,2|0|12|2|2|2,0:0|0:0|0:0|0:2|0:0|0:2,0:0:0:0:
212,263,102700,1,12,0:0:0:0:
212,263,102807,2,0,L|111:280,1,101.999996887207,2|2,0:2|0:2,0:0:0:0:
111,280,103129,5,12,0:0:0:0:
13,237,103343,1,2,0:0:0:0:
104,173,103557,1,12,0:0:0:0:
202,213,103772,6,0,L|294:228,1,76.4999976654053,6|12,0:2|0:0,0:0:0:0:
346,280,104200,2,0,L|445:265,1,76.4999976654053,0|12,0:0|0:0,0:0:0:0:
482,201,104629,1,2,0:0:0:0:
482,201,104843,1,12,0:0:0:0:
411,137,105057,2,0,P|399:95|408:33,1,76.4999976654053,2|12,0:0|0:0,0:0:0:0:
317,17,105486,5,2,0:0:0:0:
317,17,105700,1,12,0:0:0:0:
246,95,105915,2,0,P|201:107|153:108,1,76.4999976654053,2|12,0:0|0:0,0:0:0:0:
130,79,106236,2,0,P|77:56|17:65,1,114.749996498108,2|8,0:2|0:3,0:0:0:0:
0,154,106772,2,0,L|16:228,1,76.4999976654053,0|8,0:0|0:0,0:0:0:0:
87,287,107200,5,2,0:0:0:0:
166,342,107415,2,0,L|247:332,2,76.4999976654053,12|2|12,0:0|0:0|0:0,0:0:0:0:
86,274,108057,2,0,P|67:229|62:182,1,76.4999976654053,2|12,0:0|0:0,0:0:0:0:
121,128,108486,2,0,L|221:150,1,76.4999976654053,2|12,0:0|0:0,0:0:0:0:
278,190,108915,6,0,L|398:179,2,114.749996498108,2|2|12,0:0|0:2|0:0,0:0:0:0:
210,256,109772,2,0,P|203:318|216:358,1,76.4999976654053,2|8,0:0|0:0,0:0:0:0:
255,352,110093,2,0,L|354:327,1,76.4999976654053,2|0,0:2|0:0,0:0:0:0:
368,302,110415,2,0,L|422:307,1,38.2499988327027,12|0,0:0|0:0,0:0:0:0:
475,262,110629,6,0,L|449:124,2,114.749996498108,2|2|12,0:0|0:2|0:0,0:0:0:0:
394,235,111486,2,0,P|345:210|292:205,1,76.4999976654053,2|8,0:0|0:0,0:0:0:0:
251,214,111807,1,0,0:0:0:0:
251,213,111915,2,0,P|232:219|213:220,3,38.2499988327027,8|8|12|8,0:1|0:1|0:0|0:3,0:0:0:0:
231,299,112343,6,0,P|167:297|105:253,1,110.499994941712,6|8,0:2|0:0,0:0:0:0:
56,309,112665,1,8,0:0:0:0:
60,312,112772,2,0,P|16:265|3:190,1,110.499994941712,6|8,0:1|0:0,0:0:0:0:
49,154,113093,1,8,0:0:0:0:
49,154,113200,2,0,L|66:23,1,110.499994941712,10|8,0:3|0:0,0:0:0:0:
63,44,113522,1,8,0:3:0:0:
63,44,113629,1,8,0:0:0:0:
183,54,113843,5,2,0:2:0:0:
183,54,113950,1,2,0:2:0:0:
183,54,114057,2,0,B|237:39|237:39|263:43|263:43|332:29,2,127.5,6|2|12,0:0|0:2|0:0,0:0:0:0:
132,156,114915,2,0,P|208:136|261:156,1,127.5,2|2,0:0|0:2,0:0:0:0:
262,176,115343,2,0,P|306:191|361:188,1,85,0|12,0:0|0:0,0:0:0:0:
424,141,115772,5,2,0:0:0:0:
424,141,115986,1,12,0:0:0:0:
491,211,116200,1,2,0:0:0:0:
491,211,116307,2,0,L|475:307,1,85,8|0,0:0|0:0,0:0:0:0:
425,353,116629,6,0,L|356:341,1,63.7500024318696,6|0,0:2|0:0,0:0:0:0:
246,306,116843,2,0,P|221:331|290:352,1,127.500004863739,4|2,0:0|0:0,0:0:0:0:
322,272,117165,2,0,P|346:246|277:225,1,127.500004863739,8|0,0:1|0:0,0:0:0:0:
194,238,117486,6,0,P|135:251|77:242,2,95.6250036478044,6|2|0,0:2|0:0|0:0,0:0:0:0:
256,182,118343,2,0,P|266:122|255:60,1,95.6250036478044,2|0,0:3|0:0,0:0:0:0:
247,70,118772,1,2,0:3:0:0:
247,70,118986,1,2,0:0:0:0:
164,15,119200,6,0,P|102:27|59:65,1,95.6250036478044,6|2,0:3|0:0,0:0:0:0:
46,70,119629,2,0,L|56:161,1,63.7500024318696,2|2,0:3|0:0,0:0:0:0:
140,181,120057,2,0,P|151:227|133:302,1,95.6250036478044,2|0,0:3|0:0,0:0:0:0:
126,303,120486,2,0,L|217:313,1,63.7500024318696,2|0,0:3|0:0,0:0:0:0:
277,355,120915,6,0,P|337:334|392:335,2,95.6250036478044,6|0|2,0:3|0:0|0:0,0:0:0:0:
225,273,121772,2,0,P|221:213|234:167,1,95.6250036478044,2|2,0:3|0:0,0:0:0:0:
300,59,122415,1,2,0:0:0:0:
300,59,122629,2,0,L|236:69,1,63.7500024318696,6|0,0:3|0:0,0:0:0:0:
221,98,122950,1,2,0:0:0:0:
221,98,123057,2,0,L|147:83,1,63.7500024318696,2|2,0:3|0:0,0:0:0:0:
58,88,123486,1,8,0:3:0:0:
28,177,123700,1,0,0:0:0:0:
28,177,123807,1,8,0:0:0:0:
111,228,124022,1,0,0:0:0:0:
111,228,124129,1,8,0:0:0:0:
192,172,124343,6,0,P|246:160|300:173,1,110.499994941712,14|0,0:1|0:0,0:0:0:0:
326,250,124665,2,0,P|383:239|433:202,1,110.499994941712,6|0,0:0|0:0,0:0:0:0:
486,157,124986,2,0,L|475:88,1,55.2499974708558,12|0,0:3|0:0,0:0:0:0:
312,23,125415,2,0,L|237:5,2,76.4999976654053,8|0|0,0:1|0:0|0:0,0:0:0:0:
259,102,126057,6,0,B|249:143|249:143|254:165|254:165|239:225,1,110.499994941712,14|0,0:1|0:0,0:0:0:0:
325,226,126379,2,0,B|335:267|335:267|330:289|330:289|344:349,1,110.499994941712,6|0,0:0|0:0,0:0:0:0:
276,378,126700,2,0,L|200:362,1,55.2499974708558,12|0,0:3|0:0,0:0:0:0:
109,303,127129,2,0,L|20:321,2,76.4999976654053,8|12|8,0:3|0:1|0:0,0:0:0:0:
171,221,127772,6,0,P|213:226|252:244,1,85,14|0,0:1|0:0,0:0:0:0:
324,305,128200,2,0,P|371:311|425:291,1,85,2|2,0:3|0:0,0:0:0:0:
406,301,128522,1,2,0:0:0:0:
406,301,128629,1,2,0:3:0:0:
485,239,128843,1,2,0:3:0:0:
468,152,129057,1,2,0:3:0:0:
382,126,129272,1,2,0:3:0:0:
308,193,129486,6,0,P|257:209|206:199,1,85,6|2,0:2|0:3,0:0:0:0:
157,129,129915,1,2,0:3:0:0:
75,79,130129,1,2,0:3:0:0:
75,79,130236,1,2,0:2:0:0:
75,79,130343,2,0,P|45:108|29:147,1,85,2|2,0:3|0:3,0:0:0:0:
72,186,130665,2,0,P|102:215|118:254,1,85,2|2,0:0|0:3,0:0:0:0:
119,312,130986,2,0,L|178:325,1,42.5,2|2,0:3|0:3,0:0:0:0:
261,350,131200,6,0,P|234:301|275:264,1,118.999996368408,14|0,0:1|0:3,0:0:0:0:
334,316,131522,2,0,L|508:278,1,178.499994552612,6|12,0:0|0:3,0:0:0:0:
487,145,132057,6,0,P|463:101|400:128,1,118.999996368408,14|0,0:1|0:3,0:0:0:0:
418,204,132379,2,0,L|235:180,1,178.499994552612,6|8,0:2|0:0,0:0:0:0:
158,224,132915,5,14,0:1:0:0:
30,107,133236,1,6,0:3:0:0:
198,47,133557,1,8,0:0:0:0:
131,128,133772,5,10,0:3:0:0:
129,301,134200,5,14,0:3:0:0:
137,319,134307,1,8,0:3:0:0:
144,333,134415,1,8,0:3:0:0:
150,348,134522,1,8,0:3:0:0:
156,362,134629,6,0,L|309:332,1,127.5,6|0,0:0|0:0,0:0:0:0:
305,330,135057,2,0,L|317:236,1,85,6|8,0:3|0:3,0:0:0:0:
385,199,135379,1,2,0:0:0:0:
385,199,135486,1,6,0:3:0:0:
356,111,135700,1,8,0:3:0:0:
444,133,135915,1,6,0:3:0:0:
419,45,136129,1,8,0:3:0:0:
299,34,136343,6,0,P|268:81|288:166,1,127.5,6|0,0:1|0:0,0:0:0:0:
275,172,136772,2,0,L|183:154,1,85,6|8,0:3|0:3,0:0:0:0:
118,197,137093,1,2,0:0:0:0:
118,197,137200,1,6,0:3:0:0:
34,121,137415,2,0,L|10:28,2,85,8|6|8,0:3|0:3|0:3,0:0:0:0:
127,17,138057,6,0,L|274:36,1,127.5,6|2,0:0|0:0,0:0:0:0:
266,39,138486,2,0,P|281:77|282:137,1,85,6|8,0:3|0:3,0:0:0:0:
229,183,138807,1,2,0:0:0:0:
229,183,138915,1,6,0:3:0:0:
302,276,139129,1,8,0:3:0:0:
318,194,139343,1,6,0:3:0:0:
215,271,139557,1,8,0:3:0:0:
319,361,139772,6,0,P|357:341|380:306,1,85,6|8,0:1|0:3,0:0:0:0:
474,220,140200,2,0,L|465:323,1,85,6|8,0:3|0:3,0:0:0:0:
466,304,140522,1,2,0:0:0:0:
466,304,140629,1,6,0:3:0:0:
386,201,140843,2,0,L|368:105,2,85,8|6|8,0:3|0:3|0:3,0:0:0:0:
321,274,141486,5,6,0:0:0:0:
237,321,141700,2,0,L|175:308,5,42.5,8|2|6|2|8|2,0:3|0:0|0:3|0:0|0:3|0:0,0:0:0:0:
162,298,142343,2,0,P|124:314|96:346,1,85,6|8,0:3|0:3,0:0:0:0:
8,315,142772,2,0,P|13:273|0:233,1,85,6|8,0:3|0:3,0:0:0:0:
37,138,143200,5,6,0:1:0:0:
123,159,143415,1,8,0:3:0:0:
214,178,143629,1,6,0:3:0:0:
296,110,143843,5,8,0:3:0:0:
296,110,143950,1,2,0:0:0:0:
296,110,144057,2,0,L|379:126,1,85,6|8,0:3|0:3,0:0:0:0:
424,156,144379,2,0,L|405:257,1,85,2|2,0:0|0:0,0:0:0:0:
408,239,144700,1,8,0:3:0:0:
370,351,144915,6,0,P|323:324|262:320,1,85,6|8,0:0|0:3,0:0:0:0:
184,285,145343,2,0,P|223:270|258:237,1,85,6|8,0:3|0:3,0:0:0:0:
301,164,145772,1,6,0:3:0:0:
281,76,145986,1,8,0:3:0:0:
208,23,146200,1,6,0:3:0:0:
116,39,146415,1,8,0:3:0:0:
48,98,146629,6,0,P|38:152|56:204,1,110.499994941712,8|8,0:0|0:3,0:0:0:0:
136,193,146950,2,0,P|167:237|216:262,1,110.499994941712,8|0,0:0|0:0,0:0:0:0:
274,198,147272,2,0,P|300:206|327:207,1,55.2499974708558,8|0,0:0|0:0,0:0:0:0:
380,131,147486,2,0,B|461:141|433:216|512:217,1,165.749992412568,12|0,0:1|0:0,0:0:0:0:
512,306,147915,2,0,L|488:355,3,55.2499974708558,10|10|10|10,0:0|0:0|0:0|0:0,0:0:0:0:
402,309,148343,6,0,P|418:236|385:173,1,127.5,6|0,0:0|0:0,0:0:0:0:
357,174,148772,2,0,L|335:75,1,85,6|8,0:3|0:3,0:0:0:0:
286,34,149093,1,2,0:0:0:0:
286,34,149200,1,6,0:3:0:0:
211,72,149415,1,8,0:3:0:0:
275,130,149629,1,6,0:3:0:0:
191,154,149843,1,8,0:3:0:0:
259,213,150057,6,0,P|269:275|238:330,1,127.5,6|0,0:1|0:0,0:0:0:0:
217,337,150486,2,0,P|169:322|127:295,1,85,6|8,0:3|0:3,0:0:0:0:
129,232,150807,1,2,0:0:0:0:
129,232,150915,1,6,0:3:0:0:
18,189,151129,2,0,L|32:84,2,85,8|6|8,0:3|0:3|0:3,0:0:0:0:
121,111,151772,6,0,L|219:95,1,85,6|8,0:0|0:3,0:0:0:0:
265,18,152200,2,0,P|296:58|303:115,1,85,6|8,0:3|0:3,0:0:0:0:
265,160,152522,1,2,0:0:0:0:
265,160,152629,1,6,0:3:0:0:
350,187,152843,1,8,0:3:0:0:
326,271,153057,1,6,0:3:0:0:
235,247,153272,1,8,0:3:0:0:
173,169,153486,6,0,P|185:107|232:65,1,127.5,6|0,0:1|0:0,0:0:0:0:
241,45,153915,2,0,P|283:48|319:71,1,85,6|8,0:3|0:3,0:0:0:0:
337,149,154236,1,2,0:0:0:0:
337,149,154343,1,6,0:3:0:0:
422,63,154557,2,0,L|513:53,2,85,8|6|8,0:3|0:3|0:3,0:0:0:0:
400,142,155200,5,6,0:0:0:0:
464,214,155415,2,0,L|455:264,5,42.5,8|2|6|2|8|2,0:3|0:0|0:3|0:0|0:3|0:0,0:0:0:0:
423,297,156057,2,0,P|376:282|318:283,1,85,6|8,0:3|0:3,0:0:0:0:
287,361,156486,2,0,P|238:375|197:368,1,85,6|8,0:3|0:3,0:0:0:0:
103,246,156915,6,0,B|172:238|142:301|256:290,1,127.5,6|0,0:0|0:3,0:0:0:0:
217,290,157343,1,6,0:3:0:0:
306,236,157557,1,8,0:3:0:0:
358,164,157772,2,0,P|277:149|220:207,1,170,6|6,0:3|0:3,0:0:0:0:
321,323,158415,1,8,0:3:0:0:
321,323,158629,6,0,L|436:307,1,85,6|8,0:1|0:3,0:0:0:0:
487,252,159057,1,6,0:3:0:0:
487,252,159165,1,0,0:0:0:0:
487,252,159272,1,8,0:3:0:0:
411,174,159486,5,6,0:3:0:0:
168,54,173843,5,8,0:1:0:0:
168,54,173950,1,8,0:1:0:0:
168,54,174057,2,0,L|58:34,2,102,6|2|2,0:1|0:0|0:0,0:0:0:0:
230,122,174915,2,0,L|340:102,2,102,10|2|2,0:3|0:0|0:0,0:0:0:0:
166,195,175772,2,0,L|56:175,2,102,2|2|2,0:3|0:0|0:0,0:0:0:0:
250,225,176629,2,0,P|274:285|234:335,1,136,14|0,0:3|0:0,0:0:0:0:
92,297,177272,1,2,0:0:0:0:
92,297,177379,1,2,0:0:0:0:
91,297,177486,6,0,P|117:253|159:226,2,102,6|2|2,0:3|0:0|0:0,0:0:0:0:
108,153,178343,2,0,P|156:139|206:150,2,102,10|2|2,0:3|0:0|0:0,0:0:0:0:
232,61,179200,2,0,P|275:86|297:185,1,136,2|8,0:3|0:1,0:0:0:0:
251,251,179843,1,8,0:1:0:0:
251,251,179950,1,8,0:1:0:0:
251,251,180057,2,0,L|306:240,2,34,8|8|8,0:3|0:3|0:3,0:0:0:0:
354,307,180486,2,0,L|409:318,2,34,8|2|8,0:3|0:3|0:0,0:0:0:0:
473,290,180915,6,0,P|485:231|475:173,1,118.999996368408,14|0,0:1|0:0,0:0:0:0:
394,195,181236,2,0,P|360:145|312:111,1,118.999996368408,6|0,0:0|0:0,0:0:0:0:
310,23,181557,2,0,P|281:30|255:45,1,59.4999981842042,12|0,0:3|0:0,0:0:0:0:
86,86,181986,6,0,L|11:69,2,76.4999976654053,8|8|8,0:1|0:0|0:0,0:0:0:0:
159,143,182629,2,0,P|179:200|186:259,1,118.999996368408,14|0,0:1|0:0,0:0:0:0:
153,333,182950,2,0,P|228:317|302:344,1,118.999996368408,6|0,0:0|0:0,0:0:0:0:
345,365,183272,2,0,L|416:339,1,59.4999981842042,12|0,0:3|0:0,0:0:0:0:
481,230,183700,5,8,0:0:0:0:
481,230,183807,1,8,0:0:0:0:
481,230,183915,2,0,L|362:243,1,101.999996887207,12|0,0:3|0:0,0:0:0:0:
319,202,184236,1,2,0:3:0:0:
319,202,184343,6,0,L|208:185,1,85,6|0,0:0|0:0,0:0:0:0:
140,152,184772,1,2,0:3:0:0:
72,80,184986,1,2,0:0:0:0:
72,80,185093,1,2,0:0:0:0:
72,79,185200,2,0,P|47:114|40:156,1,85,2|2,0:3|0:3,0:0:0:0:
132,244,185629,2,0,P|156:209|163:167,1,85,2|2,0:3|0:3,0:0:0:0:
172,49,186057,6,0,L|280:32,1,85,6|2,0:0|0:3,0:0:0:0:
347,22,186486,1,2,0:3:0:0:
435,62,186700,1,2,0:3:0:0:
435,62,186807,1,0,0:0:0:0:
435,62,186915,2,0,P|459:123|464:171,1,85,6|0,0:3|0:0,0:0:0:0:
418,162,187236,2,0,P|394:223|389:271,1,85,2|0,0:3|0:0,0:0:0:0:
426,273,187557,2,0,P|436:291|444:311,1,42.5,2|0,0:3|0:0,0:0:0:0:
413,377,187772,6,0,L|303:361,1,110.499994941712,14|0,0:1|0:0,0:0:0:0:
279,285,188093,2,0,P|208:294|234:375,1,165.749992412568,6|8,0:0|0:1,0:0:0:0:
123,364,188629,6,0,L|101:245,1,110.499994941712,6|0,0:1|0:0,0:0:0:0:
65,183,188950,2,0,P|102:129|145:196,1,165.749992412568,6|8,0:0|0:3,0:0:0:0:
201,270,189486,5,14,0:1:0:0:
313,294,189807,1,6,0:0:0:0:
431,321,190129,1,2,0:3:0:0:
498,255,190343,6,0,L|469:117,2,140.25000428009,14|6|2,0:1|0:0|0:3,0:0:0:0:
431,321,191200,5,6,0:2:0:0:
349,224,191522,1,6,0:2:0:0:
276,128,191843,1,6,0:2:0:0:
205,179,192057,2,0,L|103:194,1,85,14|8,0:3|0:1,0:0:0:0:
56,140,192486,2,0,L|9:130,3,42.5,8|8|8|8,0:3|0:3|0:3|0:3,0:0:0:0:
3,55,192915,5,8,0:0:0:0:
2,55,193343,2,0,P|60:29|122:40,1,127.5,6|0,0:0|0:0,0:0:0:0:
146,59,193772,2,0,L|137:152,1,68,0|2,0:0|0:0,0:0:0:0:
228,182,194200,2,0,L|221:114,1,68,8|2,0:1|0:3,0:0:0:0:
261,41,194629,5,2,0:0:0:0:
393,12,195057,1,2,0:0:0:0:
344,145,195379,2,0,L|349:187,1,27.6249987354279,2|8,0:0|0:0,0:0:0:0:
439,217,195700,1,8,0:3:0:0:
439,217,195807,1,8,0:3:0:0:
439,217,195915,2,0,L|428:295,1,55.2499974708558,8|8,0:3|0:3,0:0:0:0:
361,330,196343,6,0,L|320:321,3,25.4999992218018,8|8|8|0,0:0|0:0|0:0|0:0,0:0:0:0:
281,265,196772,2,0,P|231:275|192:307,1,101.999996887207,6|0,0:1|0:0,0:0:0:0:
83,354,197200,6,0,P|69:306|74:241,1,67.9999979248048,6|0,0:3|0:0,0:0:0:0:
134,235,197486,2,0,P|146:176|137:111,1,67.9999979248048,6|0,0:3|0:0,0:0:0:0:
70,122,197772,2,0,P|61:89|63:55,1,67.9999979248048,6|0,0:3|0:0,0:0:0:0:
139,12,198057,6,0,L|222:-3,2,67.9999979248048,8|8|8,0:0|0:0|0:0,0:0:0:0:
228,92,198486,2,0,L|294:104,2,67.9999979248048,8|8|8,0:0|0:0|0:0,0:0:0:0:
313,13,198915,2,0,L|379:0,2,67.9999979248048,8|8|8,0:0|0:0|0:0,0:0:0:0:
389,96,199343,2,0,P|400:130|400:166,1,72.2500013780594,6|0,0:0|0:0,0:0:0:0:
393,260,199772,6,0,L|291:242,1,72.2500013780594,6|0,0:1|0:0,0:0:0:0:
261,314,200200,2,0,L|159:332,1,72.2500013780594,2|0,0:3|0:0,0:0:0:0:
153,308,200522,1,0,0:0:0:0:
153,308,200629,1,2,0:3:0:0:
83,238,200843,1,2,0:3:0:0:
106,143,201057,1,2,0:3:0:0:
195,124,201272,1,2,0:3:0:0:
267,184,201486,6,0,P|299:198|335:199,1,72.2500013780594,6|0,0:1|0:0,0:0:0:0:
403,137,201915,2,0,P|416:104|422:69,1,72.2500013780594,2|2,0:3|0:3,0:0:0:0:
344,7,202343,2,0,B|274:9|297:62|201:57,1,144.500002756119,2|2,0:3|0:3,0:0:0:0:
119,16,202986,1,2,0:3:0:0:
119,16,203200,6,0,P|87:70|83:118,1,85,6|0,0:2|0:0,0:0:0:0:
152,152,203629,2,0,P|162:196|167:251,1,85,2|2,0:3|0:3,0:0:0:0:
91,308,204057,1,2,0:3:0:0:
173,361,204272,1,2,0:3:0:0:
257,318,204486,1,2,0:3:0:0:
341,272,204700,1,2,0:3:0:0:
423,308,204915,6,0,P|462:263|485:208,1,118.999996368408,6|0,0:1|0:0,0:0:0:0:
406,185,205236,2,0,P|401:125|379:71,1,118.999996368408,6|0,0:2|0:0,0:0:0:0:
298,91,205557,2,0,P|266:64|217:48,1,59.4999981842042,6|0,0:2|0:0,0:0:0:0:
159,60,205772,1,4,0:1:0:0:
73,174,206200,5,10,0:0:0:0:
92,178,206307,1,10,0:0:0:0:
108,184,206415,1,10,0:0:0:0:
123,194,206522,1,10,0:0:0:0:
135,205,206629,6,0,P|162:270|161:340,1,140.25000428009,6|2,0:0|0:0,0:0:0:0:
147,355,207057,2,0,L|253:348,1,93.5000028533936,6|8,0:3|0:3,0:0:0:0:
301,301,207379,1,2,0:0:0:0:
301,301,207486,1,6,0:3:0:0:
381,357,207700,1,8,0:3:0:0:
406,271,207915,1,6,0:3:0:0:
488,314,208129,1,8,0:3:0:0:
487,200,208343,6,0,P|500:145|467:39,1,140.25000428009,6|0,0:1|0:0,0:0:0:0:
465,50,208772,2,0,L|368:64,1,93.5000028533936,6|8,0:3|0:3,0:0:0:0:
299,21,209093,1,2,0:0:0:0:
299,21,209200,1,6,0:3:0:0:
190,63,209415,2,0,L|97:38,2,93.5000028533936,8|6|8,0:3|0:3|0:3,0:0:0:0:
280,126,210057,6,0,P|312:175|310:270,1,140.25000428009,6|2,0:0|0:0,0:0:0:0:
305,282,210486,2,0,L|203:266,1,93.5000028533936,6|8,0:3|0:3,0:0:0:0:
154,208,210807,1,2,0:0:0:0:
154,208,210915,1,6,0:3:0:0:
86,266,211129,1,8,0:3:0:0:
19,197,211343,1,6,0:3:0:0:
91,139,211557,1,8,0:3:0:0:
196,119,211772,6,0,L|350:134,1,140.25000428009,6|0,0:1|0:0,0:0:0:0:
359,139,212200,2,0,P|388:176|406:219,1,93.5000028533936,6|8,0:3|0:3,0:0:0:0:
382,298,212522,1,2,0:0:0:0:
382,298,212629,1,6,0:3:0:0:
293,349,212843,2,0,P|256:335|192:339,2,93.5000028533936,8|6|8,0:3|0:3|0:3,0:0:0:0:
382,298,213486,6,0,B|407:239|407:239|394:180|394:180|415:102,1,187.000005706787,6|6,0:0|0:3,0:0:0:0:
453,29,214129,1,8,0:3:0:0:
453,29,214343,2,0,L|349:35,1,93.5000028533936,6|8,0:3|0:3,0:0:0:0:
313,111,214772,2,0,L|212:97,1,93.5000028533936,6|8,0:3|0:3,0:0:0:0:
152,15,215200,6,0,P|83:28|53:123,1,140.25000428009,6|2,0:0|0:0,0:0:0:0:
49,84,215629,1,6,0:3:0:0:
121,150,215843,1,8,0:3:0:0:
45,237,216057,2,0,B|150:233|106:308|232:300,1,187.000005706787,6|6,0:3|0:3,0:0:0:0:
222,189,216700,6,0,P|301:232|319:321,1,187.000005706787,8|8,0:3|0:3,0:0:0:0:
395,373,217343,2,0,P|441:378|483:357,1,93.5000028533936,6|8,0:3|0:3,0:0:0:0:
512,271,217772,2,0,L|489:180,1,93.5000028533936,6|8,0:3|0:3,0:0:0:0:
396,171,218200,2,0,L|409:78,1,93.5000028533936,6|8,0:3|0:3,0:0:0:0:
338,18,218629,5,6,0:0:0:0:
257,61,218843,2,0,L|190:52,5,46.7500014266968,8|0|6|2|8|2,0:3|0:0|0:3|0:0|0:3|0:0,0:0:0:0:
169,17,219486,2,0,P|86:54|66:142,1,187.000005706787,6|6,0:3|0:3,0:0:0:0:
138,205,220129,5,12,0:3:0:0:
138,205,220236,1,2,0:0:0:0:
138,205,220343,2,0,L|230:220,1,93.5000028533936,6|12,0:1|0:3,0:0:0:0:
320,147,220772,1,14,0:3:0:0:
339,149,220879,1,8,0:3:0:0:
361,152,220986,1,8,0:3:0:0:
383,164,221093,1,8,0:3:0:0:
401,180,221200,2,0,P|431:227|440:273,1,93.5000028533936,10|2,0:0|0:0,0:0:0:0:
381,353,221629,2,0,P|325:355|280:340,1,93.5000028533936,14|0,0:0|0:0,0:0:0:0:
241,266,222077,6,0,P|224:239|161:260,1,101.999996887207,14|0,0:1|0:0,0:0:0:0:
187,334,222398,2,0,P|124:344|37:286,1,152.999995330811,6|8,0:0|0:3,0:0:0:0:
0,159,222934,6,0,P|31:122|78:135,1,101.999996887207,6|0,0:0|0:0,0:0:0:0:
63,216,223255,2,0,P|143:207|208:157,1,152.999995330811,14|8,0:1|0:1,0:0:0:0:
248,47,223791,6,0,L|366:59,1,101.999996887207,14|0,0:1|0:0,0:0:0:0:
467,95,224112,2,0,B|413:108|413:108|388:130|388:130|325:144,1,152.999995330811,6|2,0:0|0:3,0:0:0:0:
247,244,224648,6,0,L|137:264,1,101.999996887207,6|0,0:0|0:0,0:0:0:0:
27,300,224969,2,0,B|81:313|81:313|106:335|106:335|176:353,1,152.999995330811,14|8,0:1|0:1,0:0:0:0:
301,298,225505,6,0,P|351:304|395:329,1,101.999996887207,14|0,0:1|0:0,0:0:0:0:
486,366,225827,2,0,P|468:292|486:218,1,152.999995330811,6|2,0:0|0:3,0:0:0:0:
512,91,226362,2,0,B|471:98|471:98|449:112|449:112|415:117,1,101.999996887207,6|0,0:0|0:0,0:0:0:0:
181,121,229041,5,2,0:0:0:0:
256,192,229067,12,0,237612,0:0:0:0:
