osu file format v14

[General]
AudioFilename: audio.mp3
AudioLeadIn: 0
PreviewTime: 61314
Countdown: 0
SampleSet: Soft
StackLeniency: 0.4
Mode: 0
LetterboxInBreaks: 0
WidescreenStoryboard: 1

[Editor]
Bookmarks: 347,10669,20992,31314,41637,57121,62282,72605,80346,82927,93250,103572,113895,126798,129379,131959,134540,144863,152605,155185,162927,165508,180992,186153,188734,193895,204217,211959,214540,223572
DistanceSpacing: 0.6
BeatDivisor: 4
GridSize: 32
TimelineZoom: 2.800002

[Metadata]
Title:Haikei, Sakura Maichiru Kono Hi ni
TitleUnicode:拝啓、桜舞い散るこの日に
Artist:mafumafu
ArtistUnicode:まふまふ
Creator:Stack
Version:Extra
Source:
Tags:gottagof4ast ggf doraemonelf dora- mafumafu regraz seto kousuke Shirahane Suou mv shounen jump [_l_u_k_a_s_] lukas seolv Kagura Iro Kagurairo Artifact japanese
BeatmapID:2038587
BeatmapSetID:971666

[Difficulty]
HPDrainRate:5
CircleSize:3.8
OverallDifficulty:8.2
ApproachRate:9.2
SliderMultiplier:1.59999990463257
SliderTickRate:1

[Events]
//Background and Video events
0,0,"woke.jpg",0,0
Video,0,"Stack qt.avi"
//Break Periods
2,21192,30260
2,93450,102518
//Storyboard Layer 0 (Background)
//Storyboard Layer 1 (Fail)
//Storyboard Layer 2 (Pass)
//Storyboard Layer 3 (Foreground)
//Storyboard Layer 4 (Overlay)
//Storyboard Sound Samples

[TimingPoints]
347,322.58064516129,4,2,2,45,1,0
347,-200,4,2,2,45,0,0
5508,-142.857142857143,4,2,2,55,0,0
8411,-142.857142857143,4,2,2,25,0,0
8572,-142.857142857143,4,2,2,35,0,0
8734,-142.857142857143,4,2,2,45,0,0
8895,-142.857142857143,4,2,2,55,0,0
9056,-142.857142857143,4,2,2,65,0,0
9217,-142.857142857143,4,2,2,70,0,0
9379,-142.857142857143,4,2,2,75,0,0
9540,-142.857142857143,4,2,2,80,0,0
9701,-142.857142857143,4,2,2,83,0,0
9863,-142.857142857143,4,2,2,86,0,0
10024,-142.857142857143,4,2,2,89,0,0
10105,-142.857142857143,4,2,2,60,0,0
10346,-142.857142857143,4,2,3,60,0,0
10587,-142.857142857143,4,2,99,5,0,0
10669,-90.909090909091,4,2,3,75,0,0
15830,-90.909090909091,4,2,3,80,0,0
18250,-90.909090909091,4,2,33,80,0,0
20992,-90.909090909091,4,2,4,50,0,0
30830,-200,4,2,2,60,0,0
31314,-125,4,2,2,60,0,0
41637,-99.9999999999999,4,2,5,65,0,0
46071,-99.9999999999999,4,2,99,5,0,0
46153,-99.9999999999999,4,2,5,65,0,0
46394,-99.9999999999999,4,2,99,5,0,0
46476,-99.9999999999999,4,2,5,65,0,0
46556,-99.9999999999999,4,2,99,5,0,0
46637,-99.9999999999999,4,2,5,65,0,0
57121,-90.9090909090909,4,2,5,65,0,0
59620,-90.9090909090909,4,2,99,5,0,0
59701,-90.9090909090909,4,2,5,75,0,0
60587,-90.9090909090909,4,2,99,5,0,0
60669,-90.9090909090909,4,2,5,75,0,0
60830,-90.9090909090909,4,2,5,90,0,0
61637,-200,4,2,5,90,0,0
62282,-83.3333333333333,4,2,30,80,0,1
62604,-83.3333333333333,4,2,3,90,0,1
63168,-83.3333333333333,4,2,99,5,0,1
63250,-83.3333333333333,4,2,3,90,0,1
65749,-83.3333333333333,4,2,99,5,0,1
65830,-83.3333333333333,4,2,3,90,0,1
71153,-76.9230769230769,4,2,3,90,0,1
72201,-76.9230769230769,4,2,3,50,0,1
72282,-76.9230769230769,4,2,3,60,0,1
72363,-76.9230769230769,4,2,3,70,0,1
72443,-76.9230769230769,4,2,3,80,0,0
72523,-76.9230769230769,4,2,3,90,0,0
72605,-83.3333333333333,4,2,3,90,0,1
73491,-83.3333333333333,4,2,99,5,0,1
73572,-83.3333333333333,4,2,3,90,0,1
75426,-83.3333333333333,4,2,99,5,0,1
75508,-83.3333333333333,4,2,3,90,0,1
78169,-83.3333333333333,4,2,99,5,0,1
78250,-83.3333333333333,4,2,3,90,0,1
80346,-83.3333333333333,4,2,3,70,0,1
80669,-83.3333333333333,4,2,3,75,0,1
80992,-83.3333333333333,4,2,3,80,0,1
81314,-83.3333333333333,4,2,3,85,0,1
81637,-83.3333333333333,4,2,3,90,0,1
81879,-83.3333333333333,4,2,3,65,0,1
82443,-83.3333333333333,4,2,3,90,0,1
82927,-90.9090909090909,4,2,30,80,0,0
83088,-90.9090909090909,4,2,3,80,0,0
90508,-90.9090909090909,4,2,33,80,0,0
93250,-90.9090909090909,4,2,4,50,0,0
103088,-250,4,2,2,60,0,0
103572,-125,4,2,2,60,0,0
113895,-90.9090909090909,4,2,5,65,0,0
116717,-90.9090909090909,4,2,99,5,0,0
116798,-90.9090909090909,4,2,5,65,0,0
117039,-90.9090909090909,4,2,99,5,0,0
117121,-90.9090909090909,4,2,5,65,0,0
131959,-90.9090909090909,4,2,5,75,0,0
132685,-90.9090909090909,4,2,99,5,0,0
132766,-90.9090909090909,4,2,5,75,0,0
132846,-90.9090909090909,4,2,99,5,0,0
132927,-90.9090909090909,4,2,5,75,0,0
133895,-200,4,2,5,75,0,0
134379,-200,4,2,5,75,0,1
134540,-83.3333333333333,4,2,3,90,0,1
135426,-83.3333333333333,4,2,99,5,0,1
135508,-83.3333333333333,4,2,3,90,0,1
138007,-83.3333333333333,4,2,99,5,0,1
138088,-83.3333333333333,4,2,3,90,0,1
143411,-76.9230769230769,4,2,3,90,0,1
144459,-76.9230769230769,4,2,3,50,0,1
144540,-76.9230769230769,4,2,3,60,0,0
144621,-76.9230769230769,4,2,3,70,0,0
144701,-83.3333333333333,4,2,3,80,0,1
144781,-83.3333333333333,4,2,3,90,0,1
145749,-83.3333333333333,4,2,99,5,0,1
145830,-83.3333333333333,4,2,3,90,0,1
147684,-83.3333333333333,4,2,99,5,0,1
147766,-83.3333333333333,4,2,3,90,0,1
150427,-83.3333333333333,4,2,99,5,0,1
150508,-83.3333333333333,4,2,3,90,0,1
152604,-83.3333333333333,4,2,3,70,0,1
152927,-83.3333333333333,4,2,3,75,0,1
153250,-83.3333333333333,4,2,3,80,0,1
153572,-83.3333333333333,4,2,3,85,0,1
153895,-83.3333333333333,4,2,3,90,0,1
154137,-83.3333333333333,4,2,3,65,0,1
154701,-83.3333333333333,4,2,3,90,0,1
155185,-90.9090909090909,4,2,32,90,0,0
155346,-90.9090909090909,4,2,32,80,0,0
155508,-90.9090909090909,4,2,3,80,0,0
165024,-90.9090909090909,4,2,32,80,0,0
165185,-90.9090909090909,4,2,3,80,0,0
165508,-100,4,2,3,80,0,0
165830,-100,4,2,5,80,0,0
169620,-100,4,2,99,5,0,0
169701,-100,4,2,5,80,0,0
170265,-100,4,2,99,5,0,0
170346,-100,4,2,5,80,0,0
170669,-100,4,2,3,80,0,0
170830,-100,4,2,5,80,0,0
175749,-100,4,2,99,5,0,0
175830,-100,4,2,3,80,0,0
178652,-100,4,2,99,5,0,0
178734,-100,4,2,3,80,0,0
180992,-125,4,2,6,50,0,1
182282,-111.111111111111,4,2,6,50,0,1
183572,-100,4,2,6,60,0,1
184217,-100,4,2,6,70,0,1
184863,-90.9090909090909,4,2,6,80,0,1
185508,-90.9090909090909,4,2,6,90,0,1
186153,-83.3333333333333,4,2,3,90,0,1
186394,-83.3333333333333,4,2,99,5,0,1
186476,-83.3333333333333,4,2,6,44,0,1
186637,-83.3333333333333,4,2,6,48,0,1
186798,-83.3333333333333,4,2,6,52,0,1
186959,-83.3333333333333,4,2,6,56,0,1
187121,-83.3333333333333,4,2,6,60,0,1
187282,-83.3333333333333,4,2,6,64,0,1
187443,-83.3333333333333,4,2,6,68,0,1
187605,-83.3333333333333,4,2,6,72,0,1
187766,-83.3333333333333,4,2,6,76,0,1
187927,-83.3333333333333,4,2,6,80,0,1
188088,-83.3333333333333,4,2,6,82,0,1
188250,-83.3333333333333,4,2,6,86,0,1
188411,-83.3333333333333,4,2,6,90,0,1
188734,-83.3333333333333,4,2,3,90,0,1
188895,-83.3333333333333,4,2,6,90,0,1
189136,-83.3333333333333,4,2,99,5,0,1
189217,-83.3333333333333,4,2,6,90,0,1
189863,-83.3333333333333,4,2,3,90,0,1
190185,-83.3333333333333,4,2,6,100,0,1
190346,-83.3333333333333,4,2,6,100,0,0
193088,-333.333333333333,4,2,5,60,0,0
193813,-333.333333333333,4,2,99,5,0,0
193895,-71.4285714285714,4,2,30,95,0,1
194217,-71.4285714285714,4,2,3,95,0,1
194781,-71.4285714285714,4,2,99,5,0,1
194863,-71.4285714285714,4,2,3,95,0,1
197362,-71.4285714285714,4,2,99,5,0,1
197443,-71.4285714285714,4,2,3,95,0,1
203814,-71.4285714285714,4,2,3,60,0,1
203895,-71.4285714285714,4,2,3,70,0,1
203976,-71.4285714285714,4,2,3,80,0,1
204056,-71.4285714285714,4,2,3,90,0,1
204137,-71.4285714285714,4,2,3,100,0,0
204217,-71.4285714285714,4,2,3,95,0,1
207039,-71.4285714285714,4,2,99,5,0,1
207121,-71.4285714285714,4,2,3,95,0,1
209782,-71.4285714285714,4,2,99,5,0,1
209863,-71.4285714285714,4,2,3,95,0,1
214540,-90.9090909090909,4,2,30,85,0,0
214701,-90.9090909090909,4,2,3,85,0,0
222766,-90.9090909090909,4,2,3,35,0,0
222846,-90.9090909090909,4,2,3,50,0,0
222927,434.782608695652,4,2,3,75,1,0
223144,-100,4,2,6,75,0,0
223579,-100,4,2,3,75,0,0
224231,425.531914893617,4,2,3,75,1,0
224869,-100,4,2,33,75,0,0
229975,-100,4,2,99,5,0,0

[Colours]
Combo1 : 209,174,126
Combo2 : 242,171,74
Combo3 : 216,133,170

[HitObjects]
45,38,347,6,0,L|2:41,2,39.9999976158142,2|0|0,2:0|2:0|2:0,2:0:0:0:
118,96,830,1,2,2:0:0:0:
317,15,1153,2,0,L|360:18,2,39.9999976158142,0|0|0,2:0|2:0|2:0,2:0:0:0:
246,67,1637,2,0,B|231:98|231:98|244:191,1,119.999992847443,2|2,2:0|2:0,2:0:0:0:
440,327,2927,6,0,L|445:276,2,39.9999976158142,2|0|0,2:0|2:0|2:0,2:0:0:0:
369,367,3410,1,2,2:0:0:0:
212,284,3733,2,0,L|209:241,2,39.9999976158142,0|0|0,2:0|2:0|2:0,2:0:0:0:
170,356,4217,2,0,B|139:341|139:341|46:354,1,119.999992847443,2|2,2:0|2:0,2:0:0:0:
50,215,5024,2,0,L|20:225,2,19.9999988079071,8|8|10,2:3|2:3|2:3,2:0:0:0:
132,156,5346,2,0,L|156:158,1,19.9999988079071,8|8,2:3|2:3,2:0:0:0:
70,104,5508,6,0,L|6:115,2,55.9999949531557,2|0|0,3:2|2:0|3:2,2:0:0:0:
162,56,5992,1,2,2:0:0:0:
256,157,6153,2,0,L|259:92,1,55.9999949531557,0|0,3:2|2:0,2:0:0:0:
159,0,6475,2,0,L|162:65,1,55.9999949531557,0|0,3:2|2:0,2:0:0:0:
151,157,6798,6,0,P|204:141|257:158,1,111.999989906311,2|0,3:2|3:2,2:0:0:0:
373,190,7282,2,0,P|319:205|266:188,1,111.999989906311,2|0,2:0|2:0,2:0:0:0:
319,112,7766,1,0,3:2:0:0:
454,150,7927,1,8,2:3:0:0:
454,150,8008,1,8,2:3:0:0:
454,150,8088,6,0,P|462:188|457:216,1,55.9999949531557,6|0,3:2|2:0,2:0:0:0:
346,315,8411,1,0,3:2:0:0:
371,219,8572,1,0,3:2:0:0:
272,384,8734,1,0,3:2:0:0:
260,262,8895,1,0,3:2:0:0:
128,325,9056,1,0,3:2:0:0:
172,175,9217,1,8,3:2:0:0:
346,315,9379,5,8,3:2:0:0:
140,168,9540,1,8,3:2:0:0:
398,200,9701,1,8,3:2:0:0:
106,334,9863,1,8,3:2:0:0:
256,160,10024,1,8,3:2:0:0:
256,160,10105,1,4,2:3:0:0:
256,160,10185,1,4,2:3:0:0:
243,264,10346,6,0,P|233:221|242:182,1,83.9999924297336,8|0,2:1|2:0,2:0:0:0:
256,160,10669,6,0,L|355:147,1,87.9999974403381,6|2,3:1|2:0,2:0:0:0:
102,247,10992,2,0,L|3:234,1,87.9999974403381,2|0,1:2|2:0,2:0:0:0:
267,145,11314,2,0,L|366:132,1,87.9999974403381,2|2,3:2|3:2,2:0:0:0:
140,70,11637,1,2,1:2:0:0:
253,293,11798,6,0,P|298:232|256:137,1,175.999994880676,6|2,3:2|3:2,2:0:0:0:
158,331,12282,1,2,1:2:0:0:
324,234,12443,2,0,P|377:225|432:222,1,87.9999974403381,2|0,2:0|3:2,2:0:0:0:
296,349,12766,1,2,3:2:0:0:
296,349,12846,1,2,3:2:0:0:
296,349,12927,1,2,1:2:0:0:
432,223,13088,1,2,2:0:0:0:
203,213,13250,6,0,L|106:207,1,87.9999974403381,6|0,3:2|2:0,2:0:0:0:
37,59,13572,2,0,P|43:103|34:147,1,87.9999974403381,0|2,1:2|3:2,2:0:0:0:
147,20,13895,1,2,3:2:0:0:
115,207,14056,1,2,3:2:0:0:
21,29,14217,1,2,1:2:0:0:
240,180,14379,6,0,B|267:138|267:138|253:11,1,175.999994880676,6|2,3:2|3:2,2:0:0:0:
133,183,14863,1,2,1:2:0:0:
299,96,15024,2,0,B|386:57|387:141|470:101,1,175.999994880676,6|2,3:2|3:2,2:0:0:0:
340,187,15508,1,2,1:2:0:0:
340,187,15669,1,0,2:0:0:0:
468,278,15830,5,6,3:1:0:0:
356,215,15992,1,2,2:0:0:0:
512,191,16153,1,2,1:2:0:0:
362,318,16314,2,0,L|252:310,1,87.9999974403381,6|0,3:2|2:0,2:0:0:0:
173,199,16637,5,2,3:2:0:0:
253,342,16798,1,2,1:2:0:0:
345,162,16959,2,0,P|351:118|350:73,1,87.9999974403381,6|0,3:2|2:0,2:0:0:0:
173,199,17282,5,2,3:2:0:0:
318,76,17443,1,2,1:2:0:0:
111,11,17605,2,0,P|105:55|106:100,1,87.9999974403381,6|0,3:2|2:0,2:0:0:0:
318,76,17927,5,2,3:2:0:0:
82,181,18088,1,2,1:2:0:0:
379,249,18250,1,4,3:1:0:0:
256,192,18330,12,0,20992,3:2:0:0:
93,88,30830,6,0,L|88:63,2,19.9999988079071,8|8|2,2:3|2:3|2:3,2:0:0:0:
178,138,31153,2,0,L|173:169,1,19.9999988079071,8|8,2:3|2:3,2:0:0:0:
230,78,31314,6,0,P|270:73|307:73,1,63.9999961853028,2|0,3:2|2:0,2:0:0:0:
363,7,31637,2,0,P|387:39|405:71,1,63.9999961853028,2|0,3:2|2:0,2:0:0:0:
490,86,31959,1,2,3:2:0:0:
490,86,32121,1,0,2:0:0:0:
422,157,32282,1,2,3:2:0:0:
481,249,32443,6,0,L|494:396,2,127.999992370606,2|2|2,2:0|2:0|2:0,2:0:0:0:
481,249,33411,1,2,2:0:0:0:
405,279,33572,1,2,3:2:0:0:
328,359,33734,1,2,2:0:0:0:
252,329,33895,6,0,L|246:253,1,63.9999961853028,0|2,3:2|2:0,2:0:0:0:
155,207,34217,2,0,L|217:163,1,63.9999961853028,0|2,3:2|2:0,2:0:0:0:
212,61,34540,1,0,3:2:0:0:
212,61,34701,1,2,2:0:0:0:
291,127,34863,1,2,3:2:0:0:
130,118,35024,5,2,2:0:0:0:
130,118,35508,5,2,3:2:0:0:
110,212,35669,1,2,2:0:0:0:
90,306,35830,1,2,3:2:0:0:
90,306,36153,5,2,3:2:0:0:
110,212,36314,1,2,2:0:0:0:
175,375,36476,6,0,P|206:372|236:361,1,63.9999961853028,0|2,3:2|2:0,2:0:0:0:
343,354,36798,2,0,P|357:325|362:293,1,63.9999961853028,0|2,3:2|2:0,2:0:0:0:
408,198,37121,1,0,3:2:0:0:
408,198,37282,1,2,2:0:0:0:
311,220,37443,1,2,3:2:0:0:
489,270,37605,6,0,P|511:224|502:148,1,127.999992370606,2|2,2:0|2:0,2:0:0:0:
425,87,38088,1,2,3:2:0:0:
311,220,38411,1,2,3:2:0:0:
231,24,38734,1,2,3:2:0:0:
231,24,39056,6,0,B|190:42|190:42|106:32,2,127.999992370606,0|0|0,3:2|3:2|3:2,2:0:0:0:
26,18,40024,5,0,3:2:0:0:
26,18,40185,2,0,L|20:60,1,31.9999980926514,8|8,2:0|2:0,2:0:0:0:
42,142,40346,1,0,3:2:0:0:
132,7,40508,1,0,2:0:0:0:
110,211,40669,1,8,3:2:0:0:
110,211,40992,5,0,3:2:0:0:
149,37,41153,2,0,P|147:57|150:79,2,31.9999980926514,8|8|0,2:0|2:0|3:2,2:0:0:0:
216,140,41476,1,4,2:3:0:0:
313,33,41637,6,0,B|304:100|304:100|308:125|308:125|297:206,1,159.999990463257,4|2,3:1|1:2,2:0:0:0:
419,105,42121,1,10,2:0:0:0:
419,105,42282,2,0,L|429:25,1,79.9999952316285,2|10,3:2|2:0,2:0:0:0:
498,169,42605,1,2,1:2:0:0:
383,245,42766,6,0,P|376:284|378:324,1,79.9999952316285,10|0,2:0|3:2,2:0:0:0:
228,227,43088,2,0,P|265:213|298:191,1,79.9999952316285,10|0,2:0|1:2,2:0:0:0:
290,371,43411,2,0,P|259:345|223:327,1,79.9999952316285,10|0,2:0|3:2,2:0:0:0:
92,284,43734,1,10,2:0:0:0:
120,384,43895,1,2,1:2:0:0:
228,227,44056,1,10,2:0:0:0:
91,375,44217,6,0,L|7:366,1,79.9999952316285,2|10,3:2|2:0,2:0:0:0:
214,250,44540,2,0,L|298:241,1,79.9999952316285,0|10,1:2|2:0,2:0:0:0:
114,162,44863,1,2,3:2:0:0:
114,162,45024,1,10,2:0:0:0:
214,250,45185,1,2,1:2:0:0:
184,47,45346,5,10,2:0:0:0:
184,47,45830,6,0,P|226:69|301:68,1,119.999992847443,2|0,1:2|2:0,2:0:0:0:
331,0,46153,2,0,P|332:47|371:111,1,119.999992847443,2|0,3:2|2:0,2:0:0:0:
429,147,46476,2,0,P|394:138|377:138,1,39.9999976158142,2|0,1:2|2:0,2:0:0:0:
314,185,46637,1,10,2:0:0:0:
493,253,46798,6,0,P|445:273|408:275,1,79.9999952316285,4|10,3:1|2:0,2:0:0:0:
309,369,47121,2,0,P|267:337|247:306,1,79.9999952316285,2|8,1:2|2:0,2:0:0:0:
116,267,47443,2,0,P|122:215|139:182,1,79.9999952316285,2|8,3:2|2:0,2:0:0:0:
248,135,47766,1,2,1:2:0:0:
169,332,47927,6,0,B|130:354|130:354|16:320,1,159.999990463257,10|10,2:0|2:0,2:0:0:0:
114,187,48411,2,0,L|116:270,1,79.9999952316285,2|8,1:2|2:0,2:0:0:0:
0,181,48734,2,0,L|2:98,1,79.9999952316285,2|8,3:2|2:0,2:0:0:0:
91,21,49056,1,0,1:2:0:0:
190,141,49217,6,0,P|234:157|282:158,1,79.9999952316285,8|0,2:0|3:2,2:0:0:0:
359,68,49540,1,8,2:0:0:0:
359,68,49701,1,2,1:2:0:0:
246,70,49863,1,10,2:0:0:0:
375,175,50024,1,2,3:2:0:0:
252,39,50185,1,10,2:0:0:0:
434,113,50346,2,0,P|479:113|517:106,1,79.9999952316285,2|10,1:2|2:0,2:0:0:0:
313,234,50669,5,0,3:2:0:0:
260,9,50992,5,0,1:2:0:0:
153,296,51314,5,0,3:2:0:0:
126,200,51476,1,8,2:0:0:0:
54,354,51637,1,0,1:2:0:0:
54,354,51959,6,0,P|50:309|32:273,1,79.9999952316285,4|10,3:1|2:0,2:0:0:0:
201,221,52282,2,0,P|160:201|119:199,1,79.9999952316285,2|10,1:2|2:0,2:0:0:0:
8,178,52605,1,0,3:2:0:0:
8,178,52766,1,10,2:0:0:0:
128,281,52927,1,2,1:2:0:0:
88,102,53088,5,10,2:0:0:0:
88,102,53411,1,10,2:0:0:0:
200,49,53572,2,0,L|287:43,1,79.9999952316285,2|8,1:2|2:0,2:0:0:0:
443,12,53895,2,0,L|356:6,1,79.9999952316285,0|8,3:2|2:0,2:0:0:0:
170,137,54217,2,0,L|257:131,1,79.9999952316285,0|10,1:2|2:0,2:0:0:0:
363,6,54540,5,4,3:1:0:0:
249,131,54701,1,10,2:0:0:0:
328,3,54863,1,2,1:2:0:0:
385,178,55024,1,14,3:2:0:0:
385,178,55346,5,14,3:2:0:0:
333,32,55508,1,2,2:0:0:0:
279,222,55669,6,0,P|228:238|177:236,1,79.9999952316285,14|0,3:2|2:0,2:0:0:0:
57,161,55992,1,2,2:0:0:0:
57,161,56153,2,0,P|96:197|120:242,1,79.9999952316285,2|0,1:2|2:0,2:0:0:0:
113,368,56476,2,0,L|208:358,1,79.9999952316285,10|0,2:0|3:2,2:0:0:0:
258,323,56717,2,0,L|353:333,1,79.9999952316285,2|0,2:0|1:2,2:0:0:0:
394,382,56959,1,2,1:2:0:0:
472,200,57121,6,0,B|455:246|455:246|479:370,1,175.999994880676,4|0,3:1|1:2,2:0:0:0:
348,235,57605,1,2,2:0:0:0:
348,235,57766,2,0,B|361:185|361:185|337:61,1,175.999994880676,10|2,3:2|1:2,2:0:0:0:
263,180,58250,1,2,2:0:0:0:
174,33,58411,5,8,3:2:0:0:
156,235,58572,1,2,3:2:0:0:
247,93,58734,2,0,P|199:80|156:75,1,87.9999974403381,2|2,1:2|2:0,2:0:0:0:
0,121,59056,1,10,3:2:0:0:
130,216,59217,1,0,3:2:0:0:
53,16,59379,2,0,P|27:58|25:142,1,131.999996160507,2|0,1:2|2:0,2:0:0:0:
53,213,59701,6,0,L|46:318,1,87.9999974403381,4|0,3:1|3:2,2:0:0:0:
163,190,60024,1,0,1:2:0:0:
163,190,60105,1,0,1:2:0:0:
163,190,60185,2,0,L|154:136,1,43.9999987201691,0|0,3:2|3:2,2:0:0:0:
258,255,60346,1,0,1:2:0:0:
258,255,60427,1,0,2:0:0:0:
258,255,60507,2,0,L|249:309,1,43.9999987201691,0|0,3:2|2:0,2:0:0:0:
315,130,60669,5,2,3:2:0:0:
377,295,60830,1,2,1:2:0:0:
430,25,61153,5,0,1:2:0:0:
387,323,61476,5,2,1:2:0:0:
387,323,61637,2,0,P|347:301|277:326,1,119.999992847443,2|2,1:2|2:0,2:0:0:0:
200,379,62282,6,0,B|113:336|110:411|14:370,1,191.999982696534,6|0,3:1|1:2,2:0:0:0:
219,250,62766,1,2,2:0:0:0:
75,121,62927,2,0,B|55:160|55:160|65:266,1,143.9999870224,2|0,3:2|2:0,2:0:0:0:
68,292,63250,1,2,1:2:0:0:
265,177,63411,6,0,P|210:165|167:179,1,95.9999913482669,6|0,3:2|2:0,2:0:0:0:
281,333,63734,1,2,3:2:0:0:
344,125,63895,1,2,1:2:0:0:
398,360,64056,2,0,P|453:372|496:358,1,95.9999913482669,2|0,2:0|3:2,2:0:0:0:
439,175,64379,1,0,3:2:0:0:
439,175,64540,2,0,L|446:283,1,95.9999913482669,0|2,1:2|2:0,2:0:0:0:
478,58,64863,6,0,B|400:56|400:56|372:69|372:69|282:66,1,191.999982696534,6|0,3:1|1:2,2:0:0:0:
151,135,65346,1,2,2:0:0:0:
347,220,65508,2,0,L|198:226,1,143.9999870224,2|0,3:2|2:0,2:0:0:0:
171,227,65830,1,2,1:2:0:0:
128,19,65992,6,0,P|138:71|133:119,1,95.9999913482669,6|0,3:2|2:0,2:0:0:0:
41,234,66314,1,2,3:2:0:0:
40,73,66476,1,2,1:2:0:0:
203,225,66637,2,0,P|185:275|157:314,1,95.9999913482669,2|0,2:0|3:2,2:0:0:0:
41,234,66959,1,0,3:2:0:0:
231,137,67121,2,0,L|350:130,1,95.9999913482669,0|0,1:2|2:0,2:0:0:0:
450,264,67443,6,0,B|446:295|418:318|418:318|361:262|390:197,1,191.999982696534,6|2,3:1|1:2,2:0:0:0:
445,32,67927,2,0,L|460:141,1,95.9999913482669,2|0,2:0|3:2,2:0:0:0:
244,41,68250,2,0,L|229:150,1,95.9999913482669,2|0,3:2|1:2,2:0:0:0:
310,318,68572,6,0,B|267:288|267:288|121:313,1,191.999982696534,6|0,3:2|3:2,2:0:0:0:
17,151,69056,2,0,L|117:169,1,95.9999913482669,2|0,1:2|2:0,2:0:0:0:
237,312,69379,2,0,L|137:330,1,95.9999913482669,2|0,3:2|3:2,2:0:0:0:
12,126,69701,2,0,L|112:144,1,95.9999913482669,2|0,1:2|2:0,2:0:0:0:
315,158,70024,6,0,B|327:186|314:220|314:220|236:200|229:129,1,191.999982696534,6|2,3:1|1:2,2:0:0:0:
396,46,70508,1,2,3:2:0:0:
396,46,70588,1,2,3:2:0:0:
396,46,70669,1,2,3:2:0:0:
231,220,70830,1,2,3:2:0:0:
270,0,70992,1,2,1:2:0:0:
413,228,71153,6,0,P|423:285|428:351,1,103.999989040375,6|0,3:2|2:0,2:0:0:0:
253,203,71476,1,0,3:2:0:0:
451,141,71637,1,0,1:2:0:0:
184,29,71798,2,0,P|174:86|169:152,1,103.999989040375,0|0,3:2|2:0,2:0:0:0:
139,319,72121,1,0,3:2:0:0:
106,334,72201,1,8,2:3:0:0:
70,340,72282,1,8,2:3:0:0:
34,333,72363,1,8,2:3:0:0:
2,314,72443,2,0,L|10:259,1,51.9999945201877,8|8,2:3|2:3,2:0:0:0:
139,319,72605,6,0,B|176:288|176:288|321:313,1,191.999982696534,6|0,3:1|1:2,2:0:0:0:
486,354,73088,1,2,2:0:0:0:
340,148,73250,2,0,P|301:209|309:279,1,143.9999870224,2|0,3:2|2:0,2:0:0:0:
317,312,73572,1,2,1:2:0:0:
512,134,73734,6,0,L|404:141,1,95.9999913482669,6|0,3:2|2:0,2:0:0:0:
259,198,74056,1,2,3:2:0:0:
446,226,74217,1,2,1:2:0:0:
272,68,74379,2,0,L|380:75,1,95.9999913482669,2|0,2:0|3:2,2:0:0:0:
259,198,74701,1,2,3:2:0:0:
188,16,74863,1,2,1:2:0:0:
127,160,75024,1,2,2:0:0:0:
26,8,75185,6,0,B|3:73|3:73|23:150,1,143.9999870224,6|0,3:1|2:0,2:0:0:0:
33,177,75508,2,0,P|98:160|132:160,1,95.9999913482669,2|0,1:2|2:0,2:0:0:0:
246,315,75830,2,0,P|198:267|181:237,1,95.9999913482669,2|0,3:2|3:2,2:0:0:0:
281,105,76153,1,2,1:2:0:0:
396,289,76314,6,0,B|440:190|352:192|398:104,1,191.999982696534,6|2,3:2|3:2,2:0:0:0:
313,244,76798,1,2,1:2:0:0:
486,159,76959,1,6,3:3:0:0:
486,159,77040,1,4,3:3:0:0:
486,159,77121,2,0,P|505:216|501:276,1,95.9999913482669,4|0,3:2|2:0,2:0:0:0:
407,362,77443,1,6,2:0:0:0:
325,221,77605,1,2,1:2:0:0:
248,344,77766,6,0,L|149:339,1,95.9999913482669,6|0,3:1|2:0,2:0:0:0:
78,292,78008,2,0,L|73:193,1,95.9999913482669,2|0,2:0|2:0,2:0:0:0:
131,142,78250,2,0,L|141:28,1,95.9999913482669,2|0,2:0|3:2,2:0:0:0:
36,93,78572,1,2,3:2:0:0:
155,232,78734,1,0,1:2:0:0:
268,40,78895,6,0,B|245:77|245:77|272:225,1,191.999982696534,6|2,3:2|3:2,2:0:0:0:
461,277,79379,1,2,1:2:0:0:
461,277,79540,2,0,P|405:268|362:278,1,95.9999913482669,2|0,2:0|3:2,2:0:0:0:
145,322,79863,1,2,3:2:0:0:
257,330,80024,1,2,1:2:0:0:
271,223,80185,1,2,2:0:0:0:
72,216,80346,5,6,3:2:0:0:
257,330,80508,1,10,2:0:0:0:
97,207,80669,1,6,1:2:0:0:
294,192,80830,1,10,2:0:0:0:
163,100,80992,5,6,1:2:0:0:
145,322,81153,1,8,2:0:0:0:
179,78,81314,1,6,1:2:0:0:
261,306,81476,1,10,2:0:0:0:
351,115,81637,6,0,P|363:65|364:14,1,95.9999913482669,6|0,1:2|1:2,2:0:0:0:
364,20,81879,1,4,2:3:0:0:
364,20,81959,1,6,2:3:0:0:
481,150,82121,1,6,1:3:0:0:
333,360,82443,5,2,1:2:0:0:
198,57,82766,5,2,1:2:0:0:
95,154,82927,2,0,P|84:195|82:249,1,87.9999974403381,6|2,3:1|2:0,2:0:0:0:
266,270,83250,2,0,P|235:239|190:211,1,87.9999974403381,2|0,1:2|2:0,2:0:0:0:
80,360,83572,2,0,P|121:349|168:323,1,87.9999974403381,2|2,3:2|3:2,2:0:0:0:
198,186,83895,1,2,1:2:0:0:
329,345,84056,6,0,B|362:310|362:310|334:178,1,175.999994880676,6|2,3:2|3:2,2:0:0:0:
469,356,84540,1,2,1:2:0:0:
469,356,84701,2,0,L|447:247,1,87.9999974403381,2|0,2:0|3:2,2:0:0:0:
331,162,85024,1,2,3:2:0:0:
331,162,85104,1,2,3:2:0:0:
331,162,85185,1,2,1:2:0:0:
512,108,85346,1,2,2:0:0:0:
329,18,85508,6,0,L|232:12,1,87.9999974403381,6|0,3:2|2:0,2:0:0:0:
114,169,85830,2,0,L|211:163,1,87.9999974403381,0|2,1:2|2:0,2:0:0:0:
146,24,86153,1,2,3:2:0:0:
83,197,86314,1,2,3:2:0:0:
20,0,86475,1,2,1:2:0:0:
201,163,86637,6,0,B|233:248|159:246|202:335,1,175.999994880676,6|2,3:2|3:2,2:0:0:0:
307,182,87121,1,2,1:2:0:0:
411,359,87282,2,0,P|371:370|281:287,1,175.999994880676,6|2,3:2|3:2,2:0:0:0:
406,163,87766,1,2,1:2:0:0:
406,163,87927,1,0,2:0:0:0:
281,288,88088,5,6,3:1:0:0:
334,100,88250,1,2,2:0:0:0:
438,263,88411,1,2,1:2:0:0:
250,118,88572,2,0,P|200:110|153:112,1,87.9999974403381,6|0,3:2|2:0,2:0:0:0:
31,236,88895,5,2,3:2:0:0:
162,138,89056,1,2,1:2:0:0:
5,37,89217,2,0,P|-1:81|0:126,1,87.9999974403381,6|0,3:2|2:0,2:0:0:0:
162,138,89540,5,2,3:2:0:0:
29,238,89701,1,2,1:2:0:0:
205,307,89863,2,0,P|211:263|210:218,1,87.9999974403381,6|0,3:2|2:0,2:0:0:0:
99,368,90185,5,2,3:2:0:0:
170,109,90346,1,2,1:2:0:0:
291,380,90508,1,4,3:1:0:0:
256,192,90588,12,0,93250,3:2:0:0:
38,314,103088,6,0,L|40:288,2,15.9999990463257,8|8|2,2:3|2:3|2:3,2:0:0:0:
117,355,103411,2,0,L|117:384,1,15.9999990463257,8|8,2:3|2:3,2:0:0:0:
187,302,103572,6,0,L|257:308,1,63.9999961853028,2|0,3:2|2:0,2:0:0:0:
137,215,103895,2,0,L|67:221,1,63.9999961853028,2|0,3:2|2:0,2:0:0:0:
191,138,104217,1,2,3:2:0:0:
191,138,104379,1,2,2:0:0:0:
134,66,104540,1,2,3:2:0:0:
242,14,104701,6,0,L|389:27,2,127.999992370606,2|2|2,2:0|2:0|2:0,2:0:0:0:
242,14,105669,1,0,2:0:0:0:
154,42,105830,1,2,3:2:0:0:
18,87,105992,1,0,2:0:0:0:
106,115,106153,6,0,P|112:156|108:199,1,63.9999961853028,2|0,3:2|2:0,2:0:0:0:
209,238,106476,2,0,P|176:263|137:281,1,63.9999961853028,2|0,3:2|2:0,2:0:0:0:
52,256,106798,1,2,3:2:0:0:
52,256,106959,1,0,2:0:0:0:
106,115,107121,1,2,3:2:0:0:
161,300,107282,5,2,2:0:0:0:
161,300,107766,5,2,3:2:0:0:
246,305,107927,1,0,2:0:0:0:
334,312,108088,2,0,L|405:316,1,63.9999961853028,2|0,3:2|2:0,2:0:0:0:
246,305,108411,1,2,3:2:0:0:
297,226,108572,1,2,2:0:0:0:
228,88,108734,6,0,B|220:118|220:118|228:155,1,63.9999961853028,0|2,3:2|2:0,2:0:0:0:
352,154,109056,2,0,B|360:124|360:124|352:87,1,63.9999961853028,2|0,3:2|2:0,2:0:0:0:
296,15,109379,1,2,3:2:0:0:
296,15,109540,1,2,2:0:0:0:
228,88,109701,1,2,3:2:0:0:
103,0,109863,6,0,B|78:32|78:32|90:122,1,127.999992370606,2|0,2:0|2:0,2:0:0:0:
101,203,110346,1,2,3:2:0:0:
160,341,110669,1,2,3:2:0:0:
213,128,110992,1,2,3:2:0:0:
314,379,111314,6,0,P|342:332|331:257,2,127.999992370606,0|0|0,3:2|3:2|2:0,2:0:0:0:
270,192,112282,5,0,0:0:0:0:
270,192,112443,2,0,P|253:189|235:192,1,31.9999980926514,8|8,2:0|2:0,2:0:0:0:
172,250,112604,1,0,3:2:0:0:
333,261,112766,1,0,2:0:0:0:
151,133,112927,1,8,3:2:0:0:
151,133,113250,5,0,3:2:0:0:
181,273,113411,2,0,L|184:312,2,31.9999980926514,8|8|0,2:0|2:0|3:2,2:0:0:0:
238,100,113734,1,4,2:3:0:0:
356,287,113895,6,0,P|354:207|426:139,1,175.999994880676,4|2,3:1|1:2,2:0:0:0:
486,357,114379,2,0,B|396:318|399:397|316:358,1,175.999994880676,2|2,2:0|2:0,2:0:0:0:
209,200,114863,2,0,P|226:259|226:289,1,87.9999974403381,2|2,1:2|2:0,2:0:0:0:
125,377,115185,5,2,3:2:0:0:
96,202,115346,1,2,2:0:0:0:
230,311,115508,1,0,1:2:0:0:
37,288,115669,1,2,2:0:0:0:
37,288,115992,5,2,2:0:0:0:
96,202,116153,1,2,1:2:0:0:
18,77,116314,1,2,2:0:0:0:
172,145,116476,6,0,P|224:151|299:121,1,131.999996160507,2|0,3:2|2:0,2:0:0:0:
323,105,116798,2,0,P|375:99|450:129,1,131.999996160507,2|0,1:2|2:0,2:0:0:0:
460,153,117121,2,0,L|465:250,1,87.9999974403381,2|0,3:2|2:0,2:0:0:0:
295,326,117443,2,0,L|300:229,1,87.9999974403381,2|2,1:2|2:0,2:0:0:0:
390,367,117766,5,2,3:2:0:0:
218,265,117927,1,2,2:0:0:0:
429,239,118088,1,0,1:2:0:0:
204,292,118250,1,2,2:0:0:0:
204,292,118572,5,2,2:0:0:0:
239,184,118734,1,2,1:2:0:0:
178,52,118895,1,2,2:0:0:0:
340,32,119056,6,0,B|297:67|297:67|171:51,1,175.999994880676,6|2,3:1|1:2,2:0:0:0:
51,9,119540,1,2,2:0:0:0:
88,179,119701,1,2,3:2:0:0:
180,23,119863,1,2,2:0:0:0:
4,133,120024,2,0,P|-6:175|1:224,1,87.9999974403381,2|2,1:2|2:0,2:0:0:0:
150,267,120346,5,2,3:2:0:0:
150,267,120508,2,0,L|55:276,1,87.9999974403381,2|2,2:0|1:2,2:0:0:0:
262,384,120830,2,0,L|167:375,1,87.9999974403381,2|2,2:0|3:2,2:0:0:0:
271,227,121153,1,2,2:0:0:0:
290,371,121314,1,2,1:2:0:0:
361,191,121476,1,2,2:0:0:0:
470,373,121637,6,0,B|466:313|466:313|451:268|451:268|446:199,1,175.999994880676,2|2,3:2|1:2,2:0:0:0:
488,53,122121,1,0,2:0:0:0:
330,107,122282,1,2,3:2:0:0:
478,207,122443,1,2,2:0:0:0:
393,24,122605,1,2,1:2:0:0:
465,234,122766,1,2,2:0:0:0:
300,106,122927,5,2,3:2:0:0:
499,123,123088,1,2,2:0:0:0:
256,195,123250,1,2,1:2:0:0:
503,91,123411,2,0,P|511:40|511:-6,1,87.9999974403381,2|0,2:0|3:2,2:0:0:0:
343,181,123734,2,0,P|335:232|335:278,2,87.9999974403381,2|0|0,2:0|1:2|2:0,2:0:0:0:
279,25,124217,6,0,P|251:72|127:86,1,175.999994880676,6|2,3:1|1:2,2:0:0:0:
22,5,124701,1,2,2:0:0:0:
184,11,124863,1,2,3:2:0:0:
61,180,125024,1,2,2:0:0:0:
103,8,125185,1,2,1:2:0:0:
165,191,125346,1,2,2:0:0:0:
26,92,125508,5,2,3:2:0:0:
241,100,125669,2,0,L|349:95,1,87.9999974403381,2|0,2:0|1:2,2:0:0:0:
87,207,125992,2,0,L|-21:202,1,87.9999974403381,2|0,2:0|3:2,2:0:0:0:
226,267,126314,1,2,2:0:0:0:
124,115,126476,1,2,1:2:0:0:
95,298,126637,1,0,2:0:0:0:
273,164,126798,5,6,3:1:0:0:
24,217,126959,1,0,3:2:0:0:
303,154,127121,1,2,1:2:0:0:
211,345,127282,1,6,3:2:0:0:
99,28,127605,5,6,3:2:0:0:
406,206,127927,6,0,P|415:256|416:298,1,87.9999974403381,6|0,3:2|2:0,2:0:0:0:
273,164,128250,1,2,2:0:0:0:
273,164,128411,2,0,P|264:207|262:251,1,87.9999974403381,2|0,1:2|2:0,2:0:0:0:
419,64,128734,1,2,2:0:0:0:
419,64,128895,1,0,3:2:0:0:
232,78,129056,1,0,1:2:0:0:
205,77,129137,1,0,1:2:0:0:
178,76,129217,1,2,1:2:0:0:
151,76,129298,1,0,1:2:0:0:
124,76,129379,6,0,B|89:118|89:118|106:245,1,175.999994880676,4|0,3:1|1:2,2:0:0:0:
321,258,129863,1,2,2:0:0:0:
321,258,130024,2,0,B|302:206|302:206|183:157,1,175.999994880676,2|0,3:2|1:2,2:0:0:0:
237,351,130508,1,2,2:0:0:0:
421,363,130669,6,0,B|398:306|398:306|415:256|415:256|391:197,1,175.999994880676,0|0,3:2|1:2,2:0:0:0:
284,22,131153,1,2,2:0:0:0:
284,22,131314,2,0,B|261:79|261:79|278:129|278:129|254:188,1,175.999994880676,2|2,3:2|1:2,2:0:0:0:
172,301,131798,1,2,2:0:0:0:
112,127,131959,5,4,3:1:0:0:
196,280,132121,1,0,3:2:0:0:
196,280,132201,1,0,3:2:0:0:
196,280,132282,2,0,L|191:338,1,43.9999987201691,0|0,1:2|1:2,2:0:0:0:
265,159,132443,2,0,L|260:101,1,43.9999987201691,0|0,3:2|3:2,2:0:0:0:
288,317,132605,2,0,L|283:375,1,43.9999987201691,0|0,1:2|2:0,2:0:0:0:
357,196,132766,2,0,L|352:138,1,43.9999987201691,0|0,3:2|2:0,2:0:0:0:
390,305,132927,5,2,3:2:0:0:
177,181,133088,1,2,1:2:0:0:
470,89,133411,5,0,1:2:0:0:
74,20,133734,5,2,1:2:0:0:
74,20,133895,2,0,B|79:65|79:65|92:88|92:88|103:152,1,119.999992847443,2|2,1:2|2:0,2:0:0:0:
59,231,134540,6,0,B|150:276|149:189|242:250,1,191.999982696534,6|0,3:1|1:2,2:0:0:0:
123,342,135024,1,2,2:0:0:0:
307,173,135185,2,0,B|336:208|336:208|329:314,1,143.9999870224,2|0,3:2|2:0,2:0:0:0:
325,339,135508,1,2,1:2:0:0:
512,373,135669,6,0,L|500:268,1,95.9999913482669,6|0,3:2|2:0,2:0:0:0:
391,146,135992,1,2,3:2:0:0:
329,306,136153,1,2,1:2:0:0:
489,262,136314,2,0,L|501:157,1,95.9999913482669,2|0,2:0|3:2,2:0:0:0:
296,77,136637,1,0,3:2:0:0:
296,77,136798,2,0,L|308:182,1,95.9999913482669,0|2,1:2|2:0,2:0:0:0:
210,376,137121,6,0,P|226:293|136:240,1,191.999982696534,6|0,3:1|1:2,2:0:0:0:
87,357,137604,1,2,2:0:0:0:
16,171,137766,2,0,B|1:102|1:102|22:29,1,143.9999870224,2|0,3:2|2:0,2:0:0:0:
37,2,138088,1,2,1:2:0:0:
204,113,138250,6,0,L|88:101,1,95.9999913482669,6|0,3:2|2:0,2:0:0:0:
206,12,138572,1,2,3:2:0:0:
248,201,138734,1,2,1:2:0:0:
385,42,138895,2,0,L|269:54,1,95.9999913482669,2|0,2:0|3:2,2:0:0:0:
248,201,139217,1,0,3:2:0:0:
452,206,139379,2,0,P|464:152|446:110,1,95.9999913482669,0|0,1:2|2:0,2:0:0:0:
248,201,139701,6,0,B|251:234|286:244|286:244|352:189|290:121,1,191.999982696534,6|2,3:1|1:2,2:0:0:0:
133,234,140185,2,0,P|117:278|119:343,1,95.9999913482669,2|0,2:0|3:2,2:0:0:0:
18,75,140508,2,0,P|34:119|32:184,1,95.9999913482669,2|0,3:2|1:2,2:0:0:0:
159,12,140830,6,0,B|195:45|195:45|344:25,1,191.999982696534,6|0,3:2|3:2,2:0:0:0:
461,179,141314,2,0,P|467:131|459:84,1,95.9999913482669,2|0,1:2|2:0,2:0:0:0:
299,171,141637,2,0,P|292:218|300:265,1,95.9999913482669,2|0,3:2|3:2,2:0:0:0:
497,316,141959,2,0,L|401:307,1,95.9999913482669,2|0,1:2|2:0,2:0:0:0:
185,341,142282,6,0,B|213:374|213:374|205:212,1,191.999982696534,6|2,3:1|1:2,2:0:0:0:
110,145,142766,1,2,3:2:0:0:
110,145,142846,1,2,3:2:0:0:
110,145,142927,1,2,3:2:0:0:
73,327,143088,1,2,3:2:0:0:
232,207,143250,1,2,1:2:0:0:
14,192,143411,6,0,P|4:135|-1:69,1,103.999989040375,6|0,3:2|2:0,2:0:0:0:
96,240,143734,1,0,3:2:0:0:
155,58,143895,1,0,1:2:0:0:
251,231,144056,6,0,P|261:288|266:354,1,103.999989040375,0|0,3:2|2:0,2:0:0:0:
454,369,144379,1,0,3:2:0:0:
424,347,144459,1,8,2:3:0:0:
401,319,144540,1,8,2:3:0:0:
389,285,144621,1,8,2:3:0:0:
389,247,144701,2,0,L|440:226,1,47.9999956741335,8|8,2:3|2:3,2:0:0:0:
509,137,144863,6,0,B|429:137|429:137|387:153|387:153|316:155,1,191.999982696534,6|0,3:1|1:2,2:0:0:0:
206,211,145346,1,2,2:0:0:0:
118,2,145508,2,0,B|91:39|91:39|101:136,1,143.9999870224,2|0,3:2|2:0,2:0:0:0:
106,167,145830,1,2,1:2:0:0:
313,61,145992,6,0,L|215:66,1,95.9999913482669,6|0,3:2|2:0,2:0:0:0:
106,167,146314,1,2,3:2:0:0:
208,42,146475,1,2,1:2:0:0:
294,226,146637,2,0,L|392:231,1,95.9999913482669,2|0,2:0|3:2,2:0:0:0:
257,149,146959,1,2,3:2:0:0:
286,332,147121,1,2,1:2:0:0:
405,139,147282,1,2,2:0:0:0:
211,259,147443,6,0,B|170:260|142:276|142:276|109:258|70:268,1,143.9999870224,6|0,3:1|2:0,2:0:0:0:
39,287,147766,2,0,L|33:187,1,95.9999913482669,2|0,1:2|2:0,2:0:0:0:
154,62,148088,2,0,L|148:162,1,95.9999913482669,2|0,3:2|3:2,2:0:0:0:
18,4,148411,1,2,1:2:0:0:
175,78,148572,6,0,B|274:122|272:34|360:80,1,191.999982696534,6|2,3:2|3:2,2:0:0:0:
218,0,149056,1,2,1:2:0:0:
325,164,149217,1,6,3:3:0:0:
325,164,149298,1,4,3:3:0:0:
325,164,149379,2,0,L|332:264,1,95.9999913482669,4|0,3:2|2:0,2:0:0:0:
419,346,149701,1,6,2:0:0:0:
499,193,149863,1,2,1:2:0:0:
311,273,150024,6,0,P|259:279|217:269,1,95.9999913482669,6|0,3:1|2:0,2:0:0:0:
158,213,150266,2,0,P|106:207|64:217,1,95.9999913482669,2|0,2:0|2:0,2:0:0:0:
3,266,150508,2,0,L|13:380,1,95.9999913482669,2|0,2:0|3:2,2:0:0:0:
64,216,150830,1,2,3:2:0:0:
159,369,150992,1,0,1:2:0:0:
265,189,151153,6,0,B|258:44|258:44|228:86,1,191.999982696534,6|2,3:2|3:2,2:0:0:0:
158,213,151637,1,2,1:2:0:0:
349,137,151798,2,0,L|345:39,1,95.9999913482669,2|0,2:0|3:2,2:0:0:0:
265,189,152121,1,2,3:2:0:0:
230,82,152282,1,2,1:2:0:0:
257,217,152443,1,2,2:0:0:0:
150,93,152604,5,6,3:2:0:0:
111,288,152766,1,10,2:0:0:0:
246,108,152927,1,6,1:2:0:0:
285,303,153089,1,10,2:0:0:0:
71,151,153250,5,6,1:2:0:0:
349,240,153411,1,8,2:0:0:0:
111,288,153572,1,6,1:2:0:0:
230,82,153734,1,10,2:0:0:0:
349,240,153895,6,0,L|356:341,1,95.9999913482669,6|0,1:2|1:2,2:0:0:0:
355,335,154137,1,4,2:3:0:0:
355,335,154217,1,6,2:3:0:0:
403,152,154379,1,6,1:3:0:0:
111,288,154701,5,2,1:2:0:0:
96,1,155024,5,2,1:2:0:0:
154,105,155185,2,0,L|160:211,1,87.9999974403381,4|0,3:1|2:0,2:0:0:0:
217,13,155508,1,0,1:2:0:0:
77,175,155669,2,0,L|83:281,1,87.9999974403381,2|0,2:0|3:2,2:0:0:0:
154,105,155992,1,0,3:2:0:0:
216,283,156153,1,2,1:2:0:0:
285,64,156314,6,0,B|323:105|323:105|309:231,1,175.999994880676,6|0,3:2|3:2,2:0:0:0:
435,355,156798,2,0,P|407:309|403:267,1,87.9999974403381,2|0,1:2|2:0,2:0:0:0:
473,165,157121,1,2,3:2:0:0:
321,351,157282,1,2,3:2:0:0:
321,351,157443,2,0,L|226:353,1,87.9999974403381,0|0,1:2|2:0,2:0:0:0:
39,207,157766,6,0,P|111:250|109:334,1,175.999994880676,6|0,3:2|1:2,2:0:0:0:
182,162,158250,1,2,2:0:0:0:
182,162,158330,1,2,2:0:0:0:
182,162,158411,1,2,3:2:0:0:
233,352,158572,1,2,3:2:0:0:
157,137,158734,1,0,1:2:0:0:
365,236,158895,6,0,L|263:238,1,87.9999974403381,6|0,3:2|2:0,2:0:0:0:
157,137,159217,1,2,3:2:0:0:
307,156,159379,1,2,1:2:0:0:
121,44,159540,2,0,L|223:42,1,87.9999974403381,6|0,3:2|2:0,2:0:0:0:
307,156,159863,1,0,3:2:0:0:
157,137,160025,1,0,1:2:0:0:
347,20,160185,6,0,B|334:106|402:91|391:186,1,175.999994880676,6|0,3:2|3:2,2:0:0:0:
330,345,160669,2,0,P|337:293|327:256,1,87.9999974403381,0|0,1:2|2:0,2:0:0:0:
185,158,160992,1,0,3:2:0:0:
188,370,161153,1,2,2:0:0:0:
244,226,161314,1,2,1:2:0:0:
106,303,161476,2,0,P|64:317|17:322,1,87.9999974403381,2|0,2:0|3:2,2:0:0:0:
206,132,161798,2,0,P|249:140|292:160,1,87.9999974403381,2|0,2:0|1:2,2:0:0:0:
48,220,162121,2,0,P|34:178|29:131,1,87.9999974403381,2|0,2:0|3:2,2:0:0:0:
186,30,162443,1,2,2:0:0:0:
153,217,162605,1,0,1:2:0:0:
96,10,162766,1,0,2:0:0:0:
289,158,162927,6,0,B|310:141|319:116|319:116|361:161|337:240,1,175.999994880676,6|2,3:1|1:2,2:0:0:0:
238,350,163411,1,2,2:0:0:0:
238,350,163492,1,2,2:0:0:0:
238,350,163572,1,2,3:2:0:0:
366,226,163734,1,2,2:0:0:0:
156,296,163895,1,2,1:2:0:0:
359,371,164056,6,0,L|469:364,1,87.9999974403381,6|0,3:2|2:0,2:0:0:0:
200,149,164379,1,2,3:2:0:0:
398,239,164540,1,2,1:2:0:0:
156,296,164701,2,0,L|46:289,1,87.9999974403381,6|0,3:1|2:0,2:0:0:0:
9,112,165024,1,2,3:1:0:0:
200,149,165185,1,8,2:3:0:0:
208,123,165266,1,8,2:3:0:0:
210,96,165346,1,8,2:3:0:0:
206,69,165427,1,8,2:3:0:0:
195,43,165508,6,0,L|110:40,1,79.9999952316285,6|0,3:1|2:0,2:0:0:0:
279,146,165830,1,2,1:2:0:0:
279,146,165992,2,0,L|194:149,1,79.9999952316285,2|0,2:0|3:2,2:0:0:0:
372,19,166314,2,0,L|287:16,1,79.9999952316285,2|0,2:0|1:2,2:0:0:0:
299,160,166637,1,2,2:0:0:0:
396,37,166798,5,2,3:2:0:0:
430,195,166959,1,2,2:0:0:0:
386,60,167121,1,2,1:2:0:0:
346,231,167282,2,0,P|361:277|381:310,1,79.9999952316285,2|0,2:0|3:2,2:0:0:0:
512,241,167605,2,0,P|464:230|426:231,1,79.9999952316285,2|0,2:0|1:2,2:0:0:0:
362,334,167927,1,2,2:0:0:0:
241,224,168088,5,2,3:2:0:0:
290,371,168250,1,2,2:0:0:0:
268,238,168411,1,2,1:2:0:0:
175,355,168572,2,0,L|68:345,1,79.9999952316285,2|0,2:0|3:2,2:0:0:0:
8,228,168895,2,0,L|115:218,1,79.9999952316285,2|0,2:0|1:2,2:0:0:0:
241,224,169217,1,2,2:0:0:0:
109,0,169379,6,0,B|96:28|96:28|98:129,1,119.999992847443,6|0,3:1|2:0,2:0:0:0:
101,146,169701,2,0,P|154:156|181:155,1,79.9999952316285,2|2,1:2|2:0,2:0:0:0:
413,70,170024,2,0,B|385:57|385:57|284:59,1,119.999992847443,4|0,3:1|2:0,2:0:0:0:
267,62,170346,2,0,P|257:115|258:142,1,79.9999952316285,0|2,1:2|2:0,2:0:0:0:
410,262,170669,5,6,3:1:0:0:
344,150,170830,1,2,2:0:0:0:
317,312,170992,1,2,1:2:0:0:
438,181,171153,2,0,P|486:164|519:156,1,79.9999952316285,2|0,2:0|3:2,2:0:0:0:
274,231,171476,2,0,P|226:214|193:206,1,79.9999952316285,2|0,2:0|1:2,2:0:0:0:
317,312,171798,1,2,2:0:0:0:
155,372,171959,5,2,3:2:0:0:
197,207,172121,1,2,2:0:0:0:
261,378,172282,1,2,1:2:0:0:
97,282,172443,2,0,P|42:275|4:276,1,79.9999952316285,2|0,2:0|3:2,2:0:0:0:
197,207,172766,2,0,P|252:200|290:201,1,79.9999952316285,2|0,2:0|1:2,2:0:0:0:
92,133,173088,1,2,2:0:0:0:
204,240,173250,5,2,3:2:0:0:
202,101,173411,1,2,2:0:0:0:
67,159,173573,1,2,1:2:0:0:
147,39,173734,2,0,P|181:20|232:24,1,79.9999952316285,2|0,2:0|3:2,2:0:0:0:
334,129,174056,1,2,2:0:0:0:
334,129,174217,2,0,P|300:109|278:62,1,79.9999952316285,2|2,1:2|2:0,2:0:0:0:
446,41,174540,6,0,L|343:46,1,79.9999952316285,0|0,3:2|2:0,2:0:0:0:
236,152,174863,2,0,L|339:157,1,79.9999952316285,0|0,1:2|2:0,2:0:0:0:
458,207,175185,2,0,P|472:254|467:289,1,79.9999952316285,2|0,3:2|2:0,2:0:0:0:
423,349,175427,2,0,P|376:363|341:358,1,79.9999952316285,2|0,2:0|1:2,2:0:0:0:
284,315,175669,2,0,P|270:308|235:308,1,39.9999976158142,4|0,2:3|2:0,2:0:0:0:
185,360,175830,6,0,B|206:318|206:318|173:209,1,159.999990463257,6|2,3:1|1:2,2:0:0:0:
26,131,176314,2,0,P|15:169|20:208,1,79.9999952316285,2|0,2:0|3:2,2:0:0:0:
189,190,176637,2,0,P|200:151|195:112,1,79.9999952316285,2|0,3:2|1:2,2:0:0:0:
18,12,176959,6,0,P|62:48|163:40,1,159.999990463257,6|0,3:2|3:2,2:0:0:0:
318,12,177443,2,0,P|307:54|306:104,1,79.9999952316285,0|0,1:2|3:2,2:0:0:0:
305,90,177685,1,0,3:2:0:0:
305,90,177766,5,2,3:2:0:0:
496,164,178008,5,2,2:0:0:0:
327,240,178250,5,2,2:0:0:0:
399,303,178411,2,0,B|373:285|373:285|282:310,1,119.999992847443,6|0,3:2|2:0,2:0:0:0:
259,319,178734,2,0,P|231:276|225:234,1,79.9999952316285,2|2,1:2|2:0,2:0:0:0:
175,72,179056,1,0,3:2:0:0:
123,255,179217,1,2,3:2:0:0:
10,129,179379,1,0,1:2:0:0:
225,167,179540,6,0,P|281:158|327:136,1,79.9999952316285,6|0,3:2|2:0,2:0:0:0:
397,0,179863,1,0,3:2:0:0:
397,0,180024,2,0,P|376:52|372:104,1,79.9999952316285,0|4,1:2|2:3,2:0:0:0:
372,75,180266,1,4,2:3:0:0:
372,75,180346,1,4,2:0:0:0:
479,342,180669,5,4,2:0:0:0:
410,288,180830,1,4,2:3:0:0:
410,288,180911,1,4,2:3:0:0:
410,288,180992,2,0,L|341:293,1,63.9999961853028,4|0,2:0|2:0,2:0:0:0:
269,356,181314,2,0,L|200:351,1,63.9999961853028,2|2,3:2|3:2,2:0:0:0:
65,228,181637,1,2,3:2:0:0:
91,335,181798,1,2,3:2:0:0:
190,159,181959,1,2,3:2:0:0:
164,266,182120,1,2,3:2:0:0:
103,128,182282,6,0,P|56:123|21:126,1,71.9999935112002,2|2,3:2|3:2,2:0:0:0:
200,64,182605,2,0,P|180:20|160:-8,1,71.9999935112002,2|2,3:2|3:2,2:0:0:0:
289,140,182927,1,2,3:2:0:0:
333,29,183088,1,2,3:2:0:0:
419,228,183250,1,2,3:2:0:0:
375,117,183411,1,2,3:2:0:0:
323,263,183572,6,0,L|318:353,1,79.9999952316285,2|2,3:2|3:2,2:0:0:0:
472,145,183895,2,0,L|467:55,1,79.9999952316285,2|2,3:2|3:2,2:0:0:0:
266,164,184217,1,10,3:2:0:0:
419,228,184379,1,10,3:2:0:0:
232,184,184540,1,2,3:2:0:0:
395,95,184701,1,10,3:2:0:0:
323,263,184863,6,0,L|318:353,1,87.9999974403381,10|10,3:2|3:2,2:0:0:0:
124,201,185185,2,0,L|129:291,1,87.9999974403381,10|10,3:2|3:2,2:0:0:0:
395,95,185508,2,0,L|390:185,1,87.9999974403381,10|10,3:2|3:2,2:0:0:0:
125,32,185830,1,10,3:2:0:0:
148,183,185992,1,10,3:2:0:0:
321,38,186153,6,0,P|253:41|218:110,1,143.9999870224,4|0,3:1|2:0,2:0:0:0:
229,136,186476,2,0,P|241:196|232:238,1,95.9999913482669,10|10,3:1|3:1,2:0:0:0:
129,321,186798,5,10,3:1:0:0:
279,320,186959,1,10,3:1:0:0:
108,232,187121,5,10,3:1:0:0:
263,342,187282,1,10,3:1:0:0:
161,148,187443,5,10,3:1:0:0:
245,362,187605,1,10,3:1:0:0:
257,108,187766,5,10,3:1:0:0:
120,343,187927,1,10,3:1:0:0:
345,184,188088,5,10,3:1:0:0:
64,267,188250,1,10,3:1:0:0:
386,280,188411,5,10,3:1:0:0:
23,175,188572,1,10,3:1:0:0:
259,5,188734,6,0,P|271:56|261:101,1,95.9999913482669,4|0,3:2|3:2,2:0:0:0:
239,121,188976,1,0,3:2:0:0:
239,121,189056,2,0,L|176:112,1,47.9999956741335,8|0,2:0|2:0,2:0:0:0:
367,48,189217,1,0,3:2:0:0:
367,48,189298,1,0,3:2:0:0:
367,48,189379,2,0,L|421:42,1,47.9999956741335,8|8,2:3|2:3,2:0:0:0:
297,214,189540,2,0,L|234:205,1,47.9999956741335,8|8,2:3|2:3,2:0:0:0:
415,130,189701,5,4,2:3:0:0:
335,319,189863,1,4,2:0:0:0:
348,343,190185,5,8,2:0:0:0:
237,78,190346,1,8,2:0:0:0:
237,78,193088,6,0,P|252:108|205:153,1,107.9999902668,2|0,2:0|2:0,2:0:0:0:
179,138,193895,6,0,B|230:94|230:94|384:142,1,223.999979812623,6|0,3:1|1:2,2:0:0:0:
452,313,194379,1,2,2:0:0:0:
255,317,194540,2,0,P|220:254|291:229,1,167.999984859467,2|0,3:2|2:0,2:0:0:0:
313,248,194863,1,2,1:2:0:0:
163,357,195024,6,0,P|131:296|133:248,1,111.999989906311,6|0,3:2|2:0,2:0:0:0:
187,63,195346,1,2,3:2:0:0:
187,63,195508,2,0,P|196:131|177:175,1,111.999989906311,2|2,1:2|2:0,2:0:0:0:
40,209,195830,1,0,3:2:0:0:
103,49,195992,1,0,3:2:0:0:
213,253,196153,2,0,L|330:258,1,111.999989906311,0|2,1:2|2:0,2:0:0:0:
407,106,196476,6,0,B|404:195|404:195|419:227|419:227|416:330,1,223.999979812623,6|0,3:1|1:2,2:0:0:0:
496,154,196959,1,2,2:0:0:0:
324,257,197121,2,0,B|291:283|291:283|300:153,1,167.999984859467,2|0,3:2|2:0,2:0:0:0:
303,124,197443,1,2,1:2:0:0:
194,287,197605,6,0,P|148:301|86:287,1,111.999989906311,6|0,3:2|2:0,2:0:0:0:
49,136,197927,1,2,3:2:0:0:
228,206,198089,1,2,1:2:0:0:
53,370,198250,2,0,P|17:337|-1:276,1,111.999989906311,2|0,2:0|3:2,2:0:0:0:
74,120,198572,1,0,3:2:0:0:
194,287,198734,2,0,L|313:280,1,111.999989906311,0|0,1:2|2:0,2:0:0:0:
450,150,199056,6,0,B|487:222|444:298|444:298|406:283|391:252,1,223.999979812623,6|2,3:1|1:2,2:0:0:0:
301,88,199540,2,0,P|248:73|185:87,1,111.999989906311,2|0,2:0|3:2,2:0:0:0:
88,238,199863,2,0,P|127:199|146:138,1,111.999989906311,2|0,3:2|1:2,2:0:0:0:
12,0,200185,6,0,B|-21:48|-21:48|7:211,1,223.999979812623,6|0,3:2|3:2,2:0:0:0:
173,320,200669,2,0,P|189:268|172:214,1,111.999989906311,2|0,1:2|2:0,2:0:0:0:
7,211,200992,2,0,P|44:250|99:263,1,111.999989906311,2|0,3:2|3:2,2:0:0:0:
284,123,201314,2,0,L|167:127,1,111.999989906311,2|0,1:2|2:0,2:0:0:0:
317,300,201637,6,0,B|334:324|361:327|361:327|414:239|363:164,1,223.999979812623,6|2,3:1|1:2,2:0:0:0:
208,49,202121,1,2,3:2:0:0:
208,49,202201,1,2,3:2:0:0:
208,49,202282,1,2,3:2:0:0:
282,216,202443,1,2,3:2:0:0:
348,6,202605,1,2,1:2:0:0:
472,192,202766,6,0,L|481:310,1,111.999989906311,6|0,3:2|2:0,2:0:0:0:
364,138,203089,1,0,3:2:0:0:
317,300,203250,1,0,1:2:0:0:
177,135,203411,2,0,L|186:17,1,111.999989906311,4|0,3:2|2:0,2:0:0:0:
21,149,203734,1,0,3:2:0:0:
6,182,203814,1,8,2:3:0:0:
0,218,203895,1,8,2:3:0:0:
7,254,203976,1,8,2:3:0:0:
26,286,204056,2,0,L|81:278,1,55.9999949531557,8|8,2:3|2:3,2:0:0:0:
236,208,204217,6,0,P|164:260|201:375,1,223.999979812623,6|0,3:1|1:2,2:0:0:0:
324,205,204701,1,2,2:0:0:0:
469,384,204863,2,0,P|477:329|475:260,1,111.999989906311,2|0,3:2|3:2,2:0:0:0:
324,205,205185,1,2,1:2:0:0:
512,124,205347,6,0,L|392:131,1,111.999989906311,6|0,3:2|2:0,2:0:0:0:
236,208,205669,1,2,3:2:0:0:
378,133,205830,1,2,1:2:0:0:
188,40,205992,2,0,L|68:33,1,111.999989906311,2|0,2:0|3:2,2:0:0:0:
236,208,206314,1,2,3:2:0:0:
79,153,206476,1,2,1:2:0:0:
275,109,206637,1,2,2:0:0:0:
143,289,206798,6,0,B|180:323|180:323|308:307,1,167.999984859467,6|0,3:1|2:0,2:0:0:0:
333,303,207121,2,0,L|322:187,1,111.999989906311,2|0,1:2|2:0,2:0:0:0:
512,82,207443,2,0,L|501:198,1,111.999989906311,2|0,3:2|3:2,2:0:0:0:
333,303,207766,1,2,1:2:0:0:
242,69,207927,6,0,P|288:140|185:217,1,223.999979812623,6|2,3:2|3:2,2:0:0:0:
121,49,208411,1,2,1:2:0:0:
356,59,208572,1,6,3:3:0:0:
356,59,208653,1,4,3:3:0:0:
356,59,208734,2,0,P|375:116|371:177,1,111.999989906311,4|0,3:2|2:0,2:0:0:0:
310,331,209056,1,6,2:0:0:0:
353,177,209218,1,2,1:2:0:0:
512,335,209379,6,0,P|461:350|401:333,1,111.999989906311,6|0,3:1|2:0,2:0:0:0:
362,264,209621,2,0,P|311:249|251:266,1,111.999989906311,2|0,2:0|2:0,2:0:0:0:
211,326,209863,2,0,L|221:212,1,111.999989906311,2|0,2:0|3:2,2:0:0:0:
161,74,210185,1,2,3:2:0:0:
69,221,210347,1,0,1:2:0:0:
6,12,210508,6,0,B|93:4|93:4|122:33|122:33|221:23,1,223.999979812623,6|2,3:2|3:2,2:0:0:0:
414,117,210992,1,2,1:2:0:0:
414,117,211153,2,0,L|294:107,1,111.999989906311,2|0,2:0|3:2,2:0:0:0:
193,250,211476,1,2,3:2:0:0:
259,195,211637,1,2,1:2:0:0:
330,247,211798,1,2,2:0:0:0:
177,154,211959,5,6,3:2:0:0:
254,339,212121,1,10,2:0:0:0:
252,124,212282,1,6,1:2:0:0:
169,333,212443,1,10,2:0:0:0:
249,100,212605,5,6,1:2:0:0:
341,367,212766,1,8,2:0:0:0:
97,264,212927,1,6,1:2:0:0:
397,160,213089,1,10,2:0:0:0:
256,384,213250,6,0,L|256:256,1,111.999989906311,6|0,1:2|1:2,2:0:0:0:
256,238,213492,1,4,2:3:0:0:
256,204,213572,1,6,2:3:0:0:
350,74,213734,1,6,1:3:0:0:
454,380,214056,5,2,1:2:0:0:
198,57,214379,5,2,1:2:0:0:
129,142,214540,2,0,P|125:187|124:236,1,87.9999974403381,6|2,3:1|2:0,2:0:0:0:
0,88,214863,2,0,P|4:43|5:-6,1,87.9999974403381,2|0,1:2|2:0,2:0:0:0:
148,164,215185,2,0,P|144:209|143:258,1,87.9999974403381,2|2,3:2|3:2,2:0:0:0:
11,111,215508,1,2,1:2:0:0:
216,39,215669,6,0,B|292:26|291:97|379:88,1,175.999994880676,6|2,3:2|3:2,2:0:0:0:
510,0,216153,1,2,1:2:0:0:
397,110,216314,2,0,L|396:215,1,87.9999974403381,2|0,2:0|3:2,2:0:0:0:
437,363,216637,1,2,3:2:0:0:
437,363,216717,1,2,3:2:0:0:
437,363,216798,1,2,1:2:0:0:
502,183,216959,1,2,2:0:0:0:
353,316,217121,6,0,P|304:323|265:311,1,87.9999974403381,6|0,3:2|2:0,2:0:0:0:
187,151,217443,2,0,P|217:189|226:229,1,87.9999974403381,0|2,1:2|2:0,2:0:0:0:
56,363,217766,1,2,3:2:0:0:
137,226,217927,1,2,3:2:0:0:
217,382,218088,1,2,1:2:0:0:
32,255,218250,6,0,B|36:184|36:184|52:157|52:157|56:82,1,175.999994880676,6|2,3:2|3:2,2:0:0:0:
137,226,218734,1,2,1:2:0:0:
245,52,218895,2,0,P|200:115|269:186,1,175.999994880676,6|2,3:2|3:2,2:0:0:0:
409,60,219379,1,2,1:2:0:0:
409,60,219540,1,0,2:0:0:0:
456,211,219701,5,6,3:1:0:0:
325,134,219863,1,2,2:0:0:0:
481,233,220024,1,2,1:2:0:0:
319,321,220185,2,0,L|217:314,1,87.9999974403381,6|0,3:2|2:0,2:0:0:0:
155,181,220508,5,2,3:2:0:0:
48,332,220669,1,2,1:2:0:0:
170,163,220830,2,0,P|180:119|179:74,1,87.9999974403381,6|0,3:2|2:0,2:0:0:0:
50,222,221153,5,2,3:2:0:0:
280,231,221314,1,2,1:2:0:0:
23,210,221476,2,0,L|18:121,1,87.9999974403381,6|0,3:2|2:0,2:0:0:0:
116,6,221798,5,2,3:2:0:0:
131,260,221959,1,2,1:2:0:0:
256,0,222121,1,4,3:1:0:0:
256,0,222766,6,0,L|259:56,1,43.9999987201691,8|8,2:3|2:3,2:0:0:0:
303,145,222927,2,0,L|298:234,2,79.9999952316285,8|8|4,2:3|2:3|2:3,2:0:0:0:
369,21,223579,5,4,2:0:0:0:
433,188,224231,1,4,2:0:0:0:
497,355,224869,1,4,2:1:0:0:
256,192,224975,12,0,229975,2:0:0:0:
